osu file format v14

[General]
AudioFilename: hime hime.mp3
AudioLeadIn: 0
PreviewTime: 156909
Countdown: 0
SampleSet: Soft
StackLeniency: 0.2
Mode: 0
LetterboxInBreaks: 0
WidescreenStoryboard: 1

[Editor]
Bookmarks: 39609,49209,92409,100809,111609,121209,130809,140409,150009,159609,174009,212409,232809,242409,252009,261609,271209,280809,290409,300009,304284,309609,319209,328809,338409,348009,357609,367209,376809,386409,396009,405609,415209,443709,446108,504108,524108,544108,565108,584608
DistanceSpacing: 1.3
BeatDivisor: 4
GridSize: 4
TimelineZoom: 2.1

[Metadata]
Title:osu!favourites
TitleUnicode:osu!favourites
Artist:SakiZ
ArtistUnicode:SakiZ
Creator:Linada
Version:Marathon
Source:
Tags:PoNo Ponoyoshi Song Compilation Cold Green Eyes Senketsu Chikai Kira Holdin Dopamine TSUBAKI HELIX Pretender Gold Dust Nippon Egao Hyakkei Asymmetry Miraizu Kimi Shiranai Monogatari Dark Flight Dreamer Exit This Earth's Atomosphere Odoru Mizushibuki Tower Heaven Mythologia's End Kokuhaku Rival Sengen Daidai Genome Rubik's Cube Zen Zense Loading Caffeine Fighter Arousing Hime Blade Dance Stella-rium Sakura Uta Deconstruction Star Kikoku Doukoku Jigokuraku Notch Hell Scarlet Rose Shukusai Elementalia Remote Control Tengaku Defenders Inferno Road Resistance koi pettanko Reol Camellia Hatsune Miku Halozy DragonForce Station Earth Yousei Teikoku See MONSTAS Skrillex Nero U1 overground Ocelot ESTi Infected Mushroom DJ Fresh MomoKuro-tei Ichimon HoneyWorks supercell Akiyama Uni Ayase Rie sana Tsunamaru RADWIMPS Syaro Uchida Maaya TOTTO Sunao Yoshikawa Ni-Sokkususu Kano Hana Lily kradness Wagakki Band Imperial Circus Dead Decadence 9mm Parabellum Bullet BABYMETAL
BeatmapID:1839521
BeatmapSetID:593478

[Difficulty]
HPDrainRate:4.5
CircleSize:4.5
OverallDifficulty:9.4
ApproachRate:9.5
SliderMultiplier:1.65
SliderTickRate:1

[Events]
//Background and Video events
0,0,"fav.png",0,0
//Break Periods
2,425009,427884
//Storyboard Layer 0 (Background)
//Storyboard Layer 1 (Fail)
//Storyboard Layer 2 (Pass)
//Storyboard Layer 3 (Foreground)
//Storyboard Layer 4 (Overlay)
//Storyboard Sound Samples

[TimingPoints]
1209,300,4,2,1,40,1,0
20409,-285.714285714284,4,2,1,40,0,0
30609,-133.333333333333,4,2,1,40,0,0
31209,-200,4,2,1,40,0,0
31959,-400,4,2,1,40,0,0
33609,-200,4,2,1,40,0,0
39609,-100,4,2,1,40,0,0
48909,-58.8235294117647,4,2,1,50,0,0
49209,-100,4,2,1,50,0,0
53409,-133.333333333333,4,2,1,50,0,0
53709,-100,4,2,1,50,0,0
58209,-133.333333333333,4,2,1,50,0,0
58509,-100,4,2,1,60,0,0
61209,-90.9090909090909,4,2,1,60,0,0
61809,-83.3333333333333,4,2,1,60,0,0
62109,-76.9230769230769,4,2,1,60,0,0
63609,-100,4,2,1,60,0,0
78009,-333.333333333333,4,2,1,40,0,0
80409,-200,4,2,1,40,0,0
81609,-100,4,2,1,60,0,0
82809,-200,4,2,1,60,0,0
83709,-133.333333333333,4,2,1,60,0,0
84009,-200,4,2,1,60,0,0
84909,-133.333333333333,4,2,1,60,0,0
85209,-133.333333333333,4,2,1,60,0,0
86409,-100,4,2,1,60,0,0
91209,-66.6666666666667,4,2,1,60,0,0
92409,-83.3333333333333,4,2,1,60,0,0
93009,-66.6666666666667,4,2,1,60,0,0
93084,-66.6666666666667,4,2,1,5,0,0
93159,-100,4,2,1,60,0,0
93234,-100,4,2,1,5,0,0
93309,-100,4,2,1,60,0,0
93384,-100,4,2,1,5,0,0
93459,-100,4,2,1,60,0,0
93534,-100,4,2,1,5,0,0
93609,-100,4,2,1,60,0,0
93759,-66.6666666666667,4,2,1,60,0,0
93834,-66.6666666666667,4,2,1,5,0,0
93909,-100,4,2,1,60,0,0
93984,-100,4,2,1,5,0,0
94059,-100,4,2,1,60,0,0
94134,-100,4,2,1,5,0,0
94209,-66.6666666666667,4,2,1,60,0,0
94284,-66.6666666666667,4,2,1,5,0,0
94359,-100,4,2,1,60,0,0
94434,-100,4,2,1,5,0,0
94509,-100,4,2,1,60,0,0
95109,-133.333333333333,4,2,1,60,0,0
95409,-66.6666666666667,4,2,1,60,0,0
95484,-66.6666666666667,4,2,1,5,0,0
95559,-100,4,2,1,60,0,0
95784,-100,4,2,1,5,0,0
95859,-100,4,2,1,60,0,0
95934,-100,4,2,1,5,0,0
96009,-100,4,2,1,60,0,0
96159,-76.9230769230769,4,2,1,60,0,0
96234,-76.9230769230769,4,2,1,5,0,0
96309,-100,4,2,1,60,0,0
96384,-100,4,2,1,5,0,0
96459,-100,4,2,1,60,0,0
96534,-100,4,2,1,5,0,0
96609,-76.9230769230769,4,2,1,60,0,0
96684,-76.9230769230769,4,2,1,5,0,0
96759,-76.9230769230769,4,2,1,60,0,0
96834,-76.9230769230769,4,2,1,5,0,0
96909,-100,4,2,1,60,0,0
97509,-133.333333333333,4,2,1,60,0,0
97809,-66.6666666666667,4,2,1,60,0,0
97884,-66.6666666666667,4,2,1,5,0,0
97959,-100,4,2,1,60,0,0
98034,-100,4,2,1,5,0,0
98109,-100,4,2,1,60,0,0
98184,-100,4,2,1,5,0,0
98259,-100,4,2,1,60,0,0
98334,-100,4,2,1,5,0,0
98409,-100,4,2,1,60,0,0
98559,-66.6666666666667,4,2,1,60,0,0
98634,-66.6666666666667,4,2,1,5,0,0
98709,-100,4,2,1,60,0,0
98784,-100,4,2,1,5,0,0
98859,-100,4,2,1,60,0,0
98934,-100,4,2,1,5,0,0
99009,-66.6666666666667,4,2,1,60,0,0
99084,-66.6666666666667,4,2,1,5,0,0
99159,-100,4,2,1,60,0,0
99234,-100,4,2,1,5,0,0
99309,-100,4,2,1,60,0,0
99909,-133.333333333333,4,2,1,60,0,0
100209,-66.6666666666667,4,2,1,60,0,0
100284,-66.6666666666667,4,2,1,5,0,0
100359,-100,4,2,1,60,0,0
100584,-100,4,2,1,5,0,0
100659,-100,4,2,1,60,0,0
100734,-100,4,2,1,5,0,0
100809,-100,4,2,1,60,0,0
102009,-83.3333333333333,4,2,2,60,0,0
102609,-66.6666666666667,4,2,2,60,0,0
103209,-83.3333333333333,4,2,2,60,0,0
105009,-66.6666666666667,4,2,2,60,0,0
106209,-83.3333333333333,4,2,2,60,0,0
107409,-66.6666666666667,4,2,2,60,0,0
108009,-83.3333333333333,4,2,2,60,0,0
109809,-66.6666666666667,4,2,2,60,0,0
110409,-83.3333333333333,4,2,2,60,0,0
111609,-100,4,2,1,60,0,0
112209,-62.5,4,2,1,60,0,0
113709,-83.3333333333333,4,2,1,60,0,0
114009,-181.818181818181,4,2,1,60,0,0
114609,-62.5,4,2,1,60,0,0
114909,-100,4,2,1,60,0,0
115809,-142.857142857143,4,2,1,60,0,0
116409,-133.333333333333,4,2,1,60,0,0
116934,-133.333333333333,4,2,1,5,0,0
117009,-133.333333333333,4,2,1,60,0,0
117909,-100,4,2,1,60,0,0
118209,-100,4,2,1,60,0,0
118809,-62.5,4,2,1,60,0,0
119409,-133.333333333333,4,2,1,60,0,0
119559,-181.818181818181,4,2,1,50,0,0
119709,-285.714285714284,4,2,1,40,0,0
119859,-666.666666666658,4,2,1,30,0,0
120009,-100,4,2,1,60,0,0
120609,-66.6666666666667,4,2,1,60,0,0
121209,-100,4,2,1,60,0,0
121659,-66.6666666666667,4,2,1,60,0,0
121734,-66.6666666666667,4,2,1,5,0,0
121809,-100,4,2,1,60,0,0
121884,-100,4,2,1,5,0,0
121959,-66.6666666666667,4,2,1,60,0,0
122034,-66.6666666666667,4,2,1,5,0,0
122109,-100,4,2,1,60,0,0
122184,-100,4,2,1,5,0,0
122259,-100,4,2,1,60,0,0
122484,-100,4,2,1,5,0,0
122559,-100,4,2,1,60,0,0
122634,-100,4,2,1,5,0,0
122709,-66.6666666666667,4,2,1,60,0,0
122784,-66.6666666666667,4,2,1,5,0,0
122859,-66.6666666666667,4,2,1,60,0,0
122934,-66.6666666666667,4,2,1,5,0,0
123009,-100,4,2,1,60,0,0
124059,-66.6666666666667,4,2,1,60,0,0
124134,-66.6666666666667,4,2,1,5,0,0
124209,-100,4,2,1,60,0,0
124284,-100,4,2,1,5,0,0
124359,-66.6666666666667,4,2,1,60,0,0
124434,-66.6666666666667,4,2,1,5,0,0
124509,-100,4,2,1,60,0,0
124584,-100,4,2,1,5,0,0
124659,-100,4,2,1,60,0,0
124809,-66.6666666666667,4,2,1,60,0,0
124884,-66.6666666666667,4,2,1,5,0,0
124959,-66.6666666666667,4,2,1,60,0,0
125034,-66.6666666666667,4,2,1,5,0,0
125109,-100,4,2,1,60,0,0
125184,-100,4,2,1,5,0,0
125259,-100,4,2,1,60,0,0
125334,-100,4,2,1,5,0,0
125409,-100,4,2,1,60,0,0
126609,-66.6666666666667,4,2,1,60,0,0
126684,-66.6666666666667,4,2,1,5,0,0
126759,-66.6666666666667,4,2,1,60,0,0
126834,-66.6666666666667,4,2,1,5,0,0
126909,-66.6666666666667,4,2,1,60,0,0
127209,-100,4,2,1,60,0,0
127284,-100,4,2,1,5,0,0
127359,-100,4,2,1,60,0,0
127434,-100,4,2,1,5,0,0
127509,-66.6666666666667,4,2,1,60,0,0
127584,-66.6666666666667,4,2,1,5,0,0
127659,-66.6666666666667,4,2,1,60,0,0
127734,-66.6666666666667,4,2,1,5,0,0
127809,-66.6666666666667,4,2,1,60,0,0
128109,-100,4,2,1,60,0,0
128859,-66.6666666666667,4,2,1,60,0,0
128934,-66.6666666666667,4,2,1,5,0,0
129009,-66.6666666666667,4,2,1,60,0,0
129084,-66.6666666666667,4,2,1,5,0,0
129159,-100,4,2,1,60,0,0
129234,-100,4,2,1,5,0,0
129309,-100,4,2,1,60,0,0
129384,-100,4,2,1,5,0,0
129459,-66.6666666666667,4,2,1,60,0,0
130809,-100,4,2,1,60,0,0
172209,-83.3333333333333,4,2,1,60,0,0
172809,-100,4,2,1,60,0,0
173709,-100,4,2,2,60,0,0
174009,-500,4,2,1,60,0,0
174084,-500,4,2,1,20,0,0
178809,-333.333333333333,4,2,1,20,0,0
182109,-100,4,2,1,20,0,0
183609,-333.333333333333,4,2,1,20,0,0
192759,-333.333333333333,4,2,1,5,0,0
192909,-100,4,2,1,60,0,0
197559,-100,4,2,1,60,0,0
197634,-100,4,2,1,5,0,0
197709,-100,4,2,1,60,0,0
197784,-100,4,2,1,5,0,0
197859,-100,4,2,1,60,0,0
197934,-100,4,2,1,5,0,0
198009,-100,4,2,1,60,0,0
199959,-100,4,2,1,60,0,0
200034,-100,4,2,1,5,0,0
200109,-100,4,2,1,60,0,0
200184,-100,4,2,1,5,0,0
200259,-100,4,2,1,60,0,0
200334,-100,4,2,1,5,0,0
200409,-100,4,2,1,60,0,0
210459,-200,4,2,1,60,0,0
210609,-100,4,2,1,60,0,0
212409,-133.333333333333,4,2,1,60,0,0
212484,-133.333333333333,4,2,1,30,0,0
221409,-133.333333333333,4,2,1,30,0,0
221484,-133.333333333333,4,2,1,25,0,0
221559,-133.333333333333,4,2,1,20,0,0
221634,-133.333333333333,4,2,1,15,0,0
221709,-133.333333333333,4,2,1,20,0,0
221784,-133.333333333333,4,2,1,25,0,0
221859,-133.333333333333,4,2,1,30,0,0
221934,-133.333333333333,4,2,1,35,0,0
222009,-133.333333333333,4,2,1,50,0,0
226809,-100,4,2,1,60,0,0
231609,-100,4,2,1,60,0,0
231834,-100,4,2,1,5,0,0
231909,-100,4,2,1,60,0,0
232134,-100,4,2,1,5,0,0
232209,-100,4,2,1,60,0,0
232509,-74.0740740740741,4,2,1,60,0,0
232734,-80,4,2,1,5,0,0
232809,-80,4,2,1,60,0,0
233259,-80,4,2,1,5,0,0
233334,-80,4,2,1,60,0,0
234459,-80,4,2,1,5,0,0
234534,-80,4,2,1,60,0,0
235659,-80,4,2,1,5,0,0
235734,-80,4,2,1,60,0,0
238059,-80,4,2,1,5,0,0
238134,-80,4,2,1,60,0,0
240459,-80,4,2,1,5,0,0
240534,-80,4,2,1,60,0,0
252009,-100,4,2,1,60,0,0
256809,-80,4,2,1,60,0,0
260409,-100,4,2,1,60,0,0
260709,-66.6666666666667,4,2,1,60,0,0
261609,-100,4,2,2,50,0,0
271209,-100,4,2,1,60,0,0
304509,-66.6666666666667,4,2,1,60,0,0
309009,-100,4,2,1,60,0,0
309609,-80,4,2,1,60,0,0
316809,-100,4,2,1,60,0,0
317409,-100,4,2,1,60,0,0
317709,-133.333333333333,4,2,1,60,0,0
318009,-100,4,2,1,60,0,0
318909,-66.6666666666667,4,2,1,60,0,0
319209,-100,4,2,1,60,0,0
326409,-66.6666666666667,4,2,1,60,0,0
327309,-100,4,2,1,60,0,0
328509,-100,4,2,2,60,0,0
328809,-100,4,2,1,60,0,0
338409,-76.9230769230769,4,2,1,60,0,0
340284,-76.9230769230769,4,2,1,5,0,0
340359,-76.9230769230769,4,2,1,60,0,0
340434,-76.9230769230769,4,2,1,5,0,0
340509,-76.9230769230769,4,2,1,60,0,0
340809,-58.8235294117647,4,2,1,60,0,0
341709,-76.9230769230769,4,2,1,60,0,0
348009,-100,4,2,1,60,0,0
359034,-100,4,2,1,5,0,0
359109,-100,4,2,1,60,0,0
386409,-76.9230769230769,4,2,1,60,0,0
386634,-76.9230769230769,4,2,1,5,0,0
386709,-76.9230769230769,4,2,1,60,0,0
387084,-76.9230769230769,4,2,1,5,0,0
387159,-76.9230769230769,4,2,1,60,0,0
390909,-100,4,2,1,60,0,0
391134,-76.9230769230769,4,2,1,5,0,0
391209,-58.8235294117647,4,2,1,60,0,0
391434,-58.8235294117647,4,2,1,5,0,0
391509,-76.9230769230769,4,2,1,60,0,0
396234,-76.9230769230769,4,2,1,5,0,0
396309,-76.9230769230769,4,2,1,60,0,0
415884,-76.9230769230769,4,2,1,5,0,0
415959,-76.9230769230769,4,2,1,60,0,0
416184,-76.9230769230769,4,2,1,5,0,0
416259,-76.9230769230769,4,2,1,60,0,0
417009,-100,4,2,1,60,0,0
417609,-76.9230769230769,4,2,1,60,0,0
417984,-76.9230769230769,4,2,1,5,0,0
418059,-76.9230769230769,4,2,1,60,0,0
418284,-76.9230769230769,4,2,1,5,0,0
418359,-76.9230769230769,4,2,1,60,0,0
419409,-100,4,2,1,60,0,0
420009,-76.9230769230769,4,2,1,60,0,0
420384,-76.9230769230769,4,2,1,5,0,0
420459,-76.9230769230769,4,2,1,60,0,0
420684,-76.9230769230769,4,2,1,5,0,0
420759,-76.9230769230769,4,2,1,60,0,0
421809,-100,4,2,1,60,0,0
422409,-76.9230769230769,4,2,1,60,0,0
422784,-76.9230769230769,4,2,1,5,0,0
422859,-76.9230769230769,4,2,1,60,0,0
423084,-76.9230769230769,4,2,1,5,0,0
423159,-76.9230769230769,4,2,1,60,0,0
428409,-100,4,2,1,60,0,0
428634,-100,4,2,1,5,0,0
428709,-83.3333333333333,4,2,1,60,0,0
428934,-83.3333333333333,4,2,1,5,0,0
429009,-66.6666666666667,4,2,1,60,0,0
429084,-66.6666666666667,4,2,1,5,0,0
429159,-66.6666666666667,4,2,1,60,0,0
429234,-66.6666666666667,4,2,1,5,0,0
429309,-100,4,2,1,60,0,0
434409,-76.9230769230769,4,2,1,60,0,0
438234,-76.9230769230769,4,2,1,5,0,0
438309,-76.9230769230769,4,2,1,60,0,0
438534,-76.9230769230769,4,2,1,5,0,0
438609,-76.9230769230769,4,2,1,60,0,0
438684,-76.9230769230769,4,2,1,5,0,0
438759,-76.9230769230769,4,2,1,60,0,0
438834,-76.9230769230769,4,2,1,5,0,0
438909,-76.9230769230769,4,2,1,60,0,0
438984,-76.9230769230769,4,2,1,5,0,0
439059,-76.9230769230769,4,2,1,60,0,0
439134,-76.9230769230769,4,2,1,5,0,0
439209,-76.9230769230769,4,2,1,60,0,0
443409,-55.5555555555556,4,2,1,60,0,0
446108,250,4,2,1,60,1,0
448045,-100,4,2,1,5,0,0
448108,-200,4,2,1,40,0,0
456108,-133.333333333333,4,2,1,50,0,0
458295,-133.333333333333,4,2,1,5,0,0
458358,-133.333333333333,4,2,1,50,0,0
460295,-133.333333333333,4,2,1,5,0,0
460358,-133.333333333333,4,2,1,50,0,0
461295,-133.333333333333,4,2,1,5,0,0
461358,-133.333333333333,4,2,1,50,0,0
461795,-133.333333333333,4,2,1,5,0,0
461858,-133.333333333333,4,2,1,50,0,0
462295,-133.333333333333,4,2,1,5,0,0
462358,-133.333333333333,4,2,1,50,0,0
462795,-133.333333333333,4,2,1,5,0,0
462858,-133.333333333333,4,2,1,50,0,0
463045,-133.333333333333,4,2,1,5,0,0
463108,-133.333333333333,4,2,1,50,0,0
463295,-133.333333333333,4,2,1,5,0,0
463358,-133.333333333333,4,2,1,50,0,0
463545,-133.333333333333,4,2,1,5,0,0
463608,-133.333333333333,4,2,1,50,0,0
464108,-100,4,2,1,60,0,0
472108,-83.3333333333333,4,2,1,60,0,0
480108,-100,4,2,1,60,0,0
488108,-83.3333333333333,4,2,1,40,0,0
496108,-100,4,2,1,60,0,0
504108,-83.3333333333333,4,2,1,40,0,0
542858,-200,4,2,1,40,0,0
544108,-83.3333333333333,4,2,1,40,0,0
565108,250,3,2,1,60,1,0
584608,250,4,2,1,60,1,0
584608,-83.3333333333333,4,2,1,60,0,0
590608,-76.9230769230769,4,2,1,60,0,0
592608,-83.3333333333333,4,2,1,60,0,0
600608,-76.9230769230769,4,2,1,60,0,0
612614,250,4,3,1,65,1,0
612614,-100,4,3,1,65,0,0
613489,250,4,3,1,65,1,0
613489,-200,4,3,1,65,0,0
613989,312.5,4,3,1,65,1,0
613989,-200,4,3,1,65,0,0
614301,312.5,4,3,1,65,1,0
614301,-200,4,3,1,65,0,0
614457,375,4,3,1,65,1,0
614457,-200,4,3,1,65,0,0
614644,384.615384615385,4,3,1,65,1,0
614836,697.674418604651,4,3,1,65,1,0
615533,600,4,3,1,65,1,0
616770,731.707317073171,4,3,1,65,1,0
617618,288.461538461538,4,3,1,65,1,0

[Colours]
Combo1 : 255,228,147
Combo2 : 184,184,220
Combo3 : 255,176,176
Combo4 : 198,140,255

[HitObjects]
130,267,20409,6,0,P|131:225|136:180,2,86.6249973564149,2|0|2,0:0|0:0|0:0,0:0:0:0:
132,278,21909,1,2,0:0:0:0:
134,289,22659,1,2,0:0:0:0:
225,188,22809,6,0,B|184:198|184:198|141:189,2,86.6249973564149,2|0|2,0:0|0:0|0:0,0:0:0:0:
234,182,24309,1,2,0:0:0:0:
240,172,25059,1,2,0:0:0:0:
148,103,25209,6,0,P|142:145|141:189,2,86.6249973564149,2|0|2,0:0|0:0|0:0,0:0:0:0:
153,95,26709,1,2,0:0:0:0:
206,248,26859,1,0,0:0:0:0:
141,189,27009,1,2,0:0:0:0:
245,114,27159,6,0,L|239:171,1,57.7499982376099,2|2,0:0|0:0,0:0:0:0:
239,171,30009,5,0,0:0:0:0:
239,171,30609,2,0,L|234:232,1,61.875002360344,2|0,0:0|0:0,0:0:0:0:
310,117,30909,2,0,L|305:55,1,61.875002360344,2|0,0:0|0:0,0:0:0:0:
230,162,31209,6,0,L|223:223,2,61.875,2|2|2,0:0|0:0|0:0,0:0:0:0:
315,46,31959,6,0,L|319:94,1,41.25,2|0,0:0|0:0,0:0:0:0:
223,223,33009,5,2,0:0:0:0:
236,137,33159,1,0,0:0:0:0:
318,278,33309,1,2,0:0:0:0:
305,192,33459,1,0,0:0:0:0:
215,305,33609,6,0,L|223:223,1,82.5,2|0,0:0|0:0,0:0:0:0:
325,360,34059,2,0,L|318:278,1,82.5,2|0,0:0|0:0,0:0:0:0:
318,278,34659,1,2,0:0:0:0:
220,120,34809,5,0,0:0:0:0:
220,125,35109,1,0,0:0:0:0:
221,130,35409,1,0,0:0:0:0:
222,135,35709,1,0,0:0:0:0:
223,140,36009,1,0,0:0:0:0:
224,144,36309,6,0,L|182:148,1,41.25,2|0,0:0|0:0,0:0:0:0:
72,90,36609,2,0,L|113:94,1,41.25,2|2,0:0|0:0,0:0:0:0:
183,148,36909,1,2,0:0:0:0:
183,148,37059,1,0,0:0:0:0:
136,297,37209,6,0,P|130:257|129:215,1,82.5,2|0,0:0|0:0,0:0:0:0:
63,81,37659,2,0,P|61:123|56:164,1,82.5,2|0,0:0|0:0,0:0:0:0:
35,273,38109,5,2,0:0:0:0:
33,277,38259,1,2,0:0:0:0:
30,281,38409,1,2,0:0:0:0:
129,215,38559,5,2,0:0:0:0:
133,213,38709,1,2,0:0:0:0:
138,211,38859,1,2,0:0:0:0:
210,291,39009,5,2,0:0:0:0:
242,152,39159,1,2,0:0:0:0:
284,329,39309,5,2,0:0:0:0:
255,141,39459,1,2,0:0:0:0:
362,384,39609,6,0,P|360:342|355:301,1,82.5,6|0,3:2|0:0,0:0:0:0:
255,141,39909,1,10,0:0:0:0:
355,301,40059,1,2,0:0:0:0:
473,223,40209,2,0,L|390:215,1,82.5,2|0,3:2|0:0,0:0:0:0:
277,332,40509,1,10,0:2:0:0:
277,332,40659,1,2,0:2:0:0:
360,72,40809,6,0,P|364:133|373:194,1,123.75,2|0,3:2|0:0,0:0:0:0:
391,215,41109,1,10,0:0:0:0:
280,48,41259,1,2,0:0:0:0:
280,48,41334,1,0,0:0:0:0:
280,48,41409,1,0,3:0:0:0:
443,85,41559,1,2,0:0:0:0:
284,51,41709,2,0,L|201:58,1,82.5,10|0,0:0|0:0,0:0:0:0:
71,196,42009,5,2,3:2:0:0:
109,22,42159,1,2,0:0:0:0:
71,196,42309,2,0,P|75:237|71:289,1,82.5,10|0,0:0|0:0,0:0:0:0:
10,139,42609,2,0,P|85:165|157:129,1,165,2|10,3:2|0:0,0:0:0:0:
0,145,43059,1,2,0:0:0:0:
186,286,43209,6,0,P|227:287|268:282,1,82.5,2|0,3:2|0:0,0:0:0:0:
125,338,43509,1,10,0:0:0:0:
329,230,43659,1,2,0:0:0:0:
329,230,43734,1,0,0:0:0:0:
329,230,43809,1,0,3:0:0:0:
352,327,43959,1,2,0:0:0:0:
306,133,44109,2,0,P|304:91|309:50,1,82.5,10|0,0:0|0:0,0:0:0:0:
425,259,44409,5,6,3:2:0:0:
329,230,44559,1,2,3:0:0:0:
500,101,44709,2,0,L|492:183,1,82.5,10|0,0:0|0:0,0:0:0:0:
418,367,45009,2,0,L|410:284,1,82.5,2|0,3:0|0:0,0:0:0:0:
399,144,45309,1,10,0:2:0:0:
399,144,45459,1,2,0:2:0:0:
260,280,45609,6,0,P|321:278|382:269,1,123.75,2|0,3:2|0:0,0:0:0:0:
411,285,45909,1,10,0:0:0:0:
226,193,46059,1,2,0:0:0:0:
226,193,46134,1,0,0:0:0:0:
226,193,46209,1,0,3:0:0:0:
252,360,46359,1,2,0:0:0:0:
229,195,46509,2,0,P|230:154|233:113,1,82.5,10|0,0:0|0:0,0:0:0:0:
382,269,46809,5,2,3:2:0:0:
260,280,46959,1,2,0:0:0:0:
410,173,47109,1,10,0:0:0:0:
231,155,47259,1,0,0:0:0:0:
436,77,47409,1,2,3:0:0:0:
444,68,47709,5,8,0:0:0:0:
383,270,47859,1,0,0:0:0:0:
242,58,48009,5,6,3:2:0:0:
245,47,48459,5,2,3:2:0:0:
247,38,48909,6,0,B|195:92|205:164|254:208|316:147|311:100|252:62,1,210.375004012585,2|0,3:2|0:0,0:0:0:0:
241,9,49209,6,0,P|200:2|159:0,1,82.5,6|0,3:2|0:0,0:0:0:0:
46,161,49509,1,10,0:0:0:0:
95,65,49659,1,2,0:0:0:0:
122,238,49809,1,2,3:2:0:0:
117,249,50109,1,10,0:0:0:0:
3,225,50259,1,0,0:0:0:0:
192,171,50409,5,2,3:2:0:0:
262,307,50559,1,2,0:0:0:0:
257,211,50709,1,10,0:0:0:0:
197,347,50859,1,2,0:0:0:0:
322,171,51009,5,2,3:2:0:0:
262,307,51159,1,2,0:0:0:0:
322,171,51309,1,10,0:0:0:0:
265,384,51459,1,2,0:0:0:0:
137,157,51609,6,0,P|219:154|301:148,2,165,2|10|2,3:2|0:0|0:2,0:0:0:0:
137,157,52509,1,10,0:0:0:0:
348,213,52659,1,2,3:2:0:0:
386,128,52809,5,0,3:2:0:0:
356,234,52959,1,2,3:2:0:0:
321,53,53109,5,10,0:2:0:0:
364,255,53259,1,2,3:2:0:0:
500,116,53409,6,0,L|407:108,1,92.812503540516,2|0,3:2|0:0,0:0:0:0:
386,128,53709,5,4,3:2:0:0:
509,233,53859,1,0,3:0:0:0:
355,364,54009,6,0,L|348:282,1,82.5,2|0,3:2|0:0,0:0:0:0:
276,126,54309,1,10,0:0:0:0:
262,212,54459,1,2,0:0:0:0:
191,79,54609,2,0,P|269:96|337:52,1,165,2|10,3:2|0:0,0:0:0:0:
180,92,55059,1,2,0:0:0:0:
347,197,55209,5,2,0:2:0:0:
177,229,55359,1,2,0:2:0:0:
349,282,55509,1,10,0:2:0:0:
187,245,55659,1,2,0:2:0:0:
380,126,55809,5,2,0:2:0:0:
347,295,55959,1,2,0:2:0:0:
472,188,56109,2,0,L|478:270,1,82.5,8|2,0:0|0:0,0:0:0:0:
284,361,56409,5,2,3:2:0:0:
289,372,56709,1,10,0:0:0:0:
256,244,56859,1,0,0:0:0:0:
295,118,57009,1,2,3:2:0:0:
300,129,57309,1,8,0:0:0:0:
196,98,57459,1,0,0:0:0:0:
373,58,57609,5,0,3:0:0:0:
172,7,57759,1,2,0:2:0:0:
300,129,57909,1,8,0:2:0:0:
178,17,58059,1,2,0:2:0:0:
140,197,58209,6,0,L|129:104,1,92.812503540516,2|0,3:2|0:0,0:0:0:0:
178,17,58509,6,0,L|164:139,1,123.75,10|0,0:2|0:0,0:0:0:0:
135,281,58809,5,6,3:2:0:0:
227,246,58959,1,0,0:0:0:0:
71,219,59109,1,10,0:2:0:0:
291,308,59259,1,0,0:2:0:0:
64,383,59409,2,0,P|73:301|70:218,1,165,2|10,3:2|0:0,0:0:0:0:
141,207,60009,6,0,L|58:198,1,82.5,2|0,3:2|0:0,0:0:0:0:
227,227,60309,2,0,L|144:236,1,82.5,8|0,0:0|0:0,0:0:0:0:
313,207,60609,2,0,L|230:198,1,82.5,0|0,3:0|3:0,0:0:0:0:
399,227,60909,5,10,0:2:0:0:
349,314,61059,1,2,0:2:0:0:
397,107,61209,2,0,L|409:197,1,90.7500027694703,6|0,3:2|0:0,0:0:0:0:
231,198,61509,5,10,0:2:0:0:
304,384,61659,1,2,0:2:0:0:
125,322,61809,2,0,L|223:311,1,98.9999969787599,2|0,3:2|3:0,0:0:0:0:
447,289,62109,6,0,P|368:292|305:244,1,160.874992635727,10|0,0:2|3:0,0:0:0:0:
330,174,62409,5,2,3:2:0:0:
304,384,62559,1,2,3:2:0:0:
304,384,62709,1,8,0:2:0:0:
197,101,62859,5,2,3:2:0:0:
223,311,63009,1,2,3:2:0:0:
223,311,63159,1,0,3:0:0:0:
332,35,63309,5,10,0:2:0:0:
306,245,63459,1,2,3:2:0:0:
115,96,63609,6,0,L|197:101,1,82.5,4|2,3:2|0:0,0:0:0:0:
388,119,63909,1,10,0:0:0:0:
318,228,64059,1,0,0:0:0:0:
248,35,64209,1,2,3:2:0:0:
254,25,64509,2,0,L|171:19,1,82.5,10|0,0:0|0:0,0:0:0:0:
113,194,64809,5,2,3:2:0:0:
247,173,64959,1,2,0:2:0:0:
113,194,65109,1,10,0:2:0:0:
247,173,65259,1,2,0:2:0:0:
146,294,65409,5,2,3:2:0:0:
173,119,65559,1,2,0:2:0:0:
146,294,65709,1,10,0:2:0:0:
173,119,65859,1,2,0:2:0:0:
276,181,66009,6,0,P|264:99|267:17,2,165,2|10|2,3:2|0:0|3:2,0:0:0:0:
276,181,66909,1,10,0:0:0:0:
379,90,67059,2,0,L|296:82,1,82.5,2|0,0:0|3:0,0:0:0:0:
132,71,67359,5,2,3:2:0:0:
150,150,67509,1,8,0:0:0:0:
194,22,67659,5,2,3:2:0:0:
168,229,67809,1,2,3:2:0:0:
369,268,67959,5,2,3:2:0:0:
162,242,68109,1,10,0:2:0:0:
382,274,68259,1,2,3:2:0:0:
408,66,68409,6,0,P|449:64|489:54,1,82.5,2|0,0:2|0:0,0:0:0:0:
305,154,68709,1,10,0:2:0:0:
450,188,68859,1,2,0:2:0:0:
257,231,69009,5,2,3:2:0:0:
439,178,69159,1,2,0:2:0:0:
300,40,69309,2,0,P|293:80|291:121,1,82.5,10|0,0:0|0:0,0:0:0:0:
208,313,69609,5,2,3:2:0:0:
182,168,69759,1,2,0:2:0:0:
212,332,69909,1,10,0:2:0:0:
86,139,70059,2,0,P|167:137|223:80,1,165,2|2,0:0|0:0,0:0:0:0:
16,70,70509,1,10,0:0:0:0:
182,168,70659,1,2,0:0:0:0:
300,12,70809,6,0,P|295:94|301:176,2,165,2|10|2,3:2|0:0|3:2,0:0:0:0:
300,12,71709,1,10,0:0:0:0:
407,98,71859,2,0,L|324:92,1,82.5,2|0,0:2|0:0,0:0:0:0:
189,199,72159,5,2,0:2:0:0:
301,176,72309,1,8,0:0:0:0:
120,133,72459,5,2,0:2:0:0:
315,162,72609,1,2,3:2:0:0:
189,199,72759,5,2,0:2:0:0:
323,248,72909,1,10,0:2:0:0:
174,300,73059,1,2,0:2:0:0:
303,75,73209,5,6,3:2:0:0:
310,63,73509,1,8,0:0:0:0:
195,38,73659,1,2,0:2:0:0:
408,5,73809,5,6,3:2:0:0:
415,17,74109,1,10,0:2:0:0:
188,50,74259,1,2,0:2:0:0:
313,156,74409,6,0,L|303:75,1,82.5,2|0,3:2|0:0,0:0:0:0:
331,243,74709,2,0,L|341:161,1,82.5,8|0,0:0|0:0,0:0:0:0:
313,329,75009,2,0,L|302:247,1,82.5,0|0,3:0|0:0,0:0:0:0:
303,75,75309,5,10,0:0:0:0:
218,290,75459,1,2,0:0:0:0:
106,168,75609,2,0,L|187:157,1,82.5,6|0,3:2|0:0,0:0:0:0:
190,0,75909,5,10,0:0:0:0:
303,247,76059,1,2,0:0:0:0:
385,85,76209,2,0,L|303:74,1,82.5,6|0,3:2|0:0,0:0:0:0:
106,168,76509,5,10,0:0:0:0:
303,247,76659,1,2,0:0:0:0:
94,180,76809,5,2,3:2:0:0:
303,74,76959,1,4,3:2:0:0:
219,280,77109,1,4,3:2:0:0:
187,157,77259,5,0,0:0:0:0:
187,157,77334,1,0,3:0:0:0:
187,157,77409,2,0,L|193:116,1,41.25,0|0,3:0|3:0,0:0:0:0:
287,69,77559,2,0,L|293:28,1,41.25,0|0,3:0|3:0,0:0:0:0:
397,4,77709,1,0,3:0:0:0:
391,44,77784,1,0,3:0:0:0:
385,85,77859,1,0,3:0:0:0:
379,126,77934,1,0,3:0:0:0:
374,167,78009,6,0,L|384:265,1,98.9999969787599,6|0,3:2|0:0,0:0:0:0:
394,348,78909,1,8,0:0:0:0:
394,348,79059,1,0,0:0:0:0:
505,210,79209,6,0,P|456:219|408:209,1,98.9999969787599,2|2,3:2|0:0,0:0:0:0:
512,68,80109,1,10,0:0:0:0:
256,192,80409,6,0,L|245:110,1,82.5,6|2,3:2|0:0,0:0:0:0:
322,317,80859,1,0,0:0:0:0:
322,317,81009,2,0,L|332:235,1,82.5,2|10,3:2|0:0,0:0:0:0:
268,27,81609,5,4,3:2:0:0:
324,224,81759,1,0,0:2:0:0:
332,235,82059,2,0,L|336:193,1,41.25
344,116,82209,1,2,3:2:0:0:
419,223,82359,1,0,0:0:0:0:
324,312,82509,1,8,0:0:0:0:
316,326,82809,6,0,P|274:328|233:333,1,82.5,0|2,0:0|0:0,0:0:0:0:
233,333,83259,1,2,0:0:0:0:
149,249,83409,2,0,P|155:269|158:289,1,41.25,2|2,0:0|0:0,0:0:0:0:
246,137,83709,2,0,P|238:180|238:235,1,92.812503540516,10|0,0:0|0:0,0:0:0:0:
231,253,84009,6,0,L|312:242,1,82.5,0|2,0:0|0:0,0:0:0:0:
312,242,84459,1,2,0:0:0:0:
416,191,84609,2,0,L|376:187,1,41.25,2|2,0:0|0:0,0:0:0:0:
266,113,84909,2,0,L|358:101,1,92.812503540516,10|0,0:0|0:0,0:0:0:0:
381,113,85209,5,4,3:2:0:0:
192,63,85359,1,2,0:0:0:0:
192,63,85509,2,0,P|181:93|180:123,1,61.875002360344,10|0,0:2|0:2,0:0:0:0:
283,225,85809,2,0,P|263:201|236:185,1,61.875002360344,2|0,3:2|0:2,0:0:0:0:
97,221,86110,2,0,P|127:215|154:200,1,61.875002360344,10|0,0:2|0:2,0:0:0:0:
252,108,86409,5,2,3:0:0:0:
97,147,86559,1,2,0:0:0:0:
252,108,86709,2,0,L|334:121,1,82.5,10|0,0:0|0:0,0:0:0:0:
420,251,87009,2,0,L|390:174,1,82.5,2|0,3:2|0:0,0:0:0:0:
462,34,87309,2,0,L|411:99,1,82.5,14|0,0:2|0:0,0:0:0:0:
232,334,87609,6,0,L|224:251,1,82.5,0|0,3:0|0:0,0:0:0:0:
154,200,87834,1,0,3:0:0:0:
154,200,87909,2,0,L|161:117,1,82.5,10|0,3:2|0:0,0:0:0:0:
93,269,88134,1,0,3:0:0:0:
93,269,88209,2,0,L|100:351,1,82.5,2|0,3:0|0:0,0:0:0:0:
22,217,88434,1,0,3:0:0:0:
22,217,88509,6,0,L|25:175,1,41.25,10|0,3:2|3:0,0:0:0:0:
81,72,88659,2,0,L|84:113,1,41.25,2|0,3:2|3:0,0:0:0:0:
154,200,88809,6,0,P|194:203|233:189,1,82.5,0|2,3:0|0:0,0:0:0:0:
289,115,89034,1,0,3:0:0:0:
289,115,89109,2,0,P|329:111|368:125,1,82.5,10|2,3:2|0:0,0:0:0:0:
425,206,89334,1,0,3:0:0:0:
425,206,89409,2,0,P|465:209|504:195,1,82.5,2|0,3:2|0:0,0:0:0:0:
459,53,89634,1,0,3:0:0:0:
459,53,89709,2,0,L|452:135,1,82.5,10|0,3:2|0:0,0:0:0:0:
408,241,90009,5,8,3:2:0:0:
233,189,90159,1,2,3:2:0:0:
368,125,90309,5,10,3:2:0:0:
154,200,90459,1,2,3:2:0:0:
408,241,90609,5,10,3:2:0:0:
183,126,90759,1,2,3:2:0:0:
350,31,90909,5,8,3:2:0:0:
350,31,90984,1,0,3:0:0:0:
350,31,91059,1,0,3:0:0:0:
350,31,91134,1,0,3:0:0:0:
350,31,91209,6,0,L|357:92,1,61.875002360344,0|0,3:0|3:0,0:0:0:0:
434,204,91359,2,0,L|441:142,1,61.875002360344,0|0,3:0|3:0,0:0:0:0:
341,40,91509,2,0,L|348:101,1,61.875002360344,0|0,3:0|3:0,0:0:0:0:
425,213,91659,2,0,L|432:151,1,61.875002360344,0|0,3:0|3:0,0:0:0:0:
332,49,91809,2,0,L|339:110,1,61.875002360344,0|0,3:0|3:0,0:0:0:0:
416,222,91959,2,0,L|423:160,1,61.875002360344,0|0,3:0|3:0,0:0:0:0:
323,58,92109,2,0,L|330:119,1,61.875002360344,0|0,3:0|3:0,0:0:0:0:
407,231,92259,2,0,L|414:169,1,61.875002360344,0|0,3:0|3:0,0:0:0:0:
304,44,92409,6,0,B|237:14|203:43|203:43|227:46|246:57,1,148.49999546814,6|0,3:2|0:0,0:0:0:0:
207,214,92709,2,0,P|210:170|199:115,1,98.9999969787599,10|0,0:0|0:0,0:0:0:0:
86,290,93009,6,0,L|147:282,1,61.875002360344,2|0,3:2|0:0,0:0:0:0:
293,226,93159,6,0,L|331:241,1,41.25,2|0,0:2|0:0,0:0:0:0:
450,295,93309,2,0,L|421:266,1,41.25,10|0,0:0|0:0,0:0:0:0:
370,146,93459,2,0,L|387:183,1,41.25,2|0,0:0|0:0,0:0:0:0:
280,370,93609,1,2,3:2:0:0:
280,370,93759,6,0,P|279:339|283:308,1,61.875002360344,2|0,0:0|0:0,0:0:0:0:
157,197,93909,2,0,L|196:186,1,41.25,10|0,0:0|0:0,0:0:0:0:
388,108,94059,2,0,L|370:145,1,41.25,2|0,0:0|0:0,0:0:0:0:
147,282,94209,6,0,P|147:251|143:220,1,61.875002360344,2|0,3:2|0:0,0:0:0:0:
61,90,94359,6,0,L|99:105,1,41.25,2|0,3:0|0:0,0:0:0:0:
211,41,94509,5,10,0:0:0:0:
40,108,94659,1,2,0:0:0:0:
225,29,94809,6,0,P|285:34|340:7,1,123.75,2|0,3:2|0:0,0:0:0:0:
407,38,95109,6,0,P|450:22|496:25,1,92.812503540516,10|0,0:2|0:0,0:0:0:0:
512,98,95409,6,0,P|514:128|508:159,1,61.875002360344,2|0,3:2|0:0,0:0:0:0:
332,186,95559,5,2,0:2:0:0:
332,186,95634,1,0,0:0:0:0:
332,186,95709,2,0,L|372:191,1,41.25,10|0,0:0|0:0,0:0:0:0:
512,286,95859,2,0,L|471:291,1,41.25,2|0,0:0|0:0,0:0:0:0:
320,169,96009,1,2,3:2:0:0:
369,367,96159,6,0,L|360:314,1,53.6249975452424,2|0,0:0|0:0,0:0:0:0:
307,144,96309,6,0,L|266:149,1,41.25,10|0,0:0|0:0,0:0:0:0:
210,297,96459,2,0,L|250:302,1,41.25,2|0,0:0|0:0,0:0:0:0:
146,118,96609,6,0,P|145:144|150:171,1,53.6249975452424,2|0,3:2|0:0,0:0:0:0:
301,53,96759,2,0,P|305:26|304:-1,1,53.6249975452424,2|0,3:2|0:0,0:0:0:0:
136,187,96909,5,10,0:0:0:0:
321,42,97059,1,2,0:0:0:0:
63,99,97209,6,0,L|51:222,1,123.75,2|0,3:2|0:0,0:0:0:0:
19,190,97509,6,0,L|28:290,1,92.812503540516,10|0,0:2|0:0,0:0:0:0:
3,352,97809,6,0,P|33:356|62:348,1,61.875002360344,2|0,3:2|0:0,0:0:0:0:
228,179,97959,6,0,L|186:182,1,41.25,2|0,3:2|0:0,0:0:0:0:
63,99,98109,2,0,L|105:103,1,41.25,10|0,0:0|0:0,0:0:0:0:
287,74,98259,2,0,L|247:63,1,41.25,2|0,0:0|0:0,0:0:0:0:
297,218,98409,1,2,3:2:0:0:
297,218,98559,6,0,P|298:187|305:157,1,61.875002360344,2|0,0:2|0:0,0:0:0:0:
380,39,98709,6,0,L|368:0,1,41.25,10|0,0:0|0:0,0:0:0:0:
484,106,98859,2,0,L|472:145,1,41.25,2|0,0:0|0:0,0:0:0:0:
372,233,99009,6,0,P|342:226|312:224,1,61.875002360344,2|0,3:2|0:0,0:0:0:0:
472,145,99159,6,0,L|513:137,1,41.25,2|0,3:2|0:0,0:0:0:0:
474,298,99309,5,10,0:0:0:0:
311,224,99459,1,2,0:0:0:0:
203,336,99609,6,0,P|216:275|207:214,1,123.75,6|0,0:2|0:0,0:0:0:0:
121,190,99909,6,0,L|213:180,1,92.812503540516,10|0,0:0|0:0,0:0:0:0:
321,76,100209,6,0,P|317:106|316:137,1,61.875002360344,2|0,3:2|0:0,0:0:0:0:
372,233,100359,5,2,3:2:0:0:
372,233,100434,1,0,0:0:0:0:
372,233,100509,2,0,L|412:226,1,41.25,10|0,0:0|0:0,0:0:0:0:
301,281,100659,2,0,L|260:274,1,41.25,2|0,0:0|0:0,0:0:0:0:
134,261,100809,5,6,0:2:0:0:
121,190,100909,1,2,0:2:0:0:
163,132,101009,1,2,0:2:0:0:
236,149,101109,5,6,0:2:0:0:
307,162,101209,1,2,0:2:0:0:
365,120,101309,1,2,0:2:0:0:
351,42,101409,5,6,0:2:0:0:
280,29,101509,1,2,0:2:0:0:
222,71,101609,1,2,0:2:0:0:
236,149,101709,5,6,0:2:0:0:
249,220,101809,1,2,0:2:0:0:
207,278,101909,1,0,0:2:0:0:
118,315,102009,6,0,B|154:314|178:304|178:304|206:318|206:318|229:303|259:303,1,148.49999546814,6|0,3:2|0:0,0:0:0:0:
308,366,102309,1,10,3:2:0:0:
332,324,102384,1,2,0:2:0:0:
329,275,102459,1,2,0:2:0:0:
298,237,102534,1,2,0:2:0:0:
233,199,102609,6,0,L|171:204,1,61.875002360344,2|0,3:2|0:0,0:0:0:0:
55,279,102759,2,0,L|116:284,1,61.875002360344,2|0,0:0|0:0,0:0:0:0:
23,182,102909,5,10,3:2:0:0:
24,176,102984,1,2,0:0:0:0:
25,170,103059,1,2,0:0:0:0:
26,164,103134,1,2,0:0:0:0:
28,158,103209,6,0,P|100:150|142:91,1,148.49999546814,2|0,3:2|0:0,0:0:0:0:
191,30,103509,1,10,0:2:0:0:
223,34,103584,1,2,0:2:0:0:
253,59,103659,1,2,0:2:0:0:
285,55,103734,1,2,0:2:0:0:
317,30,103809,6,0,L|423:43,1,98.9999969787599,2|0,3:2|3:2,0:2:0:0:
387,146,104109,5,10,3:2:0:0:
356,207,104184,1,2,0:0:0:0:
365,274,104259,1,2,0:0:0:0:
424,308,104334,1,2,0:0:0:0:
506,263,104409,6,0,B|475:262|452:277|452:277|424:263|424:263|395:279|364:274,1,148.49999546814,0|0,3:2|0:0,0:0:0:0:
258,299,104709,1,10,3:2:0:0:
251,317,104784,1,2,0:0:0:0:
250,336,104859,2,0,P|251:360|258:384,1,49.4999984893799,2|0,0:0|0:0,0:0:0:0:
169,279,105009,6,0,L|107:287,1,61.875002360344,2|0,3:2|0:0,0:0:0:0:
223,204,105159,2,0,L|284:212,1,61.875002360344,2|0,0:2|0:0,0:0:0:0:
406,151,105309,5,8,3:2:0:0:
399,149,105384,1,0,0:0:0:0:
393,148,105459,1,0,0:0:0:0:
387,146,105534,1,0,0:0:0:0:
344,83,105609,6,0,L|355:206,1,123.750004720688,2|0,3:2|0:0,0:0:0:0:
321,305,105834,1,0,0:0:0:0:
312,313,105909,6,0,P|281:316|251:307,1,61.875002360344,10|0,3:2|0:0,0:0:0:0:
388,362,106059,2,0,P|418:355|448:356,1,61.875002360344,2|0,0:0|0:0,0:0:0:0:
286,243,106209,6,0,L|277:144,1,98.9999969787599,2|2,3:2|0:0,0:0:0:0:
358,107,106509,6,0,P|287:114|239:62,1,148.49999546814,10|0,0:2|0:0,0:0:0:0:
197,0,106809,6,0,P|209:72|183:143,1,148.49999546814,4|0,3:2|0:0,0:0:0:0:
178,214,107109,1,10,0:2:0:0:
131,199,107184,1,2,0:0:0:0:
105,158,107259,1,2,0:0:0:0:
112,110,107334,1,2,0:0:0:0:
179,71,107409,6,0,L|240:78,1,61.875002360344,2|0,3:2|0:0,0:0:0:0:
338,137,107559,2,0,L|277:144,1,61.875002360344,2|0,0:0|0:0,0:0:0:0:
411,7,107709,5,10,0:0:0:0:
412,13,107784,1,2,0:0:0:0:
413,18,107859,1,2,0:0:0:0:
414,23,107934,1,2,0:0:0:0:
414,29,108009,6,0,B|417:72|431:89|431:89|415:117|415:117|419:147|412:170,1,148.49999546814,2|0,3:2|0:0,0:0:0:0:
370,251,108309,1,10,0:0:0:0:
375,273,108384,1,2,0:0:0:0:
401,302,108459,1,2,0:0:0:0:
396,324,108534,1,2,0:0:0:0:
370,353,108609,6,0,L|267:340,1,98.9999969787599,2|0,3:2|0:0,0:0:0:0:
84,330,108909,5,10,0:0:0:0:
136,287,108984,1,2,0:0:0:0:
134,218,109059,1,2,0:0:0:0:
95,162,109134,1,2,0:0:0:0:
0,237,109209,6,0,P|70:253|134:218,1,148.49999546814,2|0,3:2|0:0,0:0:0:0:
220,187,109509,1,10,0:0:0:0:
233,166,109584,1,2,0:0:0:0:
238,141,109659,2,0,L|233:91,1,49.4999984893799,2|0,0:0|0:0,0:0:0:0:
287,222,109809,6,0,B|316:232|316:232|345:221,1,61.875002360344,2|0,3:2|0:0,0:0:0:0:
157,136,109959,2,0,B|127:124|127:124|99:134,1,61.875002360344,2|0,0:0|0:0,0:0:0:0:
254,67,110109,5,0,0:0:0:0:
260,67,110184,1,0,0:0:0:0:
266,66,110259,1,0,0:0:0:0:
272,66,110334,1,0,0:0:0:0:
278,65,110409,6,0,L|327:71,1,49.4999984893799,6|0,3:2|3:0,0:0:0:0:
425,143,110559,1,0,3:0:0:0:
419,143,110634,1,0,3:0:0:0:
413,142,110709,2,0,L|363:148,1,49.4999984893799,6|0,3:2|3:0,0:0:0:0:
292,224,110859,2,0,L|341:230,1,49.4999984893799,2|0,3:2|3:0,0:0:0:0:
417,370,111009,5,4,3:2:0:0:
392,373,111084,1,0,3:0:0:0:
367,376,111159,1,0,3:0:0:0:
343,380,111234,1,0,3:0:0:0:
270,350,111309,5,6,0:2:0:0:
242,326,111384,1,2,0:2:0:0:
208,315,111459,1,2,0:2:0:0:
172,318,111534,1,2,0:2:0:0:
139,384,111609,6,0,P|144:301|142:219,1,165,6|0,3:2|0:0,0:0:0:0:
143,220,112209,6,0,L|208:211,1,66,10|0,0:0|0:0,0:0:0:0:
287,201,112359,2,0,L|352:192,1,66,2|0,0:0|0:0,0:0:0:0:
95,157,112509,6,0,L|160:148,1,66,2|0,0:0|0:0,0:0:0:0:
239,138,112659,2,0,L|304:129,1,66,2|0,0:0|0:0,0:0:0:0:
47,94,112809,5,0,3:2:0:0:
47,94,113109,5,2,3:2:0:0:
208,211,113259,1,0,3:0:0:0:
308,60,113409,6,0,L|111:85,1,198,10|0,0:0|0:0,0:0:0:0:
13,167,113709,6,0,L|160:148,1,148.49999546814,2|0,3:2|0:0,0:0:0:0:
352,192,114009,6,0,P|349:225|338:257,1,68.0625020771027,2|0,3:2|0:0,0:0:0:0:
348,281,114309,1,2,0:0:0:0:
348,281,114609,6,0,P|350:314|361:346,1,66,10|0,0:0|0:0,0:0:0:0:
271,210,114759,2,0,P|281:178|283:146,1,66,2|0,0:0|0:0,0:0:0:0:
346,0,114909,6,0,P|340:41|353:80,1,82.5,2|0,0:0|0:0,0:0:0:0:
470,157,115209,5,2,3:2:0:0:
239,274,115434,1,2,3:0:0:0:
270,209,115509,2,0,L|352:221,1,82.5,2|0,3:2|3:0,0:0:0:0:
352,79,115734,1,2,3:0:0:0:
399,148,115809,6,0,L|485:136,1,86.6249973564149,10|0,3:2|0:0,0:0:0:0:
343,54,116109,2,0,L|257:65,1,86.6249973564149,2|0,0:0|0:0,0:0:0:0:
140,125,116409,6,0,P|160:98|80:117,1,216.562508261204,2|0,3:2|0:0,0:0:0:0:
111,194,117009,5,10,0:2:0:0:
142,198,117084,1,2,0:2:0:0:
172,191,117159,1,2,0:2:0:0:
198,174,117234,1,2,0:2:0:0:
222,155,117309,1,2,3:2:0:0:
253,151,117384,1,2,0:2:0:0:
283,158,117459,1,2,0:2:0:0:
309,175,117534,1,2,0:2:0:0:
336,247,117609,6,0,L|335:268,1,15.468750590086,2|0,3:2|0:0,0:0:0:0:
336,247,117909,2,0,P|338:185|359:127,1,123.75
365,91,118209,6,0,P|333:85|300:85,1,41.25,10|0,3:2|0:0,0:0:0:0:
172,191,118359,2,0,P|192:187|212:183,1,41.25,2|0,0:0|0:0,0:0:0:0:
371,77,118509,2,0,P|351:71|330:69,1,41.25,2|0,3:2|0:0,0:0:0:0:
162,53,118659,1,2,0:0:0:0:
292,324,118809,6,0,L|300:258,1,66,14|0,0:0|0:0,0:0:0:0:
172,191,118959,2,0,L|181:257,1,66,2|0,0:0|0:0,0:0:0:0:
372,312,119109,2,0,L|396:115,1,198,2|0,3:2|0:0,0:0:0:0:
348,51,119409,6,0,L|318:41,1,30.937501180172,10|0,0:0|0:0,0:0:0:0:
288,110,119559,2,0,L|258:119,1,22.6875006923676,2|0,0:0|0:0,0:0:0:0:
216,55,119709,2,0,L|202:50,1,14.4374995594025,10|0,0:0|0:0,0:0:0:0:
144,103,119859,2,0,L|138:104,1,6.18749981117249,2|0,0:0|0:0,0:0:0:0:
77,56,120009,5,6,3:2:0:0:
60,93,120084,1,0,3:0:0:0:
64,133,120159,1,2,3:2:0:0:
87,166,120234,1,0,3:0:0:0:
161,195,120309,5,6,3:2:0:0:
201,189,120384,1,0,3:0:0:0:
241,184,120459,1,2,3:2:0:0:
282,180,120534,1,0,3:0:0:0:
354,212,120609,6,0,P|359:181|355:150,1,61.875002360344,14|0,3:2|3:2,0:2:0:0:
298,24,120759,2,0,P|294:54|298:85,1,61.875002360344,10|0,3:2|3:2,0:2:0:0:
439,139,120909,5,14,3:2:0:0:
422,96,120984,1,0,3:0:0:0:
385,68,121059,1,2,3:2:0:0:
340,65,121134,1,0,3:0:0:0:
297,85,121209,6,0,P|215:84|133:75,1,165,6|8,3:2|0:0,0:0:0:0:
61,217,121659,6,0,L|51:278,1,61.875002360344
70,233,121809,2,0,L|63:273,1,41.25
150,291,121959,6,0,L|159:352,1,61.875002360344
164,297,122109,2,0,L|170:337,1,41.25,8|0,0:0|0:0,0:0:0:0:
252,229,122259,1,0,0:0:0:0:
257,235,122334,1,0,0:0:0:0:
260,241,122409,6,0,P|280:235|301:232,1,41.25
344,320,122559,2,0,P|323:316|303:311,1,41.25
317,201,122709,6,0,L|309:139,1,61.875002360344,8|0,0:0|0:0,0:0:0:0:
395,56,122859,2,0,L|387:117,1,61.875002360344
344,320,123009,5,0,3:0:0:0:
491,241,123159,1,0,0:0:0:0:
352,307,123309,1,8,0:0:0:0:
474,336,123459,1,0,0:0:0:0:
256,76,123609,6,0,P|263:158|260:240,1,165,0|8,3:0|0:0,0:0:0:0:
162,321,124059,6,0,P|131:326|100:327,1,61.875002360344
35,295,124209,2,0,P|55:297|75:301,1,41.25
160,187,124359,6,0,P|129:181|98:180,1,61.875002360344
33,212,124509,2,0,P|53:209|73:205,1,41.25,8|0,0:0|0:0,0:0:0:0:
195,69,124659,1,0,0:0:0:0:
196,60,124734,1,0,0:0:0:0:
196,51,124809,6,0,L|207:111,1,61.875002360344
260,240,124959,2,0,L|271:179,1,61.875002360344
326,102,125109,6,0,L|366:94,1,41.25,8|0,0:0|0:0,0:0:0:0:
385,176,125259,2,0,L|425:183,1,41.25
387,273,125409,5,0,0:0:0:0:
317,369,125559,1,0,0:0:0:0:
278,241,125709,1,8,0:0:0:0:
310,383,125859,1,0,0:0:0:0:
449,188,126009,6,0,P|460:279|462:352,1,165,0|8,3:0|0:0,0:0:0:0:
462,352,126459,1,0,0:0:0:0:
339,249,126609,6,0,L|277:240,1,61.875002360344
276,157,126759,2,0,L|214:165,1,61.875002360344
167,289,126909,1,8,0:0:0:0:
124,95,127059,1,0,0:0:0:0:
127,89,127134,1,0,0:0:0:0:
131,84,127209,6,0,L|138:124,1,41.25
66,174,127359,2,0,L|58:214,1,41.25
181,220,127509,6,0,L|192:280,1,61.875002360344,8|0,0:0|0:0,0:0:0:0:
90,320,127659,2,0,L|78:380,1,61.875002360344
58,214,127809,5,2,3:2:0:0:
203,364,127959,1,0,3:0:0:0:
304,225,128109,2,0,P|242:226|180:219,1,123.75,8|0,0:0|0:0,0:0:0:0:
166,201,128409,6,0,L|184:364,1,165,6|8,3:2|0:0,0:0:0:0:
326,356,128859,6,0,P|356:354|386:346,1,61.875002360344
512,291,129009,2,0,P|481:289|451:281,1,61.875002360344
385,209,129159,6,0,L|391:168,1,41.25
450,109,129309,2,0,L|443:68,1,41.25,8|0,0:0|0:0,0:0:0:0:
328,20,129459,1,0,0:0:0:0:
328,20,129534,1,0,0:0:0:0:
328,20,129609,6,0,L|319:81,1,61.875002360344,6|0,3:2|3:0,0:0:0:0:
220,115,129759,2,0,L|228:176,1,61.875002360344,2|0,3:2|3:0,0:0:0:0:
306,275,129909,5,6,3:2:0:0:
306,275,129984,1,0,3:0:0:0:
306,275,130059,2,0,L|244:283,1,61.875002360344,2|0,3:2|3:0,0:0:0:0:
184,364,130209,1,6,3:2:0:0:
184,364,130284,1,0,3:0:0:0:
184,364,130359,2,0,L|122:355,1,61.875002360344,0|0,3:2|3:0,0:0:0:0:
28,295,130509,5,4,3:2:0:0:
34,249,130584,1,0,3:0:0:0:
41,203,130659,1,0,3:0:0:0:
47,157,130734,1,0,3:0:0:0:
54,111,130809,5,6,3:2:0:0:
106,274,130959,1,2,0:0:0:0:
228,176,131109,2,0,L|145:182,1,82.5,10|0,0:0|0:0,0:0:0:0:
260,78,131409,1,2,3:2:0:0:
260,78,131559,1,0,0:0:0:0:
318,261,131709,1,10,0:0:0:0:
425,157,131859,2,0,L|342:150,1,82.5,2|0,0:0|3:0,0:0:0:0:
202,261,132159,5,2,0:0:0:0:
260,78,132309,1,8,0:0:0:0:
309,238,132459,1,2,0:2:0:0:
228,176,132609,1,2,3:2:0:0:
334,133,132759,2,0,L|416:139,1,82.5,2|8,0:0|0:0,0:0:0:0:
430,126,133209,5,2,3:2:0:0:
309,238,133359,1,2,0:0:0:0:
177,84,133509,2,0,L|259:77,1,82.5,10|0,0:0|0:0,0:0:0:0:
98,189,133809,1,2,3:2:0:0:
98,189,133884,1,0,0:0:0:0:
98,189,133959,1,0,0:0:0:0:
162,71,134109,1,8,0:0:0:0:
202,261,134259,6,0,L|195:343,1,82.5,2|0,0:0|0:0,0:0:0:0:
302,155,134559,2,0,L|308:237,1,82.5,2|8,0:0|0:0,0:0:0:0:
162,71,134859,1,2,0:0:0:0:
202,261,135009,1,2,0:0:0:0:
334,133,135159,1,2,0:0:0:0:
127,0,135309,6,0,L|139:164,1,165,10|4,0:0|3:2,0:0:0:0:
128,185,135759,1,2,0:0:0:0:
243,79,135909,2,0,P|202:69|161:70,1,82.5,10|0,0:0|0:0,0:0:0:0:
202,261,136209,1,2,3:2:0:0:
202,261,136284,1,0,0:0:0:0:
202,261,136359,1,0,0:0:0:0:
334,133,136509,2,0,L|340:50,1,82.5,10|0,0:0|0:0,0:0:0:0:
193,151,136809,5,2,3:2:0:0:
380,205,136959,1,2,0:0:0:0:
202,261,137109,1,10,0:0:0:0:
334,132,137259,2,0,P|373:122|414:124,1,82.5,2|0,0:0|3:0,0:0:0:0:
303,271,137559,1,2,3:2:0:0:
251,92,137709,2,0,L|257:9,1,82.5,8|0,0:0|0:0,0:0:0:0:
127,200,138009,5,6,3:2:0:0:
303,271,138159,1,2,3:2:0:0:
116,192,138309,2,0,L|33:199,1,82.5,10|0,0:0|0:0,0:0:0:0:
251,92,138609,5,6,3:2:0:0:
33,199,138759,1,2,3:2:0:0:
262,84,138909,2,0,L|344:91,1,82.5,10|2,0:0|0:0,0:0:0:0:
215,10,139209,5,4,3:2:0:0:
185,38,139284,1,0,3:0:0:0:
173,77,139359,1,0,3:0:0:0:
180,117,139434,1,0,3:0:0:0:
206,187,139509,5,4,3:2:0:0:
213,227,139584,1,0,3:0:0:0:
200,266,139659,1,0,3:0:0:0:
171,294,139734,1,0,3:0:0:0:
106,262,139809,5,4,3:2:0:0:
134,232,139884,1,0,3:0:0:0:
173,220,139959,1,0,3:0:0:0:
213,227,140034,1,0,3:0:0:0:
273,270,140109,5,4,3:2:0:0:
313,277,140184,1,0,3:0:0:0:
352,265,140259,1,0,3:0:0:0:
380,235,140334,1,0,3:2:0:0:
406,165,140409,6,0,L|396:83,1,82.5,6|0,3:2|0:0,0:0:0:0:
180,117,140709,1,10,0:2:0:0:
273,270,140859,1,0,0:2:0:0:
396,83,141009,5,2,3:2:0:0:
206,187,141159,1,0,0:2:0:0:
380,235,141309,1,10,0:2:0:0:
273,270,141459,1,0,0:2:0:0:
396,83,141609,5,2,3:2:0:0:
180,117,141759,1,0,0:2:0:0:
380,235,141909,1,10,0:2:0:0:
206,187,142059,1,0,0:2:0:0:
396,83,142209,6,0,P|436:89|477:88,1,82.5,2|0,3:2|0:0,0:0:0:0:
287,181,142509,2,0,P|246:180|206:187,1,82.5,10|0,0:0|0:0,0:0:0:0:
37,354,142809,5,2,3:2:0:0:
225,334,142959,1,0,0:0:0:0:
82,248,143109,1,10,0:0:0:0:
182,264,143259,1,0,0:0:0:0:
20,160,143409,5,2,3:2:0:0:
227,58,143559,1,0,0:0:0:0:
71,81,143709,1,10,0:0:0:0:
206,187,143859,1,0,0:0:0:0:
361,140,144009,5,2,3:2:0:0:
227,58,144159,1,2,0:0:0:0:
400,28,144309,1,10,0:0:0:0:
206,187,144459,1,0,0:0:0:0:
391,251,144609,6,0,L|381:169,1,82.5,2|0,3:2|0:0,0:0:0:0:
256,331,144909,2,0,L|265:249,1,82.5,10|0,0:0|0:0,0:0:0:0:
404,374,145209,5,6,3:2:0:0:
381,169,145359,1,0,0:0:0:0:
243,338,145509,1,8,0:0:0:0:
258,232,145659,1,0,0:0:0:0:
450,281,145809,5,0,3:0:0:0:
243,338,145959,1,0,0:0:0:0:
381,169,146109,1,8,0:0:0:0:
231,134,146259,1,0,0:0:0:0:
77,314,146409,5,0,3:2:0:0:
258,232,146559,1,0,0:0:0:0:
107,195,146709,1,8,0:0:0:0:
243,338,146859,1,0,0:0:0:0:
381,169,147009,6,0,P|387:128|383:87,1,82.5,2|0,3:2|0:0,0:0:0:0:
128,87,147309,2,0,P|124:127|130:168,1,82.5,10|0,0:2|0:0,0:0:0:0:
343,298,147609,5,4,3:2:0:0:
210,132,147759,1,0,0:0:0:0:
103,264,147909,2,0,L|185:255,1,82.5,8|0,0:0|0:0,0:0:0:0:
318,89,148209,5,4,3:2:0:0:
185,255,148359,1,0,0:0:0:0:
78,123,148509,2,0,L|160:131,1,82.5,8|0,0:0|0:0,0:0:0:0:
337,381,148809,5,6,3:2:0:0:
340,339,148884,1,0,3:0:0:0:
343,298,148959,1,0,3:0:0:0:
347,257,149034,1,0,3:0:0:0:
326,185,149109,5,6,3:2:0:0:
292,161,149184,1,0,3:0:0:0:
252,158,149259,1,0,3:0:0:0:
215,176,149334,1,0,3:0:0:0:
170,235,149409,5,6,3:2:0:0:
137,258,149484,1,0,3:0:0:0:
96,262,149559,1,0,3:0:0:0:
60,244,149634,1,0,3:2:0:0:
23,179,149709,6,0,L|27:137,1,41.25,6|0,3:2|3:0,3:0:0:0:
102,107,149859,2,0,L|106:65,1,41.25,2|0,3:2|3:0,3:0:0:0:
183,40,150009,6,0,P|220:32|264:30,1,82.5,6|0,3:2|0:0,0:0:0:0:
162,176,150309,1,10,0:0:0:0:
348,74,150459,1,2,0:0:0:0:
299,243,150609,2,0,L|291:160,1,82.5,2|0,3:0|0:0,0:0:0:0:
208,315,150909,1,10,0:0:0:0:
368,341,151059,1,2,0:0:0:0:
292,160,151209,5,2,3:2:0:0:
500,191,151359,1,0,0:0:0:0:
500,191,151434,1,0,0:0:0:0:
500,191,151509,1,8,0:0:0:0:
385,245,151659,1,2,0:0:0:0:
291,159,151809,2,0,P|290:118|301:79,1,82.5,2|0,3:2|0:0,0:0:0:0:
207,12,152109,1,10,0:0:0:0:
207,12,152259,1,2,0:0:0:0:
91,199,152409,6,0,L|173:191,1,82.5,4|0,3:2|0:0,0:0:0:0:
31,297,152709,1,10,0:0:0:0:
215,311,152859,1,2,0:0:0:0:
80,177,153009,6,0,L|162:169,1,82.5,0|0,3:2|0:0,0:0:0:0:
24,309,153309,1,10,0:0:0:0:
225,328,153459,1,2,0:0:0:0:
71,158,153609,5,6,3:2:0:0:
111,310,153759,1,2,0:0:0:0:
220,91,153909,1,10,0:2:0:0:
180,243,154059,1,2,0:0:0:0:
47,84,154209,5,2,3:2:0:0:
42,72,154509,1,10,0:2:0:0:
91,236,154659,1,2,0:2:0:0:
166,12,154809,1,6,2:2:0:0:
171,0,155109,5,10,0:2:0:0:
359,32,155259,1,2,0:2:0:0:
231,163,155409,5,2,3:2:0:0:
424,113,155559,1,2,0:2:0:0:
199,255,155709,5,10,0:2:0:0:
257,81,155859,1,2,0:0:0:0:
312,320,156009,5,2,3:2:0:0:
231,163,156159,1,2,0:2:0:0:
231,163,156234,1,0,0:2:0:0:
231,163,156309,1,10,0:2:0:0:
199,255,156459,1,2,0:2:0:0:
257,81,156609,2,0,P|253:39|245:0,1,82.5,2|0,3:0|0:0,0:0:0:0:
136,158,156909,1,10,0:2:0:0:
304,224,157059,1,2,0:2:0:0:
112,336,157209,6,0,L|117:253,1,82.5,6|0,3:2|0:0,0:0:0:0:
65,74,157509,1,8,0:0:0:0:
55,60,157809,5,4,3:2:0:0:
236,145,157959,1,0,0:2:0:0:
40,182,158109,1,8,0:2:0:0:
177,37,158259,1,0,0:2:0:0:
151,235,158409,6,0,L|154:276,1,41.25,6|0,3:2|3:0,0:0:0:0:
239,292,158559,2,0,L|242:333,1,41.25,0|0,3:0|3:0,0:0:0:0:
298,229,158709,5,4,3:2:0:0:
337,240,158784,1,0,3:2:0:0:
377,234,158859,1,0,3:2:0:0:
410,210,158934,1,2,3:2:0:0:
435,140,159009,5,4,3:2:0:0:
425,100,159084,1,0,3:2:0:0:
399,69,159159,1,0,3:2:0:0:
362,52,159234,1,2,3:2:0:0:
289,68,159309,5,4,3:2:0:0:
259,96,159384,1,0,3:2:0:0:
245,134,159459,1,0,3:2:0:0:
249,175,159534,1,2,3:2:0:0:
298,229,159609,6,0,P|307:269|304:310,1,82.5,6|0,3:2|0:0,0:0:0:0:
181,88,159909,1,10,0:0:0:0:
221,275,160059,1,2,0:0:0:0:
326,146,160209,1,0,3:0:0:0:
326,146,160284,1,0,0:0:0:0:
326,146,160359,1,2,0:0:0:0:
163,200,160509,2,0,P|122:197|80:192,1,82.5,8|0,0:0|0:0,0:0:0:0:
224,356,160809,6,0,P|217:315|220:274,1,82.5,2|0,3:2|0:0,0:0:0:0:
362,52,161109,1,10,0:0:0:0:
391,215,161259,1,0,0:0:0:0:
267,143,161409,2,0,L|308:139,1,41.25,2|0,3:2|0:2,0:2:0:0:
403,56,161559,2,0,L|362:52,1,41.25,2|0,3:2|0:2,0:2:0:0:
192,8,161709,2,0,L|185:90,1,82.5,10|0,0:0|0:0,0:0:0:0:
163,200,162009,6,0,P|122:194|80:192,1,82.5,2|0,3:2|0:0,0:0:0:0:
218,280,162309,1,10,0:0:0:0:
327,138,162459,1,2,0:0:0:0:
327,138,162534,1,0,0:0:0:0:
327,138,162609,2,0,L|324:96,1,41.25,2|0,3:0|0:0,0:0:0:0:
318,22,162759,1,2,0:0:0:0:
333,212,162909,1,10,0:0:0:0:
475,62,163059,1,2,0:0:0:0:
475,62,163134,1,0,0:0:0:0:
475,62,163209,6,0,L|392:56,1,82.5,2|0,3:2|0:0,0:0:0:0:
327,138,163434,1,0,0:0:0:0:
327,138,163509,2,0,L|244:143,1,82.5,8|0,0:2|0:0,0:0:0:0:
36,235,163809,2,0,L|77:238,1,41.25,2|0,3:2|0:0,0:0:0:0:
181,309,163959,2,0,L|139:312,1,41.25,2|0,3:2|0:0,0:0:0:0:
23,218,164109,2,0,P|29:178|30:137,1,82.5,10|0,0:0|0:0,0:0:0:0:
315,2,164409,5,6,3:2:0:0:
181,226,164559,1,0,0:0:0:0:
181,226,164634,1,0,0:0:0:0:
181,226,164709,1,8,0:0:0:0:
141,134,164859,1,0,0:0:0:0:
222,305,165009,2,0,L|263:301,1,41.25,2|0,3:2|0:0,0:0:0:0:
361,220,165159,2,0,L|319:216,1,41.25,2|0,3:2|0:0,0:0:0:0:
251,61,165309,2,0,L|245:144,1,82.5,10|2,3:2|0:0,0:0:0:0:
37,344,165609,6,0,P|38:261|30:179,1,165,2|10,3:2|0:0,0:0:0:0:
181,45,166059,1,0,0:0:0:0:
181,45,166134,1,0,0:0:0:0:
181,45,166209,2,0,L|139:42,1,41.25,2|0,3:2|0:0,0:0:0:0:
65,38,166359,1,0,3:0:0:0:
245,144,166509,1,8,0:0:0:0:
129,151,166659,1,2,0:0:0:0:
377,3,166809,6,0,L|366:167,1,165,6|8,3:2|0:0,0:0:0:0:
297,354,167259,2,0,L|293:312,1,41.25
239,228,167409,5,6,3:2:0:0:
242,186,167484,1,0,3:0:0:0:
245,144,167559,1,0,3:0:0:0:
181,45,167709,2,0,L|263:37,1,82.5,8|0,0:0|0:0,0:0:0:0:
31,180,168009,5,6,3:2:0:0:
72,183,168084,1,0,3:2:0:0:
113,187,168159,1,0,3:2:0:0:
154,190,168234,1,0,3:2:0:0:
183,219,168309,5,14,3:2:0:0:
224,215,168384,1,0,3:2:0:0:
265,212,168459,1,0,3:2:0:0:
306,209,168534,1,0,3:2:0:0:
340,231,168609,6,0,L|346:271,1,41.25,6|0,3:2|3:2,0:0:0:0:
404,158,168759,2,0,L|410:117,1,41.25,2|0,3:2|3:2,0:0:0:0:
373,26,168909,5,12,3:2:0:0:
329,0,168984,1,0,3:0:0:0:
278,6,169059,1,0,3:0:0:0:
241,40,169134,1,0,3:0:0:0:
231,89,169209,6,0,P|238:172|234:254,1,165,6|10,3:2|0:2,0:0:0:0:
158,353,169659,1,2,0:0:0:0:
44,246,169809,2,0,L|125:236,1,82.5,2|0,3:2|0:0,0:0:0:0:
231,89,170109,1,8,0:0:0:0:
241,76,170409,6,0,L|254:240,1,165,2|10,3:2|0:2,0:0:0:0:
266,347,170859,1,0,0:0:0:0:
362,201,171009,2,0,L|358:242,1,41.25,2|0,3:2|0:0,0:0:0:0:
439,302,171159,2,0,L|435:261,1,41.25,2|0,3:2|0:0,0:0:0:0:
276,123,171309,2,0,L|282:205,1,82.5,10|0,0:2|0:0,0:0:0:0:
395,50,171609,6,0,L|353:46,1,41.25,2|0,3:2|0:0,0:0:0:0:
276,123,171759,1,0,0:0:0:0:
240,143,171834,1,0,0:0:0:0:
200,140,171909,1,8,0:0:0:0:
168,115,171984,1,0,0:0:0:0:
155,77,172059,1,0,0:0:0:0:
166,38,172134,1,0,0:0:0:0:
197,11,172209,6,0,L|202:61,1,49.4999984893799,0|0,3:0|0:0,0:0:0:0:
276,123,172359,2,0,L|270:172,1,49.4999984893799,0|0,3:0|0:0,0:0:0:0:
161,280,172509,6,0,P|136:286|112:286,1,49.4999984893799,8|0,3:2|0:0,0:0:0:0:
234,336,172659,2,0,P|258:335|282:341,1,49.4999984893799,0|0,3:0|0:0,0:0:0:0:
130,212,172809,5,4,3:2:0:0:
130,212,172959,2,0,L|136:129,1,82.5,0|2,0:0|0:0,0:0:0:0:
197,11,173259,2,0,L|200:52,3,41.25,0|0|2|0,0:0|0:0|0:0|0:0,0:0:0:0:
221,68,173559,1,0,0:0:0:0:
311,254,173709,6,0,L|187:263,1,123.75,8|0,0:0|0:0,0:0:0:0:
129,211,174009,6,0,P|127:179|121:146,1,66,6|0,3:2|0:0,0:0:0:0:
179,328,175209,2,0,P|181:295|187:262,1,66,2|0,3:2|0:0,0:0:0:0:
117,376,176109,1,2,0:0:0:0:
65,218,176409,6,0,L|131:212,2,66,2|0|0,3:2|0:0|0:0,0:0:0:0:
65,218,178209,1,2,0:0:0:0:
191,86,178509,1,0,0:0:0:0:
256,193,178809,6,0,L|260:242,1,49.4999984893799,2|0,0:2|0:0,0:0:0:0:
341,142,179409,2,0,L|336:191,1,49.4999984893799,2|0,0:2|0:0,0:0:0:0:
256,91,180009,1,2,0:0:0:0:
180,216,180309,6,0,L|130:211,2,49.4999984893799,2|2|2,0:2|0:0|0:0,0:0:0:0:
345,289,181209,2,0,L|334:188,1,98.9999969787599,2|2,0:2|0:0,0:0:0:0:
335,190,182109,5,0,0:0:0:0:
429,149,182259,2,0,L|433:107,1,41.25
414,66,182409,5,2,0:0:0:0:
351,16,182559,1,0,0:0:0:0:
272,17,182709,1,2,0:0:0:0:
212,69,182859,1,0,0:0:0:0:
198,148,183009,1,2,0:0:0:0:
238,216,183159,1,0,0:0:0:0:
313,244,183309,1,2,0:0:0:0:
388,217,183459,1,0,0:0:0:0:
429,149,183609,6,0,P|434:197|436:247,2,98.9999969787599,2|2|2,0:0|0:0|0:0,0:0:0:0:
429,149,185409,1,2,0:0:0:0:
297,275,185709,1,0,0:0:0:0:
404,340,186009,6,0,L|453:344,1,49.4999984893799,2|0,0:2|0:0,0:0:0:0:
335,264,186609,2,0,L|285:268,1,49.4999984893799,2|0,0:2|0:0,0:0:0:0:
404,94,187209,6,0,P|399:142|396:192,2,98.9999969787599,2|2|2,0:0|0:0|0:0,0:0:0:0:
404,94,188709,1,0,0:0:0:0:
171,41,189009,6,0,L|176:90,1,49.4999984893799,2|2,0:0|0:0,0:0:0:0:
240,227,189609,1,0,0:0:0:0:
250,149,189909,1,0,0:0:0:0:
126,328,190209,6,0,L|175:322,1,49.4999984893799,2|2,0:0|0:0,0:0:0:0:
0,197,190809,5,2,0:0:0:0:
256,192,191109,12,0,192759,0:0:0:0:
99,302,192909,5,0,3:0:0:0:
105,261,192984,1,0,3:0:0:0:
111,220,193059,1,0,3:0:0:0:
118,179,193134,1,0,3:0:0:0:
124,139,193209,6,0,P|206:134|287:119,1,165,6|10,3:2|0:0,0:0:0:0:
121,36,193659,1,2,0:0:0:0:
315,191,193809,2,0,P|317:129|329:68,1,123.75,2|0,3:2|0:0,0:0:0:0:
312,39,194109,1,10,0:0:0:0:
360,265,194259,1,2,0:0:0:0:
511,132,194409,6,0,B|468:127|443:139|443:139|416:119|416:119|383:123|353:117,1,165,2|10,3:2|0:0,0:0:0:0:
312,39,194859,1,2,0:0:0:0:
481,212,195009,2,0,L|473:294,1,82.5,2|0,3:2|0:0,0:0:0:0:
353,117,195309,1,10,0:0:0:0:
339,105,195609,6,0,L|503:89,1,165,6|10,3:2|0:0,0:0:0:0:
512,106,196209,6,0,L|471:98,1,41.25,2|0,3:2|0:0,0:0:0:0:
272,55,196359,1,6,0:2:0:0:
263,38,196659,6,0,P|258:120|243:201,1,165,6|0,3:2|0:0,0:0:0:0:
130,298,197109,2,0,P|170:290|211:289,1,82.5,8|0,0:0|0:0,0:0:0:0:
42,213,197409,1,0,3:0:0:0:
119,106,197559,6,0,L|159:98,1,41.25,2|0,0:0|0:0,0:0:0:0:
202,194,197709,2,0,L|242:201,1,41.25,10|0,0:0|0:0,0:0:0:0:
289,129,197859,2,0,L|329:121,1,41.25,2|0,0:0|0:0,0:0:0:0:
444,296,198009,6,0,P|437:213|426:132,1,165,6|10,3:2|0:0,0:0:0:0:
424,308,198459,1,2,0:0:0:0:
511,122,198609,2,0,P|452:114|416:65,1,123.75,2|0,3:2|0:0,0:0:0:0:
433,37,198909,1,10,0:0:0:0:
470,231,199059,1,0,0:0:0:0:
273,144,199209,6,0,B|306:152|336:147|336:147|350:129|374:119|374:119|395:134|426:132,2,165,2|8|0,3:2|0:0|3:2,0:0:0:0:
145,284,199959,6,0,L|187:286,1,41.25,2|0,0:0|0:0,0:0:0:0:
144,192,200109,2,0,L|126:156,1,41.25,10|0,0:0|0:0,0:0:0:0:
67,238,200259,2,0,L|45:273,1,41.25,2|0,0:0|0:0,0:0:0:0:
173,170,200409,6,0,P|169:87|179:5,1,165,2|10,3:2|0:0,0:0:0:0:
144,192,200859,1,2,0:0:0:0:
373,146,201009,2,0,L|249:133,1,123.75,2|0,3:2|0:0,0:0:0:0:
197,74,201309,1,10,0:0:0:0:
405,21,201459,1,2,0:0:0:0:
293,176,201609,6,0,B|261:225|277:291|277:291|294:264|325:253,1,165,0|8,3:2|0:0,0:0:0:0:
424,338,202059,2,0,L|341:329,1,82.5,0|0,0:0|3:0,0:0:0:0:
199,345,202284,1,2,3:2:0:0:
190,333,202359,6,0,P|187:312|186:291,1,41.25,2|0,3:2|3:0,0:0:0:0:
245,213,202509,2,0,P|247:192|248:171,1,41.25,10|0,3:2|3:0,0:0:0:0:
141,131,202659,2,0,P|138:110|137:89,1,41.25,2|0,3:2|3:0,0:0:0:0:
267,0,202809,6,0,L|260:82,1,82.5,6|0,3:2|0:0,0:0:0:0:
141,131,203109,1,10,0:0:0:0:
357,44,203259,6,0,L|363:126,1,82.5,2|0,0:2|3:0,0:0:0:0:
248,171,203559,1,2,0:0:0:0:
461,0,203709,6,0,L|454:82,1,82.5,10|0,2:2|0:0,0:0:0:0:
330,249,204009,1,2,3:2:0:0:
184,6,204159,6,0,L|266:0,1,82.5,2|8,0:2|0:2,0:0:0:0:
357,44,204459,1,2,0:0:0:0:
159,115,204609,2,0,P|153:74|164:34,1,82.5,2|0,3:2|0:0,0:0:0:0:
398,163,204909,2,0,L|274:149,1,123.75,10|0,0:2|2:2,0:0:0:0:
248,171,205209,5,2,3:2:0:0:
491,109,205359,1,2,3:2:0:0:
383,58,205509,1,8,0:0:0:0:
353,274,205659,6,0,L|345:233,1,41.25,2|0,3:2|3:2,0:0:0:0:
398,163,205809,1,2,3:2:0:0:
205,311,205959,6,0,L|286:325,1,82.5,10|0,3:2|0:0,0:0:0:0:
35,311,206259,6,0,P|108:300|197:281,1,165,6|2,3:2|0:0,0:0:0:0:
0,133,206709,1,10,0:0:0:0:
9,124,207009,6,0,L|90:138,1,82.5,2|2,3:2|0:0,0:0:0:0:
176,193,207234,1,0,0:0:0:0:
190,184,207309,6,0,P|195:164|197:143,1,41.25,10|0,3:2|3:0,0:0:0:0:
255,39,207459,2,0,P|256:59|262:79,1,41.25,2|0,3:2|3:0,0:0:0:0:
365,193,207609,6,0,L|283:178,1,82.5,6|2,3:2|0:0,0:0:0:0:
115,295,207909,1,10,0:0:0:0:
115,295,207984,1,0,0:0:0:0:
115,295,208059,6,0,L|197:281,1,82.5,2|2,3:2|0:0,0:0:0:0:
90,138,208359,5,2,0:0:0:0:
197,281,208509,1,8,0:0:0:0:
262,79,208659,6,0,B|298:79|320:69|320:69|340:68|359:84|359:84|356:56|388:21,1,165,2|0,0:0|0:0,0:0:0:0:
432,85,209034,1,0,0:2:0:0:
449,121,209109,1,10,0:2:0:0:
444,162,209184,1,2,0:2:0:0:
419,194,209259,1,2,0:2:0:0:
380,207,209334,1,0,0:2:0:0:
299,185,209409,5,2,3:2:0:0:
287,194,209484,1,0,0:2:0:0:
277,206,209559,1,0,0:2:0:0:
269,220,209634,1,0,0:2:0:0:
265,234,209709,1,10,0:2:0:0:
263,250,209784,1,2,0:2:0:0:
265,265,209859,1,2,0:2:0:0:
269,280,209934,1,0,0:2:0:0:
276,294,210009,6,0,B|309:297|335:281|335:281|358:284|378:295|378:295|397:283|436:282,1,165,0|8,0:0|0:0,0:0:0:0:
368,129,210459,2,0,L|333:114,1,20.625
156,38,210609,5,2,3:2:0:0:
276,85,210759,1,2,0:2:0:0:
156,131,210909,1,10,0:2:0:0:
276,178,211059,1,2,0:2:0:0:
124,353,211209,5,2,3:2:0:0:
276,294,211359,1,2,0:2:0:0:
124,237,211509,1,10,0:2:0:0:
276,178,211659,1,2,0:2:0:0:
24,112,211809,5,2,3:2:0:0:
24,112,211884,1,0,3:0:0:0:
24,112,211959,2,0,L|84:119,1,41.25,2|0,3:2|3:0,0:0:0:0:
156,131,212109,1,10,3:2:0:0:
263,250,212259,2,0,L|303:245,1,41.25,2|0,3:2|3:0,0:0:0:0:
444,227,212409,6,0,P|437:258|435:289,2,61.875002360344,6|2|2,3:2|0:0|0:0,0:0:0:0:
427,202,213009,2,0,P|425:171|418:140,1,61.875002360344,2|0,0:2|0:0,0:0:0:0:
363,70,213309,1,2,0:0:0:0:
305,244,213459,1,2,0:0:0:0:
310,255,213759,5,0,0:0:0:0:
219,240,213909,1,2,0:0:0:0:
128,225,214059,1,0,0:0:0:0:
224,329,214209,6,0,P|225:298|232:267,1,61.875002360344,2|0,0:2|0:0,0:0:0:0:
153,381,214509,1,2,0:0:0:0:
153,381,214659,1,2,0:0:0:0:
109,246,214809,6,0,P|107:215|100:184,1,61.875002360344,2|2,0:2|0:0,0:0:0:0:
31,155,215109,2,0,P|91:155|132:111,1,123.750004720688,2|2,0:2|0:0,0:0:0:0:
61,84,215559,1,0,0:0:0:0:
109,246,215709,1,2,0:0:0:0:
61,84,215859,1,0,0:0:0:0:
176,28,216009,5,2,0:0:0:0:
183,28,216084,1,2,0:0:0:0:
191,29,216159,1,2,0:0:0:0:
199,29,216234,1,2,0:0:0:0:
206,29,216309,2,0,P|207:59|214:90,1,61.875002360344,2|0,0:2|0:0,0:0:0:0:
228,176,216609,6,0,P|229:145|236:114,1,61.875002360344,2|0,0:2|0:0,0:0:0:0:
427,115,216909,1,2,0:0:0:0:
409,148,216984,1,2,0:0:0:0:
377,169,217059,1,2,0:0:0:0:
339,172,217134,1,2,0:0:0:0:
304,155,217209,6,0,L|308:216,1,61.875002360344,2|2,0:0|0:0,0:0:0:0:
225,252,217509,2,0,P|285:251|326:295,1,123.750004720688,2|2,0:2|0:0,0:0:0:0:
244,384,217959,2,0,P|246:353|253:323,1,61.875002360344,0|2,0:2|0:0,0:0:0:0:
308,216,218259,6,0,P|247:216|206:172,1,123.750004720688,2|0,0:2|0:0,0:0:0:0:
273,132,218709,1,2,0:0:0:0:
277,145,218859,1,0,0:0:0:0:
353,83,219009,1,2,0:0:0:0:
371,176,219159,1,2,0:0:0:0:
446,39,219309,1,2,0:0:0:0:
451,215,219459,1,0,0:0:0:0:
502,122,219609,6,0,P|471:115|440:113,1,61.875002360344,2|2,0:2|0:0,0:0:0:0:
344,82,219909,2,0,P|404:82|445:38,1,123.750004720688,2|2,0:2|0:0,0:0:0:0:
373,10,220359,1,0,0:0:0:0:
277,145,220509,1,2,0:0:0:0:
232,45,220659,1,2,0:0:0:0:
237,34,220959,5,2,0:0:0:0:
157,81,221109,1,2,0:0:0:0:
77,128,221259,1,2,0:0:0:0:
143,199,221409,5,2,0:0:0:0:
142,205,221484,1,2,0:0:0:0:
141,211,221559,1,2,0:0:0:0:
140,217,221634,1,2,0:0:0:0:
123,243,221709,5,2,0:0:0:0:
124,249,221784,1,2,0:0:0:0:
125,255,221859,1,2,0:0:0:0:
126,261,221934,1,2,0:0:0:0:
142,286,222009,6,0,P|201:303|258:282,2,123.750004720688,6|2|8,3:2|3:2|3:3,3:2:0:0:
143,287,222909,1,0,3:0:0:0:
194,154,223059,1,0,0:0:0:0:
199,157,223134,1,0,0:0:0:0:
204,161,223209,6,0,L|199:222,1,61.875002360344,0|0,3:0|0:0,0:0:0:0:
288,100,223509,2,0,L|283:38,1,61.875002360344,0|0,3:0|0:0,0:0:0:0:
198,222,223809,1,8,3:0:0:0:
378,141,223959,5,8,3:3:0:0:
380,136,224034,1,0,3:3:0:0:
381,130,224109,1,8,3:3:0:0:
300,208,224259,1,8,3:3:0:0:
298,203,224334,1,0,3:3:0:0:
296,198,224409,6,0,B|287:248|287:248|295:272|295:272|286:318,2,123.750004720688,8|0|8,3:3|3:0|3:3,0:0:0:0:
296,198,225159,1,0,0:0:0:0:
217,90,225309,2,0,L|278:99,1,61.875002360344,0|8,3:0|3:3,0:0:0:0:
283,97,225534,1,0,3:0:0:0:
288,93,225609,6,0,P|295:63|294:32,1,61.875002360344,8|0,3:3|0:0,0:0:0:0:
177,161,225909,2,0,P|176:191|183:221,1,61.875002360344,8|0,3:3|0:0,0:0:0:0:
187,226,226134,1,0,3:0:0:0:
190,231,226209,6,0,L|128:221,1,61.875002360344,8|8,3:3|3:3,0:0:0:0:
68,170,226434,1,0,3:0:0:0:
64,165,226509,2,0,L|3:174,1,61.875002360344,8|8,3:3|3:3,0:0:0:0:
137,56,226809,5,0,3:0:0:0:
190,231,226959,1,0,3:0:0:0:
241,62,227109,1,0,3:0:0:0:
266,219,227259,1,0,3:0:0:0:
351,73,227409,1,0,3:0:0:0:
342,208,227559,1,0,3:0:0:0:
452,86,227709,1,0,3:0:0:0:
418,196,227859,1,0,3:0:0:0:
452,86,228009,5,0,3:0:0:0:
342,208,228159,1,0,3:0:0:0:
351,73,228309,1,0,3:0:0:0:
418,196,228459,1,0,3:0:0:0:
241,62,228609,1,0,3:0:0:0:
190,231,228759,1,0,3:0:0:0:
137,56,228909,1,0,3:0:0:0:
266,219,229059,1,0,3:0:0:0:
120,356,229209,5,6,3:2:0:0:
120,350,229284,1,0,3:2:0:0:
121,345,229359,1,0,3:2:0:0:
121,340,229434,1,0,3:2:0:0:
122,335,229509,1,0,3:2:0:0:
122,330,229584,1,0,3:2:0:0:
123,325,229659,1,0,3:2:0:0:
123,320,229734,1,0,3:2:0:0:
124,314,229809,1,0,3:2:0:0:
124,309,229884,1,0,3:2:0:0:
125,304,229959,1,0,3:2:0:0:
125,299,230034,1,0,3:2:0:0:
126,294,230109,1,0,3:2:0:0:
126,289,230184,1,0,3:2:0:0:
127,284,230259,1,0,3:2:0:0:
127,279,230334,1,0,3:2:0:0:
128,273,230409,1,0,3:2:0:0:
128,267,230484,1,0,3:2:0:0:
129,262,230559,1,0,3:2:0:0:
129,257,230634,1,0,3:2:0:0:
130,252,230709,1,0,3:2:0:0:
130,247,230784,1,0,3:2:0:0:
131,242,230859,1,0,3:2:0:0:
131,237,230934,1,0,3:2:0:0:
135,207,231009,5,2,0:0:0:0:
164,178,231084,1,2,0:0:0:0:
204,171,231159,1,2,0:0:0:0:
242,186,231234,1,2,0:0:0:0:
266,219,231309,1,2,0:0:0:0:
268,259,231384,1,2,0:0:0:0:
248,295,231459,1,2,0:0:0:0:
213,314,231534,1,2,0:0:0:0:
171,311,231609,6,0,P|233:301|294:299,1,123.75,6|0,3:2|0:0,0:0:0:0:
418,218,231909,6,0,P|356:215|295:206,1,123.75,6|0,3:2|0:0,0:0:0:0:
197,112,232209,5,4,3:2:0:0:
189,109,232284,1,0,3:0:0:0:
181,106,232359,1,0,3:0:0:0:
173,103,232434,1,0,3:0:0:0:
103,138,232509,6,2,P|155:75|147:-5,1,167.062500637293,6|0,0:2|0:0,0:0:0:0:
0,170,232809,6,0,P|8:246|14:323,1,154.6875,6|0,3:2|0:0,0:0:0:0:
72,374,233109,2,0,L|174:384,1,103.125,10|0,0:0|0:0,0:0:0:0:
242,331,233334,5,2,0:0:0:0:
87,206,233484,1,2,0:0:0:0:
87,206,233559,2,0,P|90:231|91:257,1,51.5625,2|0,0:0|0:0,0:0:0:0:
0,170,233709,2,0,P|74:169|122:111,1,154.6875,10|0,0:0|0:0,0:0:0:0:
74,34,234009,5,2,3:2:0:0:
249,86,234159,1,0,0:0:0:0:
108,185,234309,2,0,L|210:174,1,103.125,10|0,0:0|0:0,0:0:0:0:
312,163,234534,6,0,L|303:213,1,51.5625,2|0,0:2|3:0,0:0:0:0:
249,86,234684,1,2,0:0:0:0:
253,101,234759,1,2,0:0:0:0:
512,85,234909,2,0,L|358:69,1,154.6875,10|0,0:0|0:0,0:0:0:0:
291,26,235209,6,0,P|330:90|311:162,1,154.6875,2|0,3:2|0:0,0:0:0:0:
150,106,235509,2,0,P|201:106|253:101,1,103.125,8|0,0:0|0:0,0:0:0:0:
311,162,235734,5,2,0:0:0:0:
116,37,235884,1,2,0:0:0:0:
116,37,235959,2,0,P|122:61|126:87,1,51.5625,2|0,0:0|0:0,0:0:0:0:
189,259,236109,2,0,P|184:182|204:107,1,154.6875,10|0,0:0|0:0,0:0:0:0:
291,26,236409,5,2,3:2:0:0:
356,228,236559,1,2,0:2:0:0:
403,116,236709,1,10,0:0:0:0:
189,259,236859,5,2,0:0:0:0:
273,291,236934,1,2,0:0:0:0:
109,267,237084,5,2,0:0:0:0:
200,243,237159,1,2,0:0:0:0:
0,234,237309,6,0,L|5:183,1,51.5625,10|0,0:0|0:0,0:0:0:0:
103,109,237459,2,0,L|108:161,1,51.5625,2|0,0:0|0:0,0:0:0:0:
59,327,237609,5,6,3:2:0:0:
231,193,237909,2,0,P|180:186|129:184,1,103.125,10|0,0:0|0:0,0:0:0:0:
30,251,238134,5,2,0:0:0:0:
174,353,238284,1,2,0:0:0:0:
173,353,238359,2,0,P|172:327|169:301,1,51.5625,2|0,0:0|0:0,0:0:0:0:
223,168,238509,2,0,P|300:163|375:148,1,154.6875,10|0,0:0|0:0,0:0:0:0:
422,66,238809,6,0,P|405:141|429:213,1,154.6875,2|0,3:2|0:0,0:0:0:0:
512,168,239109,1,10,0:0:0:0:
419,321,239334,6,0,L|469:329,1,51.5625,2|0,0:2|3:0,0:0:0:0:
342,384,239484,1,2,0:0:0:0:
357,381,239559,1,2,0:0:0:0:
209,277,239709,2,0,L|361:250,1,154.6875,10|0,0:2|0:0,0:0:0:0:
129,224,240009,5,6,3:2:0:0:
117,212,240309,2,0,L|108:315,1,103.125,10|0,0:0|0:0,0:0:0:0:
11,146,240534,1,0,0:0:0:0:
11,146,240609,6,0,L|62:140,1,51.5625,6|2,3:2|0:0,0:0:0:0:
199,184,240759,1,2,0:0:0:0:
75,117,240909,1,10,0:0:0:0:
236,19,241059,1,2,0:0:0:0:
239,22,241134,1,2,0:0:0:0:
242,26,241209,5,6,3:2:0:0:
283,97,241359,1,0,0:0:0:0:
363,117,241509,1,0,0:0:0:0:
440,89,241659,1,0,0:0:0:0:
467,11,241809,5,2,3:2:0:0:
417,0,241884,1,0,3:0:0:0:
372,22,241959,1,2,3:2:0:0:
350,68,242034,1,2,3:2:0:0:
363,117,242109,5,10,3:2:0:0:
374,166,242184,1,0,3:0:0:0:
353,211,242259,1,2,3:2:0:0:
308,234,242334,1,2,3:2:0:0:
257,223,242409,6,0,P|360:215|463:215,1,206.25,6|8,3:2|0:0,0:0:0:0:
151,161,242859,2,0,P|168:179|182:201,1,51.5625,2|2,0:0|0:0,0:0:0:0:
250,326,243009,6,0,L|257:223,1,103.125,2|0,3:2|0:0,0:0:0:0:
311,110,243234,1,2,0:0:0:0:
338,190,243309,1,10,0:0:0:0:
336,197,243459,1,0,0:0:0:0:
479,66,243609,6,0,L|376:54,1,103.125,2|2,3:2|0:0,0:0:0:0:
504,167,243909,1,10,0:0:0:0:
336,197,244059,1,2,0:0:0:0:
435,355,244209,5,0,3:0:0:0:
435,355,244284,1,0,3:2:0:0:
435,355,244359,2,0,P|431:303|437:252,2,103.125,2|10|2,0:0|0:0|0:0,0:0:0:0:
216,125,244809,6,0,P|314:132|376:54,1,206.25,2|8,3:2|0:0,0:0:0:0:
55,179,245259,1,2,0:0:0:0:
59,188,245334,1,2,0:0:0:0:
63,197,245409,6,0,L|71:94,1,103.125,2|0,3:2|0:0,0:0:0:0:
103,272,245634,1,2,0:0:0:0:
159,208,245709,2,0,P|112:188|62:197,1,103.125,10|0,0:0|0:0,0:0:0:0:
282,326,246009,5,2,3:2:0:0:
364,100,246159,1,2,0:2:0:0:
331,263,246309,2,0,L|313:161,1,103.125,8|0,0:0|0:0,0:0:0:0:
159,207,246609,6,0,L|209:215,1,51.5625,2|0,3:2|0:0,0:0:0:0:
314,161,246759,1,2,0:0:0:0:
180,343,246909,2,0,L|281:325,1,103.125,8|0,0:0|0:0,0:0:0:0:
432,157,247209,6,0,P|335:140|312:45,1,206.25,6|8,3:2|0:0,0:0:0:0:
91,153,247659,1,2,0:0:0:0:
139,92,247734,1,2,0:0:0:0:
98,25,247809,6,0,L|118:230,1,206.25,2|8,3:2|0:0,0:0:0:0:
233,339,248259,1,2,0:0:0:0:
205,267,248334,1,2,0:0:0:0:
157,328,248409,5,2,3:2:0:0:
281,278,248559,1,2,0:2:0:0:
118,230,248709,1,10,0:2:0:0:
309,350,248859,1,2,0:2:0:0:
470,191,249009,2,0,P|476:137|471:83,1,103.125,2|0,3:2|0:0,0:0:0:0:
385,248,249309,1,10,0:2:0:0:
471,302,249459,1,0,0:0:0:0:
276,159,249609,5,6,3:2:0:0:
327,154,249684,1,2,0:0:0:0:
378,149,249759,1,2,0:0:0:0:
221,224,249909,1,10,0:0:0:0:
271,119,250059,5,2,0:2:0:0:
322,124,250134,1,2,0:0:0:0:
373,129,250209,1,6,3:2:0:0:
201,2,250359,1,2,0:0:0:0:
143,205,250509,5,10,0:0:0:0:
93,189,250584,1,2,0:0:0:0:
93,137,250659,1,2,0:0:0:0:
143,121,250734,1,2,0:0:0:0:
173,163,250809,5,4,3:2:0:0:
169,191,250884,1,0,3:0:0:0:
165,220,250959,1,0,3:0:0:0:
161,249,251034,1,0,3:0:0:0:
157,277,251109,6,0,L|163:328,1,51.5625,4|0,3:2|3:0,0:0:0:0:
282,210,251259,2,0,L|275:158,1,51.5625,0|0,3:0|3:0,0:0:0:0:
125,94,251409,5,4,3:2:0:0:
153,98,251484,1,0,3:0:0:0:
182,102,251559,1,0,3:0:0:0:
211,106,251634,1,0,3:0:0:0:
276,158,251709,5,4,3:2:0:0:
303,154,251784,1,0,3:0:0:0:
332,150,251859,1,0,3:0:0:0:
361,146,251934,1,0,3:0:0:0:
424,94,252009,6,0,P|430:53|420:13,1,82.5,6|2,3:2|0:0,0:0:0:0:
413,5,252234,2,0,L|372:0,1,41.25,2|8,0:0|0:0,0:0:0:0:
254,61,252384,5,2,0:0:0:0:
266,77,252459,2,0,L|276:158,1,82.5,2|2,0:0|0:2,0:0:0:0:
297,183,252684,2,0,L|286:264,1,82.5,2|2,0:0|0:0,0:0:0:0:
297,292,252909,5,10,0:0:0:0:
243,318,252984,1,0,0:0:0:0:
187,297,253059,1,2,0:0:0:0:
165,241,253134,1,2,0:0:0:0:
192,187,253209,6,0,L|273:200,1,82.5,2|2,3:2|0:0,0:0:0:0:
297,183,253434,1,2,0:0:0:0:
297,183,253509,6,0,L|337:177,1,41.25,8|0,0:2|0:0,0:0:0:0:
407,258,253659,2,0,L|367:253,1,41.25,2|0,0:2|0:0,0:0:0:0:
438,91,253809,1,0,0:0:0:0:
438,91,253884,2,0,L|424:172,1,82.5,2|2,0:2|0:0,0:0:0:0:
345,273,254109,5,10,0:0:0:0:
277,292,254184,1,0,0:0:0:0:
217,255,254259,1,2,0:0:0:0:
203,186,254334,1,2,0:0:0:0:
240,126,254409,6,0,P|237:85|232:44,1,82.5,2|2,3:2|0:0,0:0:0:0:
221,34,254634,2,0,P|200:29|180:26,1,41.25,2|8,0:0|0:0,0:0:0:0:
57,138,254784,5,2,0:0:0:0:
78,113,254859,2,0,P|119:114|159:105,1,82.5,2|2,0:0|0:0,0:0:0:0:
230,151,255084,2,0,P|271:149|311:158,1,82.5,2|2,0:0|0:0,0:0:0:0:
337,259,255309,5,10,0:0:0:0:
393,209,255384,1,0,0:0:0:0:
403,135,255459,1,2,0:0:0:0:
362,72,255534,1,2,0:0:0:0:
289,53,255609,6,0,L|207:63,1,82.5,2|2,3:2|0:0,0:0:0:0:
185,87,255834,1,2,0:0:0:0:
185,87,255909,6,0,L|144:81,1,41.25,8|0,0:2|0:0,0:0:0:0:
69,182,256059,2,0,L|109:176,1,41.25,2|0,0:2|0:0,0:0:0:0:
243,232,256209,1,0,0:0:0:0:
243,232,256284,2,0,L|229:150,1,82.5,2|2,0:2|0:0,0:0:0:0:
181,289,256509,5,10,0:0:0:0:
216,310,256584,1,0,0:0:0:0:
257,312,256659,1,2,0:0:0:0:
294,294,256734,1,2,0:0:0:0:
319,224,256809,6,0,L|300:122,1,103.125,6|2,3:2|0:0,0:0:0:0:
360,56,257034,2,0,L|341:157,1,103.125,2|2,0:2|0:0,0:0:0:0:
410,262,257259,1,2,0:0:0:0:
198,136,257409,1,0,0:0:0:0:
198,136,257484,2,0,L|302:122,1,103.125,2|0,0:0|0:0,0:0:0:0:
178,51,257709,5,10,0:0:0:0:
135,77,257784,1,0,0:0:0:0:
114,124,257859,1,2,0:0:0:0:
122,174,257934,1,2,0:0:0:0:
158,210,258009,6,0,P|148:261|147:313,1,103.125,2|2,3:2|0:0,0:0:0:0:
168,339,258234,1,2,0:2:0:0:
282,212,258384,5,2,0:0:0:0:
260,224,258459,2,0,L|157:210,1,103.125,2|2,0:0|0:0,0:0:0:0:
11,137,258684,2,0,L|113:123,1,103.125,2|2,0:0|0:0,0:0:0:0:
169,53,258909,5,10,0:0:0:0:
206,87,258984,1,0,0:0:0:0:
256,98,259059,1,2,0:0:0:0:
305,84,259134,1,2,0:0:0:0:
341,48,259209,6,0,L|357:208,1,154.6875,6|2,3:2|1:0,0:0:0:0:
343,232,259509,1,10,0:0:0:0:
506,160,259659,1,2,0:0:0:0:
506,160,259734,1,2,0:0:0:0:
506,160,259809,6,0,P|429:152|352:140,1,154.6875,6|0,3:2|0:0,0:0:0:0:
331,116,260109,1,10,0:0:0:0:
392,277,260259,1,0,0:0:0:0:
384,58,260409,5,4,3:2:0:0:
348,38,260484,1,0,3:2:0:0:
307,39,260559,1,0,3:2:0:0:
272,61,260634,1,0,3:2:0:0:
252,96,260709,6,0,L|259:158,1,61.875002360344,6|0,3:2|3:0,0:0:0:0:
238,366,260859,1,2,3:2:0:0:
234,361,260934,1,0,3:0:0:0:
229,355,261009,6,0,P|199:344|169:342,1,61.875002360344,4|0,3:2|3:0,0:0:0:0:
306,271,261159,2,0,P|335:260|365:258,1,61.875002360344,2|0,3:0|3:0,0:0:0:0:
229,201,261309,5,6,3:2:0:0:
224,154,261384,1,0,3:2:0:0:
219,108,261459,1,0,3:2:0:0:
215,62,261534,1,0,3:2:0:0:
210,16,261609,6,0,B|251:20|276:16|276:16|301:38|301:38|334:26|397:51,1,165,6|10,3:2|0:0,0:0:0:0:
434,0,262059,1,0,0:0:0:0:
385,238,262209,1,2,3:2:0:0:
325,118,262359,1,2,0:2:0:0:
327,115,262434,1,0,0:0:0:0:
330,112,262509,1,10,0:2:0:0:
440,150,262659,1,2,0:0:0:0:
283,41,262809,6,0,L|296:205,1,165,2|10,3:2|0:0,0:0:0:0:
405,129,263259,1,2,3:2:0:0:
408,125,263334,1,0,3:0:0:0:
411,121,263409,2,0,L|329:111,1,82.5,0|0,3:2|0:0,0:0:0:0:
175,32,263709,2,0,L|256:22,1,82.5,8|0,0:0|0:0,0:0:0:0:
40,132,264009,6,0,P|122:132|203:145,1,165,2|10,3:2|0:0,0:0:0:0:
53,46,264459,1,2,0:0:0:0:
163,227,264609,2,0,L|81:241,1,82.5,2|2,3:2|0:0,0:0:0:0:
240,339,264909,2,0,L|158:324,1,82.5,10|2,0:0|0:0,0:0:0:0:
356,67,265209,6,0,L|372:231,1,165,2|10,3:2|0:0,0:0:0:0:
428,9,265659,1,2,0:0:0:0:
277,198,265809,1,2,3:2:0:0:
401,143,265959,1,0,3:0:0:0:
404,144,266034,1,0,3:0:0:0:
407,145,266109,1,8,0:0:0:0:
272,91,266259,1,0,0:0:0:0:
486,250,266409,6,0,P|486:167|499:86,1,165,6|10,3:2|0:0,0:0:0:0:
409,293,266859,1,0,0:0:0:0:
298,106,267009,2,0,P|337:95|378:91,1,82.5,2|2,3:2|0:0,0:0:0:0:
200,204,267309,1,10,0:0:0:0:
373,231,267459,1,0,0:0:0:0:
131,94,267609,6,0,P|213:90|293:70,1,165,2|10,3:2|0:0,0:0:0:0:
72,39,268059,1,2,0:0:0:0:
199,204,268209,2,0,P|205:163|202:122,1,82.5,2|2,3:2|0:0,0:0:0:0:
99,323,268509,2,0,P|93:282|96:241,1,82.5,10|2,0:2|0:0,0:0:0:0:
293,70,268809,6,0,P|371:86|431:34,1,165,6|8,3:2|0:0,0:0:0:0:
260,3,269259,1,0,0:0:0:0:
367,240,269409,6,0,B|365:219|375:197|375:197|367:171|367:171|380:142|378:119,1,123.75,6|0,3:2|0:0,0:0:0:0:
371,87,269709,1,8,0:0:0:0:
433,310,269859,1,0,0:0:0:0:
322,378,270009,5,6,3:2:0:0:
301,380,270084,1,0,3:2:0:0:
280,382,270159,1,2,3:2:0:0:
260,384,270234,1,0,3:2:0:0:
205,334,270309,5,6,3:2:0:0:
184,332,270384,1,0,3:2:0:0:
164,330,270459,1,2,3:2:0:0:
143,329,270534,1,0,3:2:0:0:
82,285,270609,5,6,3:2:0:0:
73,244,270684,1,0,3:2:0:0:
81,204,270759,1,2,3:2:0:0:
104,170,270834,1,0,3:2:0:0:
157,118,270909,5,6,3:2:0:0:
200,145,270984,1,0,3:2:0:0:
250,146,271059,1,2,3:2:0:0:
295,121,271134,1,0,3:2:0:0:
347,68,271209,6,0,L|339:-14,1,82.5,6|0,3:2|0:0,0:0:0:0:
444,153,271509,2,0,L|436:235,1,82.5,10|0,0:2|0:0,0:0:0:0:
157,118,271809,1,2,3:2:0:0:
224,246,271959,1,0,0:2:0:0:
269,21,272109,1,10,0:2:0:0:
275,7,272409,5,2,3:2:0:0:
230,232,272559,1,2,0:2:0:0:
153,105,272709,1,10,0:2:0:0:
237,251,272859,2,0,P|233:292|223:332,1,82.5,2|0,0:0|3:0,0:0:0:0:
149,92,273159,5,2,0:2:0:0:
332,221,273309,1,10,0:2:0:0:
141,211,273459,1,2,0:2:0:0:
347,68,273609,6,0,L|429:60,1,82.5,2|0,3:2|0:0,0:0:0:0:
167,193,273909,2,0,L|84:185,1,82.5,10|0,0:2|0:0,0:0:0:0:
342,239,274209,1,2,3:2:0:0:
184,180,274359,1,0,0:0:0:0:
421,154,274509,1,10,0:2:0:0:
435,160,274809,5,2,3:2:0:0:
201,167,274959,1,2,0:0:0:0:
342,239,275109,1,10,0:0:0:0:
268,55,275259,2,0,L|262:95,1,41.25
201,167,275409,5,2,3:2:0:0:
206,207,275484,1,2,0:0:0:0:
211,248,275559,1,2,0:0:0:0:
216,289,275634,1,2,0:0:0:0:
236,313,275709,5,10,0:0:0:0:
234,324,275784,1,2,0:0:0:0:
233,334,275859,1,2,0:0:0:0:
231,344,275934,1,2,0:0:0:0:
250,367,276009,5,6,3:2:0:0:
424,245,276159,2,0,L|341:238,1,82.5,2|10,0:0|0:0,0:0:0:0:
505,177,276459,1,2,0:0:0:0:
253,28,276609,2,0,P|265:109|267:191,1,165,2|8,3:2|0:0,0:0:0:0:
256,212,277209,5,6,3:2:0:0:
369,159,277359,1,2,0:0:0:0:
138,116,277509,1,10,0:0:0:0:
281,294,277659,1,2,0:0:0:0:
451,125,277809,6,0,L|286:114,1,165,0|8,3:2|0:0,0:0:0:0:
265,92,278259,1,0,0:0:0:0:
439,274,278409,5,6,3:2:0:0:
445,285,278709,2,0,L|362:291,1,82.5,8|0,0:0|0:0,0:0:0:0:
85,181,279009,5,6,3:2:0:0:
79,192,279309,2,0,L|161:198,1,82.5,8|0,0:0|0:0,0:0:0:0:
370,37,279609,6,0,P|371:78|364:118,1,82.5,6|0,3:2|0:0,0:0:0:0:
133,287,279909,5,14,3:2:0:0:
372,209,280059,1,0,3:0:0:0:
184,56,280209,5,6,3:2:0:0:
178,90,280284,1,0,3:2:0:0:
174,124,280359,1,0,3:2:0:0:
169,159,280434,1,0,3:2:0:0:
124,218,280509,5,14,3:2:0:0:
129,252,280584,1,0,3:2:0:0:
133,287,280659,1,0,3:2:0:0:
138,322,280734,1,0,3:2:0:0:
90,378,280809,6,0,L|8:368,1,82.5,6|2,3:2|0:0,0:0:0:0:
210,230,281109,2,0,L|291:220,1,82.5,10|2,0:2|0:0,0:0:0:0:
90,82,281409,5,2,3:2:0:0:
138,322,281559,1,2,0:2:0:0:
238,120,281709,2,0,L|228:201,1,82.5,10|2,0:2|0:0,0:0:0:0:
453,321,282009,6,0,P|382:282|304:302,1,165,2|8,3:0|0:0,0:0:0:0:
301,330,282459,1,0,0:0:0:0:
419,177,282609,2,0,L|409:95,1,82.5,2|2,0:2|0:0,0:0:0:0:
210,230,282909,1,8,0:0:0:0:
200,219,283209,6,0,L|364:231,1,165,2|10,3:2|0:0,0:0:0:0:
155,291,283659,1,2,0:0:0:0:
323,147,283809,1,2,0:0:0:0:
227,36,283959,2,0,L|236:117,1,82.5,2|10,0:2|0:0,0:0:0:0:
330,161,284259,1,0,0:0:0:0:
42,119,284409,6,0,P|124:121|206:132,1,165,2|8,3:2|0:0,0:0:0:0:
236,117,284859,1,0,0:0:0:0:
25,212,285009,1,2,3:2:0:0:
183,273,285159,5,2,3:2:0:0:
181,276,285234,1,0,3:0:0:0:
178,279,285309,2,0,L|173:319,1,41.25,10|0,3:2|0:0,0:0:0:0:
140,207,285459,1,0,0:0:0:0:
251,368,285609,6,0,B|286:366|306:351|306:351|348:365|348:365|374:353|409:352,1,165,6|8,3:2|0:0,0:0:0:0:
255,293,286059,1,0,0:0:0:0:
371,172,286209,2,0,L|360:253,1,82.5,2|2,3:2|0:0,0:0:0:0:
268,113,286509,1,10,0:0:0:0:
463,79,286659,1,2,0:0:0:0:
252,123,286809,6,0,P|170:114|87:114,1,165,2|8,3:2|0:0,0:0:0:0:
70,132,287259,1,0,0:0:0:0:
180,297,287409,2,0,L|169:215,1,82.5,2|0,3:2|0:0,0:0:0:0:
309,46,287709,1,10,0:0:0:0:
316,36,288009,6,0,L|398:41,1,82.5,6|0,3:2|0:0,0:0:0:0:
177,115,288309,1,8,0:0:0:0:
170,108,288609,6,0,L|87:113,1,82.5,6|0,3:2|0:0,0:0:0:0:
311,187,288909,1,8,0:0:0:0:
311,186,289209,5,6,3:2:0:0:
313,214,289284,1,0,3:2:0:0:
315,241,289359,1,2,3:2:0:0:
317,269,289434,1,0,3:2:0:0:
264,321,289509,6,0,L|260:362,1,41.25,6|0,3:2|3:0,0:0:0:0:
199,252,289659,2,0,L|202:210,1,41.25,2|0,3:2|3:0,0:0:0:0:
266,123,289809,5,6,3:2:0:0:
304,110,289884,1,0,3:2:0:0:
344,117,289959,1,2,3:2:0:0:
376,143,290034,1,0,3:2:0:0:
311,186,290109,5,14,3:2:0:0:
299,136,290184,1,0,3:0:0:0:
319,90,290259,1,0,3:0:0:0:
363,66,290334,1,0,3:0:0:0:
432,37,290409,6,0,P|349:39|267:33,1,165,6|10,3:2|0:0,0:0:0:0:
120,148,290859,1,2,0:0:0:0:
32,27,291009,2,0,L|39:109,1,82.5,2|0,3:2|0:0,0:0:0:0:
127,298,291309,2,0,P|125:237|138:177,1,123.75,10|0,0:0|0:0,0:0:0:0:
120,148,291609,5,2,3:2:0:0:
287,218,291759,1,2,0:0:0:0:
290,216,291834,1,0,0:0:0:0:
294,214,291909,1,10,0:0:0:0:
207,269,292059,1,2,0:0:0:0:
362,96,292209,2,0,P|375:177|395:257,1,165,0|8,3:2|0:0,0:0:0:0:
512,167,292659,2,0,L|471:159,1,41.25
266,62,292809,5,6,3:2:0:0:
395,257,292959,1,2,0:2:0:0:
294,214,293109,1,10,0:2:0:0:
471,159,293259,1,2,0:2:0:0:
333,371,293409,6,0,P|328:330|322:289,1,82.5,2|2,3:2|0:0,0:0:0:0:
150,130,293709,1,10,0:0:0:0:
212,282,293859,1,2,0:0:0:0:
266,62,294009,5,2,3:2:0:0:
110,233,294159,1,2,0:0:0:0:
106,234,294234,1,2,0:0:0:0:
102,235,294309,1,10,0:0:0:0:
146,118,294459,1,2,0:0:0:0:
218,294,294609,6,0,P|222:253|222:211,1,82.5,6|0,3:2|3:0,0:0:0:0:
125,36,294909,1,8,0:0:0:0:
102,235,295059,1,2,0:0:0:0:
383,125,295209,6,0,P|303:136|243:84,1,165,6|10,3:2|0:0,0:0:0:0:
415,51,295659,1,0,0:0:0:0:
324,253,295809,2,0,L|311:171,1,82.5,2|0,3:2|0:0,0:0:0:0:
218,14,296109,2,0,P|214:75|196:134,1,123.75,10|0,0:2|0:0,0:0:0:0:
167,146,296409,5,2,3:2:0:0:
383,125,296559,1,2,0:0:0:0:
386,123,296634,1,0,0:0:0:0:
389,121,296709,1,10,0:0:0:0:
324,253,296859,1,2,0:0:0:0:
482,93,297009,2,0,P|399:94|322:68,1,165,0|8,3:2|0:0,0:0:0:0:
218,14,297459,2,0,L|223:54,1,41.25
141,242,297609,5,6,3:2:0:0:
83,70,297759,1,2,0:2:0:0:
16,197,297909,1,10,0:2:0:0:
59,86,298059,1,2,0:2:0:0:
241,190,298209,5,6,3:2:0:0:
52,273,298359,1,2,0:2:0:0:
248,313,298509,1,10,0:2:0:0:
98,170,298659,1,2,0:0:0:0:
337,53,298809,5,6,3:2:0:0:
352,46,299109,5,6,3:2:0:0:
367,39,299409,5,6,3:2:0:0:
394,69,299484,1,0,3:2:0:0:
404,108,299559,1,0,3:2:0:0:
393,148,299634,1,0,3:2:0:0:
324,176,299709,5,6,3:2:0:0:
296,206,299784,1,2,3:2:0:0:
286,245,299859,1,2,3:2:0:0:
297,285,299934,1,2,3:2:0:0:
352,334,300009,6,0,L|433:323,1,82.5,6|0,3:2|0:0,0:0:0:0:
494,243,300234,1,2,0:2:0:0:
494,243,300309,2,0,L|453:237,1,41.25,10|0,0:2|0:0,0:0:0:0:
324,176,300459,2,0,L|364:170,1,41.25,2|0,0:2|0:0,0:0:0:0:
450,66,300609,5,2,3:2:0:0:
363,245,300759,1,0,0:0:0:0:
499,163,300909,1,8,0:0:0:0:
307,13,301059,6,0,P|324:93|323:175,1,165,2|0,0:0|0:0,0:0:0:0:
86,331,301509,1,10,0:0:0:0:
255,320,301659,1,2,0:2:0:0:
76,185,301809,1,2,3:2:0:0:
170,325,301959,1,2,0:2:0:0:
245,174,302109,1,10,0:2:0:0:
151,34,302259,1,2,0:2:0:0:
255,187,302409,6,0,P|296:189|337:191,1,82.5,2|2,3:2|0:0,0:0:0:0:
244,38,302709,2,0,P|202:39|161:42,1,82.5,10|2,0:2|0:0,0:0:0:0:
49,268,303009,2,0,P|46:187|40:103,1,165,2|8,3:2|0:0,0:0:0:0:
21,87,303609,5,2,3:2:0:0:
255,187,303759,1,2,3:2:0:0:
49,268,303909,1,10,3:2:0:0:
161,42,304059,2,0,L|166:83,1,41.25,6|0,0:0|0:0,0:0:0:0:
243,174,304209,6,0,L|233:256,1,82.5,2|0,3:2|0:0,0:0:0:0:
320,310,304434,1,2,0:2:0:0:
314,298,304509,6,0,P|286:284|256:278,1,61.875002360344,8|8,0:3|0:3,0:2:0:0:
393,227,304659,2,0,P|420:213|450:207,1,61.875002360344,8|8,0:3|0:3,0:2:0:0:
286,33,304809,5,6,3:2:0:0:
287,38,304884,1,2,0:0:0:0:
288,43,304959,1,2,0:0:0:0:
289,48,305034,1,2,0:0:0:0:
290,53,305109,1,10,0:0:0:0:
275,154,305259,5,2,0:0:0:0:
278,150,305334,1,2,0:0:0:0:
282,147,305409,1,2,3:2:0:0:
286,143,305484,1,2,0:0:0:0:
290,140,305559,1,2,0:0:0:0:
385,102,305709,5,10,0:0:0:0:
380,101,305784,1,2,0:0:0:0:
375,99,305859,1,2,0:0:0:0:
370,97,305934,1,2,0:0:0:0:
365,96,306009,1,2,3:2:0:0:
175,309,306159,5,2,0:0:0:0:
179,280,306234,1,2,0:0:0:0:
185,249,306309,1,10,0:0:0:0:
190,219,306384,1,2,0:0:0:0:
195,188,306459,1,2,0:0:0:0:
101,23,306609,5,2,3:2:0:0:
124,41,306684,1,2,0:0:0:0:
147,62,306759,1,2,0:0:0:0:
171,81,306834,1,2,0:0:0:0:
195,101,306909,1,10,0:0:0:0:
385,102,307059,5,2,0:0:0:0:
357,113,307134,1,2,0:0:0:0:
328,123,307209,1,6,3:2:0:0:
299,134,307284,1,2,0:0:0:0:
270,145,307359,1,2,0:0:0:0:
8,169,307509,5,10,0:0:0:0:
73,158,307584,1,2,0:0:0:0:
135,184,307659,1,2,0:0:0:0:
172,240,307734,1,2,0:0:0:0:
175,309,307809,1,6,3:2:0:0:
180,323,308109,6,0,L|169:384,1,61.875002360344,8|0,0:0|0:0,0:0:0:0:
296,262,308259,1,0,0:0:0:0:
297,268,308334,1,0,0:0:0:0:
298,274,308409,6,0,L|359:266,1,61.875002360344,6|0,3:2|3:2,0:0:0:0:
480,181,308559,2,0,L|418:173,1,61.875002360344,2|0,3:2|3:2,0:0:0:0:
267,64,308709,6,0,L|259:125,1,61.875002360344,6|0,3:2|3:2,0:0:0:0:
160,295,308859,2,0,L|152:233,1,61.875002360344,2|0,3:2|3:2,0:0:0:0:
79,44,309009,5,6,3:2:0:0:
117,17,309084,1,0,3:2:0:0:
161,9,309159,1,2,3:2:0:0:
205,23,309234,1,2,3:2:0:0:
267,64,309309,5,6,3:2:0:0:
305,91,309384,1,0,3:2:0:0:
350,99,309459,1,2,3:2:0:0:
394,85,309534,1,0,3:2:0:0:
434,19,309609,6,0,P|427:95|436:172,1,154.6875,6|0,3:2|0:0,0:0:0:0:
411,287,309909,2,0,P|419:236|408:186,1,103.125,10|0,0:0|0:0,0:0:0:0:
177,268,310209,2,0,B|235:255|235:255|275:266|275:266|327:255,1,154.6875,2|0,3:2|0:0,0:0:0:0:
338,241,310509,1,10,0:0:0:0:
59,140,310659,5,6,0:2:0:0:
227,89,310809,1,2,3:2:0:0:
52,12,310959,2,0,L|38:114,1,103.125,2|8,0:0|0:0,0:0:0:0:
174,298,311259,2,0,P|100:230|0:238,1,206.25,2|2,0:0|0:0,0:0:0:0:
139,373,311709,1,10,0:0:0:0:
206,172,311859,1,2,0:0:0:0:
284,279,312009,5,6,3:2:0:0:
99,82,312159,2,0,L|201:68,1,103.125,2|8,0:0|0:0,0:0:0:0:
275,289,312459,1,2,0:0:0:0:
197,182,312609,5,2,3:2:0:0:
174,298,312759,1,2,0:0:0:0:
332,132,312909,1,10,0:0:0:0:
360,337,313059,1,6,0:0:0:0:
430,103,313209,6,0,P|326:99|224:90,1,206.25,2|8,3:2|0:0,0:0:0:0:
465,24,313659,1,2,0:0:0:0:
306,232,313809,2,0,L|292:129,1,103.125,2|2,3:2|0:0,0:0:0:0:
322,9,314109,1,10,0:0:0:0:
203,280,314259,1,2,0:0:0:0:
383,320,314409,6,0,P|301:262|203:280,1,206.25,4|10,3:2|0:0,0:0:0:0:
331,384,314859,1,2,0:0:0:0:
431,152,315009,2,0,L|443:254,1,103.125,2|2,3:2|0:0,0:0:0:0:
320,371,315309,1,10,0:0:0:0:
87,148,315459,6,0,P|190:137|292:129,1,206.25,6|2,0:0|0:0,0:0:0:0:
128,223,315909,1,10,0:0:0:0:
246,246,316059,1,2,0:0:0:0:
73,125,316209,1,2,3:2:0:0:
304,97,316359,1,2,0:0:0:0:
50,301,316509,2,0,P|55:223|45:147,1,154.6875,10|0,0:0|0:0,0:0:0:0:
3,61,316809,6,0,P|64:67|112:30,1,123.75,6|0,3:2|0:0,0:0:0:0:
181,148,317109,2,0,P|180:107|187:67,1,82.5,10|0,0:0|0:0,0:0:0:0:
267,13,317409,5,6,3:2:0:0:
312,212,317559,1,0,0:0:0:0:
461,147,317709,2,0,P|415:148|372:132,1,92.812503540516,10|0,0:0|0:0,0:0:0:0:
300,101,318009,5,6,3:2:0:0:
289,99,318084,1,0,3:2:0:0:
279,98,318159,1,0,3:2:0:0:
269,96,318234,1,0,3:2:0:0:
213,145,318309,5,6,3:2:0:0:
202,146,318384,1,0,3:2:0:0:
192,147,318459,1,0,3:2:0:0:
182,149,318534,1,0,3:2:0:0:
146,216,318609,5,6,3:2:0:0:
136,220,318684,1,0,3:2:0:0:
127,225,318759,1,0,3:2:0:0:
118,230,318834,1,0,3:2:0:0:
107,305,318909,6,0,L|115:366,1,61.875002360344,6|0,3:2|3:0,0:0:0:0:
0,225,319059,2,0,L|7:163,1,61.875002360344,2|0,3:2|3:0,0:0:0:0:
95,47,319209,6,0,B|157:34|157:34|190:43|190:43|256:30,1,165,6|10,3:2|0:0,0:0:0:0:
271,36,319659,1,2,0:0:0:0:
146,216,319809,1,0,3:2:0:0:
321,151,319959,1,0,0:0:0:0:
181,127,320109,1,10,0:0:0:0:
257,231,320259,1,2,0:0:0:0:
83,146,320409,5,2,3:0:0:0:
270,67,320559,1,2,0:0:0:0:
195,291,320709,1,10,0:0:0:0:
156,35,320859,1,2,0:0:0:0:
257,231,321009,2,0,P|258:148|269:66,1,165,2|8,3:2|0:0,0:0:0:0:
195,291,321459,1,2,0:0:0:0:
440,182,321609,6,0,P|360:195|292:151,1,165,0|10,3:2|0:0,0:0:0:0:
295,135,322059,1,2,0:0:0:0:
373,350,322209,2,0,P|364:288|371:227,1,123.75,2|0,0:0|0:0,0:0:0:0:
440,182,322509,1,10,0:0:0:0:
257,231,322659,1,0,0:0:0:0:
373,350,322809,5,2,3:2:0:0:
295,135,322959,1,2,0:0:0:0:
372,227,323109,1,10,0:0:0:0:
450,12,323259,1,2,0:0:0:0:
268,206,323409,2,0,L|256:41,1,165,2|10,3:2|0:0,0:0:0:0:
207,260,323859,1,0,0:0:0:0:
57,19,324009,5,6,3:2:0:0:
65,8,324309,1,10,0:2:0:0:
256,41,324459,1,2,0:2:0:0:
82,116,324609,1,2,3:2:0:0:
195,116,324759,1,2,0:2:0:0:
34,213,324909,6,0,P|116:217|197:230,2,165,10|2|8,0:0|3:2|0:0,0:0:0:0:
24,227,325809,1,0,3:2:0:0:
275,173,325959,1,0,0:0:0:0:
140,376,326109,2,0,P|134:314|141:253,1,123.75,10|0,0:0|0:0,0:0:0:0:
13,236,326409,6,0,P|103:240|156:169,1,185.625007081032,6|0,3:2|0:0,0:0:0:0:
124,84,326709,1,10,0:0:0:0:
227,267,326859,1,2,0:0:0:0:
292,35,327009,5,6,3:2:0:0:
63,163,327159,1,2,0:0:0:0:
304,28,327309,2,0,P|363:43|425:37,1,123.75,8|0,0:0|0:0,0:0:0:0:
494,83,327609,5,6,3:2:0:0:
503,132,327684,1,0,3:2:0:0:
482,179,327759,1,0,3:2:0:0:
438,205,327834,1,0,3:2:0:0:
374,165,327909,5,6,3:2:0:0:
335,151,327984,1,0,3:2:0:0:
294,155,328059,1,0,3:2:0:0:
259,176,328134,1,0,3:2:0:0:
214,235,328209,5,6,3:2:0:0:
218,244,328284,1,0,3:2:0:0:
221,254,328359,1,0,3:2:0:0:
224,263,328434,1,0,3:2:0:0:
251,287,328509,5,14,3:2:0:0:
249,297,328584,1,0,3:2:0:0:
249,307,328659,1,0,3:2:0:0:
250,317,328734,1,0,3:2:0:0:
301,370,328809,6,0,P|228:335|151:360,2,165,6|10|2,3:2|0:0|3:0,0:0:0:0:
299,384,329709,1,10,0:0:0:0:
56,316,329859,1,2,0:0:0:0:
153,251,330009,5,0,3:2:0:0:
24,183,330159,1,2,0:0:0:0:
26,190,330234,1,2,0:0:0:0:
29,197,330309,1,10,0:0:0:0:
159,58,330459,2,0,L|149:139,1,82.5,2|0,0:0|3:0,0:0:0:0:
304,369,330759,5,2,0:0:0:0:
256,139,330909,1,10,0:0:0:0:
299,384,331059,1,2,0:0:0:0:
502,206,331209,6,0,L|337:192,2,165,2|10|2,3:2|0:0|3:2,0:0:0:0:
512,218,332109,1,10,0:0:0:0:
250,122,332259,1,2,0:0:0:0:
338,192,332409,5,0,3:2:0:0:
381,46,332559,1,2,0:0:0:0:
378,38,332634,1,2,0:0:0:0:
375,30,332709,1,10,0:0:0:0:
334,205,332859,2,0,L|340:287,1,82.5,2|0,0:0|3:0,0:0:0:0:
114,328,333159,5,2,0:0:0:0:
248,341,333309,1,10,0:0:0:0:
126,315,333459,1,2,0:0:0:0:
334,205,333609,5,6,3:2:0:0:
200,192,333759,1,2,0:2:0:0:
373,137,333909,1,10,0:2:0:0:
189,200,334059,1,2,0:2:0:0:
229,0,334209,5,2,3:2:0:0:
334,205,334359,1,2,0:2:0:0:
115,94,334509,1,10,0:0:0:0:
352,41,334659,6,0,L|333:204,1,165,2|2,0:0|0:0,0:0:0:0:
366,284,335109,1,10,0:0:0:0:
455,131,335259,2,0,P|414:135|372:136,1,82.5,2|0,0:0|3:2,0:0:0:0:
72,250,335559,1,2,0:0:0:0:
115,94,335709,2,0,L|122:176,1,82.5,10|0,0:0|0:0,0:0:0:0:
394,299,336009,5,6,3:2:0:0:
210,159,336159,1,2,0:0:0:0:
233,321,336309,1,10,0:0:0:0:
372,136,336459,1,2,0:0:0:0:
410,310,336609,5,6,3:2:0:0:
194,147,336759,1,2,0:0:0:0:
384,121,336909,1,10,0:0:0:0:
222,336,337059,1,2,0:0:0:0:
66,333,337209,5,6,3:2:0:0:
67,312,337284,1,0,3:2:0:0:
69,291,337359,1,2,3:2:0:0:
71,271,337434,1,0,3:2:0:0:
72,250,337509,6,0,L|112:244,1,41.25,4|0,3:2|3:2,0:0:0:0:
222,336,337659,2,0,L|181:330,1,41.25,0|0,3:2|3:2,0:0:0:0:
98,148,337809,5,4,3:2:0:0:
134,112,337884,1,0,3:2:0:0:
184,100,337959,1,2,3:2:0:0:
232,115,338034,1,0,3:2:0:0:
285,166,338109,5,6,3:2:0:0:
283,187,338184,1,0,3:2:0:0:
284,208,338259,1,2,3:2:0:0:
288,228,338334,1,0,3:2:0:0:
319,299,338409,6,0,L|435:314,1,107.249995090485,6|2,3:2|0:0,0:0:0:0:
179,178,338709,1,10,0:0:0:0:
222,336,338859,1,2,0:0:0:0:
79,156,339009,2,0,P|157:152|209:93,1,160.874992635727,2|0,3:2|0:0,0:0:0:0:
171,0,339309,2,0,P|177:53|171:106,1,107.249995090485,10|2,0:0|0:0,0:0:0:0:
84,308,339609,5,0,3:2:0:0:
2,182,339759,2,0,L|108:191,1,107.249995090485,2|8,0:0|0:0,0:0:0:0:
333,68,340059,1,0,0:0:0:0:
328,304,340209,6,0,L|275:301,1,53.6249975452424,2|0,3:2|0:0,0:0:0:0:
202,234,340359,2,0,L|255:230,1,53.6249975452424,0|0,3:2|0:0,0:0:0:0:
246,372,340509,6,0,P|252:294|202:234,1,160.874992635727,10|2,0:0|0:0,0:0:0:0:
108,191,340809,6,0,P|74:199|39:201,1,70.1250013375282,2|2,3:2|0:0,0:0:0:0:
266,132,340959,2,0,P|241:107|222:77,1,70.1250013375282,2|2,0:0|0:0,0:0:0:0:
100,215,341109,6,0,P|65:217|30:212,1,70.1250013375282,8|2,0:0|0:0,0:0:0:0:
241,137,341259,2,0,P|221:107|208:75,1,70.1250013375282,2|2,0:0|0:0,0:0:0:0:
86,237,341409,6,0,P|51:232|18:221,1,70.1250013375282,2|2,3:2|0:0,0:0:0:0:
215,135,341559,2,0,P|201:102|194:68,1,70.1250013375282,2|2,3:2|0:0,0:0:0:0:
124,303,341709,6,0,P|110:225|119:145,1,160.874992635727,10|0,2:0|0:0,0:0:0:0:
162,53,342009,6,0,P|130:114|115:60,1,160.874992635727,2|2,3:2|0:0,0:0:0:0:
176,40,342309,1,10,0:0:0:0:
240,152,342459,2,0,L|229:204,1,53.6249975452424
125,306,342609,5,2,3:2:0:0:
297,251,342759,1,2,3:2:0:0:
193,29,342909,2,0,L|214:134,1,107.249995090485,10|0,0:0|0:0,0:0:0:0:
121,321,343209,5,6,3:2:0:0:
121,321,343509,2,0,P|201:290|126:249,1,214.49999018097,6|0,0:0|3:2,0:0:0:0:
255,363,343959,1,2,0:0:0:0:
254,368,344034,1,0,0:0:0:0:
253,373,344109,1,10,0:0:0:0:
368,282,344259,2,0,L|315:270,1,53.6249975452424,2|0,0:0|0:0,0:0:0:0:
226,259,344409,6,0,L|330:235,1,107.249995090485,2|2,3:2|3:0,0:0:0:0:
151,60,344709,2,0,P|174:135|151:211,1,160.874992635727,10|0,0:0|0:0,0:0:0:0:
69,184,345009,5,2,3:2:0:0:
304,107,345159,1,0,0:0:0:0:
151,60,345309,1,10,0:0:0:0:
203,143,345459,1,0,0:0:0:0:
369,10,345609,5,6,0:2:0:0:
375,2,345909,2,0,P|375:55|381:108,1,107.249995090485,10|0,0:0|0:0,0:0:0:0:
448,231,346209,5,6,3:2:0:0:
446,238,346309,1,2,0:2:0:0:
444,245,346409,1,2,0:2:0:0:
376,284,346509,5,2,0:2:0:0:
378,290,346609,1,2,0:2:0:0:
380,297,346709,1,2,0:2:0:0:
340,365,346809,6,0,L|286:358,1,53.6249975452424,4|0,3:2|3:2,0:0:0:0:
176,299,346959,2,0,L|229:292,1,53.6249975452424,2|0,3:2|3:2,0:0:0:0:
377,252,347109,6,0,L|323:245,1,53.6249975452424,12|0,3:2|3:2,0:0:0:0:
162,206,347259,2,0,L|215:199,1,53.6249975452424,0|0,3:2|3:2,0:0:0:0:
388,113,347409,5,6,3:2:0:0:
421,175,347509,1,0,3:2:0:0:
395,241,347609,1,0,3:2:0:0:
323,245,347709,5,14,3:2:0:0:
290,183,347809,1,0,3:2:0:0:
316,117,347909,1,0,3:2:0:0:
409,102,348009,6,0,L|244:84,1,165,6|8,3:2|0:0,0:0:0:0:
352,4,348459,1,2,0:0:0:0:
258,237,348609,2,0,P|276:158|245:84,1,165,2|8,3:2|0:0,0:0:0:0:
243,243,349059,1,0,0:0:0:0:
63,76,349209,5,2,3:2:0:0:
143,231,349359,1,2,0:0:0:0:
160,126,349509,1,10,0:0:0:0:
53,286,349659,1,2,0:0:0:0:
150,111,349809,5,2,3:0:0:0:
257,271,349959,1,2,0:0:0:0:
240,166,350109,1,10,0:0:0:0:
160,321,350259,1,2,0:2:0:0:
324,141,350409,6,0,L|159:125,1,165,2|8,3:2|0:0,0:0:0:0:
265,240,350859,1,2,0:0:0:0:
419,154,351009,2,0,P|348:118|337:39,1,165,2|8,3:2|0:0,0:0:0:0:
353,35,351459,1,0,0:0:0:0:
512,273,351609,5,2,3:2:0:0:
341,332,351759,1,2,0:0:0:0:
240,166,351909,5,10,0:0:0:0:
401,241,352059,1,2,0:0:0:0:
337,39,352209,5,2,3:2:0:0:
337,39,352509,2,0,L|326:120,1,82.5,10|2,0:0|0:0,0:0:0:0:
157,354,352809,5,6,3:2:0:0:
247,336,352959,2,0,P|161:320|83:312,1,165,2|2,0:0|0:0,0:0:0:0:
27,175,353409,2,0,P|68:170|108:162,1,82.5,2|2,3:2|0:0,0:0:0:0:
12,271,353709,1,8,0:0:0:0:
130,76,353859,6,0,P|145:157|153:239,1,165,2|2,0:0|0:0,0:0:0:0:
0,352,354309,2,0,P|3:311|12:271,1,82.5,10|2,0:2|0:0,0:0:0:0:
137,69,354609,1,2,3:2:0:0:
149,62,354909,2,0,P|189:67|230:74,1,82.5,10|2,0:0|0:0,0:0:0:0:
424,215,355209,6,0,P|373:184|355:126,1,123.75,6|0,3:2|0:0,0:0:0:0:
378,107,355509,1,10,0:0:0:0:
284,261,355659,1,2,0:0:0:0:
100,109,355809,2,0,P|140:103|181:96,1,82.5,6|2,3:2|0:0,0:0:0:0:
81,223,356109,2,0,P|40:216|0:210,1,82.5,10|2,0:2|0:0,0:0:0:0:
167,26,356409,5,6,3:2:0:0:
207,28,356484,1,0,3:2:0:0:
240,52,356559,1,0,3:2:0:0:
256,89,356634,1,0,3:2:0:0:
249,129,356709,5,14,3:2:0:0:
242,149,356784,1,0,3:2:0:0:
238,169,356859,1,0,3:2:0:0:
238,189,356934,1,0,3:2:0:0:
243,209,357009,5,6,3:2:0:0:
279,189,357084,1,0,3:2:0:0:
320,193,357159,1,0,3:2:0:0:
352,217,357234,1,0,3:2:0:0:
371,253,357309,5,14,3:2:0:0:
403,277,357384,1,0,3:2:0:0:
444,281,357459,1,2,3:2:0:0:
480,261,357534,1,6,3:2:0:0:
502,189,357609,6,0,L|478:25,1,165,6|10,3:2|0:0,0:0:0:0:
249,129,358059,2,0,L|301:137,1,41.25,2|2,0:0|0:0,0:0:0:0:
361,97,358209,5,2,3:2:0:0:
162,162,358359,1,2,0:0:0:0:
373,107,358509,1,10,0:0:0:0:
234,46,358659,1,2,0:0:0:0:
290,267,358809,6,0,P|350:279|401:246,1,123.75,6|0,3:2|0:0,0:0:0:0:
458,197,359109,2,0,P|452:178|449:158,1,41.25,10|2,0:0|0:0,0:0:0:0:
373,107,359259,2,0,P|376:86|382:67,1,41.25,2|2,0:0|0:0,0:0:0:0:
313,4,359409,5,2,3:2:0:0:
338,203,359559,1,2,0:0:0:0:
382,67,359709,1,10,0:0:0:0:
449,158,359859,1,2,0:0:0:0:
227,62,360009,5,6,3:2:0:0:
227,62,360309,1,10,0:0:0:0:
187,51,360384,1,2,0:0:0:0:
147,59,360459,1,2,0:0:0:0:
113,82,360534,1,2,0:0:0:0:
92,117,360609,5,2,3:2:0:0:
130,270,360759,1,0,0:0:0:0:
33,178,360909,1,8,0:0:0:0:
235,51,361059,6,0,B|294:40|294:40|339:48|339:48|397:37,1,165,6|2,0:0|0:0,0:0:0:0:
431,248,361509,1,10,0:0:0:0:
292,124,361659,1,2,0:0:0:0:
299,301,361809,1,2,3:2:0:0:
390,71,361959,1,2,0:0:0:0:
452,273,362109,2,0,L|439:354,1,82.5,8|0,0:0|0:0,0:0:0:0:
235,51,362409,5,4,3:2:0:0:
235,51,362709,2,0,L|193:55,1,41.25,10|2,0:0|0:0,0:0:0:0:
88,129,362859,2,0,L|129:133,1,41.25,2|2,0:0|0:0,0:0:0:0:
237,217,363009,5,0,3:2:0:0:
70,241,363159,1,2,0:0:0:0:
249,230,363309,1,10,0:0:0:0:
64,228,363459,1,6,0:0:0:0:
292,124,363609,5,2,3:2:0:0:
292,124,363909,1,10,0:0:0:0:
339,143,363984,1,2,0:0:0:0:
389,135,364059,1,2,0:0:0:0:
428,103,364134,1,2,0:0:0:0:
445,54,364209,5,2,3:2:0:0:
393,218,364359,1,2,0:2:0:0:
448,37,364509,1,10,3:2:0:0:
487,173,364659,1,2,0:2:0:0:
299,4,364809,5,6,3:2:0:0:
299,4,365109,2,0,L|307:44,1,41.25,10|2,0:0|0:0,0:0:0:0:
279,115,365259,2,0,L|287:155,1,41.25,2|2,0:0|0:0,0:0:0:0:
259,226,365409,5,6,3:2:0:0:
259,226,365709,2,0,L|250:266,1,41.25,10|2,0:0|0:0,0:0:0:0:
279,337,365859,2,0,L|270:377,1,41.25,2|2,0:0|0:0,0:0:0:0:
339,214,366009,5,4,3:2:0:0:
321,177,366084,1,0,3:0:0:0:
287,155,366159,1,0,3:0:0:0:
246,153,366234,1,0,3:0:0:0:
210,170,366309,5,12,3:2:0:0:
251,173,366384,1,0,3:0:0:0:
287,155,366459,1,0,3:0:0:0:
309,120,366534,1,0,3:0:0:0:
313,81,366609,5,4,3:2:0:0:
289,115,366684,1,0,3:0:0:0:
287,155,366759,1,0,3:0:0:0:
306,192,366834,1,0,3:0:0:0:
339,214,366909,5,12,3:2:0:0:
232,96,367059,1,0,3:0:0:0:
232,96,367134,1,0,3:0:0:0:
232,96,367209,6,0,L|241:14,1,82.5,6|2,3:2|0:0,0:0:0:0:
136,202,367509,1,10,0:0:0:0:
287,155,367659,1,2,0:0:0:0:
129,211,367809,2,0,P|88:208|48:201,1,82.5,0|2,3:2|0:0,0:0:0:0:
232,296,368109,2,0,P|272:288|313:286,1,82.5,10|2,0:0|0:0,0:0:0:0:
397,130,368409,5,2,3:2:0:0:
338,277,368559,1,2,0:0:0:0:
317,82,368709,1,10,0:0:0:0:
415,241,368859,1,2,0:0:0:0:
512,37,369009,6,0,P|451:42|401:7,1,123.75
316,81,369309,2,0,P|357:78|393:60,1,82.5,8|0,0:0|0:0,0:0:0:0:
197,0,369609,5,0,3:2:0:0:
197,0,369909,2,0,L|186:81,1,82.5,10|2,0:0|0:0,0:0:0:0:
102,203,370209,2,0,L|91:121,1,82.5,2|2,3:2|0:0,0:0:0:0:
275,27,370509,1,10,0:0:0:0:
347,200,370659,6,0,B|286:185|286:185|240:194|240:194|186:180,1,165,2|2,0:0|0:0,0:0:0:0:
282,41,371109,1,10,0:0:0:0:
353,211,371259,1,2,0:0:0:0:
215,343,371409,2,0,L|206:260,1,82.5,2|0,3:2|0:0,0:0:0:0:
290,56,371709,1,8,0:0:0:0:
105,164,371859,1,0,0:0:0:0:
186,180,372009,6,0,L|105:164,1,82.5,6|0,3:2|0:0,0:0:0:0:
299,70,372309,1,10,0:0:0:0:
97,142,372459,1,0,0:0:0:0:
88,59,372609,2,0,L|97:142,1,82.5,2|0,3:2|0:0,0:0:0:0:
198,343,372909,2,0,L|206:260,1,82.5,10|0,0:0|0:0,0:0:0:0:
408,42,373209,5,2,3:2:0:0:
205,103,373359,1,2,0:0:0:0:
412,140,373509,5,10,0:0:0:0:
211,107,373659,1,2,0:0:0:0:
380,240,373809,5,2,3:2:0:0:
217,112,373959,1,2,0:0:0:0:
425,32,374109,5,10,0:0:0:0:
270,6,374409,6,0,P|344:40|425:31,1,165,6|8,3:2|0:0,0:0:0:0:
251,18,374859,1,2,0:0:0:0:
441,191,375009,6,0,B|427:129|427:129|439:90|439:90|425:32,1,165,6|8,3:2|0:0,0:0:0:0:
455,203,375459,1,2,0:0:0:0:
318,325,375609,5,6,3:2:0:0:
279,340,375684,1,0,3:0:0:0:
238,343,375759,1,0,3:0:0:0:
198,335,375834,1,0,3:0:0:0:
168,307,375909,1,12,3:2:0:0:
130,292,375984,1,0,3:0:0:0:
89,288,376059,1,0,3:0:0:0:
47,295,376134,1,0,3:0:0:0:
21,327,376209,5,4,3:2:0:0:
35,312,376284,1,0,3:2:0:0:
47,295,376359,1,0,3:2:0:0:
55,276,376434,1,0,3:2:0:0:
60,256,376509,1,12,3:2:0:0:
61,236,376584,1,0,3:2:0:0:
59,215,376659,1,0,3:2:0:0:
53,195,376734,1,0,3:2:0:0:
43,177,376809,6,0,B|102:189|102:189|148:180|148:180|205:188,1,165,4|8,0:0|0:0,0:0:0:0:
205,188,377259,1,0,0:0:0:0:
340,296,377409,2,0,P|328:336|323:377,1,82.5,0|0,3:0|0:0,0:0:0:0:
432,221,377709,2,0,P|426:180|415:140,1,82.5,8|0,0:0|0:0,0:0:0:0:
212,49,378009,5,0,3:0:0:0:
212,49,378309,2,0,L|129:55,1,82.5,10|0,0:0|0:0,0:0:0:0:
215,207,378609,1,2,0:0:0:0:
423,125,378759,1,0,0:0:0:0:
206,218,378909,2,0,P|199:258|199:299,1,82.5,10|0,0:0|0:0,0:0:0:0:
17,178,379209,6,0,P|88:143|99:65,1,165,2|10,3:2|0:2,0:0:0:0:
100,65,379659,1,2,0:0:0:0:
8,193,379809,2,0,P|1:233|0:274,1,82.5,2|0,3:0|0:0,0:0:0:0:
199,299,380109,1,8,0:0:0:0:
7,284,380259,1,0,0:0:0:0:
215,207,380409,1,0,3:2:0:0:
226,202,380709,5,10,0:2:0:0:
159,384,380859,1,0,0:0:0:0:
162,137,381009,5,2,3:2:0:0:
210,319,381159,1,0,0:0:0:0:
280,79,381309,6,0,L|269:-2,1,82.5,10|0,0:0|0:0,0:0:0:0:
104,263,381609,5,6,3:2:0:0:
103,263,381909,2,0,P|94:303|93:344,1,82.5,10|0,0:0|0:0,0:0:0:0:
383,230,382209,2,0,B|354:228|332:214|332:214|305:211|281:219|281:219|260:204|225:201,1,165,2|8,3:2|0:0,0:0:0:0:
225,201,382809,5,2,3:2:0:0:
310,283,382959,1,2,0:0:0:0:
273,106,383109,1,10,0:0:0:0:
210,319,383259,1,2,0:0:0:0:
123,100,383409,2,0,L|245:85,1,123.75,2|0,3:2|0:0,0:0:0:0:
273,106,383709,1,10,0:0:0:0:
79,34,383859,1,0,0:0:0:0:
210,319,384009,5,6,0:0:0:0:
210,319,384309,2,0,L|291:333,1,82.5,8|2,0:0|0:0,0:0:0:0:
101,192,384609,5,4,0:0:0:0:
101,192,384909,2,0,L|19:206,1,82.5,10|0,0:0|0:0,0:0:0:0:
246,85,385209,5,6,3:2:0:0:
273,89,385284,1,0,3:2:0:0:
300,94,385359,1,0,3:2:0:0:
327,99,385434,1,0,3:2:0:0:
395,164,385509,5,14,3:2:0:0:
368,170,385584,1,0,3:2:0:0:
341,175,385659,1,0,3:2:0:0:
314,180,385734,1,0,3:2:0:0:
249,248,385809,5,6,3:2:0:0:
222,243,385884,1,0,3:2:0:0:
195,238,385959,1,2,3:2:0:0:
168,233,386034,1,0,3:2:0:0:
101,192,386109,5,14,3:2:0:0:
87,194,386184,1,0,3:2:0:0:
74,197,386259,1,2,3:2:0:0:
60,199,386334,1,0,3:2:0:0:
17,262,386409,6,0,L|37:102,1,160.874992635727,6|0,3:2|0:0,0:0:0:0:
110,22,386709,1,10,0:0:0:0:
144,2,386784,1,0,0:0:0:0:
184,3,386859,1,0,0:0:0:0:
217,24,386934,1,0,0:0:0:0:
234,60,387009,2,0,L|224:116,1,53.6249975452424,0|0,3:2|0:0,0:0:0:0:
269,183,387159,2,0,B|293:234|293:293,1,107.249995090485,2|8,0:0|0:0,0:0:0:0:
373,360,387384,1,0,0:0:0:0:
373,360,387459,2,0,P|373:333|380:307,1,53.6249975452424,2|0,0:0|0:0,0:0:0:0:
491,217,387609,5,2,3:2:0:0:
491,217,387759,2,0,L|484:270,1,53.6249975452424
376,136,387909,1,10,0:0:0:0:
376,136,388059,2,0,L|369:82,1,53.6249975452424
278,20,388209,1,2,3:2:0:0:
278,20,388284,1,0,0:0:0:0:
278,20,388359,6,0,L|225:32,1,53.6249975452424,2|0,0:0|0:0,0:0:0:0:
96,102,388509,2,0,L|148:114,1,53.6249975452424,10|0,0:0|0:0,0:0:0:0:
278,184,388659,2,0,L|225:196,1,53.6249975452424,2|0,0:0|0:0,0:0:0:0:
96,266,388809,6,0,B|77:319|77:319|90:368,1,107.249995090485,2|0,3:2|0:0,0:0:0:0:
191,368,389034,1,0,0:0:0:0:
191,368,389109,2,0,B|204:318|204:318|185:265,1,107.249995090485,10|0,0:0|0:0,0:0:0:0:
110,192,389334,1,0,0:0:0:0:
110,192,389409,6,0,P|83:196|58:205,1,53.6249975452424,2|0,3:2|0:0,0:0:0:0:
148,114,389559,2,0,P|173:122|199:126,1,53.6249975452424
266,61,389709,1,10,0:0:0:0:
266,61,389784,2,0,L|318:52,1,53.6249975452424,2|0,0:0|0:0,0:0:0:0:
474,81,389934,1,0,0:0:0:0:
413,132,390009,6,0,P|383:204|410:278,1,160.874992635727
443,257,390309,5,10,0:0:0:0:
391,246,390384,1,0,0:0:0:0:
341,265,390459,1,0,0:0:0:0:
310,308,390534,1,0,0:0:0:0:
274,366,390609,5,2,3:2:0:0:
242,381,390684,1,0,0:0:0:0:
206,382,390759,1,2,0:0:0:0:
173,368,390834,1,2,0:0:0:0:
165,351,390909,6,0,L|180:228,1,123.75,10|0,0:0|0:0,0:0:0:0:
186,139,391209,6,0,B|132:86|60:96|16:145|77:207|127:193|162:144,1,210.375004012585,6|0,3:2|0:0,0:0:0:0:
209,233,391509,1,10,0:0:0:0:
235,229,391584,1,0,0:0:0:0:
262,225,391659,1,0,0:0:0:0:
288,222,391734,1,0,0:0:0:0:
315,218,391809,2,0,L|304:275,1,53.6249975452424,2|0,3:2|0:0,0:0:0:0:
376,157,391959,2,0,L|356:51,1,107.249995090485,2|8,0:0|0:0,0:0:0:0:
248,28,392184,1,0,0:0:0:0:
248,28,392259,2,0,L|258:80,1,53.6249975452424
180,227,392409,5,2,3:2:0:0:
180,227,392559,2,0,P|154:235|127:236,1,53.6249975452424,2|0,0:0|0:0,0:0:0:0:
30,259,392709,1,10,0:0:0:0:
69,251,392784,1,0,0:0:0:0:
107,261,392859,1,2,0:0:0:0:
137,288,392934,1,2,0:0:0:0:
153,324,393009,2,0,L|144:376,1,53.6249975452424,2|0,3:2|0:0,0:0:0:0:
209,238,393159,6,0,P|234:231|261:229,1,53.6249975452424,2|0,0:0|0:0,0:0:0:0:
316,162,393309,2,0,P|341:168|368:170,1,53.6249975452424,10|0,0:0|0:0,0:0:0:0:
429,104,393459,2,0,P|454:97|481:95,1,53.6249975452424,2|0,0:0|0:0,0:0:0:0:
366,275,393609,6,0,P|375:222|368:169,1,107.249995090485,4|0,0:0|0:0,0:0:0:0:
292,141,393834,1,0,0:0:0:0:
292,141,393909,2,0,L|239:150,1,53.6249975452424,10|0,0:0|0:0,0:0:0:0:
179,86,394059,2,0,L|125:78,1,53.6249975452424,2|0,0:0|0:0,0:0:0:0:
39,242,394209,5,6,3:2:0:0:
106,383,394359,1,2,0:0:0:0:
229,184,394509,1,10,0:0:0:0:
229,184,394584,2,0,L|122:168,1,107.249995090485,2|0,0:0|0:0,0:0:0:0:
125,78,394809,5,4,3:2:0:0:
139,80,394884,1,0,3:2:0:0:
152,82,394959,1,0,3:2:0:0:
165,84,395034,1,0,3:2:0:0:
213,146,395109,5,12,3:2:0:0:
226,144,395184,1,0,3:2:0:0:
239,142,395259,1,2,3:2:0:0:
252,140,395334,1,0,3:2:0:0:
299,78,395409,5,4,3:2:0:0:
351,72,395484,1,0,3:2:0:0:
401,91,395559,1,2,3:2:0:0:
436,131,395634,1,0,3:2:0:0:
449,182,395709,6,0,L|440:235,1,53.6249975452424,14|0,3:2|3:2,0:0:0:0:
331,316,395859,2,0,L|339:368,1,53.6249975452424,2|0,3:2|3:2,0:0:0:0:
230,229,396009,6,0,B|191:224|169:209|169:209|128:225|128:225|107:212|69:214,1,160.874992635727,4|0,3:2|0:0,0:0:0:0:
36,368,396309,1,10,0:0:0:0:
66,349,396384,1,0,0:0:0:0:
85,319,396459,1,0,0:0:0:0:
87,283,396534,1,0,0:0:0:0:
52,203,396609,5,2,3:2:0:0:
52,203,396684,2,0,P|38:152|38:99,1,107.249995090485
64,73,396909,2,0,P|87:59|113:51,1,53.6249975452424,8|0,0:0|0:0,0:0:0:0:
165,151,397059,2,0,P|139:143|116:129,1,53.6249975452424
213,4,397209,5,2,3:2:0:0:
240,229,397359,1,2,0:0:0:0:
328,78,397509,1,2,0:0:0:0:
342,88,397584,1,2,0:0:0:0:
404,191,397734,1,0,0:0:0:0:
418,180,397809,6,0,P|426:154|429:127,1,53.6249975452424,2|0,3:2|0:0,0:0:0:0:
428,52,397959,2,0,P|425:25|416:0,1,53.6249975452424,2|0,0:0|0:0,0:0:0:0:
234,73,398109,2,0,L|341:87,1,107.249995090485,10|2,0:0|0:0,0:0:0:0:
213,4,398334,1,0,0:0:0:0:
213,4,398409,6,0,B|161:15|161:15|118:2|118:2|52:17,1,160.874992635727,2|0,3:2|0:0,0:0:0:0:
8,91,398709,1,8,0:0:0:0:
33,115,398784,1,0,0:0:0:0:
48,147,398859,1,0,0:0:0:0:
49,183,398934,1,0,0:0:0:0:
95,247,399009,5,0,0:0:0:0:
95,247,399084,2,0,L|85:299,1,53.6249975452424
179,188,399234,1,0,0:0:0:0:
200,214,399309,2,0,P|209:240|215:266,1,53.6249975452424,8|0,0:0|0:0,0:0:0:0:
252,118,399459,1,0,0:0:0:0:
294,134,399534,1,0,0:0:0:0:
337,124,399609,5,2,3:2:0:0:
118,75,399759,1,2,0:0:0:0:
271,34,399909,1,10,0:0:0:0:
285,29,399984,1,2,0:0:0:0:
351,129,400134,1,0,0:0:0:0:
337,124,400209,6,0,L|390:117,1,53.6249975452424,2|0,3:2|0:0,0:0:0:0:
459,73,400359,2,0,L|512:79,1,53.6249975452424,2|0,0:0|0:0,0:0:0:0:
337,211,400509,2,0,L|231:192,1,107.249995090485,10|2,0:0|0:0,0:0:0:0:
367,293,400734,1,0,0:0:0:0:
367,293,400809,6,0,P|366:213|408:146,1,160.874992635727,6|0,3:2|0:0,0:0:0:0:
345,317,401109,5,8,0:0:0:0:
307,330,401184,1,0,0:0:0:0:
268,324,401259,1,0,0:0:0:0:
237,299,401334,1,0,0:0:0:0:
220,278,401409,5,0,3:0:0:0:
222,260,401484,1,0,0:0:0:0:
225,242,401559,1,0,0:0:0:0:
228,225,401634,1,0,0:0:0:0:
230,208,401709,6,0,L|217:155,1,53.6249975452424,10|0,0:0|0:0,0:0:0:0:
149,23,401859,2,0,L|136:75,1,53.6249975452424,2|0,0:0|0:0,0:0:0:0:
46,188,402009,5,2,3:2:0:0:
224,135,402159,1,2,0:2:0:0:
38,199,402309,6,0,L|50:251,1,53.6249975452424,10|0,0:0|0:0,0:0:0:0:
126,376,402459,2,0,L|138:323,1,53.6249975452424,2|0,0:0|0:0,0:0:0:0:
225,242,402609,5,2,3:2:0:0:
225,242,402684,1,0,0:0:0:0:
225,242,402759,2,0,L|277:250,1,53.6249975452424
336,333,402909,5,10,0:2:0:0:
336,333,402984,1,0,0:0:0:0:
336,333,403059,2,0,L|388:324,1,53.6249975452424
454,234,403209,5,6,3:2:0:0:
376,62,403359,1,2,0:0:0:0:
286,173,403509,2,0,L|233:165,1,53.6249975452424,8|0,0:0|0:0,0:0:0:0:
189,94,403659,2,0,L|136:102,1,53.6249975452424
234,11,403809,5,6,3:2:0:0:
156,183,403959,1,2,0:0:0:0:
285,96,404109,2,0,L|337:104,1,53.6249975452424,8|0,0:0|0:0,0:0:0:0:
434,166,404259,2,0,L|381:174,1,53.6249975452424
336,258,404409,5,6,3:2:0:0:
322,281,404484,1,0,3:2:0:0:
315,306,404559,1,0,3:2:0:0:
315,333,404634,1,0,3:2:0:0:
322,359,404709,6,0,P|348:366|374:369,1,53.6249975452424,14|0,0:0|0:0,0:0:0:0:
229,267,404859,1,0,3:2:0:0:
229,267,404934,1,0,3:2:0:0:
229,267,405009,6,0,P|202:269|176:277,1,53.6249975452424,6|0,3:2|3:2,3:2:0:0:
68,335,405159,2,0,P|93:342|120:345,1,53.6249975452424,0|0,3:2|3:2,3:2:0:0:
255,242,405309,5,14,3:2:0:0:
269,191,405384,1,0,3:2:0:0:
258,139,405459,1,0,3:2:0:0:
223,99,405534,1,0,3:2:0:0:
195,82,405609,6,0,B|162:93|162:93|123:89,2,71.4999967269899,6|2|2,3:2|0:0|0:0,0:0:0:0:
248,8,405909,2,0,P|301:8|354:18,1,107.249995090485,10|0,0:0|0:0,0:0:0:0:
425,77,406134,1,0,0:0:0:0:
372,152,406209,5,2,3:2:0:0:
372,152,406284,2,0,B|395:201|395:201|384:253,1,107.249995090485,2|0,0:0|0:0,0:0:0:0:
269,256,406509,1,10,0:0:0:0:
263,229,406584,1,0,0:0:0:0:
258,203,406659,1,2,0:0:0:0:
270,179,406734,1,0,0:0:0:0:
281,154,406809,5,2,3:2:0:0:
330,338,406959,1,2,0:0:0:0:
384,253,407109,1,10,0:0:0:0:
236,365,407259,1,2,0:0:0:0:
102,259,407409,5,2,3:2:0:0:
85,233,407484,2,0,L|96:180,1,53.6249975452424,2|0,0:0|0:0,0:0:0:0:
58,86,407634,1,2,0:0:0:0:
78,54,407709,2,0,L|131:47,1,53.6249975452424,10|0,0:0|0:0,0:0:0:0:
228,121,407859,1,2,0:0:0:0:
238,130,407934,1,2,0:0:0:0:
303,86,408009,6,0,L|409:73,1,107.249995090485,6|0,3:2|0:0,0:0:0:0:
425,174,408234,1,2,0:0:0:0:
425,174,408309,2,0,L|318:186,1,107.249995090485,10|2,0:2|0:0,0:0:0:0:
231,253,408534,1,0,0:0:0:0:
163,188,408609,5,2,3:2:0:0:
163,188,408684,2,0,P|114:169|61:163,1,107.249995090485,2|2,3:0|0:0,0:0:0:0:
0,91,408909,2,8,P|53:85|102:65,1,107.249995090485,10|0,0:0|0:0,0:0:0:0:
165,12,409134,1,2,0:0:0:0:
167,4,409209,5,6,3:2:0:0:
231,253,409359,1,2,0:0:0:0:
282,100,409509,1,10,0:0:0:0:
226,243,409659,1,2,0:0:0:0:
167,4,409809,5,4,3:2:0:0:
180,20,409884,2,0,L|155:124,1,107.249995090485,2|0,0:0|0:0,0:0:0:0:
87,191,410109,1,10,0:0:0:0:
95,225,410184,1,2,0:0:0:0:
103,260,410259,1,2,0:0:0:0:
111,295,410334,1,2,0:0:0:0:
179,346,410409,6,0,P|215:346|248:332,2,71.4999967269899
14,331,410709,2,0,P|66:324|110:294,1,107.249995090485,10|0,0:0|0:0,0:0:0:0:
148,211,410934,1,2,0:0:0:0:
105,137,411009,5,2,3:2:0:0:
105,137,411084,2,0,L|0:119,1,107.249995090485
148,211,411309,1,10,0:0:0:0:
174,206,411384,1,0,0:0:0:0:
200,202,411459,1,0,0:0:0:0:
227,197,411534,1,0,0:0:0:0:
253,193,411609,5,6,3:2:0:0:
184,18,411759,1,0,0:0:0:0:
105,137,411909,1,8,0:0:0:0:
265,0,412059,1,0,0:0:0:0:
355,91,412209,5,2,3:2:0:0:
368,115,412284,2,0,L|356:167,1,53.6249975452424,2|0,0:0|0:0,0:0:0:0:
321,249,412434,1,2,0:2:0:0:
304,275,412509,2,0,L|315:327,1,53.6249975452424,10|0,0:0|0:0,0:0:0:0:
219,331,412659,1,2,0:0:0:0:
200,337,412734,1,2,0:0:0:0:
131,296,412809,5,6,3:2:0:0:
131,296,412884,2,0,L|140:243,2,53.6249975452424,2|0|0,0:0|0:0|0:0,0:0:0:0:
204,183,413109,2,0,L|190:76,1,107.249995090485,8|0,0:0|0:0,0:0:0:0:
356,167,413409,5,6,3:2:0:0:
356,167,413484,2,0,L|303:176,2,53.6249975452424,2|0|0,0:0|0:0|0:0,0:0:0:0:
512,118,413709,2,0,L|407:99,1,107.249995090485,8|0,0:0|0:0,0:0:0:0:
293,12,414009,5,6,3:2:0:0:
284,17,414084,1,2,3:2:0:0:
275,22,414159,2,0,L|222:13,1,53.6249975452424,2|0,3:2|3:2,3:2:0:0:
171,96,414309,5,14,3:2:0:0:
162,91,414384,1,2,3:2:0:0:
153,86,414459,2,0,L|100:94,1,53.6249975452424,2|0,3:2|3:2,3:2:0:0:
31,159,414609,5,6,3:2:0:0:
23,187,414684,1,2,3:2:0:0:
32,225,414759,5,2,3:2:0:0:
24,253,414834,1,2,3:2:0:0:
61,321,414909,5,14,3:2:0:0:
103,351,414984,1,0,3:2:0:0:
156,349,415059,1,2,3:2:0:0:
196,315,415134,1,0,3:2:0:0:
198,237,415209,5,6,3:2:0:0:
49,53,415359,2,0,L|31:159,1,107.249995090485,2|8,0:0|0:0,0:0:0:0:
196,315,415659,1,2,3:2:0:0:
300,87,415809,6,0,L|247:75,1,53.6249975452424
115,178,415959,1,2,0:0:0:0:
314,68,416109,2,0,L|367:60,1,53.6249975452424,10|0,0:0|0:0,0:0:0:0:
360,279,416259,2,0,P|360:332|348:384,1,107.249995090485,2|0,0:0|3:2,0:0:0:0:
195,113,416559,5,0,0:0:0:0:
439,184,416709,1,8,0:0:0:0:
269,265,416859,1,0,0:0:0:0:
320,73,417009,6,0,L|442:52,1,123.75,2|2,3:2|0:0,0:0:0:0:
455,60,417309,1,10,0:0:0:0:
270,2,417459,1,2,0:0:0:0:
145,176,417609,6,0,P|149:229|140:282,1,107.249995090485,4|0,0:0|0:0,0:0:0:0:
81,336,417834,1,2,0:0:0:0:
63,350,417909,6,0,L|10:341,1,53.6249975452424,10|0,0:0|0:0,0:0:0:0:
134,168,418059,1,2,0:0:0:0:
258,264,418209,2,0,L|311:255,1,53.6249975452424,2|0,3:2|0:0,0:0:0:0:
187,82,418359,1,2,0:0:0:0:
17,209,418509,2,0,L|1:102,1,107.249995090485,8|0,0:0|0:0,0:0:0:0:
146,0,418809,5,2,3:2:0:0:
35,226,418959,1,2,0:0:0:0:
187,82,419109,1,10,0:0:0:0:
175,214,419259,1,2,0:0:0:0:
287,82,419409,5,2,3:2:0:0:
287,82,419484,2,0,L|273:0,1,82.5,2|2,0:0|0:0,0:0:0:0:
359,124,419709,1,10,0:0:0:0:
187,82,419859,1,2,0:0:0:0:
400,0,420009,6,0,L|390:106,1,107.249995090485,6|0,3:2|0:0,0:0:0:0:
333,172,420234,1,0,0:0:0:0:
322,196,420309,6,0,L|334:248,1,53.6249975452424,10|0,0:0|0:0,0:0:0:0:
287,326,420459,1,2,0:0:0:0:
224,118,420609,2,0,L|211:170,1,53.6249975452424,2|0,3:2|0:0,0:0:0:0:
272,313,420759,1,2,0:0:0:0:
439,185,420909,2,0,L|333:172,1,107.249995090485,8|0,0:0|0:0,0:0:0:0:
109,134,421209,5,2,3:2:0:0:
287,82,421359,1,2,0:0:0:0:
121,146,421509,1,8,0:0:0:0:
254,230,421659,1,0,0:0:0:0:
147,65,421809,6,0,B|97:55|97:55|74:38|74:38|30:29,1,123.75,2|2,3:2|0:0,0:0:0:0:
8,41,422109,1,8,0:0:0:0:
159,217,422259,1,0,0:0:0:0:
308,65,422409,6,0,L|413:46,1,107.249995090485,6|0,3:2|0:0,0:0:0:0:
254,230,422709,6,0,L|243:177,1,53.6249975452424,10|0,0:0|0:0,0:0:0:0:
287,82,422859,1,2,0:0:0:0:
323,295,423009,2,0,L|333:242,1,53.6249975452424,6|0,3:2|0:0,0:0:0:0:
215,28,423159,1,2,0:0:0:0:
118,176,423309,2,0,P|169:186|218:165,1,107.249995090485,8|0,0:0|0:0,0:0:0:0:
48,93,423609,5,6,3:2:0:0:
43,119,423684,1,0,3:2:0:0:
39,146,423759,1,2,3:2:0:0:
35,172,423834,1,0,3:2:0:0:
15,194,423909,5,14,3:2:0:0:
19,220,423984,1,0,3:2:0:0:
23,247,424059,1,2,3:2:0:0:
27,273,424134,1,0,3:2:0:0:
91,325,424209,5,0,3:2:0:0:
143,330,424284,1,0,3:2:0:0:
188,303,424359,1,0,3:2:0:0:
207,254,424434,1,0,3:2:0:0:
201,179,424509,5,12,3:2:0:0:
220,130,424584,1,0,3:2:0:0:
265,103,424659,1,0,3:2:0:0:
317,108,424734,1,0,3:2:0:0:
367,168,424809,5,4,3:2:0:0:
367,168,428409,6,0,L|350:290,1,123.75,4|0,3:2|0:0,0:0:0:0:
334,304,428709,6,0,L|353:156,1,148.49999546814,4|0,3:2|0:0,0:0:0:0:
338,132,429009,6,0,P|314:111|286:99,1,61.875002360344,4|0,3:2|0:0,0:0:0:0:
217,212,429159,2,0,P|245:199|269:178,1,61.875002360344,0|0,3:2|0:0,0:0:0:0:
198,46,429309,5,4,3:2:0:0:
198,46,429609,5,0,0:0:0:0:
218,212,429759,1,0,0:0:0:0:
125,119,429909,1,0,3:0:0:0:
119,133,429984,1,0,3:0:0:0:
114,148,430059,1,0,3:0:0:0:
109,162,430134,1,0,3:0:0:0:
104,177,430209,6,0,L|119:258,1,82.5,2|2,0:0|0:0,0:0:0:0:
218,212,430509,1,0,3:0:0:0:
253,191,430584,1,0,3:0:0:0:
294,191,430659,1,0,3:0:0:0:
330,210,430734,1,0,3:0:0:0:
352,245,430809,6,0,L|336:326,1,82.5,2|2,0:0|0:0,0:0:0:0:
429,180,431109,5,0,3:2:0:0:
425,159,431184,1,0,3:2:0:0:
421,139,431259,1,0,3:2:0:0:
417,119,431334,1,0,3:2:0:0:
413,98,431409,6,0,P|376:80|335:76,1,82.5,2|2,0:0|0:0,0:0:0:0:
266,154,431709,1,0,3:2:0:0:
246,150,431784,1,0,3:2:0:0:
226,146,431859,1,0,3:2:0:0:
205,142,431934,1,0,3:2:0:0:
184,138,432009,5,2,0:0:0:0:
255,1,432159,1,2,0:0:0:0:
353,153,432309,1,0,3:0:0:0:
342,192,432384,1,0,3:0:0:0:
315,223,432459,1,0,3:0:0:0:
277,239,432534,1,0,3:0:0:0:
237,236,432609,5,2,0:0:0:0:
422,295,432759,1,2,0:0:0:0:
266,154,432909,5,0,3:2:0:0:
262,133,432984,1,0,3:2:0:0:
258,113,433059,1,0,3:2:0:0:
254,93,433134,1,0,3:2:0:0:
250,72,433209,5,6,3:2:0:0:
254,59,433509,5,6,3:2:0:0:
258,46,433809,6,0,L|217:41,1,41.25,4|0,3:2|3:2,0:0:0:0:
149,97,433959,2,0,L|108:92,1,41.25,0|0,3:2|3:2,0:0:0:0:
40,148,434109,5,4,3:2:0:0:
127,17,434259,1,0,0:0:0:0:
192,198,434409,6,0,B|186:231|173:247|173:247|171:269|180:289|180:289|157:312|156:350,1,160.874992635727,6|0,3:2|0:0,0:0:0:0:
226,345,434709,2,0,P|279:349|325:323,1,107.249995090485,8|0,0:0|0:0,0:0:0:0:
391,169,435009,1,2,3:2:0:0:
433,322,435159,1,0,0:0:0:0:
498,130,435309,1,10,0:0:0:0:
424,312,435459,1,0,0:0:0:0:
306,105,435609,6,0,P|307:51|320:0,1,107.249995090485,2|0,3:2|0:0,0:0:0:0:
391,169,435909,1,10,0:0:0:0:
185,93,436059,2,0,P|196:117|203:143,1,53.6249975452424
75,245,436209,1,0,3:2:0:0:
124,145,436359,1,0,3:2:0:0:
127,314,436509,1,8,0:0:0:0:
42,106,436659,1,0,0:0:0:0:
143,329,436809,6,0,L|196:336,1,53.6249975452424,6|0,3:2|0:0,0:0:0:0:
245,242,436959,1,2,0:0:0:0:
262,227,437034,1,0,0:0:0:0:
286,217,437109,1,10,0:0:0:0:
328,217,437184,1,2,0:0:0:0:
375,243,437259,1,2,0:0:0:0:
405,314,437334,1,2,0:0:0:0:
373,384,437409,6,0,L|391:170,1,214.49999018097,6|8,3:2|0:0,0:0:0:0:
391,170,437859,1,0,0:0:0:0:
307,17,438009,5,6,3:2:0:0:
307,17,438159,2,0,L|254:26,1,53.6249975452424,2|0,0:0|0:0,0:0:0:0:
115,94,438309,5,6,3:2:0:0:
115,94,438459,2,0,L|167:103,1,53.6249975452424,2|0,0:0|0:0,0:0:0:0:
391,170,438609,6,0,P|396:196|398:223,1,53.6249975452424,6|0,3:2|0:0,0:0:0:0:
395,311,438759,2,0,P|389:337|381:362,1,53.6249975452424,0|0,0:2|0:0,0:0:0:0:
159,191,438909,6,0,P|184:181|210:176,1,53.6249975452424,6|0,3:2|0:0,0:0:0:0:
338,164,439059,2,0,P|364:164|391:169,1,53.6249975452424,2|0,0:0|0:0,0:0:0:0:
223,339,439209,5,0,0:0:0:0:
154,361,439284,1,0,0:0:0:0:
94,322,439359,2,0,P|88:296|79:271,1,53.6249975452424
15,222,439509,2,0,P|15:168|29:117,1,107.249995090485,12|0,0:0|0:0,0:0:0:0:
99,48,439734,1,2,0:0:0:0:
120,35,439809,6,0,L|172:45,1,53.6249975452424,2|0,3:2|0:0,0:0:0:0:
235,135,439959,1,2,0:0:0:0:
257,146,440034,1,2,0:0:0:0:
278,159,440109,2,0,L|330:148,1,53.6249975452424,14|0,0:0|0:0,0:0:0:0:
427,95,440259,1,2,0:0:0:0:
438,73,440334,1,2,0:0:0:0:
451,52,440409,6,0,L|440:0,1,53.6249975452424,2|2,3:2|0:0,0:0:0:0:
357,161,440559,2,0,L|367:213,1,53.6249975452424,2|2,0:0|0:0,0:0:0:0:
285,309,440709,1,14,0:0:0:0:
237,331,440784,1,2,0:0:0:0:
185,322,440859,1,2,0:0:0:0:
149,283,440934,1,2,0:0:0:0:
142,231,441009,6,0,L|159:125,1,107.249995090485,2|0,3:2|0:0,0:0:0:0:
62,253,441234,1,2,0:0:0:0:
56,237,441309,2,0,L|64:184,1,53.6249975452424,10|2,0:0|0:0,0:0:0:0:
74,112,441459,2,0,L|82:59,1,53.6249975452424,2|2,0:0|0:0,0:0:0:0:
159,125,441609,5,6,3:2:0:0:
171,131,441684,1,2,0:0:0:0:
184,135,441759,1,2,0:0:0:0:
198,136,441834,1,0,0:0:0:0:
211,134,441909,1,8,0:0:0:0:
224,131,441984,1,0,0:0:0:0:
236,125,442059,1,2,0:0:0:0:
247,117,442134,1,2,0:0:0:0:
256,107,442209,6,0,L|249:54,1,53.6249975452424,6|0,3:2|0:0,0:0:0:0:
183,214,442359,2,0,L|189:267,1,53.6249975452424
259,330,442509,5,10,0:0:0:0:
272,332,442584,1,0,0:0:0:0:
285,331,442659,1,0,0:0:0:0:
298,327,442734,1,0,0:0:0:0:
309,321,442809,6,0,P|316:294|319:268,1,53.6249975452424,6|2,3:2|0:0,0:0:0:0:
364,65,442959,1,2,0:0:0:0:
371,84,443034,1,2,0:0:0:0:
378,103,443109,2,0,P|375:129|368:155,1,53.6249975452424,12|0,0:0|0:0,0:0:0:0:
220,228,443259,1,2,0:0:0:0:
201,221,443334,1,2,0:0:0:0:
182,213,443409,6,0,P|164:246|156:282,1,74.2499977340699,6|2,3:2|0:0,0:0:0:0:
275,123,443559,2,0,P|266:86|249:54,1,74.2499977340699,2|2,0:0|0:0,0:0:0:0:
64,19,443709,5,6,3:2:0:0:
256,192,446108,12,0,448045,0:0:0:0:
160,224,448108,5,2,0:0:0:0:
352,160,448358,1,0,0:0:0:0:
144,224,448608,5,0,0:0:0:0:
368,160,448858,1,0,0:0:0:0:
144,112,449108,5,2,0:0:0:0:
368,272,449358,1,0,0:0:0:0:
128,112,449608,5,0,0:0:0:0:
384,272,449858,1,0,0:0:0:0:
224,48,450108,5,2,0:0:0:0:
288,336,450358,1,0,0:0:0:0:
240,48,450608,5,0,0:0:0:0:
272,336,450858,1,0,0:0:0:0:
304,128,451108,5,2,0:0:0:0:
208,256,451358,1,0,0:0:0:0:
320,128,451608,5,0,0:0:0:0:
192,256,451858,1,0,0:0:0:0:
192,176,452108,5,2,0:0:0:0:
320,208,452358,1,0,0:0:0:0:
192,160,452608,5,0,0:0:0:0:
320,224,452858,1,0,0:0:0:0:
128,112,453108,5,2,0:0:0:0:
384,272,453358,1,0,0:0:0:0:
112,112,453608,5,0,0:0:0:0:
400,272,453858,1,0,0:0:0:0:
224,48,454108,5,2,0:0:0:0:
288,336,454358,1,0,0:0:0:0:
240,48,454608,5,0,0:0:0:0:
272,336,454858,1,0,0:0:0:0:
304,128,455108,5,2,0:0:0:0:
208,256,455358,1,0,0:0:0:0:
320,128,455608,5,0,0:0:0:0:
192,256,455858,1,0,0:0:0:0:
400,272,456108,6,0,L|461:261,1,61.875,2|0,0:0|0:0,0:0:0:0:
410,283,456358,2,0,L|471:272,1,61.875,2|0,0:0|0:0,0:0:0:0:
320,128,456608,6,0,L|381:138,1,61.875,2|0,0:0|0:0,0:0:0:0:
310,139,456858,2,0,L|371:149,1,61.875,2|0,0:0|0:0,0:0:0:0:
196,317,457108,6,0,P|197:286|192:256,1,61.875002360344,2|0,0:0|0:0,0:0:0:0:
176,258,457358,2,0,P|175:288|180:319,1,61.875002360344,2|0,0:0|0:0,0:0:0:0:
115,202,457608,6,0,P|120:171|119:140,1,61.875002360344,2|0,0:0|0:0,0:0:0:0:
104,139,457858,2,0,P|98:169|99:200,1,61.875002360344,2|0,0:0|0:0,0:0:0:0:
44,74,458108,6,0,L|135:58,1,92.812503540516,2|0,0:0|0:0,0:0:0:0:
150,30,458358,2,0,L|210:40,1,61.875002360344,2|0,0:0|0:0,0:0:0:0:
326,122,458608,2,0,P|357:128|387:121,1,61.875002360344,2|0,0:0|0:0,0:0:0:0:
383,42,458858,2,0,P|352:36|322:43,1,61.875002360344,2|0,0:0|0:0,0:0:0:0:
223,157,459108,5,2,0:0:0:0:
398,221,459358,1,0,0:0:0:0:
207,166,459608,5,2,0:0:0:0:
414,212,459858,1,0,0:0:0:0:
165,328,460108,6,0,P|153:284|149:238,1,92.812503540516,2|0,3:0|0:0,0:0:0:0:
86,198,460358,2,0,P|91:167|91:136,1,61.875002360344,2|0,0:0|0:0,0:0:0:0:
34,259,460608,1,2,0:0:0:0:
39,270,460858,1,2,0:0:0:0:
207,166,461108,6,0,L|298:152,1,92.812503540516,2|0,0:0|0:0,0:0:0:0:
344,212,461358,1,2,0:0:0:0:
344,212,461608,6,0,L|435:225,1,92.812503540516,2|0,0:0|0:0,0:0:0:0:
481,166,461858,1,2,0:0:0:0:
481,166,462108,6,0,P|487:120|474:75,1,92.812503540516,2|0,0:0|0:0,0:0:0:0:
403,44,462358,1,2,0:0:0:0:
390,59,462608,6,0,L|298:73,1,92.812503540516,2|0,0:0|0:0,0:0:0:0:
267,99,462858,2,0,L|175:84,1,92.812503540516,2|0,0:0|0:0,0:0:0:0:
145,112,463108,2,0,P|161:154|152:199,1,92.812503540516,2|0,0:0|0:0,0:0:0:0:
127,231,463358,2,0,P|118:275|134:318,1,92.812503540516,2|0,0:0|0:0,0:0:0:0:
157,351,463608,2,0,L|280:340,1,123.75,2|2,0:0|0:0,0:0:0:0:
393,275,464108,6,0,L|266:264,1,123.75,2|0,3:2|0:0,0:0:0:0:
256,262,464358,1,10,0:0:0:0:
421,174,464483,1,0,3:0:0:0:
421,174,464545,1,0,3:0:0:0:
421,174,464608,1,2,3:0:0:0:
302,192,464733,1,0,0:0:0:0:
360,40,464858,2,0,L|351:133,1,82.5,10|0,0:0|0:0,0:0:0:0:
329,337,465108,5,2,3:2:0:0:
224,180,465233,1,0,0:0:0:0:
165,280,465358,1,10,0:0:0:0:
16,218,465483,1,0,3:2:0:0:
16,218,465545,1,0,3:2:0:0:
16,218,465608,2,0,L|159:205,1,123.75,2|0,3:2|0:0,0:0:0:0:
151,206,465858,1,10,0:0:0:0:
39,119,465983,1,0,0:0:0:0:
237,57,466108,6,0,P|225:108|226:200,1,123.75,2|0,3:2|0:0,0:0:0:0:
322,201,466358,2,0,P|298:249|290:288,1,82.5,10|0,0:0|0:2,0:0:0:0:
235,366,466545,1,0,3:0:0:0:
222,381,466608,2,0,L|315:376,1,82.5,2|0,3:2|0:0,0:0:0:0:
478,297,466858,5,10,3:2:0:0:
475,285,466920,1,0,3:0:0:0:
472,273,466983,1,0,3:0:0:0:
466,254,467045,1,0,3:0:0:0:
463,242,467108,6,0,L|472:166,2,41.25,2|0|0,3:2|0:0|0:0,0:0:0:0:
353,315,467358,2,0,L|429:306,2,41.25,10|0|0,0:0|0:0|0:0,0:0:0:0:
240,159,467608,6,0,L|231:83,2,41.25,2|0|0,0:0|0:0|0:0,0:0:0:0:
350,232,467858,2,0,L|274:223,2,41.25,10|0|0,0:0|0:0|0:0,0:0:0:0:
339,14,468108,6,0,L|323:145,1,123.75,2|0,3:2|0:0,0:0:0:0:
323,147,468358,1,10,0:0:0:0:
171,74,468483,1,0,3:2:0:0:
171,74,468545,1,0,3:2:0:0:
171,74,468608,1,2,3:2:0:0:
232,243,468733,1,0,0:0:0:0:
70,161,468858,1,10,0:0:0:0:
111,157,468920,1,0,0:0:0:0:
152,153,468983,1,0,0:0:0:0:
0,115,469108,5,2,3:2:0:0:
151,231,469233,1,0,0:0:0:0:
25,288,469358,1,10,0:0:0:0:
121,355,469483,1,0,3:2:0:0:
121,355,469545,1,0,3:2:0:0:
121,355,469608,2,0,L|264:342,1,123.75,2|0,3:2|0:0,0:0:0:0:
257,343,469858,1,10,0:0:0:0:
151,231,469983,1,0,0:0:0:0:
351,319,470108,5,2,3:2:0:0:
351,319,470233,2,0,L|359:234,1,82.5,0|10,0:0|0:0,0:0:0:0:
372,108,470483,1,0,0:0:0:0:
198,158,470608,1,2,3:2:0:0:
304,167,470733,1,0,0:0:0:0:
94,162,470858,5,2,3:2:0:0:
97,150,470920,1,0,3:2:0:0:
100,138,470983,1,0,3:2:0:0:
104,127,471045,1,0,3:2:0:0:
108,116,471108,5,2,3:2:0:0:
160,229,471233,1,2,0:0:0:0:
189,69,471358,1,2,0:0:0:0:
161,241,471483,1,2,0:0:0:0:
115,17,471608,5,2,0:0:0:0:
291,67,471733,1,2,0:0:0:0:
198,158,471858,1,2,0:0:0:0:
198,158,472108,6,0,L|354:150,1,148.49999546814,6|0,3:2|0:0,0:0:0:0:
358,148,472358,1,10,0:0:0:0:
270,263,472483,1,2,0:0:0:0:
319,268,472545,1,0,0:0:0:0:
368,274,472608,1,2,3:2:0:0:
184,251,472733,1,0,0:0:0:0:
432,197,472858,1,10,0:0:0:0:
432,197,472920,1,0,0:0:0:0:
432,197,472983,1,2,0:0:0:0:
225,353,473108,6,0,L|112:364,2,98.9999969787599,2|2|10,3:2|0:0|0:0,0:0:0:0:
368,274,473483,1,2,0:0:0:0:
251,115,473608,2,0,L|272:284,1,148.49999546814,2|0,3:2|0:0,0:0:0:0:
319,354,473858,2,0,L|458:337,2,98.9999969787599,8|0|2,0:0|0:0|3:2,0:0:0:0:
91,266,474233,6,0,L|193:274,1,98.9999969787599,2|8,0:0|0:0,0:0:0:0:
358,146,474483,1,2,0:0:0:0:
164,196,474608,1,2,3:2:0:0:
300,247,474733,1,2,0:0:0:0:
153,108,474858,1,8,3:2:0:0:
177,109,474920,1,0,3:2:0:0:
202,111,474983,1,0,3:2:0:0:
227,113,475045,1,0,3:2:0:0:
251,115,475108,5,2,3:2:0:0:
134,35,475233,1,2,0:0:0:0:
331,86,475358,1,10,0:0:0:0:
77,123,475483,1,2,0:0:0:0:
249,189,475608,1,2,3:2:0:0:
104,219,475733,1,2,0:0:0:0:
189,272,475858,2,0,B|267:304|260:243|351:297,1,148.49999546814,10|0,0:0|0:0,0:0:0:0:
384,361,476108,6,0,P|331:376|281:361,1,98.9999969787599,6|0,3:2|0:0,0:0:0:0:
189,272,476358,1,10,0:0:0:0:
379,216,476483,1,2,0:0:0:0:
379,216,476545,1,0,0:0:0:0:
379,216,476608,1,2,3:2:0:0:
262,107,476733,1,0,0:0:0:0:
451,170,476858,2,0,L|538:161,2,49.4999984893799,10|0|2,0:0|0:0|0:0,0:0:0:0:
249,189,477108,5,2,3:2:0:0:
351,98,477233,1,2,0:0:0:0:
177,68,477358,1,10,0:0:0:0:
364,92,477483,1,2,0:0:0:0:
91,0,477608,2,0,L|117:175,1,148.49999546814,2|0,3:2|0:0,0:0:0:0:
174,242,477858,2,0,L|53:230,2,98.9999969787599,10|0|2,0:0|0:0|3:2,0:0:0:0:
316,291,478233,6,0,L|192:312,1,98.9999969787599,2|8,0:0|0:0,0:0:0:0:
397,351,478483,1,2,0:0:0:0:
458,217,478608,2,0,L|472:320,2,98.9999969787599,2|2|8,3:2|0:0|0:0,0:0:0:0:
441,80,478983,1,0,0:0:0:0:
441,80,479045,1,0,0:0:0:0:
441,80,479108,5,2,3:2:0:0:
261,81,479233,1,2,0:0:0:0:
363,39,479358,1,2,0:0:0:0:
175,108,479483,1,2,0:0:0:0:
344,166,479608,1,2,0:0:0:0:
189,29,479733,1,2,3:2:0:0:
230,199,479858,1,2,3:2:0:0:
261,81,479983,1,0,3:2:0:0:
224,214,480108,6,0,L|119:206,1,82.5,0|2,3:2|0:0,0:0:0:0:
287,292,480358,2,0,L|369:285,1,82.5,10|2,0:0|0:0,0:0:0:0:
180,317,480608,1,2,3:2:0:0:
180,317,480733,1,2,0:0:0:0:
325,198,480858,2,0,L|334:96,1,82.5,10|2,0:0|0:0,0:0:0:0:
345,0,481108,5,2,3:2:0:0:
241,143,481233,2,0,L|125:133,1,82.5,2|8,0:0|0:0,0:0:0:0:
414,89,481483,2,0,L|530:79,1,82.5,2|0,0:0|3:2,0:0:0:0:
239,46,481733,1,2,0:0:0:0:
333,99,481858,1,10,0:0:0:0:
241,143,481983,1,2,0:0:0:0:
324,203,482108,6,0,P|401:189|434:169,1,82.5,2|0,3:2|0:0,0:0:0:0:
227,262,482358,1,10,0:0:0:0:
241,158,482483,1,2,0:0:0:0:
224,276,482608,2,0,P|146:262|114:242,1,82.5,2|0,3:2|0:0,0:0:0:0:
47,175,482858,1,10,0:0:0:0:
108,336,482983,1,2,0:0:0:0:
147,150,483108,6,0,L|153:35,2,82.5,2|2|8,3:0|0:0|0:0,0:0:0:0:
143,260,483483,1,2,0:0:0:0:
313,358,483608,2,0,L|307:243,1,82.5,0|0,3:2|0:0,0:0:0:0:
299,112,483858,1,8,0:0:0:0:
299,112,483920,1,0,0:0:0:0:
299,112,483983,1,0,0:0:0:0:
449,202,484108,6,0,L|345:195,1,82.5,0|2,3:0|0:0,0:0:0:0:
232,57,484358,1,10,0:0:0:0:
255,187,484483,1,2,0:0:0:0:
64,155,484608,2,0,L|168:148,1,82.5,2|2,3:2|0:0,0:0:0:0:
334,54,484858,1,10,0:0:0:0:
262,178,484983,1,2,0:0:0:0:
224,62,485108,5,2,3:2:0:0:
268,167,485233,2,0,L|385:162,1,82.5,2|8,0:0|0:0,0:0:0:0:
446,104,485483,1,2,0:0:0:0:
446,104,485545,1,0,0:0:0:0:
446,104,485608,1,0,3:2:0:0:
394,278,485733,1,2,0:0:0:0:
452,199,485858,1,10,0:0:0:0:
492,334,485983,1,2,0:0:0:0:
301,301,486108,6,0,L|194:288,1,82.5,2|0,3:2|0:0,0:0:0:0:
71,149,486358,1,10,0:0:0:0:
128,325,486483,1,2,0:0:0:0:
128,325,486545,1,0,0:0:0:0:
128,325,486608,2,0,L|140:207,1,82.5,2|0,3:2|0:0,0:0:0:0:
148,54,486858,1,10,0:0:0:0:
209,165,486983,1,2,0:0:0:0:
361,87,487108,6,0,P|296:74|247:75,1,82.5,2|2,3:2|0:0,0:0:0:0:
392,202,487358,2,0,P|457:189|506:190,1,82.5,8|2,0:0|0:0,0:0:0:0:
312,288,487608,1,0,3:2:0:0:
209,165,487733,1,0,3:2:0:0:
209,165,487795,1,0,0:0:0:0:
209,165,487858,1,8,0:2:0:0:
114,355,487983,1,0,3:2:0:0:
25,265,488108,6,0,L|147:250,1,98.9999969787599,6|0,3:2|0:0,0:0:0:0:
299,136,488358,2,0,L|308:62,2,49.4999984893799,10|0|0,0:0|0:0|0:0,0:0:0:0:
129,83,488608,2,0,L|138:157,2,49.4999984893799,2|0|0,3:2|0:0|0:0,0:0:0:0:
268,13,488858,1,10,0:0:0:0:
268,13,488920,1,0,0:0:0:0:
268,13,488983,1,0,0:0:0:0:
385,126,489108,6,0,L|521:118,1,98.9999969787599,2|0,3:2|0:0,0:0:0:0:
222,258,489358,2,0,L|86:250,1,98.9999969787599,10|0,0:0|0:0,0:0:0:0:
318,337,489608,1,2,3:2:0:0:
321,349,489733,1,0,0:0:0:0:
404,226,489858,2,0,L|502:220,1,98.9999969787599,10|0,0:0|0:0,0:0:0:0:
280,152,490108,6,0,L|273:91,2,49.4999984893799,2|0|0,3:2|0:0|0:0,0:0:0:0:
222,258,490358,2,0,L|216:307,2,49.4999984893799,10|0|0,0:0|0:0|0:0,0:0:0:0:
138,123,490608,1,2,3:2:0:0:
138,123,490670,1,0,0:0:0:0:
138,123,490733,1,0,0:0:0:0:
30,245,490858,1,10,0:0:0:0:
27,256,490983,1,0,0:0:0:0:
212,178,491108,6,0,L|336:158,2,98.9999969787599,2|2|10,3:2|0:0|0:0,0:0:0:0:
30,108,491483,1,0,0:0:0:0:
122,240,491608,1,2,3:2:0:0:
246,56,491733,1,0,0:0:0:0:
246,56,491795,1,0,0:0:0:0:
246,56,491858,1,8,0:0:0:0:
309,162,491983,1,0,0:0:0:0:
390,87,492108,6,0,L|513:91,1,98.9999969787599,2|0,3:2|0:0,0:0:0:0:
309,162,492358,2,0,L|247:172,2,49.4999984893799,10|0|0,0:0|0:0|0:0,0:0:0:0:
452,242,492608,2,0,P|385:239|329:246,1,98.9999969787599,2|0,3:2|0:0,0:0:0:0:
220,318,492858,2,0,L|158:328,2,49.4999984893799,10|0|0,0:0|0:0|0:0,0:0:0:0:
386,365,493108,5,2,3:2:0:0:
246,229,493233,1,0,0:0:0:0:
246,229,493295,1,0,0:0:0:0:
246,229,493358,1,10,0:0:0:0:
303,320,493483,1,0,0:0:0:0:
407,163,493608,2,0,P|351:164|279:158,1,98.9999969787599,2|0,3:2|0:0,0:0:0:0:
117,73,493858,2,0,P|166:71|207:104,1,98.9999969787599,10|0,0:0|0:0,0:0:0:0:
84,224,494108,6,0,P|22:249|2:310,1,98.9999969787599,2|0,3:2|0:0,0:0:0:0:
86,309,494358,2,0,L|190:298,1,98.9999969787599,10|0,0:0|0:0,0:0:0:0:
454,164,494608,1,2,3:2:0:0:
372,292,494733,1,0,0:0:0:0:
308,161,494858,1,8,0:0:0:0:
308,161,494920,1,0,0:0:0:0:
308,161,494983,1,2,0:0:0:0:
105,211,495108,5,2,3:2:0:0:
282,247,495233,1,2,0:0:0:0:
125,129,495358,1,10,0:0:0:0:
359,85,495483,1,2,0:0:0:0:
188,182,495608,1,2,3:2:0:0:
248,20,495733,1,2,3:2:0:0:
237,109,495858,1,10,3:2:0:0:
159,54,495983,1,0,3:0:0:0:
237,109,496108,6,0,P|263:177|259:215,1,82.5,4|0,3:2|0:0,0:0:0:0:
340,252,496358,2,0,P|313:324|317:362,1,82.5,10|0,0:0|0:0,0:0:0:0:
322,348,496608,1,2,3:2:0:0:
395,175,496733,1,0,0:0:0:0:
231,268,496858,1,10,0:0:0:0:
231,268,496920,1,0,0:0:0:0:
231,268,496983,1,0,0:0:0:0:
95,164,497108,6,0,L|189:152,2,82.5,0|2|10,3:2|0:0|0:0,0:0:0:0:
30,103,497483,1,2,0:0:0:0:
90,301,497608,6,0,L|-4:289,2,82.5,2|2|10,3:2|0:0|0:0,0:0:0:0:
155,240,497983,1,2,0:0:0:0:
268,358,498108,6,0,P|377:342|385:343,1,82.5,2|0,3:2|0:0,0:0:0:0:
491,243,498358,2,0,P|382:227|374:228,1,82.5,8|2,0:0|0:0,0:0:0:0:
410,225,498545,1,0,0:0:0:0:
410,225,498608,1,0,3:2:0:0:
471,350,498733,1,0,0:0:0:0:
324,249,498858,2,0,L|340:157,1,82.5,8|0,0:0|0:0,0:0:0:0:
217,39,499108,6,0,P|229:96|213:140,1,82.5,2|0,3:2|0:0,0:0:0:0:
121,231,499358,1,8,0:0:0:0:
66,105,499483,1,2,0:0:0:0:
66,105,499545,1,0,0:0:0:0:
66,105,499608,1,2,3:2:0:0:
205,194,499733,1,2,0:0:0:0:
150,71,499858,1,10,0:0:0:0:
47,187,499983,1,0,0:0:0:0:
240,301,500108,6,0,P|174:302|116:318,1,123.75,0|0,3:2|0:0,0:0:0:0:
104,342,500358,2,0,P|175:341|213:365,1,82.5,10|0,0:0|0:0,0:0:0:0:
401,208,500608,2,0,P|330:207|292:231,1,82.5,2|0,3:2|0:0,0:0:0:0:
240,301,500858,1,10,0:0:0:0:
311,353,500983,1,2,0:0:0:0:
233,170,501108,5,2,3:2:0:0:
237,287,501233,1,2,0:0:0:0:
368,92,501358,1,10,0:0:0:0:
316,335,501483,1,2,0:0:0:0:
201,68,501608,1,2,3:2:0:0:
320,210,501733,1,0,0:0:0:0:
299,14,501858,1,10,0:0:0:0:
173,237,501983,1,0,0:0:0:0:
121,3,502108,5,6,3:2:0:0:
398,270,502233,1,2,3:2:0:0:
374,92,502608,5,6,3:2:0:0:
189,384,502733,1,2,3:2:0:0:
83,140,502983,1,6,3:2:0:0:
83,140,503045,1,0,3:2:0:0:
83,140,503108,6,0,L|156:148,1,41.25,0|0,3:2|3:2,0:2:0:0:
323,219,503233,1,6,3:2:0:0:
323,219,503295,1,0,3:2:0:0:
323,219,503358,2,0,L|250:227,1,41.25,2|0,3:2|3:2,0:2:0:0:
105,319,503483,1,6,3:2:0:0:
219,65,503608,2,0,P|208:132|201:260,1,165,2|8,3:2|0:2,0:2:0:0:
252,316,504108,6,0,P|170:310|92:322,1,148.49999546814,6|0,3:2|0:0,0:0:0:0:
76,340,504358,2,0,P|134:323|176:321,1,98.9999969787599,8|0,0:0|0:0,0:0:0:0:
323,366,504545,1,0,0:0:0:0:
332,372,504608,2,0,L|436:363,1,98.9999969787599,0|0,3:2|0:0,0:0:0:0:
512,262,504858,2,0,P|438:262|365:227,1,148.49999546814,10|0,0:0|0:0,0:0:0:0:
254,194,505108,6,0,P|339:148|361:114,1,98.9999969787599,2|0,3:2|0:0,0:0:0:0:
370,24,505358,1,10,0:0:0:0:
195,118,505483,2,0,P|175:166|174:220,2,98.9999969787599,2|0|0,0:0|3:0|0:0,0:0:0:0:
97,10,505858,2,0,P|106:69|81:171,1,148.49999546814,10|0,0:0|0:0,0:0:0:0:
10,202,506108,6,0,P|43:267|38:317,1,98.9999969787599,2|0,3:2|0:0,0:0:0:0:
130,366,506358,1,8,0:0:0:0:
254,194,506483,2,0,P|231:263|192:295,1,98.9999969787599,2|0,0:0|3:0,0:0:0:0:
47,367,506733,1,0,0:0:0:0:
275,337,506858,2,0,L|400:323,1,98.9999969787599,10|0,0:0|0:0,0:0:0:0:
461,170,507108,6,0,P|422:230|429:284,1,98.9999969787599,2|0,3:2|0:0,0:0:0:0:
337,162,507358,2,0,P|376:102|369:48,1,98.9999969787599,10|0,0:0|0:0,0:0:0:0:
299,241,507608,2,0,P|250:249|213:280,1,98.9999969787599,2|0,3:2|0:0,0:0:0:0:
130,366,507858,2,0,P|143:274|138:196,1,148.49999546814,10|0,0:0|0:0,0:0:0:0:
79,90,508108,5,2,3:2:0:0:
218,173,508233,1,0,0:0:0:0:
80,79,508358,1,8,0:0:0:0:
217,180,508483,1,0,0:0:0:0:
308,49,508608,5,2,3:2:0:0:
140,137,508733,1,0,0:0:0:0:
307,38,508858,1,8,0:0:0:0:
141,144,508983,1,0,0:0:0:0:
397,144,509108,6,0,L|268:132,1,98.9999969787599,2|0,3:2|0:0,0:0:0:0:
115,290,509358,2,0,L|244:278,1,98.9999969787599,8|0,0:0|0:0,0:0:0:0:
338,215,509608,1,2,3:2:0:0:
293,351,509733,1,0,0:0:0:0:
512,327,509858,2,0,L|413:336,1,98.9999969787599,8|0,0:0|0:0,0:0:0:0:
199,362,510108,5,4,3:2:0:0:
412,261,510233,1,0,3:2:0:0:
186,192,510358,1,8,3:2:0:0:
423,259,510483,1,0,3:2:0:0:
187,365,510608,1,0,3:2:0:0:
434,257,510733,1,0,3:2:0:0:
175,188,510858,1,8,3:2:0:0:
445,255,510983,1,0,3:2:0:0:
140,278,511108,5,4,3:2:0:0:
414,347,511233,1,0,3:2:0:0:
218,84,511358,1,8,3:2:0:0:
421,357,511483,1,0,3:2:0:0:
127,276,511608,1,2,3:2:0:0:
429,369,511733,1,2,3:2:0:0:
209,72,511858,1,10,3:2:0:0:
437,382,511983,1,2,3:2:0:0:
175,188,512108,6,0,P|256:181|341:179,1,148.49999546814,6|0,3:2|0:0,0:0:0:0:
348,161,512358,2,0,P|299:161|241:150,1,98.9999969787599,8|0,0:0|0:0,0:0:0:0:
101,74,512545,1,0,0:0:0:0:
110,80,512608,2,0,L|214:71,1,98.9999969787599,0|0,3:2|0:0,0:0:0:0:
457,23,512858,2,0,P|432:95|425:197,1,148.49999546814,10|0,0:0|0:0,0:0:0:0:
484,269,513108,6,0,P|425:256|356:247,1,98.9999969787599,2|0,3:2|0:0,0:0:0:0:
198,294,513358,1,10,0:0:0:0:
249,152,513483,2,0,P|260:200|267:249,2,98.9999969787599,2|0|0,0:0|3:2|0:0,0:0:0:0:
110,80,513858,2,0,P|192:83|246:22,1,148.49999546814,10|0,0:0|0:0,0:0:0:0:
397,90,514108,6,0,P|349:77|300:86,1,98.9999969787599,2|0,3:2|0:0,0:0:0:0:
170,177,514358,1,10,0:0:0:0:
63,199,514483,2,0,L|187:182,1,98.9999969787599,2|0,3:2|0:0,0:0:0:0:
344,158,514733,1,2,0:0:0:0:
278,347,514858,2,0,L|264:222,1,98.9999969787599,10|0,0:0|0:0,0:0:0:0:
411,233,515108,6,0,P|372:293|379:347,1,98.9999969787599,2|0,3:2|0:0,0:0:0:0:
192,307,515358,2,0,P|252:346|306:339,1,98.9999969787599,10|0,0:0|0:0,0:0:0:0:
457,357,515608,2,0,P|408:349|371:318,1,98.9999969787599,2|0,3:2|0:0,0:0:0:0:
277,101,515858,2,0,P|278:175|266:248,1,148.49999546814,10|0,0:0|0:0,0:0:0:0:
123,361,516108,5,2,3:2:0:0:
114,360,516170,1,0,3:2:0:0:
105,359,516233,1,0,3:2:0:0:
96,358,516295,1,0,3:2:0:0:
87,357,516358,1,0,3:2:0:0:
81,273,516483,1,0,3:2:0:0:
152,227,516608,1,6,3:2:0:0:
152,227,516858,1,0,0:2:0:0:
69,363,517108,5,2,3:2:0:0:
87,360,517170,1,0,3:2:0:0:
105,359,517233,1,0,3:2:0:0:
123,357,517295,1,0,3:2:0:0:
141,354,517358,1,0,3:2:0:0:
160,250,517483,1,0,3:2:0:0:
97,166,517608,1,6,3:2:0:0:
97,166,517858,1,0,0:2:0:0:
186,368,518108,5,2,3:2:0:0:
150,362,518170,1,0,3:2:0:0:
114,360,518233,1,0,3:2:0:0:
78,356,518295,1,0,3:2:0:0:
42,350,518358,1,0,3:2:0:0:
29,192,518483,1,0,3:2:0:0:
163,107,518608,1,6,3:2:0:0:
163,107,518858,1,0,0:2:0:0:
14,372,519108,5,2,3:2:0:0:
64,363,519170,1,0,3:2:0:0:
114,360,519233,1,0,3:2:0:0:
165,355,519295,1,0,3:2:0:0:
215,346,519358,1,0,3:2:0:0:
225,168,519483,1,0,3:2:0:0:
97,45,519608,1,6,3:2:0:0:
97,45,519858,1,0,0:2:0:0:
262,252,520108,5,2,3:2:0:0:
301,139,520233,1,0,3:2:0:0:
259,264,520358,1,8,3:2:0:0:
224,88,520483,1,0,3:2:0:0:
325,313,520608,5,2,3:2:0:0:
380,86,520733,1,0,3:2:0:0:
327,325,520858,1,8,3:2:0:0:
296,24,520983,1,0,3:2:0:0:
167,319,521108,5,2,3:2:0:0:
136,37,521233,1,0,3:2:0:0:
165,331,521358,1,8,3:2:0:0:
224,88,521483,1,0,3:2:0:0:
392,243,521608,5,2,3:2:0:0:
110,171,521733,1,2,3:2:0:0:
421,111,521858,1,10,3:2:0:0:
160,238,521983,1,2,3:2:0:0:
438,338,522108,1,4,3:2:0:0:
438,338,523608,5,6,3:2:0:0:
438,338,523670,1,0,3:0:0:0:
438,338,523733,1,0,3:0:0:0:
438,338,523795,1,0,3:0:0:0:
438,338,523858,2,0,L|356:327,1,49.4999984893799,10|0,3:2|3:0,0:0:0:0:
192,278,523983,2,0,L|241:271,1,49.4999984893799,0|0,3:0|3:0,0:0:0:0:
482,163,524108,6,0,L|262:140,1,197.99999395752,6|8,3:2|0:0,0:0:0:0:
205,112,524483,2,0,P|239:70|305:53,2,98.9999969787599,2|0|0,0:0|3:2|0:0,0:0:0:0:
68,124,524858,2,0,P|112:148|133:208,1,98.9999969787599,10|0,0:0|0:0,0:0:0:0:
118,293,525108,5,6,3:2:0:0:
41,364,525233,1,0,0:0:0:0:
202,296,525358,2,0,P|274:286|344:310,1,148.49999546814,8|0,0:0|0:0,0:0:0:0:
31,360,525608,2,0,P|104:342|134:318,1,98.9999969787599,2|0,3:2|0:0,0:0:0:0:
356,346,525858,2,0,P|313:321|264:314,1,98.9999969787599,10|0,0:0|0:0,0:0:0:0:
23,217,526108,6,0,P|99:220|226:165,1,197.99999395752,6|8,3:2|0:0,0:0:0:0:
233,102,526483,2,0,P|179:80|106:64,2,98.9999969787599,2|0|0,0:0|3:0|0:0,0:0:0:0:
327,177,526858,1,10,0:0:0:0:
429,142,526983,1,2,0:0:0:0:
309,294,527108,2,0,L|188:283,1,98.9999969787599,6|0,3:2|0:0,0:0:0:0:
403,380,527358,2,0,L|527:368,1,98.9999969787599,8|0,0:0|0:0,0:0:0:0:
469,253,527608,2,0,P|401:287|381:350,1,98.9999969787599,2|0,3:2|0:0,0:0:0:0:
295,376,527858,2,0,P|280:329|243:296,1,98.9999969787599,10|0,0:0|0:0,0:0:0:0:
66,253,528108,6,0,P|149:221|231:225,1,148.49999546814,6|0,3:2|0:0,0:0:0:0:
224,229,528358,1,8,0:0:0:0:
0,158,528483,2,0,P|64:154|166:99,1,148.49999546814,2|0,3:2|0:0,0:0:0:0:
148,107,528733,1,0,0:0:0:0:
329,153,528858,2,0,P|276:153|215:140,1,98.9999969787599,8|0,0:0|0:0,0:0:0:0:
114,11,529108,6,0,P|188:31|235:24,1,98.9999969787599,6|0,3:2|0:0,0:0:0:0:
288,10,529358,1,10,0:0:0:0:
465,67,529483,2,0,P|411:51|310:148,1,197.99999395752,2|0,3:2|0:0,0:0:0:0:
74,159,529858,2,0,L|260:153,1,148.49999546814,10|0,0:0|0:0,0:0:0:0:
463,198,530108,6,0,B|434:184|401:192|401:192|379:222|337:225|337:225|310:202|268:210,1,197.99999395752,6|8,3:2|0:0,0:0:0:0:
40,271,530483,2,0,B|69:285|102:277|102:277|124:247|166:244|166:244|193:267|235:259,1,197.99999395752,2|0,0:0|0:0,0:0:0:0:
284,382,530858,2,0,L|296:276,1,98.9999969787599,10|0,0:0|0:0,0:0:0:0:
317,67,531108,5,6,3:2:0:0:
398,197,531233,1,0,3:0:0:0:
398,197,531295,1,0,3:0:0:0:
398,197,531358,1,8,3:2:0:0:
421,77,531483,1,0,3:2:0:0:
316,212,531608,1,2,0:2:0:0:
380,0,531733,1,0,3:2:0:0:
231,232,531858,1,10,0:2:0:0:
478,182,531983,1,0,3:2:0:0:
179,131,532108,6,0,L|276:147,1,98.9999969787599,6|0,3:2|0:0,0:0:0:0:
478,182,532358,1,8,0:0:0:0:
265,306,532483,2,0,L|362:290,1,98.9999969787599,2|0,0:0|3:2,0:0:0:0:
215,228,532733,1,0,0:0:0:0:
460,384,532858,2,0,L|363:368,1,98.9999969787599,10|0,0:0|0:0,0:0:0:0:
134,327,533108,5,6,3:2:0:0:
265,306,533233,1,0,0:0:0:0:
61,252,533358,2,0,P|121:220|147:134,1,148.49999546814,8|0,0:0|0:0,0:0:0:0:
201,24,533608,2,0,P|213:98|256:131,1,98.9999969787599,2|0,1:2|0:0,0:0:0:0:
351,147,533858,2,0,P|295:212|291:251,1,98.9999969787599,10|0,0:0|0:0,0:0:0:0:
202,366,534108,6,0,L|188:241,2,98.9999969787599,6|0|8,3:2|0:0|0:0,0:0:0:0:
428,306,534483,2,0,L|442:181,2,98.9999969787599,2|0|0,0:0|3:3|0:0,0:0:0:0:
290,357,534858,1,10,0:0:0:0:
424,320,534983,1,2,0:0:0:0:
275,207,535108,6,0,P|211:196|138:201,1,98.9999969787599,6|0,3:2|0:0,0:0:0:0:
410,123,535358,2,0,P|474:112|547:117,1,98.9999969787599,8|0,0:0|0:0,0:0:0:0:
280,32,535608,1,2,3:2:0:0:
330,146,535733,1,0,0:0:0:0:
292,26,535858,1,10,0:2:0:0:
177,196,535983,1,0,0:0:0:0:
145,108,536108,6,0,L|265:114,1,98.9999969787599,6|0,3:2|0:0,0:0:0:0:
465,223,536358,1,10,0:0:0:0:
465,223,536483,2,0,L|244:234,1,197.99999395752,2|0,0:0|0:0,0:0:0:0:
55,338,536858,2,0,P|110:332|161:284,1,98.9999969787599,10|0,0:0|0:0,0:0:0:0:
268,233,537108,6,0,L|253:351,1,98.9999969787599,6|0,3:2|0:0,0:0:0:0:
250,361,537358,1,10,0:0:0:0:
93,218,537483,2,0,P|159:204|195:176,1,98.9999969787599,2|0,0:0|3:0,0:0:0:0:
256,110,537733,1,0,0:0:0:0:
224,18,537858,2,0,P|238:84|266:120,1,98.9999969787599,10|0,0:0|0:0,0:0:0:0:
447,166,538108,6,0,L|348:159,1,98.9999969787599,6|0,3:2|0:0,0:0:0:0:
93,218,538358,1,10,0:0:0:0:
46,122,538483,2,0,B|183:86|183:86|113:145,1,197.99999395752,2|0,0:0|0:0,0:0:0:0:
1,217,538858,2,0,P|30:203|99:224,1,98.9999969787599,10|0,0:0|0:0,0:0:0:0:
176,360,539108,5,6,3:2:0:0:
94,315,539233,1,0,3:2:0:0:
94,315,539295,1,0,3:2:0:0:
94,315,539358,1,8,3:2:0:0:
267,354,539483,1,0,3:0:0:0:
347,296,539608,1,2,3:2:0:0:
461,334,539733,1,0,3:0:0:0:
285,233,539858,1,10,0:0:0:0:
399,203,539983,1,0,3:0:0:0:
274,135,540108,6,0,L|288:255,1,98.9999969787599,6|0,3:2|0:0,0:0:0:0:
302,356,540358,1,8,0:0:0:0:
302,356,540483,1,0,0:0:0:0:
491,208,540608,6,0,L|477:328,1,98.9999969787599,0|0,3:2|0:0,0:0:0:0:
372,384,540858,2,0,L|195:364,1,148.49999546814,8|0,0:0|0:0,0:0:0:0:
119,297,541108,6,0,L|244:282,1,98.9999969787599,4|0,3:2|0:0,0:0:0:0:
396,188,541358,2,0,P|331:187|218:131,1,148.49999546814,8|0,0:0|0:0,0:0:0:0:
158,54,541608,5,2,3:2:0:0:
90,34,541670,1,0,3:0:0:0:
35,55,541733,1,0,3:0:0:0:
16,87,541795,1,0,3:0:0:0:
10,122,541858,1,10,3:2:0:0:
19,144,541920,1,0,3:0:0:0:
29,153,541983,1,0,3:0:0:0:
41,157,542045,1,0,3:0:0:0:
50,155,542108,5,6,3:2:0:0:
50,155,542858,5,2,0:0:0:0:
157,240,543108,2,0,L|251:230,1,82.5,2|0,0:0|0:0,0:0:0:0:
344,224,543483,1,2,0:0:0:0:
227,126,543608,6,0,L|219:91,3,20.625,0|0|0|0,3:0|3:0|3:0|3:0,0:0:0:0:
307,63,543858,2,0,L|315:28,3,20.625,0|0|0|0,3:0|3:0|3:0|3:0,0:0:0:0:
152,72,544108,6,0,L|44:60,2,98.9999969787599,6|0|8,3:2|0:0|0:0,0:0:0:0:
401,104,544483,1,0,0:0:0:0:
297,308,544608,2,0,P|331:267|344:210,1,98.9999969787599,0|0,3:0|0:0,0:0:0:0:
318,143,544858,1,10,0:0:0:0:
418,296,544983,1,2,0:0:0:0:
238,251,545108,6,0,P|149:238|112:240,1,98.9999969787599,2|0,3:2|0:0,0:0:0:0:
26,273,545358,1,10,0:0:0:0:
258,384,545483,2,0,P|347:371|384:373,1,98.9999969787599,2|0,0:0|3:2,0:0:0:0:
493,382,545733,1,2,0:0:0:0:
418,296,545858,2,0,L|433:167,1,98.9999969787599,10|0,0:0|0:0,0:0:0:0:
449,35,546108,5,6,3:2:0:0:
316,212,546233,1,0,0:0:0:0:
257,48,546358,1,8,0:0:0:0:
328,227,546483,2,0,L|313:98,1,98.9999969787599,2|0,0:0|3:2,0:0:0:0:
353,11,546733,1,0,0:0:0:0:
157,142,546858,2,0,L|172:13,1,98.9999969787599,10|0,0:0|0:0,0:0:0:0:
46,27,547108,5,2,3:2:0:0:
241,162,547233,1,0,0:0:0:0:
79,246,547358,1,8,0:0:0:0:
214,289,547483,1,0,0:0:0:0:
48,363,547608,6,0,L|40:296,3,49.4999984893799
223,299,547858,2,0,L|231:232,3,49.4999984893799,8|0|0|0,0:0|0:0|0:0|0:0,0:0:0:0:
338,343,548108,6,0,L|471:322,2,98.9999969787599,6|0|8,3:2|0:0|0:0,0:0:0:0:
139,235,548483,2,0,L|6:214,2,98.9999969787599,2|0|0,0:0|3:2|0:0,0:0:0:0:
281,165,548858,1,10,0:0:0:0:
407,224,548983,1,2,0:0:0:0:
201,98,549108,6,0,P|251:79|322:75,1,98.9999969787599,6|2,3:2|0:0,0:0:0:0:
425,108,549358,1,8,0:0:0:0:
501,248,549483,2,0,P|451:229|380:225,1,98.9999969787599,2|0,0:0|3:2,0:0:0:0:
277,258,549733,1,2,0:0:0:0:
143,375,549858,2,0,P|186:327|204:264,1,98.9999969787599,10|0,0:0|0:0,0:0:0:0:
83,158,550108,6,0,P|119:223|169:243,1,98.9999969787599,6|0,3:2|0:0,0:0:0:0:
277,258,550358,1,8,0:0:0:0:
27,263,550483,2,0,P|90:301|143:293,1,98.9999969787599,2|0,0:0|3:0,0:0:0:0:
290,254,550733,1,0,0:0:0:0:
143,375,550858,2,0,P|263:356|286:358,1,98.9999969787599,10|0,0:0|0:0,0:0:0:0:
402,382,551108,5,6,3:2:0:0:
201,278,551233,1,0,3:2:0:0:
201,278,551295,1,0,3:2:0:0:
201,278,551358,1,8,3:2:0:0:
407,237,551483,1,0,0:0:0:0:
167,223,551608,1,4,3:2:0:0:
360,94,551733,1,0,0:0:0:0:
113,198,551858,1,8,3:2:0:0:
235,0,551983,1,0,0:0:0:0:
58,211,552108,6,0,P|43:251|38:302,5,49.4999984893799,6|0|0|0|8|0,3:2|0:0|0:0|0:0|0:0|0:0,0:0:0:0:
108,309,552483,2,0,P|104:349|124:397,5,49.4999984893799,2|0|0|0|0|0,0:0|0:0|3:2|0:0|0:0|0:0,0:0:0:0:
194,380,552858,5,10,0:0:0:0:
203,381,552920,1,0,0:0:0:0:
213,382,552983,1,0,0:0:0:0:
223,383,553045,1,0,0:0:0:0:
233,384,553108,6,0,L|305:365,5,49.4999984893799,2|0|0|0|8|0,3:2|0:0|0:0|0:0|0:0|0:0,0:0:0:0:
339,297,553483,2,0,L|386:309,5,49.4999984893799,2|0|0|0|0|0,0:0|0:0|3:0|0:0|0:0|0:0,0:0:0:0:
493,267,553858,1,10,0:0:0:0:
469,259,553920,1,0,0:0:0:0:
448,246,553983,1,0,0:0:0:0:
433,226,554045,1,0,0:0:0:0:
424,203,554108,6,0,L|439:146,5,49.4999984893799,6|0|0|0|8|0,3:2|0:0|0:0|0:0|0:0|0:0,0:0:0:0:
296,91,554483,2,0,L|308:138,5,49.4999984893799,2|0|0|0|0|0,0:0|0:0|3:0|0:0|0:0|0:0,0:0:0:0:
167,225,554858,2,0,L|179:177,3,49.4999984893799,10|0|0|0,0:0|0:0|0:0|0:0,0:0:0:0:
43,78,555108,5,2,3:2:0:0:
67,72,555170,1,0,0:0:0:0:
92,72,555233,1,0,0:0:0:0:
116,76,555295,1,0,0:0:0:0:
139,85,555358,1,8,0:0:0:0:
161,98,555420,1,0,0:0:0:0:
179,114,555483,1,2,0:0:0:0:
193,135,555545,1,0,0:0:0:0:
179,177,555608,5,0,3:2:0:0:
195,210,555671,1,0,0:0:0:0:
217,241,555733,1,0,0:0:0:0:
244,264,555796,1,0,0:0:0:0:
276,285,555858,1,8,0:0:0:0:
312,298,555921,1,0,0:0:0:0:
346,304,555983,1,0,0:0:0:0:
384,303,556046,1,0,0:0:0:0:
420,295,556108,6,0,P|462:273|499:232,2,98.9999969787599,6|0|8,3:2|0:0|0:0,0:0:0:0:
217,355,556483,2,0,P|174:340|102:339,2,98.9999969787599,2|0|0,0:0|3:2|0:0,0:0:0:0:
423,373,556858,2,0,P|356:348|340:302,1,98.9999969787599,10|0,0:0|0:0,0:0:0:0:
321,157,557108,6,0,P|345:89|372:55,2,98.9999969787599,2|0|8,3:2|0:0|0:0,0:0:0:0:
213,229,557483,2,0,P|189:161|162:127,2,98.9999969787599,2|0|0,0:0|3:2|0:0,0:0:0:0:
300,367,557858,2,0,L|318:232,1,98.9999969787599,10|0,0:0|0:0,0:0:0:0:
410,150,558108,6,0,L|528:184,1,98.9999969787599,2|0,3:2|0:0,0:0:0:0:
313,268,558358,1,8,0:0:0:0:
225,129,558483,2,0,L|343:163,1,98.9999969787599,2|0,0:0|3:2,0:0:0:0:
128,247,558733,1,0,0:0:0:0:
37,118,558858,2,0,L|155:152,1,98.9999969787599,10|0,0:0|0:0,0:0:0:0:
335,67,559108,5,6,3:2:0:0:
248,261,559233,1,0,3:2:0:0:
248,261,559295,1,0,3:2:0:0:
248,261,559358,1,8,3:2:0:0:
191,34,559483,1,0,0:0:0:0:
328,205,559608,1,0,3:2:0:0:
272,7,559733,1,0,0:0:0:0:
174,198,559858,1,8,3:2:0:0:
400,109,559983,1,0,0:0:0:0:
345,302,560108,6,0,L|322:177,1,98.9999969787599,6|0,3:2|0:0,0:0:0:0:
191,100,560358,2,0,L|168:225,1,98.9999969787599,10|2,0:0|0:0,0:0:0:0:
363,120,560608,6,0,L|238:143,1,98.9999969787599,4|0,3:2|0:0,0:0:0:0:
161,274,560858,2,0,L|286:297,1,98.9999969787599,8|0,0:0|0:0,0:0:0:0:
361,322,561108,6,0,L|338:202,1,98.9999969787599,6|0,3:2|0:0,0:0:0:0:
176,80,561358,2,0,L|154:200,1,98.9999969787599,10|2,0:0|0:0,0:0:0:0:
382,104,561608,6,0,L|262:126,1,98.9999969787599,4|0,3:2|0:0,0:0:0:0:
140,289,561858,2,0,L|245:308,1,98.9999969787599,8|0,0:0|0:0,0:0:0:0:
382,104,562108,5,6,3:2:0:0:
361,322,562233,1,0,0:0:0:0:
140,289,562358,1,10,0:0:0:0:
176,80,562483,1,2,0:0:0:0:
425,256,562608,5,4,3:2:0:0:
378,239,562670,1,0,3:2:0:0:
329,243,562733,1,0,3:2:0:0:
286,266,562795,1,0,3:2:0:0:
256,305,562858,1,10,3:2:0:0:
225,343,562920,1,0,3:2:0:0:
182,367,562982,1,0,3:2:0:0:
133,371,563045,1,0,3:2:0:0:
87,354,563107,1,6,3:2:0:0:
174,99,565108,5,2,3:2:0:0:
355,297,565233,1,2,3:2:0:0:
164,111,565483,5,2,3:2:0:0:
345,309,565608,1,2,3:2:0:0:
317,31,565858,5,2,3:2:0:0:
185,362,566108,5,2,3:2:0:0:
185,362,566358,6,0,L|194:303,1,41.25
92,35,566608,6,0,B|132:167|-41:104|-38:304|123:327|216:317|193:144|102:197,1,453.75,6|0,3:2|0:0,0:0:0:0:
189,340,567358,6,0,B|279:389|342:310|342:310|449:449|599:273|434:229|405:290,1,453.75,6|0,3:2|0:0,0:0:0:0:
358,212,568108,6,0,B|387:153|472:130|472:130|398:123|367:63|367:63|346:156|249:197,1,453.75,6|0,3:2|0:0,0:0:0:0:
60,159,568858,6,0,B|27:149|9:120|9:120|27:148|25:182,1,123.75,6|0,3:2|0:0,0:0:0:0:
99,289,569108,5,0,3:2:0:0:
103,296,569170,1,0,3:2:0:0:
107,303,569233,1,0,3:2:0:0:
111,310,569295,1,0,3:2:0:0:
115,317,569358,2,0,L|258:295,1,123.75,0|0,3:2|0:0,0:0:0:0:
414,221,569608,5,2,3:0:0:0:
336,315,569733,1,0,0:0:0:0:
326,139,569858,1,2,0:0:0:0:
290,238,569983,1,0,0:0:0:0:
245,72,570108,1,2,3:0:0:0:
287,229,570233,1,0,0:0:0:0:
353,26,570358,5,2,3:0:0:0:
174,120,570483,1,0,0:0:0:0:
326,139,570608,1,0,0:0:0:0:
116,53,570733,1,0,0:0:0:0:
204,199,570858,5,2,3:0:0:0:
245,72,570983,1,0,0:0:0:0:
139,264,571108,5,2,3:0:0:0:
86,137,571233,1,0,0:0:0:0:
264,323,571358,1,2,0:0:0:0:
312,164,571483,1,0,0:0:0:0:
115,353,571608,1,2,3:0:0:0:
49,205,571733,1,0,0:0:0:0:
332,375,571858,6,0,L|352:257,1,82.5,2|0,0:0|0:0,0:0:0:0:
62,286,572108,2,0,L|42:168,1,82.5,0|0,3:0|0:0,0:0:0:0:
398,221,572358,2,0,L|418:103,1,82.5,4|0,0:3|0:0,0:0:0:0:
62,31,572608,6,0,L|167:54,1,82.5,6|0,3:2|0:0,0:0:0:0:
245,72,572858,1,10,0:0:0:0:
245,72,573108,1,2,3:2:0:0:
492,293,573358,6,0,L|387:316,1,82.5,6|0,0:2|0:0,0:0:0:0:
309,334,573608,1,2,3:2:0:0:
309,334,573858,1,10,0:0:0:0:
39,114,574108,6,0,L|144:137,1,82.5,6|0,3:2|0:0,0:0:0:0:
222,155,574358,1,10,0:0:0:0:
222,155,574608,1,2,0:0:0:0:
481,201,574858,6,0,L|376:224,1,82.5,6|0,0:2|0:0,0:0:0:0:
298,242,575108,1,2,3:2:0:0:
298,242,575358,1,10,0:0:0:0:
190,55,575608,6,0,L|205:147,1,82.5,6|0,3:2|0:0,0:0:0:0:
308,136,575858,2,0,L|322:55,1,82.5,10|0,0:0|0:0,0:0:0:0:
38,144,576108,2,0,L|130:129,1,82.5,2|0,2:2|0:0,0:0:0:0:
322,250,576358,6,0,L|307:342,1,82.5,6|0,3:2|0:0,0:0:0:0:
203,331,576608,2,0,L|189:249,1,82.5,0|0,3:2|0:0,0:0:0:0:
474,339,576858,2,0,L|382:324,1,82.5,10|0,0:0|0:0,0:0:0:0:
308,136,577108,6,0,L|416:123,1,82.5,6|0,3:2|0:0,0:0:0:0:
190,55,577358,2,0,L|205:147,1,82.5,10|0,0:0|0:0,0:0:0:0:
189,249,577608,2,0,L|81:236,1,82.5,2|0,0:0|0:0,0:0:0:0:
323,249,577858,6,0,L|431:236,1,82.5,6|0,3:2|0:0,0:0:0:0:
322,55,578108,2,0,L|308:136,1,82.5,0|0,3:2|0:0,0:0:0:0:
189,249,578358,2,0,L|81:236,1,82.5,8|0,0:0|0:0,0:0:0:0:
107,239,578608,6,0,P|125:276|127:330,1,82.5,6|0,3:2|0:0,0:0:0:0:
67,378,578858,1,10,0:0:0:0:
197,341,578983,1,2,0:0:0:0:
348,384,579108,1,2,3:2:0:0:
419,348,579233,1,2,0:0:0:0:
499,377,579358,6,0,P|492:281|470:184,2,165,6|2|8,0:0|3:2|0:0,0:0:0:0:
281,328,580108,6,0,P|281:284|292:218,1,82.5,6|0,3:2|0:0,0:0:0:0:
347,166,580358,1,10,0:2:0:0:
366,79,580483,1,2,0:2:0:0:
224,144,580608,1,2,3:2:0:0:
202,6,580733,1,2,0:2:0:0:
347,166,580858,6,0,P|392:154|454:148,1,82.5,6|0,3:2|0:0,0:0:0:0:
184,240,581108,2,0,P|139:228|77:222,1,82.5,2|0,3:2|0:0,0:0:0:0:
347,344,581358,1,8,0:2:0:0:
347,344,581483,1,0,0:0:0:0:
347,344,581608,5,6,3:2:0:0:
23,263,581858,1,10,0:2:0:0:
304,173,582108,1,2,3:2:0:0:
153,115,582358,5,6,3:2:0:0:
304,173,582608,1,2,3:2:0:0:
146,31,582858,1,10,0:2:0:0:
415,137,583108,6,0,P|400:182|396:237,1,82.5,6|0,3:2|0:0,0:0:0:0:
475,305,583358,1,8,0:0:0:0:
475,305,583483,1,2,0:0:0:0:
475,305,583608,2,0,P|489:350|494:405,1,82.5,0|2,0:0|0:0,0:0:0:0:
347,285,583858,6,0,P|276:261|237:256,1,82.5,6|0,3:2|0:2,0:0:0:0:
143,283,584045,1,0,3:0:0:0:
143,283,584108,2,0,L|154:338,3,41.25,0|0|0|0,3:2|3:2|3:2|3:2,0:0:0:0:
54,238,584358,5,8,3:2:0:0:
60,197,584420,1,0,3:2:0:0:
67,156,584483,1,0,3:2:0:0:
74,115,584545,1,0,3:2:0:0:
80,75,584608,5,6,3:2:0:0:
375,305,586608,5,6,3:2:0:0:
215,71,587608,6,0,P|269:73|337:121,1,98.9999969787599,6|0,2:0|0:0,0:0:0:0:
393,211,587858,1,0,3:0:0:0:
393,211,587983,1,0,3:0:0:0:
135,122,588108,2,0,P|182:142|236:205,1,98.9999969787599,6|0,3:2|0:0,0:0:0:0:
268,300,588358,1,0,3:0:0:0:
268,300,588483,1,0,3:0:0:0:
44,147,588608,5,6,3:2:0:0:
44,147,589483,5,2,3:2:0:0:
255,258,589608,6,0,L|490:244,1,197.99999395752,6|2,3:2|3:2,0:0:0:0:
463,255,589983,1,0,3:2:0:0:
352,117,590108,2,0,P|306:133|258:128,1,98.9999969787599,6|0,3:2|0:0,0:0:0:0:
72,76,590358,2,0,P|121:96|165:151,1,98.9999969787599,2|0,3:2|3:2,0:0:0:0:
102,222,590608,6,0,P|183:224|267:268,1,160.874992635727,6|0,3:2|0:0,0:0:0:0:
323,349,590858,1,0,3:2:0:0:
441,328,590983,1,2,0:0:0:0:
329,194,591108,1,0,3:2:0:0:
329,194,591170,1,0,0:0:0:0:
329,194,591233,2,0,L|343:271,1,53.6249975452424
462,164,591358,2,0,L|479:31,1,107.249995090485,6|0,0:2|0:0,0:0:0:0:
364,6,591545,1,0,0:0:0:0:
364,6,591608,6,0,L|376:71,3,53.6249975452424,2|0|0|0,3:2|3:2|3:2|3:2,0:0:0:0:
254,126,591858,2,0,L|263:73,3,53.6249975452424,0|0|0|0,3:2|3:2|3:2|3:2,0:0:0:0:
126,14,592108,1,2,3:2:0:0:
126,14,592170,1,0,3:2:0:0:
126,14,592233,2,0,L|139:93,1,53.6249975452424,0|0,3:2|3:2,0:0:0:0:
238,211,592358,1,4,3:2:0:0:
105,171,592483,1,0,3:2:0:0:
276,292,592608,6,0,P|346:272|409:268,1,98.9999969787599,6|0,3:2|0:0,0:0:0:0:
483,267,592858,1,8,0:0:0:0:
383,124,592983,1,0,0:0:0:0:
383,124,593045,1,0,0:0:0:0:
383,124,593108,2,0,P|353:177|313:200,1,98.9999969787599,2|0,3:2|0:0,0:0:0:0:
156,237,593358,1,10,0:0:0:0:
272,129,593483,1,2,0:0:0:0:
81,290,593608,6,0,L|66:165,1,98.9999969787599,6|0,3:2|0:0,0:0:0:0:
56,51,593858,1,10,0:0:0:0:
218,186,593983,1,0,0:0:0:0:
218,186,594045,1,0,0:0:0:0:
218,186,594108,1,2,3:2:0:0:
174,93,594233,1,0,0:0:0:0:
156,237,594358,1,10,0:0:0:0:
272,129,594483,1,0,0:0:0:0:
226,318,594608,6,0,L|236:247,3,49.4999984893799,0|0|0|0,3:2|3:2|3:2|3:2,0:2:0:0:
363,144,594858,2,0,L|369:193,3,49.4999984893799,8|0|0|0,3:2|3:2|3:2|3:2,0:2:0:0:
420,323,595108,1,0,3:2:0:0:
395,327,595170,1,0,3:2:0:0:
371,332,595233,1,0,3:2:0:0:
347,336,595295,1,0,3:2:0:0:
322,341,595358,2,0,L|332:270,3,49.4999984893799,10|0|0|0,3:2|3:2|3:2|3:2,0:2:0:0:
221,189,595608,5,6,3:2:0:0:
196,185,595670,1,0,0:2:0:0:
172,180,595733,1,0,0:2:0:0:
148,176,595795,1,0,0:2:0:0:
123,171,595858,2,0,L|133:242,3,49.4999984893799,8|0|0|0,3:2|3:2|3:2|3:2,0:2:0:0:
22,292,596108,6,0,L|93:282,3,49.4999984893799,2|0|0|0,3:2|3:2|3:2|3:2,0:2:0:0:
110,366,596358,2,0,L|160:373,3,49.4999984893799,10|0|0|0,3:2|3:2|3:2|3:2,0:2:0:0:
230,305,596608,6,0,L|337:290,1,98.9999969787599,6|0,3:2|0:2,0:2:0:0:
479,172,596858,1,8,0:0:0:0:
437,274,596983,1,0,0:0:0:0:
248,203,597108,2,0,L|355:188,1,98.9999969787599,0|0,3:0|0:0,0:0:0:0:
481,57,597358,1,10,0:0:0:0:
438,261,597483,1,2,0:0:0:0:
251,90,597608,5,6,3:2:0:0:
251,90,597670,1,0,0:0:0:0:
251,90,597733,1,0,0:0:0:0:
165,235,597858,2,0,L|58:220,1,98.9999969787599,10|0,0:0|0:0,0:0:0:0:
109,131,598108,1,2,3:2:0:0:
109,131,598170,1,0,0:0:0:0:
109,131,598233,1,0,0:0:0:0:
227,305,598358,2,0,L|334:290,1,98.9999969787599,10|0,0:0|0:0,0:0:0:0:
476,194,598608,6,0,L|483:123,3,49.4999984893799,6|0|0|0,3:2|3:2|3:2|3:2,0:2:0:0:
402,87,598858,2,0,L|395:16,3,49.4999984893799,8|0|0|0,3:2|3:2|3:2|3:2,0:2:0:0:
394,236,599108,6,0,L|386:164,3,49.4999984893799,2|0|0|0,3:2|3:2|3:2|3:2,0:2:0:0:
288,95,599358,2,0,L|262:27,3,49.4999984893799,10|0|2|0,3:2|3:2|3:2|3:2,0:2:0:0:
276,222,599608,5,6,3:2:0:0:
276,222,599670,1,2,0:0:0:0:
276,222,599733,2,0,L|216:176,1,49.4999984893799,2|2,0:0|0:0,0:0:0:0:
163,98,599858,1,10,0:0:0:0:
163,98,599920,1,2,0:0:0:0:
163,98,599983,2,0,L|88:79,1,49.4999984893799,2|2,0:0|0:0,0:0:0:0:
5,153,600108,5,6,3:2:0:0:
54,154,600170,1,2,0:0:0:0:
99,172,600233,1,2,0:0:0:0:
136,205,600295,1,2,0:0:0:0:
159,249,600358,1,10,0:0:0:0:
181,292,600420,1,0,0:0:0:0:
218,325,600483,1,0,0:0:0:0:
264,343,600545,1,0,0:0:0:0:
313,345,600608,6,0,L|328:273,3,53.6249975452424,6|0|0|0,3:2|3:0|3:0|3:0,0:0:0:0:
489,291,600858,2,0,L|474:218,3,53.6249975452424,8|0|2|0,3:2|3:0|3:2|3:0,0:0:0:0:
349,190,601108,2,0,L|363:117,3,53.6249975452424,0|0|0|0,3:2|3:0|3:0|3:0,0:0:0:0:
443,73,601358,1,10,3:2:0:0:
441,63,601420,1,0,0:0:0:0:
439,52,601483,1,0,0:0:0:0:
437,42,601545,1,0,0:0:0:0:
435,31,601608,6,0,L|367:18,3,53.6249975452424,6|0|0|0,3:2|3:0|3:0|3:0,0:0:0:0:
299,72,601858,2,0,L|246:82,3,53.6249975452424,8|0|2|0,3:2|3:0|3:2|3:0,0:0:0:0:
149,28,602108,1,0,3:0:0:0:
149,28,602170,1,0,3:0:0:0:
149,28,602233,2,0,L|81:15,1,53.6249975452424,0|0,3:0|3:0,0:0:0:0:
60,123,602358,1,10,3:2:0:0:
60,123,602420,1,0,3:0:0:0:
60,123,602483,2,0,L|-8:136,1,53.6249975452424,0|0,3:0|3:0,0:0:0:0:
156,190,602608,6,0,L|224:203,3,53.6249975452424,6|0|0|0,3:2|3:0|3:0|3:0,0:0:0:0:
82,279,602858,2,0,L|14:292,3,53.6249975452424,8|0|2|0,3:2|3:0|3:2|3:0,0:0:0:0:
209,352,603108,2,0,L|196:284,3,53.6249975452424,0|0|0|0,3:0|3:0|3:0|3:0,0:0:0:0:
331,327,603358,1,10,3:2:0:0:
341,325,603420,1,0,0:0:0:0:
352,323,603483,1,0,0:0:0:0:
362,321,603545,1,0,0:0:0:0:
373,319,603608,6,0,L|386:251,3,53.6249975452424,6|0|0|0,3:2|3:0|3:0|3:0,0:0:0:0:
302,215,603858,2,0,L|289:147,3,53.6249975452424,10|0|0|0,3:2|3:0|3:0|3:0,0:0:0:0:
465,165,604108,2,0,L|478:97,3,53.6249975452424,0|0|0|0,3:0|3:0|3:0|3:0,0:0:0:0:
355,25,604358,2,0,L|344:77,3,53.6249975452424,10|0|0|0,3:2|3:0|3:0|3:0,0:0:0:0:
206,152,604608,5,6,0:2:0:0:
179,147,604670,1,0,0:0:0:0:
153,143,604733,1,0,0:0:0:0:
126,139,604795,1,0,0:0:0:0:
100,135,604858,2,0,L|90:66,3,53.6249975452424,8|0|2|0,0:2|0:0|0:0|0:0,0:0:0:0:
31,216,605108,5,0,0:0:0:0:
36,243,605170,1,0,0:0:0:0:
40,269,605233,1,0,0:0:0:0:
44,296,605295,1,0,0:0:0:0:
48,322,605358,2,0,L|117:332,3,53.6249975452424,10|0|0|0,0:0|0:0|0:0|0:0,0:0:0:0:
196,274,605608,5,6,0:2:0:0:
245,253,605670,1,0,0:0:0:0:
298,255,605733,1,0,0:0:0:0:
345,279,605795,1,0,0:0:0:0:
377,322,605858,6,0,P|425:350|446:351,3,53.6249975452424,8|0|0|0,3:2|3:2|3:2|3:2,0:0:0:0:
491,281,606108,2,0,L|499:206,3,53.6249975452424,2|0|0|0,0:2|0:2|0:2|0:2,0:0:0:0:
351,180,606358,2,0,L|343:105,3,53.6249975452424,10|0|0|0,0:2|0:2|0:2|0:2,0:0:0:0:
507,58,606608,6,0,L|367:35,1,107.249995090485,6|0,3:2|0:0,0:0:0:0:
179,9,606858,1,8,0:0:0:0:
0,189,606983,2,0,L|140:166,1,107.249995090485,2|0,0:0|3:0,0:0:0:0:
238,151,607233,1,0,0:0:0:0:
377,322,607358,2,0,L|237:299,1,107.249995090485,10|0,0:0|0:0,0:0:0:0:
98,275,607608,5,6,3:2:0:0:
238,151,607733,1,0,0:0:0:0:
202,251,607858,1,8,0:0:0:0:
151,67,607983,1,0,0:0:0:0:
89,289,608108,2,0,L|69:147,1,107.249995090485,6|0,3:2|0:0,0:0:0:0:
252,44,608358,2,0,L|237:150,1,107.249995090485,8|0,0:0|0:0,0:0:0:0:
304,224,608608,6,0,P|382:206|445:215,1,107.249995090485,6|0,3:2|0:0,0:0:0:0:
273,346,608858,2,0,P|195:328|132:337,1,107.249995090485,8|0,0:0|0:0,0:0:0:0:
448,274,609108,2,0,P|482:222|468:155,1,107.249995090485,6|0,3:2|0:0,0:0:0:0:
348,35,609358,2,0,P|424:85|474:90,1,107.249995090485,10|2,0:0|0:0,0:0:0:0:
310,128,609608,6,0,P|257:116|175:111,1,107.249995090485,2|0,3:2|0:0,0:0:0:0:
30,98,609858,2,0,P|70:147|137:153,1,107.249995090485,10|0,0:0|0:0,0:0:0:0:
122,258,610108,2,0,P|181:218|235:223,1,107.249995090485,6|0,3:2|0:0,0:0:0:0:
356,318,610358,2,0,P|419:356|474:364,1,107.249995090485,10|0,0:0|0:0,0:0:0:0:
271,384,610608,6,0,L|257:251,1,107.249995090485,6|0,3:2|0:0,0:0:0:0:
189,113,610858,1,8,0:0:0:0:
350,147,610983,1,0,0:0:0:0:
248,384,611108,6,0,L|262:251,1,107.249995090485,4|0,3:2|0:0,0:0:0:0:
330,113,611358,1,10,0:0:0:0:
169,147,611483,1,2,0:0:0:0:
429,224,611608,6,0,P|369:222|306:241,1,107.249995090485,6|0,3:2|0:0,0:0:0:0:
66,307,611858,2,0,P|126:305|189:324,1,107.249995090485,8|0,0:0|0:0,0:0:0:0:
389,343,612108,5,6,3:2:0:0:
336,344,612170,1,0,3:2:0:0:
287,324,612233,1,0,3:2:0:0:
251,285,612295,1,0,3:2:0:0:
234,234,612358,1,10,3:2:0:0:
238,181,612420,1,0,3:2:0:0:
264,135,612483,1,0,3:2:0:0:
307,103,612545,1,0,3:2:0:0:
359,92,612614,5,6,3:2:0:0:
359,92,613489,5,0,0:0:0:0:
359,92,613551,1,0,0:0:0:0:
359,92,613614,2,0,L|347:145,1,41.25
324,307,613989,6,0,L|313:225,1,82.5
349,132,614457,6,0,L|359:92,1,41.25
272,31,614836,6,0,P|256:86|138:108,1,165,6|0,3:2|0:0,0:0:0:0:
161,118,616133,6,0,P|112:110|66:134,1,82.5,2|0,0:2|0:0,0:0:0:0:
82,121,616770,6,0,P|103:176|97:213,1,82.5,2|0,0:2|0:0,0:0:0:0:
101,198,617618,5,6,3:2:0:0:
256,192,617690,12,6,625694,3:2:0:0:
