osu file format v14

[General]
AudioFilename: audio.mp3
AudioLeadIn: 0
PreviewTime: 1139
Countdown: 0
SampleSet: Soft
StackLeniency: 0.4
Mode: 0
LetterboxInBreaks: 0
EpilepsyWarning: 1
WidescreenStoryboard: 1

[Editor]
DistanceSpacing: 1.9
BeatDivisor: 4
GridSize: 8
TimelineZoom: 3.719038

[Metadata]
Title:osu!favourites
TitleUnicode:osu!favourites
Artist:SakiZ
ArtistUnicode:SakiZ
Creator:KappaPraise
Version:Marathon
Source:
Tags:compilation WISPG_G _Baguette_ Cold Green Eyes Senketsu Chikai Kira Holdin Dopamine TSUBAKI HELIX Pretender Gold Dust Nippon Egao Hyakkei Asymmetry Miraizu Kimi Shiranai Monogatari Dark Flight Dreamer Exit This Earth's Atomosphere Odoru Mizushibuki Tower Heaven Mythologia's End Kokuhaku Rival Sengen Daidai Genome Rubik's Cube Zen Zense Loading Caffeine Fighter Arousing Hime Blade Dance Stella-rium Sakura Uta Deconstruction Star Kikoku Doukoku Jigokuraku Notch Hell Scarlet Rose Shukusai Elementalia Remote Control Tengaku Defenders Inferno Road Resistance days on the no of now koi pettanko Reol Camellia Hatsune Miku Halozy DragonForce Station Earth Yousei Teikoku See MONSTAS Skrillex Nero U1 overground Ocelot ESTi Infected Mushroom DJ Fresh MomoKuro-tei Ichimon HoneyWorks supercell Akiyama Uni Ayase Rie sana Tsunamaru RADWIMPS Syaro Uchida Maaya TOTTO Sunao Yoshikawa Ni-Sokkususu Kano Hana Lily kradness Wagakki Band Imperial Circus 9mm Parabellum Bullet BABYMETAL Hollow Wings
BeatmapID:1597247
BeatmapSetID:603738

[Difficulty]
HPDrainRate:4.5
CircleSize:4
OverallDifficulty:9.2
ApproachRate:9.7
SliderMultiplier:2
SliderTickRate:1

[Events]
//Background and Video events
0,0,"bg.jpg",0,0
//Break Periods
2,443914,447619
//Storyboard Layer 0 (Background)
//Storyboard Layer 1 (Fail)
//Storyboard Layer 2 (Pass)
//Storyboard Layer 3 (Foreground)
//Storyboard Sound Samples

[TimingPoints]
1214,300,4,2,1,100,1,0
10814,-100,4,2,1,30,0,0
20414,-200,4,2,1,50,0,0
24239,-200,4,2,1,5,0,0
24314,-200,4,2,1,50,0,0
24839,-200,4,2,1,5,0,0
24914,-200,4,2,1,50,0,0
39164,-133.333333333333,4,2,1,50,0,0
39614,-100,4,2,1,60,0,0
39914,-111.111111111111,4,2,1,60,0,0
48914,-66.6666666666667,4,2,1,60,0,0
49214,-125,4,2,1,60,0,0
58814,-125,4,2,1,70,0,0
63614,-125,4,2,1,60,0,0
73214,-125,4,2,1,70,0,0
78014,-142.857142857143,4,3,1,60,0,0
83039,-142.857142857143,4,3,1,5,0,0
83114,-142.857142857143,4,3,1,60,0,0
85214,-125,4,2,1,50,0,0
87614,-125,4,2,1,70,0,0
91214,-111.111111111111,4,2,1,45,0,0
91289,-111.111111111111,4,2,1,20,0,0
91364,-90.909090909091,4,2,1,50,0,0
91439,-90.909090909091,4,2,1,25,0,0
91514,-76.923076923077,4,2,1,55,0,0
91589,-76.923076923077,4,2,1,30,0,0
91664,-66.6666666666667,4,2,1,60,0,0
91739,-66.6666666666667,4,2,1,35,0,0
91814,-58.8235294117647,4,2,1,65,0,0
91889,-58.8235294117647,4,2,1,40,0,0
91964,-52.6315789473684,4,2,1,70,0,0
92039,-52.6315789473684,4,2,1,45,0,0
92114,-47.6190476190476,4,2,1,75,0,0
92189,-47.6190476190476,4,2,1,50,0,0
92264,-43.4782608695652,4,2,1,80,0,0
92339,-43.4782608695652,4,2,1,55,0,0
92414,-40,4,2,1,85,0,0
93014,-66.6666666666667,4,2,1,85,0,0
94814,-40,4,2,1,85,0,0
95414,-66.6666666666667,4,2,1,85,0,0
97214,-40,4,2,1,85,0,0
97814,-66.6666666666667,4,2,1,85,0,0
99614,-40,4,2,1,85,0,0
100214,-66.6666666666667,4,2,1,85,0,0
100814,-66.6666666666667,4,2,1,70,0,0
102014,-71.4285714285714,4,2,1,80,0,0
105314,-100,4,2,1,80,0,0
105614,-71.4285714285714,4,2,1,80,0,0
105914,-50,4,2,1,80,0,0
106514,-149.253731343284,4,2,1,80,0,0
106814,-71.4285714285714,4,2,1,80,0,0
109814,-100,4,2,1,80,0,0
111614,-83.3333333333333,4,2,1,70,0,0
112214,-66.6666666666667,4,2,1,70,0,0
112814,-294.117647058824,4,2,1,70,0,0
113114,-40,4,2,1,70,0,0
113414,-35.7142857142857,4,2,1,70,0,0
113714,-32.258064516129,4,2,1,70,0,0
114014,-100,4,2,1,70,0,0
114614,-66.6666666666667,4,2,1,70,0,0
114914,-294.117647058824,4,2,1,70,0,0
115214,-66.6666666666667,4,2,1,70,0,0
115814,-100,4,2,1,70,0,0
116414,-55.5555555555556,4,2,1,70,0,0
116714,-133.333333333333,4,2,1,70,0,0
117014,-100,4,2,1,70,0,0
118214,-66.6666666666667,4,2,1,70,0,0
119114,-294.117647058824,4,2,1,70,0,0
119414,-90.9090909090909,4,2,1,70,0,0
120014,-52.6315789473684,4,2,1,70,0,0
120314,-58.8235294117647,4,2,1,70,0,0
120614,-66.6666666666667,4,2,1,70,0,0
120914,-76.9230769230769,4,2,1,70,0,0
121214,-90.9090909090909,4,2,98,65,0,0
130814,-100,4,2,98,70,0,0
130889,-100,4,2,1,70,0,0
140414,-111.111111111111,4,2,1,70,0,0
148814,-111.111111111111,4,2,1,70,0,0
150014,-111.111111111111,4,2,1,65,0,0
158414,-83.3333333333333,4,2,1,65,0,0
158714,-71.4285714285714,4,2,1,70,0,0
159014,-62.5,4,2,1,75,0,0
159314,-55.5555555555556,4,2,1,80,0,0
159614,-66.6666666666667,4,2,3,85,0,1
172814,-100,4,2,3,65,0,0
174014,600,4,2,1,65,1,0
174014,-100,4,2,100,65,0,0
174164,-100,4,2,1,40,0,0
193214,300,4,2,1,60,1,0
193214,-111.111111111111,4,2,1,60,0,0
212414,-142.857142857143,4,2,1,40,0,0
222014,-111.111111111111,4,2,1,50,0,0
226814,-111.111111111111,4,2,1,60,0,0
231614,-100,4,2,1,70,0,0
232514,-300,4,2,1,50,0,0
232814,-40,4,2,15,75,0,1
241214,-125,4,2,1,70,0,0
241814,-125,4,3,16,60,0,0
242414,-71.4285714285714,4,3,16,60,0,0
250814,-111.111111111111,4,3,16,60,0,0
252014,-100,4,3,16,60,0,0
252089,-100,4,2,1,70,0,0
261614,-111.111111111111,4,2,99,70,0,1
261764,-111.111111111111,4,2,1,70,0,1
271214,-111.111111111111,4,2,1,65,0,0
280814,-111.111111111111,4,2,1,65,0,0
290414,-125,4,2,1,60,0,0
300014,-99.9999999999999,4,2,1,70,0,0
309614,-113.636363636364,4,2,1,70,0,1
319214,-111.111111111111,4,2,1,70,0,0
328514,-111.111111111111,4,2,100,100,0,0
328814,-100,4,2,1,70,0,1
338414,-58.8235294117647,4,2,1,75,0,0
342914,-200,4,2,1,75,0,0
343514,-58.8235294117647,4,2,1,75,0,0
345614,-62.5,4,2,1,75,0,0
346814,-66.6666666666667,4,2,1,65,0,0
346964,-76.1904761904762,4,2,1,65,0,0
347114,-89.2857142857143,4,2,1,65,0,0
347264,-107.52688172043,4,2,1,65,0,0
347414,-83.3333333333333,4,2,1,65,0,0
347514,-90.9090909090909,4,2,1,65,0,0
347614,-100,4,2,1,65,0,0
347714,-111.111111111111,4,2,1,65,0,0
347814,-142.857142857143,4,2,1,65,0,0
347914,-166.666666666666,4,2,1,65,0,0
348014,-111.111111111111,4,2,1,60,0,0
348314,-66.6666666666666,4,2,1,60,0,0
348614,-111.111111111111,4,2,1,60,0,0
348914,-66.6666666666666,4,2,1,60,0,0
349214,-111.111111111111,4,2,1,60,0,0
350414,-111.111111111111,4,2,1,60,0,0
350714,-66.6666666666666,4,2,1,60,0,0
351014,-111.111111111111,4,2,1,60,0,0
351314,-66.6666666666666,4,2,1,60,0,0
351614,-111.111111111111,4,2,1,60,0,0
357614,-111.111111111111,4,2,1,60,0,0
367214,-111.111111111111,4,2,1,65,0,0
375014,-142.857142857143,4,2,1,65,0,0
376814,-125,4,2,1,60,0,0
386414,-90.9090909090909,4,2,1,65,0,0
394814,-55.5555555555556,4,2,1,65,0,0
396014,-40,4,2,1,75,0,1
404414,-76.9230769230769,4,2,1,65,0,0
405614,-68.9655172413793,4,2,1,65,0,0
414014,-55.5555555555556,4,2,1,65,0,0
415214,-68.9655172413793,4,2,1,70,0,0
423614,-100,4,2,1,60,0,0
424814,-125,4,2,1,50,0,0
434114,-200,4,2,1,50,0,0
434414,-100,4,2,1,60,0,0
437414,-66.6666666666667,4,2,1,60,0,0
446114,250,4,2,1,50,1,0
446114,-125,4,2,1,50,0,0
456114,-142.857142857143,4,2,1,50,0,0
464114,-111.111111111111,4,2,1,60,0,0
472114,-111.111111111111,4,2,1,65,0,0
480114,-125,4,2,1,60,0,0
488114,-100,4,2,1,65,0,0
496114,-117.647058823529,4,2,1,60,0,0
503614,-166.666666666667,4,2,1,70,0,0
504114,-83.3333333333333,4,2,9,70,0,1
504364,-100,4,2,9,85,0,1
516114,-100,4,3,91,85,0,0
520114,-100,4,3,9,85,0,0
523614,-100,4,3,1,85,0,0
524114,-111.111111111111,4,3,1,70,0,1
542114,-111.111111111111,4,3,1,70,0,0
544114,-100,4,3,10,75,0,1
563114,-100,4,3,10,75,0,0
565114,250,3,2,1,60,1,0
566614,-333.333333333331,3,2,1,60,0,0
568864,-200,3,2,1,60,0,0
569614,-111.111111111111,3,3,1,60,0,0
581614,-166.666666666666,3,3,1,60,0,0
584614,250,4,2,1,65,1,0
584614,-215.5,3,2,1,65,0,0
587614,-142.857142857143,3,2,1,65,0,0
590114,-111.111111111111,3,3,1,65,0,0
592614,-111.111111111111,3,3,1,65,0,1
607364,-71.4285714285714,4,3,1,65,0,1
607614,-100,4,3,1,65,0,1
608114,-111.111111111111,4,3,1,65,0,1
611614,-125,4,3,1,65,0,1
612614,250,4,3,1,65,1,0
612614,-200,4,3,1,65,0,0
612864,-200,4,3,1,5,0,0
613364,-200,4,3,1,65,0,0
613489,250,4,3,1,65,1,0
613489,-200,4,3,1,65,0,0
613989,312.5,4,3,1,65,1,0
613989,-200,4,3,1,65,0,0
614301,312.5,4,3,1,65,1,0
614301,-200,4,3,1,65,0,0
614457,375,4,3,1,65,1,0
614457,-200,4,3,1,65,0,0
614644,384.615384615385,4,3,1,65,1,0
614644,-200,4,3,1,65,0,0
614836,697.674418604651,4,3,1,65,1,0
615533,600,4,3,1,65,1,0
615533,-142.857142857143,4,3,1,65,0,0
616770,731.707317073171,4,3,1,65,1,0
616770,-142.857142857143,4,3,1,65,0,0
617618,288.461538461538,4,3,1,65,1,0
625694,-100,4,3,1,100,0,0

[Colours]
Combo1 : 222,149,114
Combo2 : 57,147,255
Combo3 : 184,114,114
Combo4 : 189,124,197
Combo5 : 80,219,254
Combo6 : 18,188,107

[HitObjects]
256,192,10814,5,2,0:3:0:0:
256,192,10889,12,2,13214,0:3:0:0:
256,192,15614,5,2,0:3:0:0:
256,192,15689,12,2,18014,0:3:0:0:
202,130,20414,6,0,P|150:123|103:152,1,100,2|0,0:3|0:0,0:0:0:0:
133,292,20864,2,0,P|163:253|165:203,1,100,2|0,0:0|0:0,0:0:0:0:
27,151,21314,2,0,P|38:186|87:223,1,100,2|0,0:0|0:0,0:0:0:0:
385,151,21914,6,0,P|373:186|324:223,1,100,2|0,0:0|0:0,0:0:0:0:
341,315,22364,2,0,P|347:266|324:222,1,100,0|0,0:0|0:0,0:0:0:0:
127,258,22814,6,0,L|225:240,1,100,2|0,0:0|0:0,0:0:0:0:
370,188,23264,2,0,L|272:170,1,100,2|0,0:0|0:0,0:0:0:0:
93,156,23714,2,0,P|177:152|212:76,1,175,2|0,0:0|0:0,0:0:0:0:
213,76,24314,2,0,P|175:151|223:219,1,175
205,291,24914,2,0,L|155:300,1,50
255,315,25214,6,0,L|156:300,1,100,2|0,0:3|0:0,0:0:0:0:
321,240,25664,2,0,L|255:314,1,100,2|0,0:0|0:0,0:0:0:0:
418,260,26114,2,0,L|321:240,1,100,2|0,0:0|0:0,0:0:0:0:
355,71,26714,6,0,L|371:121,1,50,2|0,0:0|0:0,0:0:0:0:
277,96,27014,2,0,P|326:94|369:117,1,100,2|0,0:0|0:0,0:0:0:0:
304,192,27464,1,2,0:0:0:0:
304,192,27614,6,0,L|320:242,2,50,2|0|0,0:3|0:0|0:0,0:0:0:0:
277,96,28064,1,0,0:0:0:0:
277,96,28214,2,0,L|292:48,2,50,2|0|0,0:0|0:0|0:0,0:0:0:0:
230,225,28664,1,0,0:0:0:0:
230,225,28814,6,0,P|208:237|184:243,1,50,2|0,0:0|0:0,0:0:0:0:
110,229,29114,2,0,P|88:218|71:200,1,50
229,169,29414,6,0,P|213:188|192:202,1,50,2|0,0:0|0:0,0:0:0:0:
117,214,29714,2,0,P|92:210|70:199,1,50
90,102,30014,6,0,L|72:200,1,100,2|0,0:3|0:0,0:0:0:0:
92,330,30464,1,0,0:0:0:0:
92,330,30614,2,0,L|53:297,1,50,2|0,0:0|0:0,0:0:0:0:
184,294,30914,2,0,L|231:277,1,50,2|0,0:0|0:0,0:0:0:0:
248,178,31214,2,0,P|292:198|322:238,1,100,2|0,0:3|0:0,0:0:0:0:
399,303,31664,2,0,L|304:337,2,100,2|2|2,0:0|0:0|0:0,0:0:0:0:
492,268,32414,1,2,0:3:0:0:
492,268,33014,6,0,L|483:218,1,50,2|0,0:0|0:0,0:0:0:0:
391,111,33314,2,0,L|400:161,1,50,2|0,0:0|0:0,0:0:0:0:
287,292,33614,2,0,L|305:193,1,100,2|0,0:0|0:0,0:0:0:0:
133,161,34064,2,0,L|209:226,2,100,2|2|2,0:0|0:0|0:0,0:0:0:0:
226,127,34814,5,2,0:3:0:0:
374,153,35114,1,0,0:0:0:0:
273,289,35414,1,0,0:0:0:0:
300,140,35714,1,0,0:0:0:0:
348,302,36014,5,0,0:0:0:0:
374,153,36314,1,0,0:0:0:0:
422,315,36614,1,0,0:0:0:0:
300,140,36914,1,0,0:0:0:0:
299,360,37214,5,2,0:3:0:0:
483,271,37514,1,0,0:0:0:0:
300,140,37814,1,0,0:0:0:0:
484,51,38114,1,0,0:0:0:0:
234,91,39164,6,0,P|266:30|275:98,1,187.500007152558,2|0,0:0|0:0,0:0:0:0:
152,107,39614,6,0,P|248:94|325:153,1,200,4|8,1:2|0:0,0:0:0:0:
182,202,40064,1,0,0:0:0:0:
244,65,40214,2,0,P|259:107|253:152,1,89.9999972534181,2|0,1:2|0:0,0:0:0:0:
112,252,40514,2,0,P|140:218|182:202,1,89.9999972534181,8|0,0:0|0:0,0:0:0:0:
338,274,40814,6,0,P|294:265|259:238,1,89.9999972534181,2|0,1:2|0:0,0:0:0:0:
253,152,41114,1,8,0:0:0:0:
190,287,41264,2,0,P|175:245|182:202,1,89.9999972534181,2|0,0:2|1:0,0:0:0:0:
253,152,41564,1,0,0:0:0:0:
105,164,41714,2,0,P|134:130|175:115,1,89.9999972534181,10|0,0:2|0:0,0:0:0:0:
253,152,42014,6,0,P|182:201|105:164,1,179.999994506836,2|8,1:2|0:0,0:0:0:0:
175,114,42464,1,0,0:0:0:0:
68,242,42614,2,0,P|34:213|19:172,1,89.9999972534181,2|0,1:2|0:0,0:0:0:0:
75,328,42914,2,0,P|117:312|146:279,1,89.9999972534181,8|0,0:0|0:0,0:0:0:0:
319,231,43214,6,0,L|232:255,1,89.9999972534181,2|0,1:2|0:0,0:0:0:0:
407,208,43514,1,8,0:0:0:0:
298,97,43664,2,0,L|386:121,1,89.9999972534181,2|0,0:2|1:0,0:0:0:0:
473,144,43964,1,0,0:0:0:0:
233,159,44114,2,0,L|147:135,1,89.9999972534181,10|0,0:2|0:0,0:0:0:0:
59,208,44414,6,0,L|232:159,1,179.999994506836,4|8,1:2|0:0,0:0:0:0:
124,271,44864,1,0,0:0:0:0:
210,245,45014,2,0,L|296:220,1,89.9999972534181,2|0,1:2|0:0,0:0:0:0:
188,332,45314,2,0,L|274:307,1,89.9999972534181,8|0,0:0|0:0,0:0:0:0:
424,346,45614,6,0,L|361:281,1,89.9999972534181,2|0,1:2|0:0,0:0:0:0:
296,219,45914,1,8,0:0:0:0:
470,172,46064,2,0,L|382:194,1,89.9999972534181,2|0,0:2|1:0,0:0:0:0:
296,219,46364,1,0,0:0:0:0:
342,45,46514,2,0,L|317:131,1,89.9999972534181,10|0,0:2|0:0,0:0:0:0:
207,196,46814,5,2,1:2:0:0:
294,218,46964,1,0,0:0:0:0:
229,109,47114,1,8,0:0:0:0:
316,131,47264,1,0,0:0:0:0:
250,21,47414,2,0,P|205:20|167:42,1,89.9999972534181,2|0,1:2|0:0,0:0:0:0:
142,133,47714,1,8,0:0:0:0:
229,109,47864,1,0,0:0:0:0:
316,85,48014,5,4,1:2:0:0:
120,221,48464,1,0,1:0:0:0:
385,260,48914,2,0,B|454:281|454:281|307:321,1,225.000008583069,0|0,1:0|0:0,0:0:0:0:
229,218,49214,6,0,L|307:239,2,80,4|2|10,1:2|0:0|0:0,0:0:0:0:
224,105,49664,1,2,0:0:0:0:
402,137,49814,2,0,L|325:158,1,80,2|0,1:2|0:0,0:0:0:0:
133,318,50114,2,0,L|210:297,1,80,10|0,0:0|0:0,0:0:0:0:
224,105,50414,5,2,1:2:0:0:
143,219,50564,1,2,0:2:0:0:
111,25,50714,1,10,0:2:0:0:
29,138,50864,1,2,0:2:0:0:
183,41,51014,5,2,1:2:0:0:
69,202,51164,1,2,0:2:0:0:
45,64,51314,1,10,0:2:0:0:
207,179,51464,1,2,0:2:0:0:
322,17,51614,6,0,L|335:96,1,80,2|0,1:2|0:0,0:0:0:0:
487,110,51914,2,0,L|412:81,1,80,10|0,0:0|0:0,0:0:0:0:
323,206,52214,2,0,L|384:154,1,80,2|0,1:2|0:0,0:0:0:0:
253,70,52514,1,8,0:0:0:0:
166,231,52664,1,0,0:0:0:0:
323,206,52814,5,0,1:0:0:0:
245,219,52964,1,0,1:0:0:0:
323,206,53114,1,8,1:2:0:0:
246,219,53264,1,0,1:0:0:0:
489,176,53414,6,0,L|410:189,1,80,0|0,1:2|3:0,0:0:0:0:
432,335,53714,2,0,L|461:256,1,80,8|0,0:2|3:0,0:0:0:0:
323,206,54014,6,0,L|373:267,2,80,0|2|10,1:2|0:0|0:0,0:0:0:0:
211,238,54464,1,2,0:0:0:0:
243,346,54614,2,0,L|283:277,1,80,2|0,1:2|0:0,0:0:0:0:
211,98,54914,2,0,L|250:167,1,80,10|0,0:0|0:0,0:0:0:0:
334,32,55214,5,2,1:2:0:0:
211,98,55364,1,2,0:2:0:0:
373,102,55514,1,10,0:2:0:0:
254,30,55664,1,2,0:2:0:0:
291,241,55814,5,2,1:2:0:0:
292,100,55964,1,2,0:2:0:0:
170,169,56114,1,10,0:2:0:0:
332,170,56264,1,2,0:2:0:0:
170,309,56414,6,0,L|210:239,1,80,2|0,1:2|0:0,0:0:0:0:
172,30,56714,2,0,L|210:98,1,80,10|0,0:0|0:0,0:0:0:0:
90,168,57014,2,0,L|169:167,1,80,2|0,1:2|0:0,0:0:0:0:
370,238,57314,1,8,0:0:0:0:
291,100,57464,1,0,0:0:0:0:
211,237,57614,5,0,1:0:0:0:
252,169,57764,1,0,1:0:0:0:
211,237,57914,1,8,1:2:0:0:
252,169,58064,1,0,1:0:0:0:
170,309,58214,6,0,L|128:377,1,80,0|0,1:0|3:0,0:0:0:0:
17,170,58514,2,0,L|59:238,1,80,8|0,0:0|3:0,0:0:0:0:
172,125,58814,6,0,P|138:106|99:105,1,80,6|0,1:2|0:0,0:0:0:0:
59,238,59114,2,0,P|94:258|134:260,1,80,10|0,0:0|0:0,0:0:0:0:
283,21,59414,6,0,P|243:23|209:42,1,80,2|0,1:2|0:0,0:0:0:0:
248,176,59714,2,0,P|288:174|323:156,1,80,10|0,0:0|0:0,0:0:0:0:
50,76,60014,5,0,1:0:0:0:
62,201,60164,1,0,0:0:0:0:
165,129,60314,1,8,0:0:0:0:
177,254,60464,1,0,0:0:0:0:
49,192,60614,5,0,1:0:0:0:
152,120,60764,1,0,0:0:0:0:
164,245,60914,1,10,0:0:0:0:
37,67,61064,1,2,0:0:0:0:
267,173,61214,6,0,P|306:171|341:152,1,80,2|0,1:2|0:0,0:0:0:0:
283,97,61514,1,10,0:0:0:0:
331,243,61664,1,2,0:0:0:0:
401,106,61814,2,0,P|440:108|475:127,1,80,2|0,1:2|0:0,0:0:0:0:
405,264,62114,2,0,P|365:262|331:243,1,80,10|0,0:0|0:0,0:0:0:0:
200,139,62414,5,0,1:0:0:0:
212,273,62564,1,0,1:0:0:0:
66,150,62714,1,0,1:0:0:0:
78,285,62864,1,0,1:0:0:0:
213,125,63014,5,8,1:0:0:0:
65,299,63164,1,8,1:0:0:0:
52,138,63314,1,8,1:0:0:0:
226,285,63464,1,8,1:0:0:0:
225,110,63614,6,0,P|253:82|290:68,1,80,6|0,1:2|0:0,0:0:0:0:
371,190,63914,1,10,0:0:0:0:
298,150,64064,1,2,0:0:0:0:
445,152,64214,2,0,P|453:191|444:230,1,80,2|0,1:2|0:0,0:0:0:0:
296,227,64514,2,0,P|287:188|297:149,1,80,10|0,0:0|0:0,0:0:0:0:
444,65,64814,5,2,1:2:0:0:
409,136,64964,1,2,0:2:0:0:
372,30,65114,1,10,0:2:0:0:
337,101,65264,1,2,0:2:0:0:
479,81,65414,5,2,1:2:0:0:
445,152,65564,1,2,0:2:0:0:
408,46,65714,1,10,0:2:0:0:
373,118,65864,1,2,0:2:0:0:
285,45,66014,6,0,L|292:124,1,80,2|0,1:2|0:0,0:0:0:0:
153,136,66314,2,0,L|224:169,1,80,10|0,0:0|0:0,0:0:0:0:
166,294,66614,2,0,L|230:248,1,80,2|0,1:2|0:0,0:0:0:0:
396,315,66914,1,10,0:0:0:0:
257,326,67064,1,0,0:0:0:0:
389,236,67214,5,0,1:2:0:0:
330,360,67364,1,0,0:2:0:0:
389,236,67514,1,8,0:2:0:0:
330,360,67664,1,0,0:2:0:0:
251,248,67814,5,0,1:2:0:0:
330,360,67964,1,0,0:2:0:0:
317,201,68114,1,8,0:2:0:0:
259,325,68264,1,0,0:2:0:0:
388,235,68414,6,0,P|396:196|383:159,1,80,0|2,1:2|0:0,0:0:0:0:
244,168,68714,1,8,0:0:0:0:
317,201,68864,1,2,0:0:0:0:
230,87,69014,2,0,P|194:103|170:134,1,80,2|0,1:2|0:0,0:0:0:0:
187,289,69314,2,0,P|191:249|176:213,1,80,10|0,0:0|0:0,0:0:0:0:
32,151,69614,5,2,1:2:0:0:
83,22,69764,1,0,0:0:0:0:
169,134,69914,1,10,0:0:0:0:
23,69,70064,2,0,P|8:32|13:-5,1,80,2|0,0:0|1:0,0:0:0:0:
161,54,70364,1,2,0:0:0:0:
103,179,70514,1,10,0:0:0:0:
84,22,70664,1,2,0:0:0:0:
180,211,70814,6,0,P|156:243|121:260,1,80,2|0,1:2|0:0,0:0:0:0:
245,165,71114,2,0,P|258:202|253:241,1,80,10|0,0:0|0:0,0:0:0:0:
237,85,71414,2,0,P|276:90|307:114,1,80,2|0,1:2|0:0,0:0:0:0:
180,211,71714,1,10,0:0:0:0:
164,51,71864,1,2,0:0:0:0:
107,177,72014,5,0,1:0:0:0:
237,85,72164,1,0,0:0:0:0:
107,177,72314,1,8,0:2:0:0:
237,85,72464,1,0,0:0:0:0:
34,143,72614,5,0,1:0:0:0:
164,51,72764,1,0,3:0:0:0:
180,211,72914,1,8,1:2:0:0:
310,119,73064,1,0,3:0:0:0:
212,284,73214,6,0,P|173:290|136:277,1,80,6|0,1:2|0:0,0:0:0:0:
148,138,73514,1,10,0:0:0:0:
180,211,73664,1,2,0:0:0:0:
192,72,73814,2,0,P|155:59|116:65,1,80,0|0,1:0|0:0,0:0:0:0:
100,202,74114,1,10,0:0:0:0:
228,147,74264,1,2,0:0:0:0:
212,284,74414,5,0,1:0:0:0:
338,229,74564,1,0,0:0:0:0:
228,147,74714,1,8,0:0:0:0:
212,284,74864,1,0,0:0:0:0:
316,143,75014,5,0,1:0:0:0:
164,209,75164,1,0,0:0:0:0:
297,307,75314,1,10,0:2:0:0:
228,147,75464,1,2,0:2:0:0:
143,320,75614,6,0,P|169:349|206:363,1,80,2|0,1:2|0:0,0:0:0:0:
338,229,75914,1,10,0:0:0:0:
212,284,76064,1,2,0:0:0:0:
343,149,76214,2,0,P|380:163|407:193,1,80,2|0,1:2|0:0,0:0:0:0:
393,355,76514,1,10,0:0:0:0:
338,229,76664,1,2,0:0:0:0:
472,278,76814,5,8,1:0:0:0:
351,94,76964,1,8,1:0:0:0:
485,143,77114,1,0,1:0:0:0:
338,229,77264,1,0,1:0:0:0:
433,74,77414,5,8,1:0:0:0:
388,299,77564,1,8,1:0:0:0:
269,114,77714,1,8,1:0:0:0:
224,339,77864,1,8,1:0:0:0:
186,121,78014,6,0,P|234:37|340:72,1,209.999993591309,6|0,0:2|0:0,0:0:0:0:
391,183,78614,2,0,L|322:176,1,69.9999978637696,2|0,0:2|0:2,0:0:0:0:
261,233,78914,2,0,L|192:240,1,69.9999978637696,8|0,0:2|0:0,0:0:0:0:
30,261,79214,6,0,P|80:345|176:322,1,209.999993591309,2|0,0:2|0:0,0:0:0:0:
261,233,79814,2,0,L|256:303,1,69.9999978637696,2|0,0:2|0:0,0:0:0:0:
210,160,80114,2,0,L|217:91,1,69.9999978637696,8|0,0:2|0:0,0:0:0:0:
352,33,80414,6,0,B|366:172|366:172|377:102,1,209.999993591309,2|0,0:2|0:0,0:0:0:0:
458,114,81014,2,0,L|451:183,1,69.9999978637696,2|0,0:2|0:0,0:0:0:0:
290,238,81314,2,0,L|283:169,1,69.9999978637696,8|0,0:2|0:0,0:0:0:0:
108,63,81614,6,0,P|154:111|217:91,1,139.999995727539,4|0,1:2|0:0,0:0:0:0:
365,130,82064,2,0,B|314:178|314:178|248:156,2,139.999995727539,2|0|0,0:2|0:2|0:2,0:0:0:0:
254,86,82814,6,0,L|244:190,1,104.999996795654,2|0,0:2|2:0,0:0:0:0:
239,224,83114,2,0,P|267:245|301:252,1,69.9999978637696,0|0,0:0|0:0,0:0:0:0:
365,198,83414,2,0,P|392:177|426:170,1,69.9999978637696,2|0,0:2|0:0,0:0:0:0:
479,291,83714,2,0,P|447:278|425:252,1,69.9999978637696,8|0,0:2|0:0,0:0:0:0:
459,94,84014,6,0,P|504:145|496:213,1,139.999995727539,2|0,0:2|0:0,0:0:0:0:
426,170,84464,1,0,0:0:0:0:
424,251,84614,2,0,P|447:278|479:291,1,69.9999978637696,2|0,0:2|0:0,0:0:0:0:
355,209,84914,2,0,P|320:204|287:216,1,69.9999978637696,8|0,0:2|0:0,0:0:0:0:
190,327,85214,6,0,L|196:247,1,80,4|0,3:2|0:0,0:0:0:0:
287,216,85514,2,0,L|280:295,1,80,0|0,3:2|0:0,0:0:0:0:
202,167,85814,2,0,L|208:87,1,80,0|0,3:2|0:0,0:0:0:0:
299,56,86114,2,0,L|292:135,1,80,0|0,3:2|0:0,0:0:0:0:
73,244,86414,6,0,P|52:212|51:172,1,80,0|0,3:2|0:0,0:0:0:0:
129,300,86714,2,0,P|96:320|56:320,1,80,0|0,3:2|0:0,0:0:0:0:
185,244,87014,2,0,P|206:277|205:316,1,80,0|0,3:2|0:0,0:0:0:0:
129,188,87314,2,0,P|161:167|201:166,1,80,0|0,3:2|0:0,0:0:0:0:
327,243,87614,5,0,1:0:0:0:
306,316,87764,1,0,0:0:0:0:
382,188,87914,1,0,1:0:0:0:
310,166,88064,1,0,0:0:0:0:
438,244,88214,1,0,1:0:0:0:
460,172,88364,1,0,0:0:0:0:
381,299,88514,1,0,1:0:0:0:
455,320,88664,1,0,0:0:0:0:
453,70,88814,5,0,1:0:0:0:
460,172,88964,1,0,0:0:0:0:
325,268,89114,1,0,1:0:0:0:
332,164,89264,1,0,0:0:0:0:
198,69,89414,1,0,1:0:0:0:
205,171,89564,1,0,0:0:0:0:
71,268,89714,1,0,1:0:0:0:
78,164,89864,1,0,0:0:0:0:
294,97,90014,5,8,1:0:0:0:
78,164,90164,1,0,3:0:0:0:
315,206,90314,5,8,1:0:0:0:
136,69,90464,1,0,3:0:0:0:
315,87,90614,5,8,1:0:0:0:
47,172,90764,1,0,3:0:0:0:
342,224,90914,5,8,1:0:0:0:
118,52,91064,1,0,3:0:0:0:
100,358,91214,6,0,L|154:348,1,44.999998626709,0|0,1:0|3:0,0:0:0:0:
169,333,91364,2,0,L|114:323,1,55.0000016784668,0|0,1:0|3:0,0:0:0:0:
90,307,91514,2,0,L|154:295,1,64.9999970245363,0|0,1:0|3:0,0:0:0:0:
179,278,91664,2,0,L|105:264,1,75.0000028610231,0|0,1:0|3:0,0:0:0:0:
80,247,91814,2,0,L|163:232,1,85.0000016212464,0|0,1:0|3:0,0:0:0:0:
188,215,91964,2,0,L|94:198,1,94.9999974632264,0|0,1:0|3:0,0:0:0:0:
69,181,92114,2,0,L|172:162,1,104.999996795654,0|0,1:0|3:0,0:0:0:0:
197,145,92264,2,0,L|83:125,1,115.000002193451,0|0,1:0|3:0,0:0:0:0:
59,119,92414,6,0,B|-4:106|-4:106|68:55|68:55|131:65|131:65|183:139|183:139|245:150,1,375,0|0,1:0|0:0,0:0:0:0:
483,179,92714,2,0,B|451:232|451:232|390:243|390:243|338:206|338:206|276:217|276:217|240:269|240:269|289:304,1,375,8|0,0:0|0:0,0:0:0:0:
407,167,93014,1,0,1:0:0:0:
468,336,93164,1,0,3:0:0:0:
495,78,93314,6,0,L|421:91,1,75.0000028610231,8|0,0:0|0:0,0:0:0:0:
299,58,93464,2,0,L|347:115,1,75.0000028610231
381,237,93614,2,0,L|407:167,1,75.0000028610231,0|0,1:0|0:0,0:0:0:0:
127,132,93764,6,0,B|179:155|179:155|270:139,1,150.000005722046,0|8,0:0|0:0,0:0:0:0:
241,285,94064,1,0,0:0:0:0:
117,127,94214,6,0,B|169:150|169:150|260:134,1,150.000005722046,0|0,1:0|3:0,0:0:0:0:
231,280,94514,1,8,0:0:0:0:
179,75,94664,1,0,0:0:0:0:
172,278,94814,6,0,L|179:308|179:308|201:331|201:331|231:339|231:339|260:332|260:332|283:311|283:311|291:281|291:281|284:251|284:251|262:228|262:228|254:198|254:198|263:169|263:169|286:147|286:147|317:140|317:140|346:149|346:149,1,375,0|0,1:0|0:0,0:0:0:0:
507,164,95114,2,0,L|500:134|500:134|478:111|478:111|448:103|448:103|419:110|419:110|396:131|396:131|388:161|388:161|395:191|395:191|417:214|417:214|425:244|425:244|416:273|416:273|393:295|393:295|362:302|362:302|333:293|333:293,1,375,8|0,0:0|0:0,0:0:0:0:
501,240,95414,1,0,1:0:0:0:
284,156,95564,1,0,3:0:0:0:
505,45,95714,6,0,L|433:27,1,75.0000028610231,8|0,0:0|0:0,0:0:0:0:
293,67,95864,2,0,L|221:85,1,75.0000028610231
81,45,96014,2,0,L|9:27,1,75.0000028610231,0|0,1:0|0:0,0:0:0:0:
34,266,96164,6,0,L|179:229,1,150.000005722046,0|8,0:0|0:0,0:0:0:0:
63,135,96464,1,0,0:0:0:0:
28,296,96614,2,0,L|173:259,2,150.000005722046,0|0|8,1:0|3:0|0:0,0:0:0:0:
63,135,97064,1,0,0:0:0:0:
237,317,97215,6,0,P|188:172|91:291,1,375,0|0,1:0|0:0,0:0:0:0:
92,292,97513,2,0,B|71:237|103:186|153:173|153:173|180:132|183:72|125:31|125:31|186:42,1,375,8|0,0:0|0:0,0:0:0:0:
257,58,97814,1,0,1:0:0:0:
173,259,97964,1,0,3:0:0:0:
391,228,98114,6,0,L|465:215,1,75.0000028610231,8|0,0:0|0:0,0:0:0:0:
221,125,98264,2,0,L|269:182,1,75.0000028610231
263,379,98415,2,0,L|289:309,1,75.0000028610231,0|0,1:0|0:0,0:0:0:0:
479,101,98564,6,0,B|438:140|438:140|348:157,1,150.000005722046,0|8,0:0|0:0,0:0:0:0:
192,47,98864,1,0,0:0:0:0:
473,97,99014,6,0,B|432:136|432:136|341:152,1,150.000005722046,0|0,1:0|3:0,0:0:0:0:
186,43,99314,1,8,0:0:0:0:
467,93,99464,1,0,0:0:0:0:
119,128,99614,6,0,B|24:144|24:144|114:193|114:193|208:177|208:177|279:215,1,375,0|0,1:0|0:0,0:0:0:0:
432,312,99914,2,0,B|361:273|361:273|266:290|266:290|203:254|203:254|205:318|205:318|152:287,1,375,8|0,0:0|0:0,0:0:0:0:
77,287,100214,5,0,1:0:0:0:
119,128,100364,1,0,3:0:0:0:
236,375,100514,2,0,L|250:302,1,75.0000028610231,8|0,0:0|0:0,0:0:0:0:
310,117,100664,2,0,L|323:190,1,75.0000028610231
423,273,100814,6,0,L|324:290,2,100.000003814697,0|0|0,1:0|3:0|3:0,0:0:0:0:
151,222,101114,2,0,L|249:204,2,100.000003814697,0|0|0,1:0|3:0|3:0,0:0:0:0:
440,284,101414,6,0,L|341:301,2,100.000003814697,0|0|0,1:0|3:0|3:0,0:0:0:0:
134,211,101714,2,0,L|232:193,2,100.000003814697,0|0|0,1:0|3:0|3:0,0:0:0:0:
426,23,102014,6,0,P|406:123|475:207,1,209.999993591309,6|0,1:2|0:0,0:0:0:0:
373,221,102314,2,0,L|304:233,1,69.9999978637696,0|0,1:2|0:0,0:0:0:0:
258,52,102464,2,0,L|326:64,1,69.9999978637696,0|0,0:2|0:0,0:0:0:0:
226,250,102614,1,2,1:0:0:0:
179,41,102764,1,2,0:0:0:0:
82,182,102914,5,2,1:2:0:0:
85,199,102989,1,2,0:2:0:0:
88,216,103064,1,2,0:2:0:0:
91,233,103139,1,2,0:2:0:0:
95,251,103214,2,0,P|160:229|226:250,1,139.999995727539,2|0,1:3|0:0,0:0:0:0:
476,321,103514,2,0,P|442:330|407:327,1,69.9999978637696,0|0,1:0|0:0,0:0:0:0:
274,172,103664,2,0,P|299:196|313:227,1,69.9999978637696
432,131,103814,2,0,P|430:199|388:254,1,139.999995727539,2|0,1:0|0:0,0:0:0:0:
154,373,104114,5,0,1:0:0:0:
136,369,104189,1,0,0:0:0:0:
119,366,104264,1,0,0:0:0:0:
102,363,104339,1,0,0:0:0:0:
86,361,104414,2,0,P|106:261|37:177,1,209.999993591309,2|0,1:3|0:0,0:0:0:0:
17,87,104714,2,0,L|76:99,1,69.9999978637696,0|0,1:0|0:0,0:0:0:0:
202,248,104864,2,0,L|133:236,1,69.9999978637696
326,113,105014,1,2,1:0:0:0:
421,290,105164,1,2,0:0:0:0:
381,175,105314,5,0,3:0:0:0:
362,179,105389,1,0,3:0:0:0:
344,182,105464,1,0,3:0:0:0:
325,186,105539,1,0,3:0:0:0:
309,190,105614,2,0,P|325:286|425:288,1,209.999993591309,2|0,1:3|0:0,0:0:0:0:
326,113,105914,6,0,P|277:119|239:151,1,100,0|0,1:0|0:0,0:0:0:0:
205,316,106064,2,0,P|224:270|214:222,1,100,0|0,0:0|0:0,0:0:0:0:
90,107,106214,2,0,B|121:149|121:149|173:167,2,100,2|0|0,1:0|0:0|0:0,0:0:0:0:
326,113,106514,6,0,P|277:119|239:151,1,100.499995246124,0|0,1:0|0:0,0:0:0:0:
166,165,106814,6,0,P|249:96|242:-5,1,209.999993591309,6|0,1:2|0:0,0:0:0:0:
394,100,107114,2,0,L|326:112,1,69.9999978637696,0|0,1:0|0:0,0:0:0:0:
149,55,107264,2,0,L|81:43,1,69.9999978637696,0|0,0:0|0:0,0:0:0:0:
188,236,107414,1,2,1:0:0:0:
325,112,107564,1,0,0:0:0:0:
110,217,107714,5,0,1:0:0:0:
109,242,107789,1,0,0:0:0:0:
116,266,107864,1,0,0:0:0:0:
129,287,107939,1,0,0:0:0:0:
148,303,108014,2,0,B|315:332|315:332|364:324,1,209.999993591309,2|0,1:3|0:0,0:0:0:0:
396,223,108314,2,0,L|328:235,1,69.9999978637696,0|0,1:0|0:0,0:0:0:0:
232,119,108464,2,0,L|300:131,1,69.9999978637696,0|0,0:0|0:0,0:0:0:0:
190,211,108614,2,0,B|87:229|87:229|51:223,1,139.999995727539,2|0,1:0|0:0,0:0:0:0:
270,33,108914,5,0,1:0:0:0:
271,58,108989,1,0,0:0:0:0:
264,82,109064,1,0,0:0:0:0:
251,103,109139,1,0,0:0:0:0:
231,118,109214,2,0,B|196:112|196:112|94:131,1,139.999995727539,2|0,1:3|0:0,0:0:0:0:
90,299,109514,5,0,1:0:0:0:
104,320,109589,1,0,0:0:0:0:
123,336,109664,1,0,0:0:0:0:
146,347,109739,1,0,0:0:0:0:
170,352,109814,6,0,P|195:352|218:345,1,50,2|0,1:0|0:0,0:0:0:0:
341,352,109964,2,0,P|316:352|293:345,1,50,0|0,0:0|0:0,0:0:0:0:
256,238,110114,2,0,L|256:188,3,50,0|0|0|0,3:0|3:0|3:0|3:0,3:0:0:0:
148,131,110414,6,0,P|163:152|183:167,1,50,2|0,1:3|0:0,0:0:0:0:
327,279,110564,2,0,P|352:275|375:266,1,50,2|0,0:0|0:0,0:0:0:0:
362,132,110714,6,0,P|348:151|328:166,1,50,2|0,1:2|0:0,0:0:0:0:
184,278,110864,2,0,P|159:276|136:265,1,50,2|0,0:0|0:0,0:0:0:0:
366,82,111014,6,0,L|362:131,1,50,2|0,1:2|0:0,0:0:0:0:
148,131,111164,2,0,L|143:82,1,50,2|0,0:0|0:0,0:0:0:0:
256,32,111314,5,2,1:2:0:0:
256,44,111389,1,2,0:2:0:0:
256,57,111464,1,2,0:2:0:0:
256,69,111539,1,2,0:2:0:0:
256,81,111614,6,0,B|368:33|368:129|488:81,1,239.999992675781,6|0,1:2|1:0,0:0:0:0:
487,81,112214,6,0,P|477:117|455:148,1,75.0000028610231,10|0,0:0|0:0,0:0:0:0:
382,217,112364,2,0,P|349:236|311:241,1,75.0000028610231,2|0,0:0|0:0,0:0:0:0:
211,238,112514,2,0,P|174:228|144:205,1,75.0000028610231,0|0,1:0|0:0,0:0:0:0:
75,131,112664,2,0,P|55:98|50:60,1,75.0000028610231,2|0,0:0|0:0,0:0:0:0:
282,21,112814,6,0,L|272:71,1,51.0000003112793,2|0,1:0|0:0,0:0:0:0:
156,38,113114,6,0,P|272:164|393:26,1,375,2|0,1:2|0:0,0:0:0:0:
469,40,113414,6,0,B|461:162|380:234|268:238|268:238|307:288|400:272,1,419.999987182618,10|0,0:2|0:0,0:0:0:0:
141,228,113714,6,0,B|30:277|30:277|149:300|149:300|261:260|261:260|374:277,1,465.000003547668,2|0,1:2|0:0,0:0:0:0:
469,236,114014,6,0,P|469:310|425:369,1,150.000005722046,2|0,1:0|0:0,0:0:0:0:
378,132,114314,2,0,P|407:200|470:237,1,150.000005722046,0|0,1:0|0:0,0:0:0:0:
451,118,114614,6,0,L|378:132,1,75.0000028610231,10|0,0:0|0:0,0:0:0:0:
304,145,114764,2,0,L|230:158,1,75.0000028610231,2|0,0:0|0:0,0:0:0:0:
8,197,114914,6,0,L|58:188,1,51.0000003112793,2|0,1:2|0:0,0:0:0:0:
204,263,115214,6,0,L|130:249,1,75.0000028610231,2|0,1:0|3:0,0:0:0:0:
31,92,115439,2,0,L|104:105,1,75.0000028610231,0|0,3:0|1:0,0:0:0:0:
291,141,115664,5,0,3:0:0:0:
291,141,115739,1,0,3:0:0:0:
291,141,115814,2,0,L|229:184|229:184|154:170,1,150,10|0,0:0|0:0,0:0:0:0:
20,200,116114,2,0,L|81:156|81:156|156:170,1,150,2|0,1:2|0:0,0:0:0:0:
342,214,116414,6,0,P|234:270|155:166,1,269.999991760254,2|0,1:0|0:0,0:0:0:0:
279,167,116714,2,0,P|247:201|232:157,1,112.500004291535,0|0,1:0|0:0,0:0:0:0:
438,25,117014,6,0,L|388:29,1,50,10|0,0:0|3:0,0:0:0:0:
335,90,117164,2,0,L|285:94,1,50,2|0,3:2|3:0,0:0:0:0:
222,43,117314,2,0,L|172:47,1,50,2|0,1:2|3:0,0:0:0:0:
118,107,117464,2,0,L|69:112,1,50,2|0,3:2|3:0,0:0:0:0:
6,61,117614,5,2,1:0:0:0:
6,61,117914,1,2,1:2:0:0:
285,93,118064,1,0,0:0:0:0:
157,327,118214,6,0,L|169:253,1,75.0000028610231,10|0,0:2|0:0,0:0:0:0:
118,107,118364,2,0,L|131:180,1,75.0000028610231,2|0,0:2|0:0,0:0:0:0:
286,169,118514,2,0,L|213:182,1,75.0000028610231,2|0,1:2|0:0,0:0:0:0:
15,264,118664,2,0,L|88:251,1,75.0000028610231,2|0,0:2|0:0,0:0:0:0:
403,252,118814,6,0,L|476:265,1,75.0000028610231,6|0,1:2|0:0,0:0:0:0:
286,336,118964,2,0,L|359:323,1,75.0000028610231,2|0,0:2|0:0,0:0:0:0:
192,256,119114,6,0,L|242:265,1,51.0000003112793,2|0,0:2|0:0,0:0:0:0:
196,146,119414,6,0,P|167:139|141:140,1,55.0000016784668,10|0,0:0|0:0,0:0:0:0:
113,150,119564,2,0,P|88:165|70:184,1,55.0000016784668,2|0,0:0|0:0,0:0:0:0:
58,211,119714,2,0,P|51:239|52:265,1,55.0000016784668,2|0,0:0|0:0,0:0:0:0:
62,291,119864,2,0,P|77:315|96:333,1,55.0000016784668,2|0,0:0|0:0,0:0:0:0:
121,344,120014,6,0,L|216:344,1,94.9999974632264,4|0,3:2|0:0,0:0:0:0:
391,344,120164,2,0,L|296:344,1,94.9999974632264,0|0,3:0|0:0,0:0:0:0:
131,328,120314,6,0,L|216:328,1,85.0000016212464,12|0,3:2|0:0,0:0:0:0:
381,328,120464,2,0,L|296:328,1,85.0000016212464,0|0,3:0|0:0,0:0:0:0:
141,312,120614,6,0,L|216:312,1,75.0000028610231,4|0,3:2|0:0,0:0:0:0:
371,312,120764,2,0,L|296:312,1,75.0000028610231,0|0,3:0|0:0,0:0:0:0:
151,296,120914,6,0,L|216:296,1,64.9999970245363,12|0,3:2|0:0,0:0:0:0:
361,296,121064,2,0,L|296:296,1,64.9999970245363,0|0,3:0|0:0,0:0:0:0:
56,287,121214,6,0,P|75:237|118:204,1,110.000003356934,10|0,1:0|0:0,0:0:0:0:
341,144,121514,1,8,0:0:0:0:
263,185,121664,2,0,P|236:182|210:172,1,55.0000016784668,2|0,2:2|2:0,2:0:0:0:
305,59,121814,6,0,P|282:74|263:95,1,55.0000016784668,2|0,1:2|0:0,0:0:0:0:
392,161,121965,2,0,P|368:149|341:144,1,55.0000016784668,2|0,1:2|0:0,0:0:0:0:
306,264,122114,6,0,P|280:272|252:274,1,55.0000016784668,10|0,0:2|0:0,0:0:0:0:
167,248,122264,2,0,P|141:239|113:237,1,55.0000016784668,2|0,0:2|0:0,0:0:0:0:
102,323,122414,5,2,1:0:0:0:
102,323,122564,2,0,L|156:327,1,55.0000016784668,2|0,0:2|0:0,0:0:0:0:
58,232,122714,2,0,L|112:236,1,55.0000016784668,10|0,0:2|0:0,0:0:0:0:
15,141,122864,2,0,L|69:145,1,55.0000016784668,2|0,0:2|0:0,0:0:0:0:
331,215,123014,6,0,B|307:227|307:227|280:231,1,55.0000016784668,2|0,1:2|0:0,0:0:0:0:
170,154,123164,2,0,B|194:142|194:142|221:137,1,55.0000016784668,2|0,1:2|0:0,0:0:0:0:
308,204,123314,6,0,B|284:216|284:216|257:220,1,55.0000016784668,10|0,0:2|0:0,0:0:0:0:
193,165,123464,2,0,B|217:153|217:153|244:148,1,55.0000016784668,2|0,0:2|0:0,0:0:0:0:
324,330,123614,6,0,P|270:340|218:323,1,110.000003356934,2|0,1:0|0:0,0:0:0:0:
58,232,123914,1,8,0:0:0:0:
118,134,124064,2,0,L|172:138,1,55.0000016784668,2|0,0:2|0:0,0:0:0:0:
350,125,124214,6,0,L|295:129,1,55.0000016784668,2|0,1:2|0:0,0:0:0:0:
138,63,124364,2,0,L|192:67,1,55.0000016784668,2|0,1:2|0:0,0:0:0:0:
370,99,124515,6,0,L|315:103,1,55.0000016784668,10|0,0:2|0:0,0:0:0:0:
118,37,124664,2,0,L|172:41,1,55.0000016784668,2|0,0:2|0:0,0:0:0:0:
350,28,124814,5,2,1:0:0:0:
350,28,124964,2,0,L|295:32,1,55.0000016784668,2|0,0:2|0:0,0:0:0:0:
424,94,125114,2,0,L|369:98,1,55.0000016784668,10|0,0:2|0:0,0:0:0:0:
498,160,125264,2,0,L|443:164,1,55.0000016784668,2|0,0:2|0:0,0:0:0:0:
222,145,125414,6,0,B|245:131|245:131|273:127,1,55.0000016784668,2|0,1:2|0:0,0:0:0:0:
123,152,125564,2,0,B|122:125|122:125|132:98,1,55.0000016784668,2|0,1:2|0:0,0:0:0:0:
79,241,125714,2,0,B|55:228|55:228|37:205,1,55.0000016784668,10|0,0:2|0:0,0:0:0:0:
134,323,125864,2,0,B|110:337|110:337|83:341,1,55.0000016784668,2|0,0:2|0:0,0:0:0:0:
220,369,126014,6,0,P|230:315|212:265,1,110.000003356934,10|0,1:0|0:0,0:0:0:0:
38,41,126314,1,8,0:0:0:0:
172,28,126464,2,0,L|226:23,1,55.0000016784668,2|0,0:2|0:0,0:0:0:0:
346,123,126614,6,0,L|291:118,1,55.0000016784668,2|0,1:2|0:0,0:0:0:0:
211,110,126764,2,0,L|156:105,1,55.0000016784668,2|0,1:2|0:0,0:0:0:0:
38,204,126914,6,0,L|92:199,1,55.0000016784668,10|0,0:2|0:0,0:0:0:0:
172,191,127064,2,0,L|227:187,1,55.0000016784668,2|0,0:2|0:0,0:0:0:0:
350,290,127214,5,2,1:0:0:0:
350,290,127364,2,0,L|354:235,1,55.0000016784668,2|0,0:2|0:0,0:0:0:0:
261,309,127514,2,0,L|265:254,1,55.0000016784668,10|0,0:2|0:0,0:0:0:0:
172,328,127664,2,0,L|176:273,1,55.0000016784668,2|0,0:2|0:0,0:0:0:0:
79,170,127814,6,0,B|97:148|97:148|123:140,1,55.0000016784668,2|0,1:2|0:0,0:0:0:0:
145,45,127964,2,0,B|171:55|171:55|187:77,1,55.0000016784668,2|0,1:2|0:0,0:0:0:0:
284,69,128114,2,0,B|282:97|282:97|266:119,1,55.0000016784668,10|0,0:2|0:0,0:0:0:0:
304,208,128264,2,0,B|276:215|276:215|250:206,1,55.0000016784668,2|0,0:2|0:0,0:0:0:0:
66,265,128414,6,0,L|175:272,1,110.000003356934,2|0,1:0|0:0,0:0:0:0:
266,118,128714,1,8,0:0:0:0:
286,301,128864,2,0,L|291:355,1,55.0000016784668,2|0,0:2|0:0,0:0:0:0:
440,303,129014,6,0,L|445:249,1,55.0000016784668,2|0,1:2|0:0,0:0:0:0:
451,150,129164,2,0,L|456:96,1,55.0000016784668,2|0,1:2|0:0,0:0:0:0:
343,46,129314,6,0,L|347:100,1,55.0000016784668,10|0,0:2|0:0,0:0:0:0:
354,199,129464,2,0,L|358:253,1,55.0000016784668,2|0,0:2|0:0,0:0:0:0:
251,205,129614,5,4,1:2:0:0:
254,168,129689,1,0,3:0:0:0:
257,131,129764,2,0,L|261:76,1,55.0000016784668,0|0,3:0|3:0,0:0:0:0:
174,221,129914,5,12,0:0:0:0:
177,184,129989,1,0,3:0:0:0:
180,147,130064,2,0,L|184:92,1,55.0000016784668,0|0,3:0|3:0,0:0:0:0:
97,237,130214,5,4,1:2:0:0:
100,200,130289,1,0,3:0:0:0:
103,163,130364,2,0,L|107:108,1,55.0000016784668,0|0,3:0|3:0,0:0:0:0:
20,253,130514,5,12,0:0:0:0:
23,216,130589,1,0,3:0:0:0:
26,179,130664,2,0,L|30:124,1,55.0000016784668,0|0,3:0|3:0,0:0:0:0:
116,329,130814,6,0,L|17:346,1,100,12|0,1:1|0:0,0:0:0:0:
210,364,131114,2,0,L|308:346,1,100,8|0,0:1|0:0,0:0:0:0:
470,287,131414,1,0,1:0:0:0:
470,287,131489,1,0,0:0:0:0:
470,287,131564,1,0,3:0:0:0:
406,364,131714,1,8,0:1:0:0:
402,98,131864,6,0,L|435:191,1,100,0|0,0:0|1:0,0:0:0:0:
305,76,132164,2,0,P|328:32|368:4,1,100,0|8,0:0|0:1,0:0:0:0:
337,174,132464,1,0,0:0:0:0:
206,94,132614,2,0,L|156:103,1,50,0|0,1:0|0:0,0:0:0:0:
49,175,132764,2,0,L|99:185,1,50,0|0,3:0|0:0,0:0:0:0:
255,249,132914,2,0,L|156:266,1,100,8|0,0:1|0:0,0:0:0:0:
0,38,133214,6,0,L|97:21,1,100,0|0,1:0|0:0,0:0:0:0:
300,112,133514,2,0,P|250:114|205:93,1,100,8|0,0:1|0:0,0:0:0:0:
407,39,133814,1,0,1:0:0:0:
407,39,133889,1,0,0:0:0:0:
407,39,133964,1,0,3:0:0:0:
446,246,134114,1,8,0:1:0:0:
265,205,134264,6,0,L|363:187,1,100,0|0,0:0|1:0,0:0:0:0:
433,342,134564,2,0,P|386:323|354:286,1,100,0|8,0:0|0:1,0:0:0:0:
372,88,134864,1,0,0:0:0:0:
446,246,135014,1,0,1:0:0:0:
273,105,135164,1,0,3:0:0:0:
142,291,135314,2,0,L|44:274,1,100,8|0,0:1|0:0,0:0:0:0:
174,122,135614,6,0,L|272:104,1,100,4|0,1:2|0:0,0:0:0:0:
336,180,135914,1,8,0:1:0:0:
135,212,136064,1,0,0:0:0:0:
114,200,136139,1,0,0:0:0:0:
96,183,136214,1,0,1:0:0:0:
83,161,136289,1,0,0:0:0:0:
77,136,136364,2,0,P|81:86|109:45,1,100,0|8,3:0|0:1,0:0:0:0:
238,198,136664,1,0,0:0:0:0:
306,10,136814,5,0,1:0:0:0:
434,197,136964,1,0,0:0:0:0:
272,104,137114,1,8,0:1:0:0:
204,292,137264,2,0,L|302:274,1,100,0|0,0:0|1:0,0:0:0:0:
173,121,137564,1,0,3:0:0:0:
105,309,137714,1,8,0:1:0:0:
238,198,137864,1,0,0:0:0:0:
463,332,138014,6,0,L|364:349,1,100,4|0,1:2|0:0,0:0:0:0:
351,155,138314,2,0,L|413:232,1,100,8|0,0:1|0:0,0:0:0:0:
479,138,138614,1,4,1:2:0:0:
302,274,138764,1,0,3:0:0:0:
272,52,138914,1,8,0:1:0:0:
351,155,139064,1,0,0:0:0:0:
409,69,139214,5,4,1:2:0:0:
385,58,139289,1,0,3:0:0:0:
361,56,139364,2,0,P|337:58|313:68,1,50,0|0,3:0|3:0,3:0:0:0:
258,7,139514,5,4,1:2:0:0:
238,20,139589,1,0,3:0:0:0:
223,41,139664,2,0,P|212:63|209:88,1,50,0|0,3:0|3:0,3:0:0:0:
127,105,139814,5,4,3:2:0:0:
131,130,139889,1,0,3:0:0:0:
141,153,139964,2,0,P|156:172|176:187,1,50,0|0,3:0|3:0,3:0:0:0:
149,265,140114,5,4,3:2:0:0:
173,275,140189,1,0,3:0:0:0:
198,279,140264,2,0,P|222:275|245:266,1,50,0|0,3:0|3:0,3:0:0:0:
60,257,140414,5,0,1:0:0:0:
51,346,140564,1,0,0:0:0:0:
149,265,140714,1,8,0:0:0:0:
140,354,140864,1,0,0:0:0:0:
49,244,141014,5,0,1:0:0:0:
39,357,141164,1,0,0:0:0:0:
161,254,141314,1,8,0:0:0:0:
151,367,141464,1,0,0:0:0:0:
38,231,141614,5,0,1:0:0:0:
26,367,141764,1,0,0:0:0:0:
173,243,141914,1,8,0:0:0:0:
161,379,142064,1,0,0:0:0:0:
15,230,142214,6,0,P|74:200|138:216,1,134.999995880127,0|0,1:0|0:0,0:0:0:0:
173,243,142514,2,0,P|237:259|296:229,1,134.999995880127,8|0,0:0|0:0,0:0:0:0:
405,153,142814,5,0,1:0:0:0:
463,221,142964,1,0,0:0:0:0:
319,170,143114,1,8,0:0:0:0:
286,252,143264,1,0,0:0:0:0:
415,144,143414,5,0,1:0:0:0:
477,227,143564,1,0,0:0:0:0:
303,164,143714,1,8,0:0:0:0:
273,261,143864,1,0,0:0:0:0:
425,135,144014,5,0,1:0:0:0:
490,231,144164,1,0,0:0:0:0:
290,160,144314,1,8,0:0:0:0:
263,271,144464,1,0,0:0:0:0:
356,102,144614,6,0,P|297:72|235:92,1,134.999995880127,0|0,1:0|0:0,0:0:0:0:
205,131,144915,2,0,P|209:197|258:242,1,134.999995880127,8|0,0:0|0:0,0:0:0:0:
290,160,145214,5,4,1:2:0:0:
148,105,145364,1,0,0:0:0:0:
235,92,145514,1,8,0:0:0:0:
115,186,145664,1,0,0:0:0:0:
242,71,145814,5,0,1:0:0:0:
93,190,145964,1,0,0:0:0:0:
133,88,146114,1,8,0:0:0:0:
161,275,146264,1,0,0:0:0:0:
118,71,146414,5,0,1:0:0:0:
154,296,146564,1,0,0:0:0:0:
71,194,146714,1,8,0:0:0:0:
283,275,146864,1,0,0:0:0:0:
33,186,147014,6,0,P|92:216|156:200,1,134.999995880127,0|0,1:0|0:0,0:0:0:0:
194,175,147314,2,0,P|258:158|317:188,1,134.999995880127,8|0,0:0|0:0,0:0:0:0:
369,265,147614,6,0,P|328:280|283:275,1,89.9999972534181,4|0,1:2|0:0,0:0:0:0:
250,352,147914,2,0,P|216:324|198:283,1,89.9999972534181,8|0,0:0|0:0,0:0:0:0:
129,99,148214,6,0,P|170:84|215:89,1,89.9999972534181,4|0,1:2|0:0,0:0:0:0:
248,12,148514,2,0,P|282:40|300:81,1,89.9999972534181,8|0,0:0|0:0,0:0:0:0:
115,292,148814,6,0,P|116:269|122:248,1,44.999998626709,4|0,1:2|3:0,3:0:0:0:
148,212,148964,2,0,P|164:196|184:186,1,44.999998626709,0|0,3:0|3:0,3:0:0:0:
382,71,149114,6,0,P|380:93|374:114,1,44.999998626709,12|0,3:2|3:0,3:0:0:0:
349,151,149264,2,0,P|332:166|312:176,1,44.999998626709,0|0,3:0|3:0,3:0:0:0:
129,99,149414,6,0,P|149:88|170:83,1,44.999998626709,4|0,1:2|3:0,3:0:0:0:
215,88,149564,2,0,P|236:94|255:106,1,44.999998626709,0|0,3:0|3:0,3:0:0:0:
369,265,149714,6,0,P|348:275|327:280,1,44.999998626709,12|0,3:2|3:0,3:0:0:0:
283,276,149864,2,0,P|261:269|242:257,1,44.999998626709,0|0,3:0|3:0,3:0:0:0:
374,115,150014,6,0,P|414:187|367:267,1,179.999994506836,4|10,1:2|0:0,0:0:0:0:
322,189,150464,1,2,0:0:0:0:
195,279,150614,2,0,L|284:271,1,89.9999972534181,2|0,1:2|0:0,0:0:0:0:
233,174,150914,2,0,L|144:166,1,89.9999972534181,10|2,0:2|0:2,0:0:0:0:
65,367,151214,5,2,1:2:0:0:
51,210,151364,1,2,0:2:0:0:
103,284,151514,1,10,0:2:0:0:
65,367,151664,1,2,0:2:0:0:
154,356,151814,2,0,L|243:348,1,89.9999972534181,2|0,1:2|0:0,0:0:0:0:
229,192,152114,2,0,L|140:200,1,89.9999972534181,10|0,0:2|0:0,0:0:0:0:
281,266,152414,6,0,P|310:232|319:189,1,89.9999972534181,2|0,1:2|0:0,0:0:0:0:
147,154,152714,1,10,0:0:0:0:
228,191,152864,1,2,0:0:0:0:
57,157,153014,2,0,P|66:114|96:81,1,89.9999972534181,2|0,1:2|0:0,0:0:0:0:
237,146,153314,2,0,L|148:154,1,89.9999972534181,10|0,0:2|0:0,0:0:0:0:
274,63,153614,5,2,1:2:0:0:
185,73,153764,1,2,0:2:0:0:
326,137,153914,1,10,0:2:0:0:
147,154,154064,1,2,0:2:0:0:
364,56,154214,2,0,P|398:83|414:125,1,89.9999972534181,2|0,1:2|0:0,0:0:0:0:
398,212,154514,2,0,L|308:219,1,89.9999972534181,10|0,0:2|0:0,0:0:0:0:
487,204,154814,2,0,L|396:211,1,89.9999972534181,4|0,1:2|0:0,0:0:0:0:
120,142,155114,5,8,0:0:0:0:
161,317,155264,1,2,0:0:0:0:
273,52,155414,5,0,1:0:0:0:
218,225,155564,1,2,0:0:0:0:
120,142,155714,6,0,L|209:135,1,89.9999972534181,10|2,0:0|0:0,0:0:0:0:
397,211,156014,1,2,1:2:0:0:
218,225,156164,1,2,0:0:0:0:
316,307,156314,1,10,0:0:0:0:
299,126,156464,1,2,0:0:0:0:
137,320,156614,6,0,L|226:313,1,89.9999972534181,2|0,1:2|0:0,0:0:0:0:
404,297,156914,1,10,0:2:0:0:
299,126,157064,1,2,0:0:0:0:
280,384,157214,2,0,P|309:349|315:305,1,89.9999972534181,6|0,1:2|0:0,0:0:0:0:
243,53,157514,2,0,P|215:88|209:132,1,89.9999972534181,10|0,0:2|0:0,0:0:0:0:
397,211,157814,5,6,1:2:0:0:
226,313,157964,1,2,0:2:0:0:
447,285,158114,5,10,0:2:0:0:
175,238,158264,1,2,0:2:0:0:
390,28,158414,5,4,1:2:0:0:
390,28,158489,1,0,3:2:0:0:
390,28,158564,2,0,P|398:56|392:86,1,59.9999981689454,0|0,3:2|3:2,3:2:0:0:
467,128,158714,5,4,1:2:0:0:
467,128,158789,1,0,3:2:0:0:
467,128,158864,2,0,P|445:155|413:168,1,69.9999978637696,0|0,3:2|3:2,3:2:0:0:
423,252,159014,5,4,1:2:0:0:
423,252,159089,1,0,3:2:0:0:
423,252,159164,2,0,P|384:249|352:226,1,80,0|0,3:2|3:2,3:2:0:0:
290,282,159314,5,4,1:2:0:0:
290,282,159389,1,0,3:2:0:0:
290,282,159464,2,0,P|267:245|270:201,1,89.9999972534181,0|0,3:2|3:2,3:2:0:0:
184,216,159614,6,0,P|231:122|334:143,1,225.000008583069,4|0,1:3|0:0,0:0:0:0:
270,201,159914,1,10,0:0:0:0:
230,61,160064,2,0,P|301:77|333:143,1,150.000005722046,2|0,0:0|1:0,0:0:0:0:
161,76,160364,2,0,P|211:24|283:28,1,150.000005722046,2|8,1:2|0:0,0:0:0:0:
142,145,160664,2,0,P|123:112|121:75,1,75.0000028610231,2|0,3:2|0:0,0:0:0:0:
62,170,160814,6,0,P|112:222|185:217,1,150.000005722046,0|0,1:0|0:0,0:0:0:0:
279,171,161039,1,0,0:0:0:0:
279,171,161114,2,0,P|185:217|205:320,1,225.000008583069,10|0,0:0|0:0,0:0:0:0:
346,338,161414,2,0,B|279:352|279:352|207:320|207:320|131:336,1,225.000008583069,2|0,1:2|0:0,0:0:0:0:
138,261,161714,2,0,B|214:245|214:245|286:277|286:277|353:263,1,225.000008583069,10|0,0:0|0:0,0:0:0:0:
360,187,162014,6,0,B|293:201|293:201|221:169|221:169|304:153,1,225.000008583069,2|0,1:2|0:0,0:0:0:0:
426,249,162314,2,0,L|352:262,1,75.0000028610231,10|0,0:0|0:0,0:0:0:0:
217,312,162464,2,0,B|247:280|247:280|352:262,1,150.000005722046,2|0,0:0|1:0,0:0:0:0:
309,54,162764,2,0,B|278:85|278:85|174:104,1,150.000005722046,2|8,1:2|0:0,0:0:0:0:
3,262,163064,2,0,L|77:276,1,75.0000028610231,2|0,3:2|0:0,0:0:0:0:
160,308,163214,6,0,P|108:360|36:356,1,150.000005722046,0|0,1:0|0:0,0:0:0:0:
147,159,163514,2,0,L|159:308,1,150.000005722046,8|0,0:0|0:0,0:0:0:0:
348,308,163814,2,0,L|361:159,1,150.000005722046,2|0,1:2|1:0,0:0:0:0:
471,356,164114,2,0,P|398:360|348:309,1,150.000005722046,10|0,0:0|0:0,0:0:0:0:
120,73,164414,6,0,P|191:81|232:141,1,150.000005722046,4|0,1:2|0:0,0:0:0:0:
276,268,164639,1,0,0:0:0:0:
276,268,164714,2,0,P|226:214|233:142,1,150.000005722046,8|0,0:0|0:0,0:0:0:0:
482,82,165014,2,0,L|408:95,1,75.0000028610231,2|0,1:2|0:0,0:0:0:0:
306,190,165164,2,0,L|379:176,1,75.0000028610231,0|0,1:0|0:0,0:0:0:0:
508,231,165314,1,10,0:0:0:0:
276,269,165464,2,0,L|203:283,1,75.0000028610231,2|0,3:2|0:0,0:0:0:0:
306,190,165614,6,0,P|355:243|348:315,1,150.000005722046,2|0,1:2|0:0,0:0:0:0:
158,219,165914,2,0,L|305:190,1,150.000005722046,10|0,0:0|0:0,0:0:0:0:
129,70,166214,2,0,P|140:108|143:143,1,75.0000028610231,2|0,1:2|0:0,0:0:0:0:
71,267,166364,2,0,P|74:229|84:193,1,75.0000028610231,2|0,1:2|0:0,0:0:0:0:
261,118,166514,1,8,0:0:0:0:
464,307,166664,1,0,0:0:0:0:
464,307,166739,1,0,0:0:0:0:
464,307,166814,6,0,P|391:326|317:330,1,150.000005722046,4|0,1:2|0:0,0:0:0:0:
34,217,167114,2,0,P|106:236|180:240,1,150.000005722046,10|0,0:0|0:0,0:0:0:0:
479,128,167414,2,0,P|406:147|332:151,1,150.000005722046,4|0,1:2|1:0,0:0:0:0:
49,37,167714,2,0,P|121:56|195:60,1,150.000005722046,10|0,0:0|0:0,0:0:0:0:
389,48,168014,5,4,1:2:0:0:
389,48,168089,1,0,3:0:0:0:
389,48,168164,2,0,P|349:50|315:62,1,75.0000028610231,0|0,3:0|3:0,0:0:0:0:
109,139,168314,5,12,0:2:0:0:
109,139,168389,1,0,3:0:0:0:
108,138,168464,2,0,P|145:140|181:152,1,75.0000028610231,0|0,3:0|3:0,0:0:0:0:
404,228,168614,5,4,1:2:0:0:
404,228,168689,1,0,3:0:0:0:
404,228,168764,2,0,P|364:230|330:242,1,75.0000028610231,0|0,1:0|3:0,0:0:0:0:
123,318,168914,5,12,0:2:0:0:
123,318,168989,1,0,3:0:0:0:
123,318,169064,2,0,P|163:320|197:332,1,75.0000028610231,0|0,3:0|3:0,0:0:0:0:
167,184,169214,6,0,L|195:331,1,150.000005722046,2|0,1:2|0:0,0:0:0:0:
345,143,169514,2,0,L|316:290,1,150.000005722046,10|0,0:2|0:0,0:0:0:0:
97,83,169814,2,0,B|76:182|76:182|85:236,1,150.000005722046,2|0,1:2|1:0,0:0:0:0:
415,41,170114,2,0,B|436:140|436:140|427:194,1,150.000005722046,10|0,0:2|0:0,0:0:0:0:
186,59,170414,6,0,P|255:34|324:61,1,150.000005722046,2|0,1:2|0:0,0:0:0:0:
326,325,170714,2,0,P|256:349|187:322,1,150.000005722046,10|0,0:2|0:0,0:0:0:0:
71,80,171014,1,2,1:2:0:0:
440,80,171164,1,2,1:2:0:0:
326,325,171314,2,0,P|256:349|187:322,1,150.000005722046,8|0,0:0|0:0,0:0:0:0:
71,80,171614,5,0,3:2:0:0:
115,65,171689,1,0,3:2:0:0:
160,77,171764,1,0,3:2:0:0:
190,111,171839,1,0,3:2:0:0:
196,157,171914,1,8,3:2:0:0:
176,199,171989,1,0,3:2:0:0:
136,222,172064,1,0,3:2:0:0:
90,219,172139,1,0,3:2:0:0:
46,189,172214,5,0,1:1:0:0:
87,156,172289,1,0,1:1:0:0:
142,144,172364,1,0,1:1:0:0:
196,157,172439,1,0,1:1:0:0:
239,191,172514,1,8,1:2:0:0:
282,225,172589,1,0,1:1:0:0:
336,238,172664,1,0,1:1:0:0:
391,226,172739,1,0,1:1:0:0:
435,192,172814,6,0,L|444:291,2,100,4|0|0,1:2|3:0|1:0,0:0:0:0:
425,92,173264,2,0,L|419:42,4,50
335,201,173714,1,8,1:2:0:0:
335,201,174014,6,0,L|434:192,1,100,4|0,0:0|0:0,0:0:0:0:
392,282,174614,2,0,L|292:290,1,100,0|0,0:0|0:0,0:0:0:0:
177,126,175214,2,0,L|234:207,1,100,2|0,0:3|0:0,0:0:0:0:
192,298,175814,2,0,L|134:216,1,100,0|0,0:0|0:0,0:0:0:0:
277,117,176414,6,0,L|234:207,1,100,2|0,0:3|0:0,0:0:0:0:
176,126,177014,2,0,L|233:207,1,100,2|2,0:0|0:0,0:0:0:0:
134,216,177614,2,0,L|233:207,1,100,0|0,0:0|0:0,0:0:0:0:
191,297,178214,2,0,L|233:206,1,100,2|2,0:0|0:0,0:0:0:0:
34,224,178814,6,0,L|91:305,1,100,0|0,0:0|0:0,0:0:0:0:
191,297,179414,2,0,L|91:305,1,100,2|2,0:0|0:0,0:0:0:0:
76,133,180014,2,0,L|133:214,1,100,0|0,0:0|0:0,0:0:0:0:
233,206,180614,2,0,L|133:214,1,100,2|2,0:0|0:0,0:0:0:0:
118,42,181214,6,0,L|175:123,1,100,0|0,0:0|0:0,0:0:0:0:
275,115,181814,2,0,L|175:123,1,100,2|2,0:0|0:0,0:0:0:0:
175,122,182264,1,2,0:0:0:0:
229,203,182414,6,0,L|279:199,2,50,2|2|2,0:0|0:0|0:0,0:0:0:0:
130,212,182864,1,2,0:0:0:0:
186,293,183014,6,0,L|214:333,2,50,2|2|2,0:0|0:0|0:0,0:0:0:0:
130,212,183464,1,2,0:0:0:0:
33,223,183614,6,0,P|49:270|88:301,1,100
225,206,184214,2,0,P|218:252|179:295,1,100,2|0,0:0|0:0,0:0:0:0:
77,132,184814,2,0,P|120:114|177:126,1,100,0|0,0:0|0:0,0:0:0:0:
324,214,185414,2,0,L|224:205,1,100,2|2,0:0|0:0,0:0:0:0:
281,123,186014,6,0,L|380:114,1,100,0|0,0:0|0:0,0:0:0:0:
423,222,186614,1,2,0:0:0:0:
323,213,186914,1,2,0:0:0:0:
430,318,187214,6,0,P|477:302|508:264,1,100,0|0,0:0|0:0,0:0:0:0:
499,168,187814,2,0,P|517:214|508:263,1,100,2|0,0:0|0:0,0:0:0:0:
300,187,188414,6,0,L|399:178,1,100,0|0,0:0|0:0,0:0:0:0:
200,196,189014,1,2,0:0:0:0:
200,196,189314,1,2,0:0:0:0:
313,170,189614,6,0,L|412:161,1,100,0|0,0:0|0:0,0:0:0:0:
213,179,190214,1,2,0:0:0:0:
213,179,190514,1,2,0:0:0:0:
326,153,190814,6,0,L|425:144,1,100,2|0,0:0|0:0,0:0:0:0:
483,225,191414,2,0,L|425:143,1,100,2|0,0:0|0:0,0:0:0:0:
241,132,192014,6,0,L|340:123,1,100,2|0,0:0|0:0,0:0:0:0:
398,204,192614,2,0,L|340:122,1,100,2|0,0:0|3:0,0:0:0:0:
330,146,192989,1,0,3:0:0:0:
319,169,193064,1,0,3:0:0:0:
309,192,193139,1,0,3:0:0:0:
299,215,193214,6,0,L|208:206,1,89.9999972534181,4|0,1:2|0:0,0:0:0:0:
66,270,193514,2,0,L|155:278,1,89.9999972534181,10|0,0:0|0:0,0:0:0:0:
171,124,193814,2,0,L|118:197,1,89.9999972534181,2|0,1:2|0:0,0:0:0:0:
246,289,194114,1,10,0:0:0:0:
209,206,194264,1,2,0:0:0:0:
194,363,194414,6,0,P|240:379|286:370,1,89.9999972534181,2|0,1:2|0:0,0:0:0:0:
350,142,194714,2,0,P|315:170|299:212,1,89.9999972534181,10|0,0:2|0:0,0:0:0:0:
422,310,195014,2,0,L|510:294,1,89.9999972534181,2|0,1:2|0:0,0:0:0:0:
439,127,195314,2,0,L|350:142,1,89.9999972534181,10|0,0:0|0:0,0:0:0:0:
85,99,195614,6,0,L|172:114,1,89.9999972534181,2|0,1:2|0:0,0:0:0:0:
177,271,195914,1,10,0:0:0:0:
87,262,196064,1,0,0:0:0:0:
267,280,196214,1,2,1:2:0:0:
267,280,196364,1,2,1:2:0:0:
139,189,196514,1,8,0:0:0:0:
214,352,196664,2,0,P|300:363|354:296,1,179.999994506836,4|0,1:2|0:0,0:0:0:0:
259,190,197114,6,0,L|266:279,1,89.9999972534181,8|0,0:0|0:0,0:0:0:0:
139,189,197414,1,0,1:0:0:0:
248,71,197564,1,2,0:0:0:0:
248,71,197639,1,2,0:0:0:0:
248,71,197714,2,0,L|252:116,1,44.999998626709,10|0,3:2|0:0,0:0:0:0:
128,70,197864,2,0,L|124:25,1,44.999998626709,2|0,3:2|0:0,0:0:0:0:
310,4,198014,6,0,P|334:42|337:90,1,89.9999972534181,4|0,1:2|0:0,0:0:0:0:
427,107,198314,2,0,P|406:146|366:173,1,89.9999972534181,10|0,0:0|0:0,0:0:0:0:
397,259,198614,2,0,P|352:260|309:239,1,89.9999972534181,2|0,1:2|0:0,0:0:0:0:
250,124,198914,1,10,0:0:0:0:
171,238,199064,1,2,0:0:0:0:
1,136,199214,6,0,L|90:143,1,89.9999972534181,2|0,1:2|0:0,0:0:0:0:
252,200,199514,2,0,L|170:238,1,89.9999972534181,8|0,0:0|0:0,0:0:0:0:
0,270,199814,2,0,L|81:231,1,89.9999972534181,0|2,1:0|0:0,0:0:0:0:
251,334,200114,2,0,L|206:330,1,44.999998626709,10|0,3:2|0:0,0:0:0:0:
56,358,200264,2,0,L|100:361,1,44.999998626709,2|0,3:2|0:0,0:0:0:0:
324,384,200414,6,0,P|340:343|332:300,1,89.9999972534181,2|0,1:2|0:0,0:0:0:0:
194,195,200714,2,0,P|220:230|261:245,1,89.9999972534181,10|0,0:0|0:0,0:0:0:0:
422,176,201014,2,0,P|378:180|344:209,1,89.9999972534181,2|0,1:2|0:0,0:0:0:0:
412,260,201314,1,10,0:0:0:0:
470,66,201464,1,2,0:0:0:0:
291,51,201614,6,0,L|380:58,1,89.9999972534181,0|0,1:0|0:0,0:0:0:0:
470,66,201914,1,8,0:0:0:0:
328,131,202064,2,0,L|238:123,1,89.9999972534181,2|0,0:0|1:0,0:0:0:0:
57,113,202364,1,2,0:0:0:0:
57,113,202439,1,2,0:0:0:0:
57,113,202514,2,0,L|101:109,1,44.999998626709,10|0,3:2|0:0,0:0:0:0:
141,192,202664,2,0,L|185:195,1,44.999998626709,2|0,3:2|0:0,0:0:0:0:
202,348,202814,6,0,P|166:321|151:280,1,89.9999972534181,6|0,1:2|0:0,0:0:0:0:
185,195,203114,1,8,0:0:0:0:
327,257,203264,2,0,P|286:274|243:266,1,89.9999972534181,2|0,0:0|1:0,0:0:0:0:
185,195,203564,1,0,0:0:0:0:
310,104,203714,2,0,P|305:147|276:181,1,89.9999972534181,10|0,0:0|0:0,0:0:0:0:
185,195,204014,5,0,1:0:0:0:
170,43,204164,2,0,P|205:69|220:110,1,89.9999972534181,2|8,0:0|0:0,0:0:0:0:
185,195,204464,2,0,P|136:123|170:43,1,179.999994506836,2|0,0:0|0:0,0:0:0:0:
47,130,204914,2,0,L|136:122,1,89.9999972534181,8|0,0:0|0:0,0:0:0:0:
233,267,205214,6,0,L|143:274,1,89.9999972534181,2|2,1:2|0:0,0:0:0:0:
53,281,205514,1,8,0:0:0:0:
181,192,205664,1,2,1:2:0:0:
181,192,205814,1,0,1:0:0:0:
194,348,205964,1,2,1:2:0:0:
194,348,206114,1,8,0:0:0:0:
94,175,206264,2,0,P|148:107|233:120,1,179.999994506836,4|0,1:2|0:0,0:0:0:0:
322,259,206714,6,0,L|233:267,1,89.9999972534181,10|0,0:0|0:0,0:0:0:0:
181,192,207014,1,2,1:2:0:0:
326,214,207164,1,2,0:0:0:0:
326,214,207239,1,2,0:0:0:0:
326,214,207314,2,0,L|322:258,1,44.999998626709,10|0,3:2|0:0,0:0:0:0:
411,161,207464,2,0,L|414:205,1,44.999998626709,2|0,3:2|0:0,0:0:0:0:
477,66,207614,6,0,L|500:152,1,89.9999972534181,4|0,1:2|0:0,0:0:0:0:
386,36,207914,1,8,0:0:0:0:
361,70,207989,1,2,0:0:0:0:
336,105,208064,2,0,P|293:115|252:100,1,89.9999972534181,2|0,0:0|1:0,0:0:0:0:
213,23,208364,2,0,P|242:54|250:97,1,89.9999972534181,2|8,0:0|0:0,0:0:0:0:
199,174,208664,2,0,L|302:26,1,179.999994506836,2|0,0:0|0:0,0:0:0:0:
332,189,209114,6,0,L|287:185,1,44.999998626709,10|0,0:0|0:0,0:0:0:0:
359,292,209264,2,0,L|322:266,1,44.999998626709,2|0,0:0|0:0,0:0:0:0:
256,301,209415,2,0,L|236:260,1,44.999998626709,2|0,1:2|0:0,0:0:0:0:
176,381,209564,2,0,L|179:336,1,44.999998626709,2|0,0:2|0:0,0:0:0:0:
121,290,209714,2,0,L|146:253,1,44.999998626709,10|0,0:0|0:0,0:0:0:0:
9,265,209864,2,0,L|69:235,1,44.999998626709,2|0,0:0|0:0,0:0:0:0:
101,172,210014,5,2,1:3:0:0:
49,245,210164,1,0,3:0:0:0:
190,180,210314,1,8,0:0:0:0:
153,99,210464,1,0,3:0:0:0:
139,253,210614,5,2,1:3:0:0:
278,188,210764,1,0,3:0:0:0:
153,99,210914,1,8,0:0:0:0:
227,261,211064,1,0,3:0:0:0:
205,25,211214,5,2,1:3:0:0:
101,172,211364,1,0,1:0:0:0:
278,188,211514,1,8,0:0:0:0:
116,18,211664,1,0,1:0:0:0:
139,253,211814,5,8,1:0:0:0:
331,117,211964,1,8,1:0:0:0:
65,91,212114,1,8,1:0:0:0:
176,334,212264,1,8,1:0:0:0:
329,240,212414,6,0,P|228:247|175:334,1,209.999993591309,4|0,0:0|0:0,0:0:0:0:
176,334,213014,1,2,0:3:0:0:
169,251,213164,1,0,0:0:0:0:
221,178,213314,1,0,0:0:0:0:
206,89,213464,1,0,0:0:0:0:
206,89,213764,5,0,0:0:0:0:
221,178,213914,1,0,0:0:0:0:
134,147,214064,1,0,0:0:0:0:
290,120,214214,1,2,0:3:0:0:
305,209,214364,1,0,0:0:0:0:
389,62,214514,1,0,0:0:0:0:
374,151,214664,1,0,0:0:0:0:
275,31,214814,5,0,0:0:0:0:
290,120,214964,1,0,0:0:0:0:
305,209,215114,1,0,0:0:0:0:
305,209,215414,5,2,0:3:0:0:
223,247,215564,1,0,0:0:0:0:
149,194,215714,1,0,0:0:0:0:
157,103,215864,1,0,0:0:0:0:
239,64,216014,5,0,0:0:0:0:
237,86,216089,1,0,0:0:0:0:
235,108,216164,1,0,0:0:0:0:
233,131,216239,1,0,0:0:0:0:
231,153,216314,1,0,0:0:0:0:
313,118,216464,1,0,0:0:0:0:
305,209,216614,1,2,0:3:0:0:
396,80,216764,1,0,0:0:0:0:
321,29,216914,1,0,0:0:0:0:
319,51,216989,1,0,0:0:0:0:
317,73,217064,1,0,0:0:0:0:
315,96,217139,1,0,0:0:0:0:
313,118,217214,5,0,0:0:0:0:
239,63,217364,1,0,0:0:0:0:
165,10,217514,1,0,0:0:0:0:
165,10,217814,5,2,0:3:0:0:
156,102,217964,1,0,0:0:0:0:
230,156,218114,1,0,0:0:0:0:
221,248,218264,1,0,0:0:0:0:
221,248,218564,5,0,0:0:0:0:
230,156,218714,1,0,0:0:0:0:
313,257,218864,1,0,0:0:0:0:
322,165,219014,1,2,0:3:0:0:
405,266,219164,1,0,0:0:0:0:
414,174,219314,1,0,0:0:0:0:
497,275,219464,1,0,0:0:0:0:
313,257,219614,5,0,0:0:0:0:
405,266,219764,1,0,0:0:0:0:
497,275,219914,1,0,0:0:0:0:
221,248,220214,5,2,0:3:0:0:
313,257,220364,1,0,0:0:0:0:
405,266,220514,1,0,0:0:0:0:
497,275,220664,1,0,0:0:0:0:
468,121,220964,5,0,0:0:0:0:
376,130,221114,1,0,0:0:0:0:
284,139,221264,1,0,0:0:0:0:
192,148,221414,1,2,0:3:0:0:
193,136,221489,1,0,0:0:0:0:
194,125,221564,1,0,0:0:0:0:
195,114,221639,1,0,0:0:0:0:
196,103,221714,1,0,0:0:0:0:
197,92,221789,1,0,0:0:0:0:
199,80,221864,1,0,0:0:0:0:
200,69,221939,1,0,0:0:0:0:
201,58,222014,6,0,L|118:95,1,89.9999972534181,0|0,1:0|0:0,0:0:0:0:
185,237,222314,2,0,L|192:147,1,89.9999972534181,0|0,1:0|0:0,0:0:0:0:
36,134,222614,2,0,L|111:184,1,89.9999972534181,8|0,1:0|0:0,0:0:0:0:
177,324,222914,2,0,L|102:273,1,89.9999972534181,0|0,1:0|0:0,0:0:0:0:
20,310,223139,1,0,0:0:0:0:
20,310,223214,6,0,L|103:273,1,89.9999972534181,0|0,1:0|0:0,0:0:0:0:
265,196,223514,2,0,P|236:161|195:146,1,89.9999972534181,0|0,1:0|0:0,0:0:0:0:
260,285,223814,2,0,P|304:278|340:251,1,89.9999972534181,8|0,1:0|0:0,0:0:0:0:
184,238,224039,1,0,0:0:0:0:
184,238,224114,2,0,P|169:280|177:324,1,89.9999972534181,0|0,1:0|0:0,0:0:0:0:
333,340,224339,1,0,0:0:0:0:
333,340,224414,6,0,L|339:251,1,89.9999972534181,0|0,1:0|0:0,0:0:0:0:
271,107,224714,2,0,L|265:196,1,89.9999972534181,0|0,1:0|0:0,0:0:0:0:
197,52,225014,2,0,P|231:24|275:16,1,89.9999972534181,8|0,1:0|0:0,0:0:0:0:
429,31,225314,2,0,P|394:58|350:66,1,89.9999972534181,0|0,1:0|0:0,0:0:0:0:
275,16,225539,1,0,0:0:0:0:
275,16,225614,6,0,P|231:24|197:52,1,89.9999972534181,0|0,1:0|0:0,0:0:0:0:
266,197,225914,2,0,P|309:189|344:161,1,89.9999972534181,0|0,1:0|0:0,0:0:0:0:
351,67,226139,1,0,0:0:0:0:
351,67,226214,2,0,L|270:106,1,89.9999972534181,8|0,1:0|0:0,0:0:0:0:
110,108,226514,1,0,1:0:0:0:
132,109,226589,1,0,0:0:0:0:
153,116,226664,1,0,0:0:0:0:
172,127,226739,1,0,0:0:0:0:
189,145,226814,5,0,1:0:0:0:
178,234,226964,1,0,1:0:0:0:
269,107,227114,1,8,1:1:0:0:
195,55,227264,1,0,1:0:0:0:
262,196,227414,1,0,1:0:0:0:
341,157,227564,1,0,1:0:0:0:
189,145,227714,1,8,1:1:0:0:
252,283,227864,1,0,1:0:0:0:
269,107,228014,5,0,1:0:0:0:
108,181,228164,1,0,1:0:0:0:
335,247,228314,1,8,1:1:0:0:
278,20,228464,1,0,1:0:0:0:
178,234,228614,1,0,1:0:0:0:
413,213,228764,1,0,1:0:0:0:
189,145,228914,1,8,1:1:0:0:
201,378,229064,1,0,1:0:0:0:
256,162,229214,5,0,1:0:0:0:
259,138,229289,1,0,3:0:0:0:
253,116,229364,1,0,3:0:0:0:
240,96,229439,1,0,3:0:0:0:
221,82,229514,1,8,3:0:0:0:
198,75,229589,1,0,3:0:0:0:
175,76,229664,1,0,3:0:0:0:
153,84,229739,1,0,3:0:0:0:
135,100,229814,5,0,1:0:0:0:
123,120,229889,1,0,3:0:0:0:
118,143,229964,1,0,3:0:0:0:
121,166,230039,1,0,3:0:0:0:
132,187,230114,1,8,3:0:0:0:
148,204,230189,1,0,3:0:0:0:
168,217,230264,1,0,3:0:0:0:
190,225,230339,1,0,3:0:0:0:
212,233,230414,5,0,1:0:0:0:
229,248,230489,1,0,1:0:0:0:
239,269,230564,1,0,1:0:0:0:
241,293,230639,1,0,1:0:0:0:
232,315,230714,1,8,1:0:0:0:
216,331,230789,1,0,1:0:0:0:
194,340,230864,1,0,1:0:0:0:
171,340,230939,1,0,1:0:0:0:
150,328,231014,5,8,1:0:0:0:
186,295,231089,1,8,1:0:0:0:
233,281,231164,1,8,1:0:0:0:
282,290,231239,1,8,1:0:0:0:
321,320,231314,1,8,1:0:0:0:
360,350,231389,1,8,1:0:0:0:
409,359,231464,1,8,1:0:0:0:
456,345,231539,1,8,1:0:0:0:
492,312,231614,6,0,L|392:303,1,100,4|0,1:2|0:0,0:0:0:0:
20,248,231914,2,0,L|119:239,1,100,12|0,1:2|0:0,0:0:0:0:
492,182,232214,2,0,L|392:173,1,100,4|0,1:2|0:0,0:0:0:0:
21,118,232514,6,0,B|34:122|34:122|50:114|50:114|69:113,1,50,12|0,1:2|0:0,0:0:0:0:
73,177,232814,6,0,P|4:96|104:58,1,250,4|0,1:2|0:0,0:0:0:0:
63,329,233114,2,0,P|63:205|134:105,1,250,8|0,0:0|0:0,0:0:0:0:
257,143,233339,2,0,B|284:176|284:176|203:169,1,125,2|2,0:0|1:2,0:0:0:0:
182,267,233489,2,0,B|154:233|154:233|236:241,1,125,2|2,0:0|0:0,0:0:0:0:
486,314,233714,2,0,P|363:302|256:363,1,250,8|0,0:0|0:0,0:0:0:0:
26,313,234014,6,0,P|148:301|256:362,1,250,0|0,1:0|0:0,0:0:0:0:
288,194,234314,2,0,P|165:206|58:145,1,250,8|0,0:0|0:0,0:0:0:0:
15,53,234539,2,0,P|75:36|140:42,1,125,2|2,0:0|1:2,0:0:0:0:
232,70,234689,2,0,P|294:75|354:58,1,125,2|2,0:0|0:0,0:0:0:0:
374,307,234914,2,0,L|353:58,1,250,8|0,0:0|0:0,0:0:0:0:
476,365,235214,6,0,L|497:116,1,250,0|0,1:0|0:0,0:0:0:0:
258,87,235514,2,0,B|333:129|333:129|496:115,1,250,8|0,0:0|0:0,0:0:0:0:
426,40,235739,2,0,L|417:164,1,125,2|2,0:0|1:2,0:0:0:0:
343,253,235889,2,0,L|334:128,1,125,2|2,0:0|0:0,0:0:0:0:
105,282,236114,2,0,B|180:239|180:239|343:253,1,250,8|0,0:0|0:0,0:0:0:0:
171,147,236414,5,0,1:0:0:0:
189,331,236564,1,2,0:0:0:0:
171,147,236714,1,8,0:0:0:0:
316,312,236864,5,2,0:0:0:0:
316,312,236939,1,2,0:0:0:0:
334,128,237089,1,2,0:0:0:0:
334,128,237164,1,2,0:0:0:0:
222,223,237314,5,8,0:0:0:0:
500,86,237464,1,2,0:0:0:0:
491,320,237614,6,0,P|457:201|500:86,1,250,4|0,1:2|0:0,0:0:0:0:
501,86,237914,2,0,L|252:108,1,250,8|0,0:0|0:0,0:0:0:0:
200,267,238139,2,0,L|324:256,1,125,2|2,0:0|1:2,0:0:0:0:
349,175,238289,2,0,L|225:186,1,125,2|2,0:0|0:0,0:0:0:0:
33,115,238514,6,0,P|136:25|89:154,1,375,8|0,0:0|0:0,0:0:0:0:
46,93,238814,2,0,P|127:39|102:133,1,250,0|0,1:0|0:0,0:0:0:0:
35,350,239114,2,0,P|150:307|268:340,1,250,8|0,0:0|0:0,0:0:0:0:
447,332,239339,2,0,L|437:208,1,125,2|2,0:0|1:2,0:0:0:0:
188,90,239489,2,0,L|198:214,1,125,2|2,0:0|0:0,0:0:0:0:
423,81,239714,2,0,P|304:48|188:90,1,250,8|0,0:0|0:0,0:0:0:0:
445,330,240014,6,0,L|423:81,1,250,4|0,1:2|0:0,0:0:0:0:
188,89,240314,2,0,L|210:339,1,250,8|0,0:0|0:0,0:0:0:0:
315,271,240539,2,0,B|275:221|275:221|335:226,1,125,2|6,0:0|1:2,0:0:0:0:
318,109,240688,2,0,B|358:159|358:159|297:154,1,125,2|2,0:0|0:2,0:0:0:0:
423,235,240914,1,8,0:0:0:0:
123,203,241064,1,0,0:0:0:0:
253,56,241214,5,6,0:0:0:0:
254,61,241364,1,2,0:0:0:0:
254,66,241514,1,2,0:0:0:0:
254,71,241664,1,2,0:0:0:0:
252,76,241814,5,0,1:0:0:0:
248,90,241889,1,0,1:0:0:0:
245,104,241964,1,0,1:0:0:0:
246,119,242039,1,0,1:0:0:0:
249,134,242114,1,2,1:3:0:0:
254,148,242189,1,0,1:0:0:0:
262,161,242264,1,2,1:3:0:0:
273,172,242339,1,0,1:0:0:0:
284,181,242414,5,4,1:3:0:0:
79,118,242564,1,0,0:3:0:0:
347,103,242714,1,2,2:3:0:0:
116,217,242864,6,0,L|48:205,1,69.9999978637696,0|0,0:3|0:3,0:3:0:0:
220,235,243014,1,0,1:3:0:0:
331,261,243164,1,0,0:3:0:0:
331,261,243239,1,0,0:3:0:0:
331,261,243314,6,0,L|399:248,1,69.9999978637696,2|0,0:3|2:3,0:3:0:0:
152,315,243464,2,0,L|83:302,1,69.9999978637696,2|0,0:3|2:3,0:3:0:0:
425,120,243614,5,4,1:3:0:0:
471,357,243764,1,0,0:3:0:0:
497,229,243914,1,2,0:3:0:0:
497,229,243989,1,0,2:3:0:0:
497,229,244064,6,0,L|428:241,1,69.9999978637696,2|0,0:3|2:3,0:3:0:0:
243,296,244214,2,0,P|386:301|500:224,1,279.999991455078,0|2,1:3|0:3,0:3:0:0:
310,42,244664,1,0,0:3:0:0:
445,92,244814,5,4,1:3:0:0:
218,154,244964,1,0,2:3:0:0:
496,228,245114,1,2,0:3:0:0:
174,284,245264,6,0,L|243:296,1,69.9999978637696,0|0,0:3|0:3,0:3:0:0:
346,313,245414,1,0,1:3:0:0:
496,228,245564,1,0,0:3:0:0:
496,228,245639,1,0,0:3:0:0:
496,228,245714,6,0,L|427:240,1,69.9999978637696,2|0,0:3|2:3,0:3:0:0:
174,284,245864,2,0,L|243:296,1,69.9999978637696,2|0,0:3|2:3,0:3:0:0:
353,41,246014,5,4,1:3:0:0:
172,171,246164,1,0,0:3:0:0:
389,139,246314,1,2,0:3:0:0:
135,72,246464,1,0,0:3:0:0:
448,55,246614,5,2,1:3:0:0:
452,67,246689,1,0,2:3:0:0:
268,102,246839,5,2,2:3:0:0:
264,114,246914,1,0,0:3:0:0:
64,28,247064,5,0,0:3:0:0:
253,251,247214,2,0,P|115:257|0:183,1,279.999991455078,6|0,1:3|0:3,0:3:0:0:
448,117,247664,6,0,L|453:186,1,69.9999978637696,2|0,0:3|0:3,0:3:0:0:
259,340,247814,2,0,P|396:346|512:272,1,279.999991455078,2|0,1:3|0:3,0:3:0:0:
253,251,248264,1,2,0:3:0:0:
20,305,248414,5,0,1:3:0:0:
170,116,248564,1,0,0:3:0:0:
251,349,248714,5,2,0:3:0:0:
16,293,248864,1,6,0:3:0:0:
181,118,249014,2,0,L|85:220,1,139.999995727539,2|0,1:3|2:3,0:3:0:0:
242,357,249314,5,2,0:3:0:0:
193,121,249464,1,2,0:3:0:0:
348,193,249614,5,0,1:3:0:0:
370,194,249689,1,2,0:3:0:0:
392,196,249764,1,2,0:3:0:0:
210,191,249914,1,0,0:3:0:0:
365,263,250064,5,2,0:3:0:0:
387,265,250139,1,2,0:3:0:0:
409,267,250214,1,0,1:3:0:0:
227,261,250364,1,2,0:3:0:0:
382,333,250514,5,0,0:3:0:0:
404,335,250589,1,2,0:3:0:0:
426,337,250664,1,2,0:3:0:0:
448,339,250739,1,2,0:3:0:0:
467,343,250814,6,0,P|447:354|425:360,1,44.999998626709,4|0,0:0|2:0,0:0:0:0:
306,370,250964,2,0,P|328:374|350:372,1,44.999998626709,0|0,0:0|2:0,0:0:0:0:
459,251,251114,6,0,P|444:268|426:281,1,44.999998626709,4|0,0:0|2:0,0:0:0:0:
282,282,251264,2,0,P|301:293|323:299,1,44.999998626709,0|0,0:0|2:0,0:0:0:0:
474,179,251414,6,0,P|451:178|429:184,1,44.999998626709,4|0,0:0|2:0,0:0:0:0:
243,220,251564,2,0,P|264:212|286:210,1,44.999998626709,0|0,0:0|2:0,0:0:0:0:
507,111,251714,6,0,P|485:105|462:105,1,44.999998626709,4|0,0:0|2:0,0:0:0:0:
189,168,251864,2,0,P|207:155|228:147,1,44.999998626709,0|0,0:0|2:0,0:0:0:0:
512,10,252014,6,0,L|413:27,1,100,4|0,1:3|0:0,0:0:0:0:
318,55,252239,2,0,L|219:37,1,100,2|0,0:0|0:0,0:0:0:0:
124,10,252464,2,0,L|74:18,1,50,2|0,0:0|0:0,0:0:0:0:
3,104,252614,1,0,1:0:0:0:
51,94,252689,1,0,0:0:0:0:
99,107,252764,1,0,0:0:0:0:
136,139,252839,1,0,0:0:0:0:
155,185,252914,1,8,0:0:0:0:
174,231,252989,1,0,0:0:0:0:
211,263,253064,1,0,0:0:0:0:
259,276,253139,1,0,0:0:0:0:
307,266,253214,6,0,P|346:236|366:186,1,100,2|0,0:0|0:0,0:0:0:0:
328,101,253439,2,0,P|335:150|365:190,1,100,2|0,0:0|0:0,0:0:0:0:
492,208,253664,2,0,L|442:199,1,50,2|0,0:0|0:0,0:0:0:0:
258,171,253814,1,0,1:0:0:0:
210,183,253889,1,0,0:0:0:0:
173,216,253964,1,0,0:0:0:0:
155,262,254039,1,0,0:0:0:0:
161,311,254114,1,8,0:0:0:0:
189,352,254189,1,0,0:0:0:0:
233,376,254264,1,0,0:0:0:0:
282,376,254339,1,0,0:0:0:0:
326,354,254414,6,0,P|296:315|246:295,1,100,2|0,0:0|0:0,0:0:0:0:
161,311,254639,2,0,P|112:299|76:266,1,100,2|0,0:0|0:0,0:0:0:0:
34,185,254864,2,0,L|42:135,1,50,2|0,0:0|0:0,0:0:0:0:
64,48,255014,1,0,1:0:0:0:
106,21,255089,1,0,0:0:0:0:
155,13,255164,1,0,0:0:0:0:
203,24,255239,1,0,0:0:0:0:
244,53,255314,1,8,0:0:0:0:
284,81,255389,1,0,0:0:0:0:
333,92,255464,1,0,0:0:0:0:
382,84,255539,1,0,0:0:0:0:
424,58,255614,6,0,L|441:156,1,100,2|0,0:0|0:0,0:0:0:0:
506,218,255839,2,0,L|488:316,1,100,2|0,0:0|0:0,0:0:0:0:
407,355,256064,2,0,L|398:305,1,50,2|0,0:0|0:0,0:0:0:0:
441,156,256214,1,0,1:0:0:0:
434,107,256289,1,0,0:0:0:0:
400,71,256364,1,0,0:0:0:0:
352,62,256439,1,0,0:0:0:0:
307,83,256514,1,8,0:0:0:0:
283,126,256589,1,0,0:0:0:0:
289,174,256664,1,0,0:0:0:0:
321,211,256739,1,0,0:0:0:0:
369,222,256814,6,0,P|339:261|289:281,1,100,6|0,0:0|0:0,0:0:0:0:
235,349,257039,2,0,P|186:355|136:334,1,100,2|0,0:0|0:0,0:0:0:0:
50,344,257264,2,0,P|28:331|10:313,1,50,2|0,0:0|0:0,0:0:0:0:
7,181,257414,1,0,1:0:0:0:
49,155,257489,1,0,0:0:0:0:
96,137,257564,1,0,0:0:0:0:
145,129,257639,1,0,0:0:0:0:
195,130,257714,1,8,0:0:0:0:
244,140,257789,1,0,0:0:0:0:
290,159,257864,1,0,0:0:0:0:
332,187,257939,1,0,0:0:0:0:
369,222,258014,6,0,P|413:199|462:201,1,100,2|0,0:0|0:0,0:0:0:0:
433,291,258239,2,0,P|388:313|339:311,1,100,2|0,0:0|0:0,0:0:0:0:
251,276,258464,2,0,L|242:226,1,50
231,132,258614,1,0,1:0:0:0:
185,114,258689,1,0,0:0:0:0:
135,111,258764,1,0,0:0:0:0:
87,125,258839,1,0,0:0:0:0:
46,153,258914,1,8,0:0:0:0:
16,193,258989,1,0,0:0:0:0:
0,240,259064,1,0,0:0:0:0:
0,290,259139,1,0,0:0:0:0:
17,338,259214,6,0,L|116:355,1,100,6|0,0:0|0:0,0:0:0:0:
214,337,259439,2,0,L|313:319,1,100,2|0,0:0|0:0,0:0:0:0:
404,357,259664,2,0,L|454:349,1,50,2|0,0:0|0:0,0:0:0:0:
466,252,259814,1,4,1:2:0:0:
416,252,259889,1,0,0:0:0:0:
372,228,259964,1,0,0:0:0:0:
346,187,260039,1,0,0:0:0:0:
342,138,260114,1,8,0:0:0:0:
338,89,260189,1,0,0:0:0:0:
312,48,260264,1,0,0:0:0:0:
268,24,260339,1,0,0:0:0:0:
219,25,260414,2,0,L|169:33,1,50,4|0,1:2|3:0,0:0:0:0:
293,130,260564,5,0,3:0:0:0:
293,130,260639,1,0,3:0:0:0:
293,130,260714,2,0,L|342:138,1,50,12|0,0:2|3:0,0:0:0:0:
220,235,260864,5,0,3:0:0:0:
220,235,260939,1,0,3:0:0:0:
220,235,261014,2,0,L|170:243,1,50,4|0,1:2|3:0,0:0:0:0:
294,340,261164,5,0,3:0:0:0:
294,340,261239,1,0,3:0:0:0:
294,340,261314,2,0,L|343:348,1,50,12|0,0:2|3:0,0:0:0:0:
481,247,261464,5,0,3:0:0:0:
481,247,261539,1,0,3:0:0:0:
481,247,261614,2,0,L|391:260,1,89.9999972534181,4|0,1:2|0:0,0:0:0:0:
268,145,261914,2,0,L|356:160,1,89.9999972534181,8|0,1:1|1:0,0:0:0:0:
431,363,262214,2,0,L|342:347,1,89.9999972534181,0|2,1:0|0:0,0:0:0:0:
299,230,262514,1,8,1:1:0:0:
198,345,262664,1,2,1:2:0:0:
152,201,262814,6,0,P|191:221|216:259,1,89.9999972534181,0|0,1:2|0:0,0:0:0:0:
50,315,263114,1,8,1:1:0:0:
133,287,263264,1,2,1:2:0:0:
198,345,263414,2,0,P|243:342|281:319,1,89.9999972534181,0|0,1:0|0:0,0:0:0:0:
311,141,263714,2,0,L|296:230,1,89.9999972534181,8|2,1:1|1:2,0:0:0:0:
212,22,264014,6,0,L|227:110,1,89.9999972534181,0|0,1:2|0:0,0:0:0:0:
379,82,264314,1,8,1:1:0:0:
295,51,264464,1,2,1:2:0:0:
243,199,264614,1,2,1:2:0:0:
311,141,264764,1,2,0:0:0:0:
158,168,264914,1,8,1:1:0:0:
175,257,265064,1,2,1:2:0:0:
73,139,265214,6,0,P|97:102|137:81,1,89.9999972534181,0|0,1:2|0:0,0:0:0:0:
240,194,265514,2,0,P|202:171|157:168,1,89.9999972534181,8|2,1:1|1:2,0:0:0:0:
191,341,265813,2,0,P|194:297|175:257,1,89.9999972534181,0|0,1:0|0:0,0:0:0:0:
41,373,266114,2,0,P|81:351|106:314,1,89.9999972534181,8|2,1:1|1:2,0:0:0:0:
136,81,266414,6,0,P|97:101|73:139,1,89.9999972534181,4|0,1:2|0:0,0:0:0:0:
220,105,266714,1,8,1:1:0:0:
243,191,266864,1,2,1:2:0:0:
369,67,267014,1,0,1:0:0:0:
306,129,267164,1,2,0:0:0:0:
391,152,267314,2,0,P|430:131|454:94,1,89.9999972534181,8|0,1:1|1:0,0:0:0:0:
196,18,267614,6,0,L|219:104,1,89.9999972534181,0|0,1:2|0:0,0:0:0:0:
108,167,267914,1,8,1:1:0:0:
242,191,268064,1,2,1:2:0:0:
132,80,268214,1,0,1:0:0:0:
85,254,268364,1,2,0:0:0:0:
219,104,268514,1,8,1:1:0:0:
265,277,268664,1,2,1:2:0:0:
323,122,268814,6,0,P|265:190|264:279,1,179.999994506836,4|8,1:2|1:1,0:0:0:0:
388,236,269264,1,0,1:0:0:0:
316,165,269414,2,0,P|292:203|287:247,1,89.9999972534181,4|0,1:2|0:0,0:0:0:0:
461,307,269714,2,0,P|484:268|489:224,1,89.9999972534181,8|2,1:1|1:2,0:0:0:0:
307,30,270014,6,0,L|303:79,1,44.999998626709,4|0,1:2|3:0,0:0:0:0:
451,19,270164,2,0,L|401:24,1,44.999998626709,0|0,1:0|3:0,0:0:0:0:
303,74,270314,6,0,L|299:123,1,44.999998626709,4|0,1:2|3:0,0:0:0:0:
446,69,270464,2,0,L|396:74,1,44.999998626709,0|0,1:0|3:0,0:0:0:0:
299,118,270614,6,0,L|295:167,1,44.999998626709,4|0,1:2|3:0,0:0:0:0:
441,119,270764,2,0,L|391:124,1,44.999998626709,0|0,1:0|3:0,0:0:0:0:
295,162,270914,6,0,L|291:211,1,44.999998626709,4|0,1:2|3:0,0:0:0:0:
436,169,271064,2,0,L|386:174,1,44.999998626709,0|0,1:0|3:0,0:0:0:0:
202,268,271214,6,0,P|230:301|272:317,1,89.9999972534181,2|0,1:2|0:0,0:0:0:0:
190,283,271514,2,0,P|218:316|260:332,1,89.9999972534181,10|0,0:2|0:0,0:0:0:0:
443,187,271814,6,0,P|399:195|365:223,1,89.9999972534181,2|0,1:2|0:0,0:0:0:0:
436,169,272114,2,0,P|392:177|358:205,1,89.9999972534181,10|0,0:2|0:0,0:0:0:0:
297,130,272414,5,2,1:2:0:0:
202,268,272564,1,2,0:2:0:0:
155,61,272714,1,10,0:2:0:0:
118,262,272864,2,0,P|163:190|249:198,1,179.999994506836,2|2,0:2|0:2,0:0:0:0:
107,130,273314,1,10,0:2:0:0:
202,268,273464,1,2,0:2:0:0:
287,30,273614,6,0,L|271:118,1,89.9999972534181,2|0,1:2|0:0,0:0:0:0:
312,41,273914,2,0,L|296:129,1,89.9999972534181,10|0,0:2|0:0,0:0:0:0:
74,104,274214,6,0,L|89:192,1,89.9999972534181,2|0,1:2|0:0,0:0:0:0:
49,115,274514,2,0,L|64:203,1,89.9999972534181,10|0,0:2|0:0,0:0:0:0:
274,191,274814,5,2,1:2:0:0:
89,192,274964,1,2,0:2:0:0:
229,270,275114,1,10,0:2:0:0:
227,113,275264,2,0,P|291:101|347:137,1,134.999995880127,2|0,0:0|0:0,0:0:0:0:
479,198,275564,5,0,3:0:0:0:
458,188,275639,1,0,3:0:0:0:
436,184,275714,1,8,3:2:0:0:
414,186,275789,1,0,3:0:0:0:
392,193,275864,1,0,3:0:0:0:
374,205,275939,1,0,3:0:0:0:
359,223,276014,6,0,L|374:312,2,89.9999972534181,6|2|10,1:2|0:2|0:2,0:0:0:0:
205,247,276464,2,0,L|373:311,1,179.999994506836,2|0,0:2|0:0,0:0:0:0:
290,105,276914,2,0,L|276:194,1,89.9999972534181,8|0,0:0|0:0,0:0:0:0:
131,298,277214,6,0,P|116:256|123:212,2,89.9999972534181,2|2|10,1:2|0:2|0:2,0:0:0:0:
193,158,277664,2,0,P|116:124|42:178,1,179.999994506836,2|0,0:2|0:0,0:0:0:0:
213,333,278114,2,0,P|219:289|205:247,1,89.9999972534181,8|0,0:0|0:0,0:0:0:0:
442,209,278414,6,0,L|354:195,1,89.9999972534181,4|0,1:2|0:0,0:0:0:0:
249,54,278714,2,0,L|337:68,1,89.9999972534181,8|0,0:2|0:0,0:0:0:0:
498,110,279015,2,0,L|409:124,1,89.9999972534181,4|0,1:2|0:0,0:0:0:0:
193,154,279314,2,0,L|281:139,1,89.9999972534181,8|0,0:0|0:0,0:0:0:0:
385,278,279614,5,4,1:2:0:0:
498,110,279764,1,0,0:0:0:0:
339,208,279914,2,0,L|251:223,1,89.9999972534181,12|0,0:0|0:0,0:0:0:0:
167,0,280214,2,0,L|224:69,1,89.9999972534181,4|0,1:2|0:0,0:0:0:0:
74,254,280514,2,0,L|105:170,1,89.9999972534181,12|0,0:0|0:0,0:0:0:0:
442,279,280814,6,0,L|353:294,1,89.9999972534181,6|0,1:2|0:0,0:0:0:0:
264,309,281114,1,2,3:2:0:0:
339,208,281264,1,2,0:2:0:0:
369,384,281414,1,2,1:2:0:0:
442,279,281564,1,2,0:2:0:0:
250,223,281714,1,2,3:2:0:0:
322,119,281864,1,2,0:2:0:0:
491,169,282014,6,0,P|446:165|408:141,1,89.9999972534181,2|0,1:2|0:0,0:0:0:0:
303,30,282314,2,0,P|348:32|386:55,1,89.9999972534181,0|0,3:0|0:0,0:0:0:0:
339,208,282614,2,0,L|322:119,1,89.9999972534181,2|0,1:2|0:0,0:0:0:0:
475,79,282914,2,0,L|490:167,1,89.9999972534181,2|0,3:2|0:0,0:0:0:0:
365,287,283214,6,0,P|299:229|214:248,1,179.999994506836,2|2,1:2|3:2,0:0:0:0:
185,336,283664,1,2,0:2:0:0:
152,179,283814,1,2,1:2:0:0:
124,268,283964,1,2,0:2:0:0:
276,317,284114,1,0,3:0:0:0:
252,165,284264,1,2,0:0:0:0:
252,165,284339,1,2,0:0:0:0:
252,165,284414,6,0,P|303:234|275:316,1,179.999994506836,2|2,1:2|3:2,0:0:0:0:
214,248,284864,1,0,0:0:0:0:
404,234,285014,1,2,1:2:0:0:
252,165,285164,1,2,0:2:0:0:
432,147,285314,1,2,3:2:0:0:
290,82,285464,1,2,0:2:0:0:
471,64,285614,6,0,P|522:133|493:215,1,179.999994506836,6|2,1:2|3:2,0:0:0:0:
404,234,286064,1,0,0:0:0:0:
465,302,286214,1,2,1:2:0:0:
432,147,286364,1,2,0:2:0:0:
376,321,286514,1,2,3:2:0:0:
255,184,286664,1,2,0:2:0:0:
255,184,286739,1,2,0:2:0:0:
255,184,286814,6,0,L|432:147,1,179.999994506836,2|0,1:2|3:0,0:0:0:0:
404,234,287264,1,0,0:0:0:0:
282,97,287414,2,0,L|193:115,1,89.9999972534181,2|0,1:2|0:0,0:0:0:0:
42,27,287714,2,0,L|130:45,1,89.9999972534181,2|0,3:2|0:0,0:0:0:0:
164,200,288014,6,0,P|126:174|105:131,1,89.9999972534181,6|0,1:2|0:0,0:0:0:0:
282,97,288314,1,2,1:2:0:0:
255,184,288464,1,2,0:2:0:0:
317,251,288614,1,6,1:2:0:0:
403,227,288764,2,0,P|381:188|344:164,1,89.9999972534181,2|0,0:2|1:0,0:0:0:0:
379,318,289064,1,0,0:0:0:0:
198,316,289214,6,0,L|179:356,1,44.999998626709,4|0,1:2|3:0,0:0:0:0:
272,255,289364,2,0,L|316:251,1,44.999998626709,0|0,1:0|3:0,0:0:0:0:
165,311,289514,6,0,L|146:351,1,44.999998626709,4|0,3:2|3:0,0:0:0:0:
238,249,289664,2,0,L|282:245,1,44.999998626709,0|0,1:0|3:0,0:0:0:0:
131,305,289814,6,0,L|112:345,1,44.999998626709,4|0,1:2|3:0,0:0:0:0:
204,243,289964,2,0,L|248:239,1,44.999998626709,0|0,1:0|3:0,0:0:0:0:
97,299,290114,6,0,L|78:339,1,44.999998626709,4|0,3:2|3:0,0:0:0:0:
170,237,290264,2,0,L|214:233,1,44.999998626709,0|0,1:0|3:0,0:0:0:0:
54,316,290414,6,0,L|89:244,1,80,6|0,1:2|0:0,0:0:0:0:
202,164,290714,2,0,L|122:170,1,80,2|0,3:2|0:0,0:0:0:0:
9,250,291014,2,0,L|43:177,1,80,2|0,1:2|0:0,0:0:0:0:
155,98,291314,2,0,L|75:106,1,80,2|0,3:2|0:0,0:0:0:0:
169,236,291614,6,0,L|249:230,1,80,2|2,1:2|0:0,0:0:0:0:
363,149,291914,1,2,3:2:0:0:
202,161,292064,1,2,0:0:0:0:
298,293,292214,2,0,P|322:261|328:222,1,80,2|0,1:2|0:0,0:0:0:0:
234,92,292514,2,0,P|209:123|203:162,1,80,0|2,3:0|0:0,0:0:0:0:
363,149,292814,5,6,1:2:0:0:
249,230,292964,1,0,0:0:0:0:
376,288,293114,1,2,3:2:0:0:
328,222,293264,1,0,0:0:0:0:
215,303,293414,5,2,1:2:0:0:
328,222,293564,1,0,0:0:0:0:
169,238,293714,1,2,3:2:0:0:
295,295,293864,1,0,0:0:0:0:
202,163,294014,5,2,1:2:0:0:
137,312,294164,1,2,0:0:0:0:
137,312,294239,1,2,0:0:0:0:
137,312,294314,1,2,3:2:0:0:
249,230,294464,1,0,0:0:0:0:
249,230,294539,1,0,0:0:0:0:
249,230,294614,2,0,L|169:237,1,80,6|0,1:2|0:0,0:0:0:0:
295,295,294914,2,0,L|375:288,1,80,0|0,3:0|0:0,0:0:0:0:
313,88,295214,6,0,L|233:95,1,80,6|0,1:2|0:0,0:0:0:0:
362,151,295514,2,0,P|386:120|393:81,1,80,2|0,3:2|0:0,0:0:0:0:
264,24,295814,2,0,P|240:55|233:94,1,80,2|0,1:2|0:0,0:0:0:0:
327,223,296114,2,0,L|407:216,1,80,2|0,3:2|0:0,0:0:0:0:
239,174,296414,6,0,L|159:181,1,80,2|2,1:2|0:0,0:0:0:0:
20,192,296714,1,2,3:2:0:0:
152,101,296864,1,2,0:0:0:0:
237,292,297014,2,0,L|164:258,1,80,2|0,1:2|0:0,0:0:0:0:
18,310,297314,2,0,L|98:303,1,80,0|2,3:0|0:0,0:0:0:0:
316,285,297614,5,6,1:2:0:0:
237,292,297764,1,0,0:0:0:0:
350,214,297914,1,2,3:2:0:0:
395,278,298064,1,0,0:0:0:0:
269,221,298214,1,6,1:2:0:0:
301,150,298364,1,0,0:0:0:0:
316,285,298514,1,2,3:2:0:0:
192,228,298664,1,0,0:0:0:0:
381,143,298814,5,6,1:2:0:0:
269,221,298964,1,2,0:2:0:0:
258,86,299114,1,6,3:2:0:0:
350,214,299264,1,2,0:2:0:0:
339,79,299414,1,4,1:2:0:0:
339,88,299489,1,0,3:0:0:0:
340,98,299564,1,0,3:0:0:0:
341,108,299639,1,0,3:0:0:0:
341,118,299714,5,4,1:2:0:0:
369,129,299789,1,0,1:0:0:0:
399,130,299864,1,0,1:0:0:0:
428,122,299939,1,0,1:0:0:0:
453,106,300014,6,0,L|444:205,1,100,4|0,1:2|0:0,0:0:0:0:
434,304,300239,1,0,0:0:0:0:
434,304,300314,2,0,P|387:286|338:291,1,100,8|0,0:0|0:0,0:0:0:0:
245,332,300539,1,0,0:0:0:0:
245,331,300614,6,0,L|195:335,1,50,2|0,1:2|0:0,0:0:0:0:
206,239,300764,2,0,L|256:235,1,50,2|0,0:2|0:0,0:0:0:0:
146,322,300914,6,0,L|96:326,1,50,10|0,0:2|0:0,0:0:0:0:
107,230,301064,2,0,L|157:226,1,50,2|0,0:2|0:0,0:0:0:0:
47,313,301214,6,0,L|146:322,1,100,0|0,1:0|0:0,0:0:0:0:
116,130,301514,2,0,L|107:229,1,100,10|2,0:2|0:2,0:0:0:0:
275,149,301814,1,2,1:2:0:0:
157,38,301964,1,2,0:2:0:0:
188,198,302114,1,10,0:2:0:0:
256,51,302264,1,2,0:2:0:0:
294,247,302414,6,0,L|394:256,1,100,2|0,1:2|0:0,0:0:0:0:
474,132,302714,2,0,L|374:141,1,100,10|0,0:2|0:0,0:0:0:0:
413,32,303014,2,0,L|395:231,1,200,2|8,1:2|0:0,0:0:0:0:
392,255,303614,5,2,1:2:0:0:
250,155,303764,1,2,0:2:0:0:
236,328,303914,1,10,0:2:0:0:
197,236,304064,2,0,P|246:229|293:246,1,100,2|0,0:2|1:0,0:0:0:0:
138,314,304364,5,8,0:1:0:0:
107,276,304439,1,8,0:1:0:0:
99,227,304514,1,8,0:1:0:0:
116,181,304589,1,8,0:1:0:0:
154,149,304664,1,8,0:1:0:0:
203,139,304739,1,8,0:1:0:0:
250,155,304814,5,4,1:2:0:0:
250,200,304889,1,0,0:0:0:0:
293,214,304964,1,0,0:0:0:0:
319,177,305039,1,0,0:0:0:0:
293,141,305114,1,8,0:0:0:0:
154,77,305264,5,2,0:0:0:0:
111,90,305339,1,0,0:0:0:0:
111,136,305414,1,0,1:0:0:0:
154,149,305489,1,0,0:0:0:0:
180,113,305564,1,0,0:0:0:0:
362,46,305714,5,10,0:0:0:0:
406,60,305789,1,0,0:0:0:0:
405,105,305864,1,0,0:0:0:0:
363,118,305939,1,0,0:0:0:0:
336,83,306014,1,0,1:0:0:0:
450,162,306164,5,2,0:0:0:0:
478,201,306239,1,0,0:0:0:0:
449,237,306314,1,8,0:0:0:0:
407,221,306389,1,0,0:0:0:0:
408,177,306464,1,0,0:0:0:0:
453,310,306614,5,2,1:2:0:0:
449,358,306689,1,0,0:0:0:0:
404,368,306764,1,0,0:0:0:0:
380,332,306839,1,0,0:0:0:0:
406,296,306914,1,8,0:0:0:0:
316,206,307064,5,2,0:0:0:0:
269,222,307139,1,0,0:0:0:0:
269,266,307214,1,0,1:0:0:0:
310,281,307289,1,0,0:0:0:0:
340,247,307364,1,0,0:0:0:0:
143,223,307514,5,10,0:0:0:0:
119,264,307589,1,0,0:0:0:0:
149,298,307664,1,0,0:0:0:0:
190,283,307739,1,0,0:0:0:0:
190,239,307814,1,0,1:0:0:0:
60,346,307964,5,2,0:0:0:0:
34,182,308114,1,8,0:0:0:0:
34,182,308189,1,0,3:0:0:0:
34,182,308264,1,0,3:0:0:0:
34,182,308339,1,0,3:0:0:0:
34,182,308414,6,0,L|83:186,1,50,2|0,1:2|0:0,0:0:0:0:
166,77,308564,2,0,L|161:126,1,50,2|0,0:2|0:0,0:0:0:0:
45,164,308714,6,0,L|94:168,1,50,10|0,0:2|0:0,0:0:0:0:
150,27,308864,2,0,L|160:125,1,100,2|2,0:2|1:2,0:0:0:0:
249,16,309164,5,6,1:2:0:0:
160,126,309314,1,14,1:2:0:0:
50,37,309464,1,6,1:2:0:0:
158,262,309614,6,0,L|287:285,1,132,6|0,1:2|0:0,0:0:0:0:
259,147,309914,2,0,L|173:246,1,132,10|0,0:2|0:0,0:0:0:0:
144,109,310214,2,0,L|274:133,1,132,2|0,1:2|0:0,0:0:0:0:
174,26,310514,1,10,0:2:0:0:
113,191,310664,1,6,0:2:0:0:
87,41,310814,5,2,1:2:0:0:
200,176,310964,1,0,0:0:0:0:
261,11,311114,1,8,0:0:0:0:
285,195,311264,2,0,P|264:233|228:258,1,88,2|0,0:2|1:0,0:0:0:0:
259,112,311564,1,2,0:2:0:0:
349,253,311714,1,10,0:2:0:0:
427,104,311864,1,2,0:2:0:0:
200,176,312014,5,2,1:2:0:0:
349,253,312164,2,0,L|436:245,1,88.0000026855469,2|8,0:2|0:0,0:0:0:0:
343,108,312464,1,2,0:2:0:0:
181,260,312614,1,2,1:2:0:0:
349,253,312764,1,2,0:2:0:0:
259,112,312914,1,10,0:2:0:0:
276,303,313064,6,0,L|355:340,1,88.0000026855469,2|0,0:2|1:0,0:0:0:0:
266,200,313364,1,0,0:0:0:0:
191,363,313514,1,8,0:0:0:0:
86,217,313664,1,2,0:2:0:0:
276,303,313814,1,2,1:2:0:0:
169,156,313964,1,2,0:2:0:0:
97,321,314114,1,10,0:2:0:0:
343,241,314264,6,0,P|354:199|343:157,1,88,2|4,0:2|1:2,0:0:0:0:
276,303,314564,1,2,0:2:0:0:
169,156,314714,1,10,0:2:0:0:
192,365,314864,1,2,0:2:0:0:
265,199,315014,1,2,1:2:0:0:
372,346,315164,1,2,0:2:0:0:
445,180,315314,1,10,0:2:0:0:
276,303,315464,6,0,L|192:275,1,88,6|0,0:2|1:0,0:0:0:0:
239,130,315764,1,2,0:2:0:0:
276,301,315914,1,10,0:2:0:0:
154,103,316064,1,2,0:2:0:0:
192,275,316214,1,2,1:2:0:0:
326,107,316364,1,2,0:2:0:0:
422,299,316514,2,0,P|391:330|350:343,1,88,10|0,0:2|0:0,0:0:0:0:
326,107,316814,6,0,P|374:176|350:258,1,176,6|8,1:2|0:0,0:0:0:0:
197,185,317264,2,0,L|285:193,1,88,2|6,0:2|1:2,0:0:0:0:
181,359,317564,2,0,L|93:366,1,88,2|10,0:2|0:2,0:0:0:0:
189,272,317864,1,2,0:0:0:0:
268,341,318014,6,0,L|311:346,3,44.0000013427735,6|0|0|0,1:2|3:0|3:0|3:0,0:0:0:0:
313,240,318314,2,0,L|348:266,3,44.0000013427735,12|0|0|0,0:2|3:0|3:0|3:0,0:0:0:0:
402,175,318614,2,0,L|420:215,3,44.0000013427735,4|0|0|0,1:2|3:0|3:0|3:0,0:0:0:0:
512,164,318914,2,0,L|507:207,3,44.0000013427735,12|0|2|0,0:2|1:0|1:2|1:0,0:0:0:0:
475,310,319214,6,0,L|301:263,1,179.999994506836,4|8,1:2|0:0,0:0:0:0:
269,347,319664,1,2,0:2:0:0:
243,193,319814,1,2,1:2:0:0:
358,332,319964,1,2,0:2:0:0:
332,177,320114,1,10,0:2:0:0:
212,278,320264,1,2,0:2:0:0:
275,108,320414,5,2,1:2:0:0:
301,263,320564,1,2,0:2:0:0:
154,207,320714,1,10,0:2:0:0:
332,177,320864,1,2,0:2:0:0:
275,109,321014,2,0,P|230:104|189:121,1,89.9999972534181,0|0,1:0|0:0,0:0:0:0:
211,278,321314,2,0,P|238:242|243:197,1,89.9999972534181,8|0,0:0|0:0,0:0:0:0:
64,219,321614,6,0,L|154:207,1,89.9999972534181,2|0,1:2|0:0,0:0:0:0:
274,108,321914,2,0,P|230:103|189:121,1,89.9999972534181,10|0,0:0|0:0,0:0:0:0:
331,178,322214,2,0,L|420:190,1,89.9999972534181,2|0,1:2|0:0,0:0:0:0:
331,28,322514,1,10,0:2:0:0:
189,121,322664,1,2,0:2:0:0:
382,103,322814,5,2,1:2:0:0:
240,196,322964,1,2,0:2:0:0:
229,32,323114,1,10,0:2:0:0:
93,122,323264,1,2,0:2:0:0:
145,198,323414,2,0,P|174:164|183:120,1,89.9999972534181,0|0,1:0|0:0,0:0:0:0:
134,40,323715,2,0,P|90:31|47:45,1,89.9999972534181,10|0,0:0|0:0,0:0:0:0:
95,274,324014,6,0,P|53:197|94:121,1,179.999994506836,6|10,1:2|0:0,0:0:0:0:
217,247,324464,1,2,0:2:0:0:
266,142,324614,1,2,1:2:0:0:
145,198,324764,1,2,0:2:0:0:
339,191,324914,2,0,P|353:149|346:104,1,89.9999972534181,10|0,0:0|0:0,0:0:0:0:
398,14,325214,6,0,L|486:52,1,89.9999972534181,0|0,1:0|0:0,0:0:0:0:
264,141,325514,2,0,L|346:104,1,89.9999972534181,8|0,1:2|0:0,0:0:0:0:
133,14,325814,2,0,L|221:52,1,89.9999972534181,0|0,1:0|0:0,0:0:0:0:
1,142,326114,2,0,L|86:103,1,89.9999972534181,10|0,1:2|0:0,0:0:0:0:
310,233,326414,6,0,P|395:244|455:182,1,179.999994506836,4|8,1:2|0:0,0:0:0:0:
366,158,326864,1,0,0:0:0:0:
202,296,327014,2,0,P|116:307|56:245,1,179.999994506836,4|8,1:2|0:0,0:0:0:0:
146,221,327464,1,0,0:0:0:0:
302,330,327614,6,0,L|309:374,1,44.999998626709,4|0,1:2|3:0,0:0:0:0:
348,294,327764,2,0,L|340:338,1,44.999998626709,0|0,1:0|3:0,0:0:0:0:
282,218,327914,2,0,L|289:262,1,44.999998626709,4|0,1:2|3:0,0:0:0:0:
366,182,328064,2,0,L|358:226,1,44.999998626709,0|0,1:0|3:0,0:0:0:0:
262,106,328214,2,0,L|269:150,1,44.999998626709,4|0,1:2|3:0,0:0:0:0:
384,70,328364,2,0,L|376:114,1,44.999998626709,0|0,1:0|3:0,0:0:0:0:
125,22,328514,5,4,0:2:0:0:
91,331,328814,6,0,L|74:233,1,100,2|0,1:2|0:0,0:0:0:0:
185,169,329114,2,0,L|168:268,1,100,10|0,0:2|0:0,0:0:0:0:
279,204,329414,2,0,L|262:106,1,100,2|0,1:2|0:0,0:0:0:0:
332,35,329714,1,10,0:2:0:0:
168,71,329864,6,0,P|249:6|337:41,1,200,2|2,0:2|0:2,0:0:0:0:
262,106,330314,1,10,0:0:0:0:
426,70,330464,1,2,0:2:0:0:
426,70,330764,5,2,3:2:0:0:
262,106,330914,1,10,3:2:0:0:
404,197,331064,1,2,3:2:0:0:
331,34,331214,6,0,P|276:6|235:9,1,100,2|0,1:2|0:0,0:0:0:0:
193,178,331514,2,0,P|248:206|289:203,1,100,10|0,0:2|0:0,0:0:0:0:
495,170,331814,2,0,P|445:170|403:196,1,100,2|0,1:2|0:0,0:0:0:0:
381,323,332114,1,10,0:2:0:0:
217,286,332264,6,0,P|308:258|380:322,1,200,2|2,0:0|0:0,0:0:0:0:
286,357,332714,1,8,0:0:0:0:
318,159,332864,1,2,0:0:0:0:
318,159,333164,5,2,3:2:0:0:
286,357,333314,1,8,3:2:0:0:
169,195,333464,1,2,3:2:0:0:
449,240,333614,5,4,1:2:0:0:
262,260,333764,1,2,0:0:0:0:
473,337,333914,1,8,0:0:0:0:
286,357,334064,1,2,0:0:0:0:
318,159,334214,5,0,1:0:0:0:
473,337,334364,1,2,0:0:0:0:
190,330,334514,1,8,0:0:0:0:
285,64,334664,6,0,P|379:79|416:167,1,200,2|2,0:0|0:0,0:0:0:0:
318,159,335114,1,8,0:0:0:0:
500,77,335264,1,2,0:0:0:0:
500,77,335564,5,2,3:2:0:0:
318,159,335714,1,8,3:2:0:0:
504,230,335864,1,2,3:2:0:0:
296,72,336014,5,4,1:2:0:0:
188,222,336164,1,2,0:0:0:0:
198,53,336314,1,8,0:0:0:0:
286,241,336464,1,2,0:0:0:0:
417,151,336614,5,4,1:2:0:0:
254,323,336764,1,2,0:0:0:0:
318,159,336914,1,8,0:0:0:0:
353,315,337064,1,2,0:0:0:0:
268,130,337214,6,0,L|219:126,1,50,4|0,1:2|3:0,0:0:0:0:
97,222,337364,2,0,L|147:227,1,50,0|0,3:0|3:0,0:0:0:0:
289,116,337514,6,0,L|240:112,1,50,12|0,0:2|3:0,0:0:0:0:
118,208,337664,2,0,L|168:213,1,50,0|0,3:0|3:0,0:0:0:0:
310,102,337814,6,0,L|261:98,1,50,4|0,1:2|3:0,0:0:0:0:
139,194,337964,2,0,L|189:199,1,50,2|0,3:2|3:0,0:0:0:0:
331,88,338114,6,0,L|282:84,1,50,14|0,0:2|3:0,0:0:0:0:
160,180,338264,2,0,L|210:185,1,50,2|0,3:2|3:0,0:0:0:0:
499,64,338414,6,0,L|330:88,1,170.000003242493,6|2,1:2|0:0,0:0:0:0:
403,299,338714,2,0,L|434:220,1,85.0000016212464,10|0,0:0|0:0,0:0:0:0:
245,98,338864,2,0,L|297:164,1,85.0000016212464,2|0,0:0|0:0,0:0:0:0:
318,311,339014,6,0,B|233:323|233:323|179:254,1,170.000003242493,2|0,1:2|0:0,0:0:0:0:
276,19,339314,2,0,B|328:85|328:85|296:166,1,170.000003242493,10|2,0:0|0:0,0:0:0:0:
50,158,339614,6,0,L|219:182,2,170.000003242493,0|2|8,1:0|0:0|0:0,0:0:0:0:
276,18,340064,1,2,0:0:0:0:
436,216,340214,6,0,L|352:230,1,85.0000016212464,2|0,1:2|0:0,0:0:0:0:
238,326,340364,2,0,L|267:246,1,85.0000016212464,0|0,0:0|0:0,0:0:0:0:
242,99,340514,2,0,L|296:164,1,85.0000016212464,8|0,0:0|0:0,0:0:0:0:
493,56,340664,5,0,0:0:0:0:
493,56,340739,1,2,0:0:0:0:
493,56,340814,2,0,L|463:135,1,85.0000016212464,2|0,1:2|0:0,0:0:0:0:
436,216,340964,2,0,L|406:295,1,85.0000016212464,2|0,0:0|0:0,0:0:0:0:
297,324,341114,6,0,L|267:244,1,85.0000016212464,10|0,0:0|0:0,0:0:0:0:
239,164,341264,2,0,L|209:84,1,85.0000016212464,2|0,0:0|0:0,0:0:0:0:
99,112,341414,6,0,L|70:192,1,85.0000016212464,2|0,1:2|0:0,0:0:0:0:
42,272,341564,2,0,L|13:352,1,85.0000016212464,2|0,0:0|0:0,0:0:0:0:
156,304,341714,5,10,0:0:0:0:
25,164,341864,2,0,P|102:199|183:179,2,170.000003242493,2|0|2,0:0|1:0|0:0,0:0:0:0:
183,44,342314,1,8,0:0:0:0:
328,179,342464,2,0,P|409:199|486:165,1,170.000003242493,2|0,0:0|1:0,0:0:0:0:
329,44,342764,1,2,0:0:0:0:
256,213,342914,6,0,L|256:313,1,100,8|4,0:0|1:2,0:0:0:0:
256,143,343514,6,0,L|256:313,1,170.000003242493,10|0,0:0|0:0,0:0:0:0:
172,128,343814,1,0,1:0:0:0:
423,140,343964,2,0,L|340:156,1,85.0000016212464,2|0,0:0|0:0,0:0:0:0:
227,62,344114,2,0,L|310:46,1,85.0000016212464,10|0,0:0|0:0,0:0:0:0:
285,222,344264,2,0,L|201:237,1,85.0000016212464,2|0,0:0|0:0,0:0:0:0:
4,139,344414,6,0,B|56:148|56:148|171:127,1,170.000003242493,2|0,1:2|0:0,0:0:0:0:
507,143,344714,2,0,B|455:133|455:133|339:155,1,170.000003242493,10|0,0:0|0:0,0:0:0:0:
34,227,345014,2,0,P|111:259|139:337,1,170.000003242493,2|0,1:2|0:0,0:0:0:0:
478,227,345314,2,0,P|400:259|373:337,1,170.000003242493,10|2,0:0|0:0,0:0:0:0:
162,171,345614,6,0,L|477:226,1,320,6|8,1:2|0:0,0:0:0:0:
350,36,346064,1,2,0:0:0:0:
350,36,346214,2,0,L|34:91,1,320,6|8,1:2|0:0,0:0:0:0:
449,127,346814,6,0,L|463:53,1,75.0000028610231,4|0,1:2|0:0,0:0:0:0:
427,137,346964,2,0,L|424:71,1,65.6250006258488,0|0,1:0|0:0,0:0:0:0:
407,150,347114,2,0,L|390:85,1,56.0000006835938,4|0,1:2|0:0,0:0:0:0:
389,166,347264,2,0,L|359:105,1,46.5000014545441,0|0,1:0|0:0,0:0:0:0:
374,185,347414,6,0,L|332:132,1,39.9999987792969,4|0,1:2|0:0,0:0:0:0:
368,196,347514,2,0,L|316:152,1,36.6666677856446,0|0,1:0|0:0,0:0:0:0:
364,208,347614,2,0,L|334:192,1,33.3333333333333,0|0,1:0|0:0,0:0:0:0:
362,220,347714,2,0,L|333:211,1,29.9999990844727,4|0,1:2|0:0,0:0:0:0:
363,233,347814,2,0,L|339:231,1,23.3333326212565,0|0,1:0|0:0,0:0:0:0:
366,245,347914,2,0,L|346:247,1,19.9999993896485,0|0,1:0|0:0,0:0:0:0:
371,256,348014,6,0,L|286:282,1,89.9999972534181,4|2,1:2|0:0,0:0:0:0:
409,274,348314,2,0,L|266:317,1,150.000005722046,8|2,0:0|0:0,0:0:0:0:
104,198,348614,6,0,L|189:224,1,89.9999972534181,0|2,1:0|0:0,0:0:0:0:
66,216,348914,2,0,L|210:259,1,150.000005722046,8|2,0:0|0:0,0:0:0:0:
87,303,349214,5,2,1:2:0:0:
45,129,349364,1,2,0:2:0:0:
240,174,349514,1,10,0:2:0:0:
66,216,349664,1,2,0:2:0:0:
260,261,349814,1,2,1:2:0:0:
220,85,349964,1,2,0:2:0:0:
325,200,350114,1,10,0:2:0:0:
156,146,350264,1,2,0:2:0:0:
351,113,350414,6,0,L|325:200,1,89.9999972534181,0|2,1:0|0:0,0:0:0:0:
386,95,350714,2,0,L|343:238,1,150.000005722046,8|2,0:0|0:0,0:0:0:0:
181,214,351014,6,0,L|207:300,1,89.9999972534181,0|2,1:0|0:0,0:0:0:0:
146,195,351314,2,0,L|189:338,1,150.000005722046,8|2,0:0|0:0,0:0:0:0:
272,221,351614,5,2,1:2:0:0:
229,78,351764,1,2,0:2:0:0:
189,338,351914,1,10,0:2:0:0:
146,195,352064,1,2,0:2:0:0:
348,287,352214,2,0,P|372:203|323:131,1,179.999994506836,2|10,1:2|0:0,0:0:0:0:
472,255,352664,1,2,0:0:0:0:
272,221,352814,6,0,L|183:205,1,89.9999972534181,6|2,1:2|0:0,0:0:0:0:
94,189,353114,1,8,0:0:0:0:
144,341,353264,1,2,0:0:0:0:
262,205,353414,2,0,L|173:189,1,89.9999972534181,2|2,1:2|0:0,0:0:0:0:
25,241,353714,1,10,0:0:0:0:
204,274,353864,2,0,L|292:289,1,89.9999972534181,2|0,0:0|1:0,0:0:0:0:
231,120,354164,5,2,0:2:0:0:
114,257,354314,1,10,0:2:0:0:
53,88,354464,1,2,0:2:0:0:
262,204,354614,2,0,P|301:178|320:135,1,89.9999972534181,2|0,1:2|0:0,0:0:0:0:
200,36,354914,6,0,P|161:62|142:105,1,89.9999972534181,10|2,0:0|0:0,0:0:0:0:
376,70,355214,2,0,P|333:49|286:54,1,89.9999972534181,6|0,1:2|0:0,0:0:0:0:
84,169,355514,6,0,P|124:189|169:187,1,89.9999972534181,8|0,0:0|0:0,0:0:0:0:
350,158,355814,2,0,P|394:160|434:140,2,89.9999972534181,4|2|10,1:2|0:0|0:0,0:0:0:0:
291,52,356264,1,2,0:0:0:0:
198,180,356414,5,4,1:2:0:0:
175,183,356489,1,0,3:2:0:0:
154,187,356564,2,0,L|110:193,1,44.999998626709,0|0,3:2|3:2,3:2:0:0:
259,292,356714,5,12,3:2:0:0:
236,289,356789,1,0,3:2:0:0:
215,285,356864,2,0,L|171:278,1,44.999998626709,0|0,3:2|3:2,3:2:0:0:
364,157,357014,5,4,1:2:0:0:
341,160,357089,1,0,3:2:0:0:
320,164,357164,2,0,L|276:170,1,44.999998626709,0|0,3:2|3:2,3:2:0:0:
425,315,357314,5,12,3:2:0:0:
402,312,357389,1,0,3:2:0:0:
381,308,357464,2,0,L|337:301,1,44.999998626709,0|0,3:2|3:2,3:2:0:0:
442,227,357614,6,0,L|426:315,1,89.9999972534181,4|0,1:2|0:0,0:0:0:0:
326,80,357914,1,8,0:0:0:0:
329,102,357989,1,0,0:0:0:0:
333,124,358064,1,0,0:0:0:0:
337,146,358139,1,0,0:0:0:0:
341,168,358214,2,0,L|356:256,1,89.9999972534181,0|0,1:0|0:0,0:0:0:0:
457,138,358514,1,8,0:0:0:0:
240,48,358664,2,0,L|271:225,1,179.999994506836,4|0,0:0|0:0,0:0:0:0:
140,346,359114,5,8,0:0:0:0:
143,324,359189,1,0,0:0:0:0:
147,302,359264,1,0,0:0:0:0:
151,280,359339,1,0,0:0:0:0:
155,258,359414,2,0,L|170:170,1,89.9999972534181,0|0,1:0|0:0,0:0:0:0:
259,233,359714,1,8,0:0:0:0:
228,56,359864,2,0,L|259:233,1,179.999994506836,4|0,0:0|0:0,0:0:0:0:
87,200,360314,5,8,0:0:0:0:
84,178,360389,1,0,0:0:0:0:
80,156,360464,1,0,0:0:0:0:
76,134,360539,1,0,0:0:0:0:
72,112,360614,2,0,L|88:24,1,89.9999972534181,0|0,1:0|0:0,0:0:0:0:
299,95,360914,1,8,0:0:0:0:
247,241,361064,2,0,L|215:63,1,179.999994506836,4|0,0:0|0:0,0:0:0:0:
162,209,361514,5,8,0:0:0:0:
329,271,361664,1,0,0:0:0:0:
299,95,361814,1,4,1:2:0:0:
247,241,361964,1,0,0:0:0:0:
383,125,362114,2,0,P|388:81|371:40,1,89.9999972534181,12|0,0:0|0:0,0:0:0:0:
219,62,362414,6,0,P|255:89|300:94,1,89.9999972534181,4|0,1:2|0:0,0:0:0:0:
493,224,362714,1,8,0:0:0:0:
474,212,362789,1,0,0:0:0:0:
453,204,362864,1,0,0:0:0:0:
431,202,362939,1,0,0:0:0:0:
409,206,363014,2,0,P|369:223|341:258,1,89.9999972534181,0|0,1:0|0:0,0:0:0:0:
431,303,363314,1,8,0:0:0:0:
287,341,363464,2,0,P|242:267|273:186,1,179.999994506836,4|0,0:0|0:0,0:0:0:0:
343,130,363914,5,8,0:0:0:0:
326,114,363989,1,0,0:0:0:0:
307,103,364064,1,0,0:0:0:0:
285,98,364139,1,0,0:0:0:0:
262,97,364214,2,0,P|217:91|181:64,1,89.9999972534181,0|0,1:0|0:0,0:0:0:0:
114,137,364514,1,8,0:0:0:0:
248,10,364664,1,4,0:0:0:0:
273,185,364814,2,0,L|184:200,1,89.9999972534181,4|0,0:0|0:0,0:0:0:0:
38,126,365114,5,8,0:0:0:0:
58,134,365189,1,0,0:0:0:0:
80,137,365264,1,0,0:0:0:0:
103,135,365339,1,0,0:0:0:0:
125,129,365414,2,0,P|161:104|181:64,1,89.9999972534181,4|0,1:2|0:0,0:0:0:0:
389,129,365714,2,0,P|353:104|333:64,1,89.9999972534181,8|0,0:0|0:0,0:0:0:0:
114,102,366014,6,0,L|95:62,1,44.999998626709,4|0,1:2|3:0,0:0:0:0:
181,63,366164,2,0,L|162:23,1,44.999998626709,0|0,1:2|3:0,0:0:0:0:
295,174,366314,6,0,L|314:134,1,44.999998626709,12|0,3:2|3:0,0:0:0:0:
229,134,366464,2,0,L|248:94,1,44.999998626709,0|0,1:2|3:0,0:0:0:0:
114,246,366614,6,0,L|95:206,1,44.999998626709,4|0,1:2|3:0,0:0:0:0:
180,206,366764,2,0,L|161:166,1,44.999998626709,0|0,1:2|3:0,0:0:0:0:
295,318,366914,6,0,L|314:278,1,44.999998626709,12|0,3:2|3:0,0:0:0:0:
229,278,367064,2,0,L|248:238,1,44.999998626709,0|0,1:2|3:0,0:0:0:0:
372,346,367214,5,6,1:2:0:0:
284,362,367364,1,0,0:0:0:0:
402,261,367514,1,10,0:2:0:0:
460,330,367664,1,0,0:0:0:0:
256,208,367814,1,2,1:2:0:0:
225,292,367964,1,0,0:0:0:0:
344,192,368114,1,10,0:2:0:0:
167,223,368264,1,0,0:0:0:0:
286,123,368414,1,2,1:2:0:0:
314,277,368564,1,2,0:2:0:0:
167,223,368714,1,10,0:2:0:0:
344,192,368864,1,2,0:2:0:0:
284,362,369014,5,2,1:2:0:0:
373,347,369164,1,0,0:0:0:0:
315,278,369314,1,8,0:0:0:0:
284,362,369464,1,2,0:0:0:0:
442,184,369614,6,0,P|453:140|443:97,1,89.9999972534181,2|0,1:2|0:0,0:0:0:0:
273,122,369914,1,10,0:2:0:0:
362,138,370064,1,2,0:2:0:0:
215,190,370214,1,2,1:2:0:0:
184,105,370364,1,2,0:2:0:0:
303,206,370514,1,10,0:2:0:0:
126,174,370664,6,0,L|37:158,1,89.9999972534181,2|0,0:0|1:0,0:0:0:0:
242,37,370964,1,2,0:0:0:0:
245,274,371114,1,10,0:0:0:0:
449,90,371264,1,2,0:0:0:0:
361,106,371414,2,0,L|272:121,1,89.9999972534181,2|0,1:2|0:0,0:0:0:0:
156,257,371714,2,0,L|244:273,1,89.9999972534181,8|2,0:0|0:0,0:0:0:0:
53,69,372014,6,0,L|37:157,1,89.9999972534181,6|0,1:2|0:0,0:0:0:0:
172,346,372314,2,0,L|156:257,1,89.9999972534181,10|0,0:0|0:0,0:0:0:0:
287,32,372614,2,0,L|271:120,1,89.9999972534181,2|0,1:2|0:0,0:0:0:0:
406,309,372914,2,0,L|390:220,1,89.9999972534181,10|0,0:0|0:0,0:0:0:0:
188,154,373214,6,0,P|214:189|255:207,1,89.9999972534181,2|0,1:2|0:0,0:0:0:0:
472,186,373514,2,0,P|446:151|405:133,1,89.9999972534181,10|0,0:0|0:0,0:0:0:0:
244,296,373814,2,0,P|287:290|323:264,1,89.9999972534181,2|0,1:2|0:0,0:0:0:0:
416,44,374114,2,0,P|372:49|336:75,1,89.9999972534181,10|0,0:0|0:0,0:0:0:0:
345,341,374414,6,0,P|431:337|474:261,1,179.999994506836,4|8,1:2|0:0,0:0:0:0:
283,163,374864,1,0,0:0:0:0:
84,225,375014,2,0,P|135:271|204:269,1,139.999995727539,4|8,1:2|0:0,0:0:0:0:
379,128,375614,5,4,3:2:0:0:
358,144,375689,1,0,3:0:0:0:
335,156,375764,1,0,3:0:0:0:
310,162,375839,1,0,3:0:0:0:
283,163,375914,1,4,3:2:0:0:
258,157,375989,1,0,3:0:0:0:
234,146,376064,1,0,3:0:0:0:
214,129,376139,1,0,3:0:0:0:
199,110,376214,5,4,1:2:0:0:
177,82,376289,1,0,1:0:0:0:
147,64,376364,1,0,1:0:0:0:
113,56,376439,1,0,1:0:0:0:
79,59,376514,1,4,1:2:0:0:
47,73,376589,1,0,1:0:0:0:
21,97,376664,1,0,1:0:0:0:
5,128,376739,1,0,1:0:0:0:
0,163,376814,6,0,L|159:148,1,160,6|0,1:2|3:0,0:0:0:0:
47,73,377264,1,0,0:0:0:0:
113,239,377414,2,0,L|149:318,1,80,0|0,1:0|0:0,0:0:0:0:
249,139,377714,2,0,L|215:211,1,80,0|0,3:0|0:0,0:0:0:0:
113,39,378014,6,0,L|146:111,1,80,0|0,1:0|0:0,0:0:0:0:
399,39,378314,1,2,3:2:0:0:
295,46,378464,1,0,0:0:0:0:
458,126,378614,1,2,1:2:0:0:
503,32,378764,1,0,0:0:0:0:
353,133,378914,1,2,3:2:0:0:
412,219,379064,1,0,0:0:0:0:
502,85,379214,6,0,B|464:112|464:112|353:132,1,160,2|0,1:2|3:0,0:0:0:0:
249,126,379664,1,2,0:0:0:0:
197,298,379814,2,0,L|277:285,1,80,2|0,1:2|0:0,0:0:0:0:
133,123,380114,2,0,L|54:136,1,80,2|0,3:2|0:0,0:0:0:0:
3,308,380414,6,0,L|82:295,1,80,0|0,1:0|0:0,0:0:0:0:
320,191,380714,1,2,3:2:0:0:
275,285,380864,1,0,0:0:0:0:
133,123,381014,1,2,1:2:0:0:
178,217,381164,1,0,0:0:0:0:
291,9,381314,1,2,3:2:0:0:
246,103,381464,1,0,0:0:0:0:
397,271,381614,6,0,B|417:160|417:160|398:117,1,160,4|0,1:2|3:0,0:0:0:0:
114,117,382064,2,0,B|94:160|94:160|114:271,1,160,2|0,0:2|0:0,0:0:0:0:
256,192,382514,1,0,3:0:0:0:
159,23,382664,1,0,0:0:0:0:
446,3,382814,6,0,L|409:74,1,80,2|0,1:2|0:0,0:0:0:0:
364,167,383114,1,2,3:2:0:0:
159,23,383264,2,0,L|238:18,1,80,2|0,0:0|1:0,0:0:0:0:
342,11,383564,1,0,0:0:0:0:
320,262,383714,2,0,L|276:195,1,80,2|0,3:2|0:0,0:0:0:0:
476,257,384014,6,0,B|430:243|430:243|319:262,1,160,4|0,1:2|3:0,0:0:0:0:
173,337,384464,1,2,0:0:0:0:
92,184,384614,2,0,B|137:197|137:197|248:178,1,160,4|2,1:2|3:2,0:0:0:0:
339,337,385064,1,0,0:0:0:0:
173,337,385214,6,0,L|212:340,3,40,4|0|0|0,1:2|3:0|3:0|3:0,0:0:0:0:
339,337,385514,2,0,L|299:340,3,40,4|0|0|0,1:2|3:0|3:0|3:0,0:0:0:0:
132,230,385814,6,0,L|154:262,1,40,4|0,1:2|3:0,0:0:0:0:
380,230,385964,2,0,L|357:262,1,40,2|0,3:2|3:0,0:0:0:0:
176,127,386114,6,0,L|179:166,1,40,6|0,1:2|3:0,0:0:0:0:
336,127,386264,2,0,L|332:166,1,40,2|0,3:2|3:0,0:0:0:0:
256,82,386414,6,0,L|256:192,1,110.000003356934,6|0,1:2|0:0,0:0:0:0:
40,96,386714,6,0,L|40:41,1,55.0000016784668,10|0,0:0|0:0,0:0:0:0:
184,105,386864,2,0,L|184:160,1,55.0000016784668,0|0,0:0|0:0,0:0:0:0:
40,277,387014,6,0,L|40:167,1,110.000003356934,2|2,1:2|0:0,0:0:0:0:
148,286,387239,1,0,0:0:0:0:
112,302,387314,2,0,L|112:192,1,110.000003356934,8|0,0:0|0:0,0:0:0:0:
256,19,387614,6,0,L|256:129,1,110.000003356934,2|2,1:2|0:0,0:0:0:0:
472,97,387914,6,0,L|472:42,1,55.0000016784668,10|0,0:0|0:0,0:0:0:0:
328,161,388064,2,0,L|328:216,1,55.0000016784668,2|2,0:0|0:0,0:0:0:0:
472,335,388214,2,0,L|472:280,1,55.0000016784668,0|0,1:0|0:0,0:0:0:0:
400,129,388364,6,0,L|400:184,1,55.0000016784668,2|0,0:0|0:0,0:0:0:0:
256,303,388514,2,0,L|256:248,1,55.0000016784668,10|0,0:0|0:0,0:0:0:0:
112,129,388664,2,0,L|112:184,1,55.0000016784668,2|0,0:0|0:0,0:0:0:0:
256,138,388814,6,0,L|256:28,1,110.000003356934,2|0,1:2|0:0,0:0:0:0:
364,200,389039,1,0,0:0:0:0:
328,216,389114,2,0,L|328:106,1,110.000003356934,10|0,0:0|0:0,0:0:0:0:
148,264,389339,1,0,0:0:0:0:
184,280,389414,2,0,L|184:170,1,110.000003356934,2|0,1:2|0:0,0:0:0:0:
400,358,389714,2,0,L|400:303,1,55.0000016784668,10|2,0:0|0:0,0:0:0:0:
455,245,389864,2,0,L|455:190,1,55.0000016784668,2|2,0:0|0:0,0:0:0:0:
400,26,390014,6,0,L|400:136,1,110.000003356934,2|2,1:2|0:0,0:0:0:0:
184,113,390314,6,0,L|184:58,1,55.0000016784668,10|0,0:0|0:0,0:0:0:0:
328,122,390464,2,0,L|328:177,1,55.0000016784668,2|0,0:0|0:0,0:0:0:0:
112,200,390614,6,0,L|112:90,1,110.000003356934,2|2,1:2|0:0,0:0:0:0:
220,277,390839,1,2,0:0:0:0:
184,293,390914,2,0,L|184:238,1,55.0000016784668,8|0,0:0|0:0,0:0:0:0:
112,325,391064,2,0,L|112:270,1,55.0000016784668,0|0,0:0|0:0,0:0:0:0:
40,351,391214,6,0,L|40:241,1,110.000003356934,6|0,1:2|0:0,0:0:0:0:
256,90,391514,2,0,L|256:200,1,110.000003356934,10|0,0:0|0:0,0:0:0:0:
472,351,391814,6,0,L|472:296,1,55.0000016784668,2|0,1:2|0:0,0:0:0:0:
328,232,391964,2,0,L|328:287,1,55.0000016784668,2|0,0:0|0:0,0:0:0:0:
400,90,392114,2,0,L|400:200,1,110.000003356934,8|2,0:0|0:0,0:0:0:0:
112,200,392414,2,0,L|112:90,1,110.000003356934,0|2,1:0|0:0,0:0:0:0:
256,264,392714,6,0,L|256:319,1,55.0000016784668,10|0,0:0|0:0,0:0:0:0:
184,296,392864,2,0,L|184:351,1,55.0000016784668,2|2,0:0|0:0,0:0:0:0:
328,177,393014,6,0,L|328:232,1,55.0000016784668,0|0,1:0|0:0,0:0:0:0:
256,209,393164,2,0,L|256:264,1,55.0000016784668,2|0,0:0|0:0,0:0:0:0:
400,90,393314,6,0,L|400:145,1,55.0000016784668,10|0,0:0|0:0,0:0:0:0:
328,122,393464,2,0,L|328:177,1,55.0000016784668,2|0,0:0|0:0,0:0:0:0:
184,58,393614,6,0,L|184:168,1,110.000003356934,6|0,1:2|0:0,0:0:0:0:
40,287,393914,6,0,L|40:232,1,55.0000016784668,10|0,0:0|0:0,0:0:0:0:
112,90,394064,2,0,L|112:145,1,55.0000016784668,2|0,0:0|0:0,0:0:0:0:
256,310,394214,6,0,L|256:200,1,110.000003356934,6|2,1:2|0:0,0:0:0:0:
400,90,394514,6,0,L|400:145,1,55.0000016784668,10|0,0:0|0:0,0:0:0:0:
472,287,394664,2,0,L|472:232,1,55.0000016784668,2|0,0:0|0:0,0:0:0:0:
336,9,394814,6,0,B|284:43|271:100|271:100|236:86|236:86|217:146|249:205|249:205|202:199|202:199|203:273|269:320,1,449.99998626709,6|0,1:2|0:0,0:0:0:0:
316,253,395264,1,2,0:2:0:0:
149,282,395414,1,2,1:2:0:0:
27,126,395564,1,2,0:2:0:0:
2,302,395714,1,10,0:2:0:0:
225,12,395864,1,2,0:2:0:0:
463,48,396014,6,0,B|376:179|145:207|46:30|46:30|226:11|226:11|213:113|97:244|1:303|1:303|26:125|26:125|81:190|198:256|350:253|490:131|490:131|510:208|510:208|376:300|254:313|146:280|146:280|179:361|179:361|277:378|371:351,1,2500,4|8,1:2|0:0,0:0:0:0:
381,347,397664,5,2,0:2:0:0:
511,290,397814,1,2,1:2:0:0:
509,60,397964,1,2,0:2:0:0:
223,58,398114,1,10,0:2:0:0:
512,156,398264,1,2,0:2:0:0:
223,58,398414,6,0,B|141:30|48:67|48:67|155:176|393:209|510:60|510:60|371:24|209:121|172:355|172:355|403:385|514:155|514:155|395:252|224:265|68:187|9:128|9:128|12:259|102:349|102:349|106:303|127:248,1,2500,4|8,1:2|0:0,0:0:0:0:
105,272,400064,5,2,0:2:0:0:
0,337,400214,1,2,1:2:0:0:
173,354,400364,1,2,0:2:0:0:
323,224,400514,1,10,0:2:0:0:
476,374,400664,1,2,0:2:0:0:
474,104,400814,6,0,B|486:219|366:344|366:344|242:128|359:18|359:18|431:161|240:322|240:322|170:164|220:63,1,1250,4|0,1:2|0:0,0:0:0:0:
207,58,401714,5,10,0:2:0:0:
157,318,401864,1,2,0:2:0:0:
104,95,402014,6,0,B|148:182|287:224|392:122|392:122|267:51|121:127|157:319|157:319|86:262|86:183,1,875,4|0,1:2|0:0,0:0:0:0:
15,153,402614,2,0,P|35:276|121:379,1,250,2|0,1:2|0:0,0:0:0:0:
416,258,402914,2,0,P|292:256|176:323,1,250,10|0,0:2|0:0,0:0:0:0:
4,60,403214,6,0,B|112:128|236:123|347:24|347:24|187:-1|99:48|46:158|46:158|166:206|319:158|399:71|399:71|434:133|434:133|352:223|170:283|20:223|20:223|21:297|21:297|99:324|184:316,1,1875,4|0,1:2|0:0,0:0:0:0:
379,365,404414,6,0,L|315:377,3,64.9999970245363,4|0|0|0,1:2|3:0|3:0|3:0,0:0:0:0:
257,288,404714,2,0,L|321:300,3,64.9999970245363,12|0|0|0,0:0|3:0|3:0|3:0,0:0:0:0:
379,210,405014,2,0,L|315:222,3,64.9999970245363,4|0|0|0,1:2|3:0|3:0|3:0,0:0:0:0:
257,133,405314,2,0,L|321:145,3,64.9999970245363,12|0|0|0,0:0|3:0|3:0|3:0,0:0:0:0:
49,231,405614,6,0,P|84:224|120:232,1,72.5000022125245,4|0,1:2|0:0,0:0:0:0:
173,161,405764,2,0,P|196:188|207:222,1,72.5000022125245,0|0,3:0|0:0,0:0:0:0:
169,301,405914,2,0,P|180:335|204:363,1,72.5000022125245,8|0,0:0|0:0,0:0:0:0:
258,293,406064,2,0,P|293:300|328:294,1,72.5000022125245,0|0,3:0|0:0,0:0:0:0:
433,208,406214,6,0,B|397:191|397:191|293:210,1,145.000004425049,0|0,1:0|3:0,0:0:0:0:
328,127,406439,2,0,L|399:114,1,72.5000022125245,0|8,0:0|0:0,0:0:0:0:
274,54,406589,1,0,0:0:0:0:
274,54,406664,2,0,P|250:80|239:115,1,72.5000022125245,0|0,3:0|0:0,0:0:0:0:
89,62,406814,6,0,L|160:74,1,72.5000022125245,0|0,1:0|0:0,0:0:0:0:
91,149,406964,2,0,L|163:162,1,72.5000022125245,0|0,3:0|0:0,0:0:0:0:
140,247,407114,2,0,P|175:248|209:235,1,72.5000022125245,8|0,0:0|0:0,0:0:0:0:
372,247,407264,2,0,P|336:248|302:235,1,72.5000022125245,0|0,3:0|0:0,0:0:0:0:
420,149,407414,5,0,1:0:0:0:
420,149,407489,2,0,L|349:162,1,72.5000022125245,0|0,0:0|3:0,0:0:0:0:
351,74,407639,2,0,L|423:62,1,72.5000022125245,0|8,3:0|0:0,0:0:0:0:
507,141,407788,1,0,0:0:0:0:
507,141,407864,2,0,L|494:212,1,72.5000022125245,0|0,3:0|0:0,0:0:0:0:
461,357,408014,6,0,L|449:286,1,72.5000022125245,4|0,1:2|0:0,0:0:0:0:
309,345,408164,2,0,L|378:370,1,72.5000022125245,0|0,3:0|0:0,0:0:0:0:
202,345,408314,2,0,L|134:370,1,72.5000022125245,8|0,0:0|0:0,0:0:0:0:
50,357,408464,2,0,L|63:286,1,72.5000022125245,0|0,3:0|0:0,0:0:0:0:
256,267,408614,6,0,P|203:219|132:221,1,145.000004425049,0|0,1:0|3:0,0:0:0:0:
5,141,408839,2,0,L|17:212,2,72.5000022125245,0|8|0,0:0|0:0|0:0,0:0:0:0:
92,126,409064,2,0,L|164:114,1,72.5000022125245,0|0,3:0|0:0,0:0:0:0:
348,114,409214,6,0,L|420:126,1,72.5000022125245,4|0,1:2|0:0,0:0:0:0:
434,213,409364,2,0,L|362:201,1,72.5000022125245,0|0,3:0|0:0,0:0:0:0:
338,102,409514,6,0,L|410:114,1,72.5000022125245,8|0,0:0|0:0,0:0:0:0:
444,225,409664,2,0,L|372:213,1,72.5000022125245,0|0,3:0|0:0,0:0:0:0:
355,356,409814,5,4,1:2:0:0:
355,356,409889,2,0,P|366:322|390:296,1,72.5000022125245,0|0,0:0|3:0,0:0:0:0:
511,367,410039,1,0,0:0:0:0:
511,367,410114,2,0,P|476:372|441:364,1,72.5000022125245,8|0,0:0|0:0,0:0:0:0:
444,225,410264,2,0,P|467:252|478:286,1,72.5000022125245,0|0,3:0|0:0,0:0:0:0:
302,279,410414,6,0,L|230:266,1,72.5000022125245,4|0,1:2|0:0,0:0:0:0:
126,193,410564,2,0,L|198:180,1,72.5000022125245,0|0,3:0|0:0,0:0:0:0:
300,107,410714,2,0,L|228:94,1,72.5000022125245,8|0,0:0|0:0,0:0:0:0:
124,21,410864,2,0,L|196:8,1,72.5000022125245,0|0,3:0|0:0,0:0:0:0:
360,48,411014,5,0,1:0:0:0:
360,48,411089,2,0,B|331:76|331:76|227:94,1,145.000004425049,0|0,3:0|3:0,0:0:0:0:
52,34,411314,2,0,L|124:21,1,72.5000022125245,8|0,0:0|0:0,0:0:0:0:
139,102,411464,2,0,P|157:134|161:170,1,72.5000022125245,0|0,3:0|0:0,0:0:0:0:
157,252,411614,6,0,P|192:252|226:240,1,72.5000022125245,4|0,1:2|0:0,0:0:0:0:
288,305,411764,2,0,P|306:274|312:239,1,72.5000022125245,0|0,3:0|0:0,0:0:0:0:
402,219,411914,2,0,P|384:188|357:164,1,72.5000022125245,8|0,0:0|0:0,0:0:0:0:
384,77,412064,2,0,P|348:76|314:88,1,72.5000022125245,0|0,3:0|0:0,0:0:0:0:
226,240,412214,5,0,1:0:0:0:
226,240,412289,2,0,P|193:252|157:252,1,72.5000022125245,0|0,0:0|3:0,0:0:0:0:
137,105,412439,2,0,P|155:137|183:160,1,72.5000022125245,0|8,3:0|0:0,0:0:0:0:
228,87,412588,1,0,0:0:0:0:
228,87,412664,2,0,P|234:51|252:21,1,72.5000022125245,0|0,3:0|0:0,0:0:0:0:
356,165,412814,6,0,P|383:188|401:219,1,72.5000022125245,4|0,1:2|0:0,0:0:0:0:
446,361,412964,2,0,L|458:289,1,72.5000022125245,0|0,3:0|0:0,0:0:0:0:
490,203,413114,2,0,L|502:131,1,72.5000022125245,8|0,0:0|0:0,0:0:0:0:
445,61,413264,2,0,P|427:30|400:7,1,72.5000022125245,0|0,3:0|0:0,0:0:0:0:
302,86,413414,6,0,L|444:60,1,145.000004425049,4|0,1:2|3:0,0:0:0:0:
356,165,413639,2,0,L|284:177,2,72.5000022125245,0|8|0,0:0|0:0|0:0,0:0:0:0:
337,255,413864,2,0,L|265:267,1,72.5000022125245,0|0,3:0|0:0,0:0:0:0:
168,81,414014,6,0,P|190:89|209:103,1,44.999998626709,4|0,3:2|0:0,0:0:0:0:
165,70,414089,2,0,P|188:63|211:64,1,44.999998626709,0|0,3:0|0:0,0:0:0:0:
155,63,414164,2,0,P|169:43|188:30,1,44.999998626709,0|0,3:0|0:0,0:0:0:0:
142,63,414239,2,0,P|142:38|150:16,1,44.999998626709,0|0,3:0|0:0,0:0:0:0:
131,72,414314,2,0,P|116:52|110:29,1,44.999998626709,0|0,3:0|0:0,0:0:0:0:
126,86,414389,2,0,P|102:76|83:62,1,44.999998626709,0|0,3:0|0:0,0:0:0:0:
131,98,414464,2,0,P|106:104|83:104,1,44.999998626709,0|0,3:0|0:0,0:0:0:0:
142,107,414539,2,0,P|126:126|106:139,1,44.999998626709,0|0,3:0|0:0,0:0:0:0:
155,108,414614,2,0,P|153:132|145:154,1,44.999998626709,2|0,3:2|0:0,0:0:0:0:
162,103,414689,5,0,1:0:0:0:
205,114,414764,1,0,1:0:0:0:
241,141,414839,1,0,1:0:0:0:
263,180,414914,1,8,1:2:0:0:
269,224,414989,1,0,1:0:0:0:
256,267,415064,1,0,1:0:0:0:
229,302,415139,1,0,1:0:0:0:
190,324,415214,6,0,L|118:311,1,72.5000022125245,4|0,1:2|0:0,0:0:0:0:
87,226,415364,2,0,L|158:238,1,72.5000022125245,2|0,3:2|0:0,0:0:0:0:
322,324,415514,2,0,L|393:311,1,72.5000022125245,8|0,0:0|0:0,0:0:0:0:
425,226,415664,2,0,L|354:238,1,72.5000022125245,2|0,3:2|0:0,0:0:0:0:
199,164,415814,6,0,P|190:129|168:100,1,72.5000022125245,2|0,1:2|0:0,0:0:0:0:
343,100,415964,2,0,P|321:129|312:164,1,72.5000022125245,2|0,3:2|0:0,0:0:0:0:
215,23,416114,2,0,P|180:13|145:16,1,72.5000022125245,10|0,0:2|0:0,0:0:0:0:
297,23,416264,2,0,P|331:13|366:16,1,72.5000022125245,2|0,3:2|0:0,0:0:0:0:
432,98,416414,6,0,P|422:132|402:161,1,72.5000022125245,0|0,1:0|0:0,0:0:0:0:
446,239,416564,2,0,P|411:248|376:245,1,72.5000022125245,2|0,3:2|0:0,0:0:0:0:
230,197,416714,2,0,P|209:227|200:262,1,72.5000022125245,10|0,0:2|0:0,0:0:0:0:
329,320,416864,2,0,P|304:295|289:262,1,72.5000022125245,2|0,3:2|0:0,0:0:0:0:
294,124,417014,6,0,B|261:103|261:103|156:122,1,145.000004425049,2|0,1:2|0:0,0:0:0:0:
86,240,417239,2,0,B|119:222|119:222|156:121,1,145.000004425049,2|0,3:2|0:0,0:0:0:0:
108,8,417464,2,0,L|84:76,1,72.5000022125245,2|0,3:2|0:0,0:0:0:0:
61,308,417614,6,0,L|85:240,1,72.5000022125245,0|0,1:0|0:0,0:0:0:0:
155,121,417764,2,0,L|179:189,1,72.5000022125245,2|0,3:2|0:0,0:0:0:0:
273,239,417914,6,0,P|307:248|343:244,1,72.5000022125245,10|0,0:2|0:0,0:0:0:0:
423,148,418064,2,0,P|458:144|493:154,1,72.5000022125245,2|0,3:2|0:0,0:0:0:0:
481,296,418214,2,0,P|461:267|451:232,1,72.5000022125245,2|0,1:2|0:0,0:0:0:0:
346,96,418364,2,0,P|325:125|315:160,1,72.5000022125245,2|0,3:2|0:0,0:0:0:0:
390,322,418514,6,0,L|320:335,1,72.5000022125245,8|0,0:0|0:0,0:0:0:0:
235,317,418664,2,0,L|164:329,1,72.5000022125245,2|0,3:2|0:0,0:0:0:0:
18,301,418814,6,0,P|14:265|24:230,1,72.5000022125245,2|0,1:2|0:0,0:0:0:0:
107,199,418964,2,0,P|110:234|100:269,1,72.5000022125245,2|0,3:2|0:0,0:0:0:0:
39,142,419114,6,0,P|68:121|103:111,1,72.5000022125245,10|0,0:2|0:0,0:0:0:0:
171,168,419264,2,0,P|141:188|106:198,1,72.5000022125245,2|0,3:2|0:0,0:0:0:0:
185,79,419414,6,0,P|246:119|257:188,1,145.000004425049,2|0,1:2|0:0,0:0:0:0:
343,272,419639,2,0,P|346:200|401:156,1,145.000004425049,2|0,3:2|0:0,0:0:0:0:
431,38,419864,2,0,L|359:50,1,72.5000022125245,2|0,3:2|0:0,0:0:0:0:
257,186,420014,1,4,0:0:0:0:
35,39,420164,6,0,L|106:26,1,72.5000022125245,2|0,3:2|0:0,0:0:0:0:
106,174,420314,2,0,L|35:187,1,72.5000022125245,10|0,0:2|0:0,0:0:0:0:
146,100,420464,2,0,L|218:113,1,72.5000022125245,2|0,3:2|0:0,0:0:0:0:
329,174,420614,6,0,L|257:186,1,72.5000022125245,2|0,1:2|0:0,0:0:0:0:
146,248,420764,2,0,L|218:261,1,72.5000022125245,2|0,3:2|0:0,0:0:0:0:
256,333,420914,2,0,L|328:321,1,72.5000022125245,8|0,0:0|0:0,0:0:0:0:
366,247,421064,2,0,L|437:259,1,72.5000022125245,2|0,3:2|0:0,0:0:0:0:
481,135,421214,6,0,P|471:100|449:71,1,72.5000022125245,2|0,1:2|0:0,0:0:0:0:
394,137,421364,2,0,P|360:128|324:132,1,72.5000022125245,2|0,3:2|0:0,0:0:0:0:
257,186,421514,2,0,P|241:153|240:117,1,72.5000022125245,10|0,0:2|0:0,0:0:0:0:
175,62,421664,2,0,P|204:40|239:32,1,72.5000022125245,2|0,3:2|0:0,0:0:0:0:
22,148,421814,6,0,B|127:166|127:166|159:144,1,145.000004425049,2|0,1:2|0:0,0:0:0:0:
28,251,422039,2,0,B|59:228|59:228|164:246,1,145.000004425049,2|0,3:2|0:0,0:0:0:0:
139,315,422264,2,0,L|211:328,1,72.5000022125245,2|0,3:2|0:0,0:0:0:0:
301,328,422414,6,0,L|372:315,1,72.5000022125245,4|0,1:2|0:0,0:0:0:0:
473,225,422564,2,0,L|401:237,1,72.5000022125245,2|0,3:2|0:0,0:0:0:0:
323,241,422714,2,0,L|347:172,1,72.5000022125245,10|0,0:2|0:0,0:0:0:0:
383,103,422864,2,0,L|429:158,1,72.5000022125245,2|0,3:2|0:0,0:0:0:0:
283,119,423014,6,0,L|211:106,1,72.5000022125245,6|0,1:2|0:0,0:0:0:0:
110,169,423164,2,0,L|181:181,1,72.5000022125245,2|0,3:2|0:0,0:0:0:0:
294,108,423314,6,0,L|222:95,1,72.5000022125245,8|0,0:0|0:0,0:0:0:0:
99,180,423464,2,0,L|170:192,1,72.5000022125245,0|0,3:0|0:0,0:0:0:0:
125,28,423614,6,0,L|115:77,3,50,6|0|2|0,1:2|3:0|3:2|3:0,0:0:0:0:
19,166,423914,2,0,L|27:215,3,50,14|0|2|0,0:2|3:0|3:2|3:0,0:0:0:0:
119,311,424214,5,6,1:2:0:0:
156,336,424289,1,0,3:0:0:0:
200,347,424364,1,0,3:0:0:0:
244,341,424439,1,2,3:2:0:0:
285,321,424514,1,12,3:2:0:0:
325,300,424589,1,0,3:0:0:0:
370,295,424664,1,2,3:2:0:0:
413,306,424739,1,0,3:0:0:0:
451,331,424814,6,0,L|459:251,1,80,6|0,0:0|0:0,0:0:0:0:
392,46,425114,2,0,L|384:126,1,80,2|0,0:0|0:0,0:0:0:0:
325,300,425414,2,0,P|285:304|248:290,1,80,2|0,0:0|0:0,0:0:0:0:
140,208,425714,2,0,P|178:202|215:217,1,80,2|0,0:0|0:0,0:0:0:0:
313,53,426014,6,0,L|234:60,1,80,2|0,0:0|0:0,0:0:0:0:
296,210,426314,2,0,L|376:204,1,80,2|0,0:0|0:0,0:0:0:0:
134,128,426614,2,0,L|140:208,1,80,2|0,0:0|0:0,0:0:0:0:
46,55,426914,2,0,L|53:134,1,80,2|0,0:0|0:0,0:0:0:0:
212,121,427214,6,0,P|199:84|168:56,1,80,2|0,0:0|0:0,0:0:0:0:
290,117,427514,2,0,P|281:155|256:186,1,80,2|0,0:0|0:0,0:0:0:0:
222,256,427814,2,0,P|260:263|298:251,1,80,2|0,0:0|0:0,0:0:0:0:
375,246,428114,2,0,P|366:284|341:315,1,80,2|0,0:0|0:0,0:0:0:0:
448,192,428414,5,4,1:2:0:0:
64,192,428714,1,4,1:2:0:0:
359,197,429014,5,4,1:2:0:0:
141,138,429164,1,0,1:2:0:0:
399,117,429314,1,4,1:2:0:0:
399,117,429614,6,0,L|359:120,1,40,2|0,0:0|0:0,0:0:0:0:
279,126,429764,1,0,0:0:0:0:
432,189,429914,2,0,L|392:192,1,40,2|0,0:0|0:0,0:0:0:0:
312,198,430064,1,0,0:0:0:0:
238,266,430214,6,0,L|277:269,1,40,2|0,0:0|0:0,0:0:0:0:
358,275,430364,1,0,0:0:0:0:
205,338,430514,2,0,L|244:341,1,40,2|0,0:0|0:0,0:0:0:0:
325,347,430664,1,0,0:0:0:0:
438,192,430814,6,0,L|444:231,1,40,2|0,0:0|0:0,0:0:0:0:
458,310,430964,1,0,0:0:0:0:
346,188,431114,2,0,L|352:148,1,40,2|0,0:0|0:0,0:0:0:0:
366,70,431264,1,0,0:0:0:0:
254,192,431414,2,0,L|260:231,1,40,2|0,0:0|0:0,0:0:0:0:
274,310,431564,1,0,0:0:0:0:
162,188,431714,2,0,L|168:148,1,40,2|0,0:0|0:0,0:0:0:0:
182,70,431864,1,0,0:0:0:0:
20,324,432014,6,0,L|58:317,1,40,2|0,0:0|0:0,0:0:0:0:
138,305,432164,1,0,0:0:0:0:
244,245,432314,2,0,L|205:238,1,40,2|0,0:0|0:0,0:0:0:0:
126,226,432464,1,0,0:0:0:0:
20,166,432614,2,0,L|58:159,1,40,2|0,0:0|0:0,0:0:0:0:
138,147,432764,1,0,0:0:0:0:
244,87,432914,2,0,L|205:80,1,40,2|0,0:0|0:0,0:0:0:0:
126,68,433064,1,0,0:0:0:0:
20,166,433214,5,4,1:2:0:0:
341,33,433514,1,4,1:2:0:0:
160,191,433814,5,4,1:2:0:0:
378,132,433964,1,0,1:2:0:0:
123,92,434114,1,4,1:2:0:0:
378,132,434414,6,0,L|280:115,1,100,0|0,1:0|0:0,0:0:0:0:
135,252,434714,2,0,L|234:270,1,100,8|0,0:0|0:0,0:0:0:0:
306,201,435014,1,0,1:0:0:0:
77,169,435164,1,0,0:0:0:0:
54,192,435239,1,0,0:0:0:0:
39,221,435314,1,8,0:0:0:0:
34,254,435389,1,0,0:0:0:0:
40,287,435464,1,0,0:0:0:0:
56,316,435539,1,0,0:0:0:0:
81,338,435614,6,0,L|180:356,1,100,0|0,1:0|0:0,0:0:0:0:
306,201,435914,1,8,0:0:0:0:
197,257,436064,1,0,0:0:0:0:
419,329,436214,2,0,P|465:310|494:270,1,100,0|0,1:0|0:0,0:0:0:0:
385,133,436514,2,0,L|402:231,1,100,8|0,0:0|0:0,0:0:0:0:
428,38,436814,5,4,1:2:0:0:
409,33,436889,1,0,0:0:0:0:
390,31,436964,1,0,0:0:0:0:
371,32,437039,1,0,0:0:0:0:
353,37,437114,1,8,0:0:0:0:
337,45,437189,1,0,0:0:0:0:
321,56,437264,1,0,0:0:0:0:
308,68,437339,1,0,0:0:0:0:
297,84,437414,6,0,P|260:113|226:119,1,75.0000028610231,6|0,1:2|0:0,0:0:0:0:
221,206,437564,2,0,P|177:189|155:162,1,75.0000028610231,2|0,0:2|0:0,0:0:0:0:
76,201,437714,2,0,P|68:155|80:122,1,75.0000028610231,10|0,0:2|0:0,0:0:0:0:
6,74,437864,2,0,P|42:44|76:38,1,75.0000028610231,2|0,0:2|0:0,0:0:0:0:
196,39,438014,5,4,1:2:0:0:
77,129,438164,1,0,0:0:0:0:
263,88,438314,5,12,0:2:0:0:
156,230,438464,1,0,0:0:0:0:
341,117,438614,5,4,1:2:0:0:
264,311,438764,1,0,0:0:0:0:
425,126,438914,5,12,0:2:0:0:
397,362,439064,1,0,0:0:0:0:
505,112,439214,5,0,1:0:0:0:
264,311,439364,2,0,L|190:324,1,75.0000028610231,2|0,0:0|0:0,0:0:0:0:
86,169,439514,2,0,L|160:156,1,75.0000028610231,10|0,0:0|0:0,0:0:0:0:
211,246,439664,6,0,L|138:233,1,75.0000028610231,2|0,0:0|0:0,0:0:0:0:
34,78,439814,2,0,L|108:92,1,75.0000028610231,2|0,1:2|0:0,0:0:0:0:
291,234,439964,5,2,0:0:0:0:
291,234,440039,1,2,0:0:0:0:
291,234,440114,2,0,L|277:160,1,75.0000028610231,10|0,0:0|0:0,0:0:0:0:
426,135,440264,5,2,0:0:0:0:
426,135,440339,1,2,0:0:0:0:
426,135,440414,2,0,L|352:148,1,75.0000028610231,2|0,1:2|0:0,0:0:0:0:
327,0,440564,2,0,L|340:73,1,75.0000028610231,2|0,0:0|0:0,0:0:0:0:
192,99,440714,5,10,0:2:0:0:
228,92,440789,1,2,0:2:0:0:
265,85,440864,1,2,0:2:0:0:
302,79,440939,1,2,0:2:0:0:
339,72,441014,1,2,1:2:0:0:
127,19,441164,1,0,0:0:0:0:
18,153,441314,5,10,0:0:0:0:
55,160,441389,1,2,0:0:0:0:
92,166,441464,1,2,0:0:0:0:
129,170,441539,1,2,0:0:0:0:
165,177,441614,6,0,L|173:257,1,75.0000028610231,6|0,1:2|0:0,0:0:0:0:
259,345,441764,2,0,L|267:271,1,75.0000028610231,2|0,0:0|0:0,0:0:0:0:
354,176,441914,2,0,L|362:256,1,75.0000028610231,10|0,0:0|0:0,0:0:0:0:
446,344,442064,2,0,L|454:270,1,75.0000028610231,2|0,0:0|0:0,0:0:0:0:
499,47,442214,5,4,1:2:0:0:
474,53,442289,1,0,0:0:0:0:
453,66,442364,1,0,0:0:0:0:
436,85,442439,1,0,0:0:0:0:
426,107,442514,1,8,0:0:0:0:
422,132,442589,1,0,0:0:0:0:
426,157,442664,2,0,L|353:176,1,75.0000028610231,0|0,0:0|0:0,0:0:0:0:
195,330,442814,5,6,1:2:0:0:
214,297,442889,1,2,0:2:0:0:
232,265,442964,2,0,L|304:245,1,75.0000028610231,2|0,0:0|0:0,0:0:0:0:
303,42,443114,5,14,0:2:0:0:
285,74,443189,1,2,0:2:0:0:
267,106,443264,2,0,L|194:125,1,75.0000028610231,2|0,0:0|0:0,0:0:0:0:
141,216,443414,5,6,1:2:0:0:
196,201,443489,1,2,0:2:0:0:
250,187,443564,1,2,0:2:0:0:
304,172,443639,1,2,0:2:0:0:
359,158,443714,1,14,0:2:0:0:
37,106,448114,5,0,0:0:0:0:
134,160,448364,1,0,0:0:0:0:
26,108,448614,5,0,0:0:0:0:
123,162,448864,1,0,0:0:0:0:
122,51,449114,5,0,0:0:0:0:
112,164,449364,1,0,0:0:0:0:
215,117,449614,5,0,0:0:0:0:
101,166,449864,1,0,0:0:0:0:
315,192,450114,5,0,0:0:0:0:
330,68,450364,1,0,0:0:0:0:
412,241,450614,5,0,0:0:0:0:
397,117,450864,1,0,0:0:0:0:
256,248,451114,5,0,0:0:0:0:
353,302,451364,1,0,0:0:0:0:
256,234,451614,5,0,0:0:0:0:
159,288,451864,1,0,0:0:0:0:
450,248,452114,5,0,0:0:0:0:
353,302,452364,1,0,0:0:0:0:
461,250,452614,5,0,0:0:0:0:
364,304,452864,1,0,0:0:0:0:
365,193,453114,5,0,0:0:0:0:
375,306,453364,1,0,0:0:0:0:
272,259,453614,5,0,0:0:0:0:
386,308,453864,1,0,0:0:0:0:
263,134,454114,5,0,0:0:0:0:
366,65,454364,1,0,0:0:0:0:
272,259,454614,5,0,0:0:0:0:
160,203,454864,1,0,0:0:0:0:
375,189,455114,5,0,0:0:0:0:
383,312,455364,1,0,0:0:0:0:
370,182,455614,5,0,0:0:0:0:
472,113,455864,1,0,0:0:0:0:
227,156,456114,6,0,L|295:168,1,69.9999978637696,0|0,1:0|0:0,0:0:0:0:
370,182,456364,1,0,0:0:0:0:
370,182,456426,2,0,L|385:224,2,34.9999989318848,0|0|0,0:0|0:0|0:0,0:0:0:0:
309,99,456614,2,0,L|296:167,1,69.9999978637696,0|0,1:0|0:0,0:0:0:0:
171,73,456864,2,0,L|239:85,1,69.9999978637696,0|0,0:0|0:0,0:0:0:0:
173,200,457114,6,0,L|104:212,1,69.9999978637696,0|0,1:0|0:0,0:0:0:0:
301,230,457364,2,0,L|233:243,1,69.9999978637696,0|0,0:0|0:0,0:0:0:0:
216,313,457551,1,0,0:0:0:0:
216,313,457614,2,0,L|147:300,1,69.9999978637696,0|0,1:0|0:0,0:0:0:0:
65,218,457864,2,0,L|77:286,1,69.9999978637696,0|0,0:0|0:0,0:0:0:0:
130,99,458114,6,0,L|117:167,1,69.9999978637696,0|0,1:0|0:0,0:0:0:0:
197,73,458364,2,0,P|171:39|135:28,1,69.9999978637696,0|0,0:0|0:0,0:0:0:0:
64,75,458551,1,0,0:0:0:0:
64,75,458614,2,0,L|129:98,1,69.9999978637696,0|0,1:0|0:0,0:0:0:0:
263,49,458864,2,0,L|197:72,1,69.9999978637696,0|0,0:0|0:0,0:0:0:0:
166,200,459114,6,0,L|231:176,1,69.9999978637696,0|0,1:0|0:0,0:0:0:0:
316,270,459364,2,0,L|250:246,1,69.9999978637696,0|0,0:0|0:0,0:0:0:0:
308,190,459551,1,0,0:0:0:0:
308,190,459614,2,0,L|374:167,1,69.9999978637696,0|0,1:0|0:0,0:0:0:0:
452,261,459864,2,0,L|386:237,1,69.9999978637696,0|0,0:0|0:0,0:0:0:0:
361,98,460114,6,0,L|373:166,1,69.9999978637696,0|0,1:0|0:0,0:0:0:0:
285,50,460364,1,0,0:0:0:0:
285,50,460426,2,0,L|291:84,2,34.9999989318848,0|0|0,0:0|0:0|0:0,0:0:0:0:
361,98,460614,2,0,L|373:166,1,69.9999978637696,0|0,1:0|0:0,0:0:0:0:
253,187,460864,2,0,L|318:210,1,69.9999978637696,0|0,0:0|0:0,0:0:0:0:
451,260,461114,6,0,L|386:237,1,69.9999978637696,0|0,1:0|0:0,0:0:0:0:
344,349,461364,2,0,L|331:280,1,69.9999978637696,0|0,0:0|0:0,0:0:0:0:
265,255,461551,1,0,0:0:0:0:
265,255,461614,2,0,L|252:186,1,69.9999978637696,0|0,1:0|0:0,0:0:0:0:
373,166,461864,2,0,L|360:97,1,69.9999978637696
185,163,462114,6,0,L|251:186,1,69.9999978637696,0|0,1:0|0:0,0:0:0:0:
298,60,462364,2,0,L|244:105,1,69.9999978637696,0|0,0:0|0:0,0:0:0:0:
185,163,462551,1,0,0:0:0:0:
185,163,462614,2,0,L|131:208,1,69.9999978637696,0|0,1:0|0:0,0:0:0:0:
165,346,462864,2,0,L|219:301,1,69.9999978637696
363,173,463114,6,0,L|309:218,1,69.9999978637696,0|0,1:0|0:0,0:0:0:0:
439,330,463364,2,0,L|385:285,1,69.9999978637696,0|0,0:0|0:0,0:0:0:0:
350,174,463614,2,0,L|296:219,1,69.9999978637696,0|0,1:0|0:0,0:0:0:0:
426,331,463864,2,0,L|372:286,1,69.9999978637696,0|0,0:0|0:0,0:0:0:0:
508,149,464114,6,0,P|468:168|424:165,1,89.9999972534181,0|0,1:0|0:0,0:0:0:0:
330,70,464364,1,8,0:0:0:0:
311,58,464426,1,0,0:0:0:0:
289,51,464489,1,0,0:0:0:0:
267,49,464551,1,0,0:0:0:0:
244,53,464614,2,0,P|208:78|189:118,1,89.9999972534181,0|0,1:0|0:0,0:0:0:0:
303,216,464864,2,0,P|299:172|275:135,1,89.9999972534181,8|0,0:0|0:0,0:0:0:0:
132,186,465114,5,0,1:0:0:0:
161,267,465239,1,0,0:0:0:0:
216,202,465364,1,8,0:0:0:0:
77,251,465489,1,0,0:0:0:0:
245,283,465614,2,0,L|333:299,1,89.9999972534181,0|0,1:0|0:0,0:0:0:0:
407,247,465801,1,0,0:0:0:0:
407,247,465864,2,0,L|495:263,1,89.9999972534181,8|0,0:0|0:0,0:0:0:0:
495,120,466114,6,0,L|407:137,1,89.9999972534181,0|0,1:0|0:0,0:0:0:0:
245,101,466364,2,0,L|333:84,1,89.9999972534181,8|0,0:0|0:0,0:0:0:0:
170,49,466614,2,0,L|81:65,1,89.9999972534181,0|0,1:0|0:0,0:0:0:0:
0,195,466864,1,8,0:0:0:0:
22,196,466926,1,0,0:0:0:0:
44,191,466989,1,0,0:0:0:0:
64,182,467051,1,0,0:0:0:0:
81,166,467114,6,0,P|118:141|162:138,1,89.9999972534181,0|0,1:0|0:0,0:0:0:0:
227,194,467364,2,0,P|190:219|146:223,1,89.9999972534181,8|0,0:0|0:0,0:0:0:0:
244,109,467614,2,0,P|284:128|308:165,1,89.9999972534181,0|0,1:0|0:0,0:0:0:0:
390,137,467864,2,0,P|393:181|373:221,1,89.9999972534181,8|0,0:0|0:0,0:0:0:0:
210,345,468114,6,0,L|120:336,1,89.9999972534181,0|0,1:0|0:0,0:0:0:0:
257,267,468364,1,8,0:0:0:0:
276,283,468426,1,0,0:0:0:0:
290,304,468489,1,0,0:0:0:0:
298,328,468551,1,0,0:0:0:0:
299,353,468614,6,0,L|389:344,1,89.9999972534181,0|0,1:0|0:0,0:0:0:0:
506,234,468864,1,8,0:0:0:0:
489,248,468926,1,0,0:0:0:0:
468,258,468989,1,0,0:0:0:0:
446,262,469051,1,0,0:0:0:0:
424,261,469114,6,0,P|384:241|359:204,1,89.9999972534181,0|0,1:0|0:0,0:0:0:0:
412,37,469364,2,0,P|414:81|395:121,1,89.9999972534181,8|0,0:0|0:0,0:0:0:0:
224,159,469614,2,0,P|261:134|305:131,1,89.9999972534181,0|0,1:0|0:0,0:0:0:0:
274,45,469801,1,0,0:0:0:0:
274,45,469864,2,0,L|185:29,1,89.9999972534181,8|0,0:0|0:0,0:0:0:0:
17,213,470114,6,0,L|105:197,1,89.9999972534181,0|0,1:0|0:0,0:0:0:0:
137,114,470364,2,0,L|48:129,1,89.9999972534181,8|0,0:0|0:0,0:0:0:0:
74,281,470614,2,0,L|162:265,1,89.9999972534181,0|0,1:0|0:0,0:0:0:0:
319,177,470864,5,8,0:0:0:0:
300,164,470926,1,0,0:0:0:0:
278,157,470989,1,0,0:0:0:0:
256,155,471051,1,0,0:0:0:0:
234,159,471114,5,0,1:0:0:0:
250,247,471239,1,0,1:0:0:0:
266,335,471364,1,0,1:0:0:0:
266,335,471614,5,0,1:0:0:0:
250,247,471739,1,0,1:0:0:0:
234,159,471864,1,0,1:0:0:0:
41,42,472114,6,0,L|129:26,1,89.9999972534181,0|0,1:0|0:0,0:0:0:0:
218,41,472301,1,0,0:0:0:0:
218,41,472364,2,0,L|306:56,1,89.9999972534181,8|0,0:0|0:0,0:0:0:0:
483,55,472614,2,0,L|394:70,1,89.9999972534181,0|0,1:0|0:0,0:0:0:0:
282,182,472864,1,8,0:0:0:0:
299,168,472926,1,0,0:0:0:0:
320,158,472989,1,0,0:0:0:0:
342,154,473051,1,0,0:0:0:0:
364,155,473114,6,0,P|404:175|429:212,1,89.9999972534181,0|0,1:0|0:0,0:0:0:0:
345,246,473364,1,8,0:0:0:0:
262,281,473489,1,0,0:0:0:0:
242,370,473614,2,0,P|203:351|178:314,1,89.9999972534181,0|0,1:0|0:0,0:0:0:0:
44,289,473864,6,0,L|91:297,1,44.999998626709,8|0,0:0|0:0,0:0:0:0:
23,264,473989,2,0,L|70:272,1,44.999998626709,0|0,1:0|0:0,0:0:0:0:
141,163,474114,6,0,L|52:178,1,89.9999972534181,0|0,1:0|0:0,0:0:0:0:
83,93,474301,1,0,0:0:0:0:
83,93,474364,2,0,L|172:78,1,89.9999972534181,8|0,0:0|0:0,0:0:0:0:
198,232,474614,1,0,1:0:0:0:
52,177,474739,1,0,0:0:0:0:
141,163,474864,1,8,0:0:0:0:
163,159,474926,1,0,0:0:0:0:
185,155,474989,1,0,0:0:0:0:
207,151,475051,1,0,0:0:0:0:
229,148,475114,6,0,P|265:173|286:217,1,89.9999972534181,0|0,1:0|0:0,0:0:0:0:
374,198,475364,2,0,P|371:241|344:282,1,89.9999972534181,8|0,0:0|0:0,0:0:0:0:
462,215,475614,2,0,P|458:171|430:131,1,89.9999972534181,0|0,1:0|0:0,0:0:0:0:
490,64,475864,2,0,P|450:44|402:47,1,89.9999972534181,8|0,0:0|0:0,0:0:0:0:
374,198,476114,6,0,P|371:241|344:282,1,89.9999972534181,0|0,1:0|0:0,0:0:0:0:
254,297,476301,1,0,0:0:0:0:
254,297,476364,2,0,P|218:272|196:229,1,89.9999972534181,8|0,0:0|0:0,0:0:0:0:
227,54,476614,2,0,L|212:143,1,89.9999972534181,0|0,1:0|0:0,0:0:0:0:
58,115,476864,1,8,0:0:0:0:
79,108,476926,1,0,0:0:0:0:
100,100,476989,1,0,0:0:0:0:
121,92,477051,1,0,0:0:0:0:
143,85,477114,6,0,L|127:173,1,89.9999972534181,0|0,1:0|0:0,0:0:0:0:
74,319,477364,2,0,L|58:231,1,89.9999972534181,8|0,0:0|0:0,0:0:0:0:
228,244,477614,2,0,L|140:260,1,89.9999972534181,0|0,1:0|0:0,0:0:0:0:
259,324,477864,6,0,L|303:332,1,44.999998626709,8|0,0:0|0:0,0:0:0:0:
287,307,477989,2,0,L|331:315,1,44.999998626709,0|0,1:0|0:0,0:0:0:0:
404,242,478114,6,0,L|316:227,1,89.9999972534181,0|0,1:0|0:0,0:0:0:0:
373,156,478301,1,0,0:0:0:0:
373,156,478364,2,0,L|461:141,1,89.9999972534181,8|0,0:0|0:0,0:0:0:0:
492,257,478614,1,0,1:0:0:0:
315,226,478739,1,0,0:0:0:0:
404,71,478864,1,8,0:0:0:0:
426,68,478926,1,0,0:0:0:0:
448,64,478989,1,0,0:0:0:0:
470,60,479051,1,0,0:0:0:0:
492,56,479114,6,0,L|460:139,1,89.9999972534181,0|0,1:0|0:0,0:0:0:0:
283,142,479364,2,0,L|252:58,2,89.9999972534181,8|0|0,0:0|0:0|1:0,0:0:0:0:
347,309,479739,5,0,1:0:0:0:
226,212,479864,1,0,1:0:0:0:
404,239,479989,1,0,1:0:0:0:
169,282,480114,1,0,1:0:0:0:
169,282,480364,6,0,L|90:268,1,80,2|0,3:2|0:0,0:0:0:0:
3,199,480614,2,0,L|81:185,1,80,2|0,1:2|0:0,0:0:0:0:
142,115,480864,2,0,L|64:101,1,80,2|0,3:2|0:0,0:0:0:0:
170,40,481114,6,0,P|202:62|219:98,1,80,2|2,1:2|0:0,0:0:0:0:
193,174,481364,1,0,3:0:0:0:
298,88,481490,2,0,P|294:127|272:160,1,80,2|0,0:0|1:0,0:0:0:0:
245,235,481739,2,0,L|323:249,2,80,2|2|2,0:0|3:2|0:0,0:0:0:0:
72,317,482114,6,0,P|146:342|217:309,1,160,2|0,1:2|3:0,0:0:0:0:
271,160,482489,1,2,0:0:0:0:
468,256,482614,2,0,P|393:281|322:248,1,160,2|0,1:2|3:0,0:0:0:0:
323,73,482989,1,2,0:0:0:0:
434,125,483114,6,0,L|512:107,1,80,2|2,1:2|0:2,0:0:0:0:
401,59,483301,1,0,0:0:0:0:
401,59,483364,2,0,L|322:72,1,80,0|2,3:0|0:0,0:0:0:0:
190,72,483614,6,0,L|111:59,1,80,0|0,1:0|0:0,0:0:0:0:
0,107,483801,1,0,0:0:0:0:
0,107,483864,2,0,L|77:125,1,80,0|0,3:0|0:0,0:0:0:0:
173,329,484114,6,0,P|141:305|123:269,1,80,0|2,1:0|0:0,0:0:0:0:
43,300,484364,2,0,P|37:260|51:223,1,80,2|2,3:2|0:0,0:0:0:0:
208,151,484613,2,0,P|213:190|199:227,1,80,2|0,1:2|0:0,0:0:0:0:
77,125,484864,2,0,P|109:148|126:184,1,80,2|0,3:2|0:0,0:0:0:0:
278,241,485114,6,0,L|199:227,1,80,2|2,1:2|0:0,0:0:0:0:
329,179,485364,1,0,3:0:0:0:
377,309,485489,2,0,L|455:295,1,80,2|0,0:0|1:0,0:0:0:0:
486,151,485739,2,0,L|407:165,2,80,2|2|2,0:0|3:2|0:0,0:0:0:0:
384,38,486114,6,0,P|335:100|329:179,1,160,2|0,1:2|3:0,0:0:0:0:
284,38,486489,1,2,0:0:0:0:
129,115,486614,2,0,P|177:177|183:256,1,160,2|0,1:2|3:0,0:0:0:0:
229,115,486989,1,2,0:0:0:0:
104,242,487114,6,0,L|25:228,1,80,2|2,1:2|0:0,0:0:0:0:
196,334,487364,2,0,L|274:320,1,80,0|2,3:0|0:0,0:0:0:0:
437,195,487614,2,0,L|430:234,1,40,0|0,1:0|0:0,0:0:0:0:
338,183,487739,2,0,L|332:144,1,40,0|0,1:0|0:0,0:0:0:0:
458,76,487864,6,0,L|451:115,1,40,0|0,1:0|0:0,0:0:0:0:
359,302,487989,2,0,L|353:263,1,40,0|0,1:0|0:0,0:0:0:0:
219,99,488114,6,0,P|170:107|126:86,1,100,0|0,1:0|0:0,0:0:0:0:
63,130,488301,1,0,0:0:0:0:
63,130,488364,2,0,P|72:178|52:223,1,100,8|0,0:0|0:0,0:0:0:0:
192,291,488614,2,0,P|146:272|99:284,1,100,0|0,1:0|0:0,0:0:0:0:
266,154,488864,1,8,0:0:0:0:
252,175,488926,1,0,0:0:0:0:
246,199,488989,1,0,0:0:0:0:
247,224,489051,1,0,0:0:0:0:
255,247,489114,6,0,L|353:229,1,100,0|0,1:0|0:0,0:0:0:0:
236,354,489364,2,0,L|334:336,1,100,8|0,0:0|0:0,0:0:0:0:
451,246,489614,6,0,L|352:228,1,100,0|0,1:0|0:0,0:0:0:0:
333,121,489801,1,0,0:0:0:0:
333,121,489864,2,0,L|432:139,1,100,8|0,0:0|0:0,0:0:0:0:
178,121,490114,6,0,L|80:139,1,100,0|0,1:0|0:0,0:0:0:0:
148,321,490364,1,8,0:0:0:0:
162,300,490426,1,0,0:0:0:0:
168,276,490489,1,0,0:0:0:0:
167,251,490551,1,0,0:0:0:0:
159,228,490614,2,0,L|60:245,1,100,0|0,1:0|0:0,0:0:0:0:
99,32,490864,2,0,L|197:14,1,100,8|0,0:0|0:0,0:0:0:0:
312,184,491114,5,0,1:0:0:0:
178,121,491239,1,0,0:0:0:0:
345,89,491364,2,0,L|443:71,1,100,8|0,0:0|0:0,0:0:0:0:
508,220,491614,2,0,L|410:202,1,100,0|0,1:0|0:0,0:0:0:0:
312,184,491864,2,0,L|214:202,1,100,8|0,0:0|0:0,0:0:0:0:
25,308,492114,6,0,L|124:327,1,100,0|0,1:0|0:0,0:0:0:0:
27,194,492364,2,0,P|65:226|114:233,1,100,8|0,0:0|0:0,0:0:0:0:
256,102,492614,2,0,P|210:119|180:158,1,100,0|0,1:0|0:0,0:0:0:0:
213,252,492864,1,8,0:0:0:0:
223,272,492926,1,0,0:0:0:0:
230,295,492989,1,0,0:0:0:0:
230,322,493051,1,0,0:0:0:0:
222,345,493114,6,0,L|124:327,1,100,0|0,1:0|0:0,0:0:0:0:
311,270,493364,2,0,L|409:288,1,100,8|0,0:0|0:0,0:0:0:0:
402,88,493614,6,0,P|410:137|389:181,1,100,0|0,1:0|0:0,0:0:0:0:
309,169,493801,1,0,0:0:0:0:
309,169,493864,2,0,P|300:120|322:75,1,100,8|0,0:0|0:0,0:0:0:0:
110,88,494114,6,0,P|102:137|123:181,1,100,0|0,1:0|0:0,0:0:0:0:
191,76,494364,2,0,P|212:120|203:169,1,100,8|0,0:0|0:0,0:0:0:0:
41,194,494614,1,0,1:0:0:0:
41,194,494864,5,8,0:0:0:0:
62,191,494926,1,0,0:0:0:0:
82,188,494989,1,0,0:0:0:0:
103,185,495051,1,0,0:0:0:0:
123,181,495114,6,0,P|145:226|137:275,1,100,0|0,1:0|0:0,0:0:0:0:
289,302,495364,2,0,P|239:295|197:319,1,100,8|0,0:0|0:0,0:0:0:0:
205,133,495614,5,0,1:0:0:0:
312,214,495739,1,0,1:0:0:0:
216,228,495864,1,8,0:0:0:0:
299,118,495989,1,0,1:0:0:0:
368,285,496114,6,0,P|330:304|288:301,1,85.0000016212464,4|0,1:2|0:0,0:0:0:0:
458,271,496364,2,0,P|455:312|432:348,1,85.0000016212464,2|0,3:2|0:0,0:0:0:0:
400,200,496614,2,0,P|402:158|425:122,1,85.0000016212464,2|0,1:2|0:0,0:0:0:0:
299,118,496864,1,2,3:2:0:0:
312,214,496989,1,2,0:2:0:0:
223,59,497114,5,2,1:2:0:0:
210,155,497239,1,2,0:2:0:0:
45,133,497364,1,2,3:2:0:0:
134,96,497489,1,2,0:2:0:0:
198,250,497614,1,2,1:2:0:0:
121,191,497739,1,2,0:2:0:0:
287,235,497864,2,0,P|284:276|261:312,1,85.0000016212464,2|0,3:2|0:0,0:0:0:0:
78,345,498114,6,0,L|162:352,1,85.0000016212464,2|0,1:2|0:0,0:0:0:0:
42,267,498364,2,0,L|126:274,1,85.0000016212464,0|2,3:0|0:2,0:0:0:0:
287,235,498614,2,0,L|202:242,1,85.0000016212464,0|0,1:0|0:0,0:0:0:0:
323,157,498864,2,0,L|238:164,1,85.0000016212464,0|0,3:0|0:0,0:0:0:0:
360,80,499114,6,0,P|393:105|409:144,1,85.0000016212464,0|0,1:0|0:0,0:0:0:0:
494,136,499364,2,0,P|488:177|463:211,1,85.0000016212464,0|0,3:0|0:0,0:0:0:0:
345,304,499614,2,0,P|361:342|394:368,1,85.0000016212464,0|0,1:0|0:0,0:0:0:0:
431,291,499864,2,0,P|472:296|511:280,1,85.0000016212464,0|0,3:0|0:0,0:0:0:0:
287,230,500114,6,0,L|202:222,1,85.0000016212464,0|0,1:0|0:0,0:0:0:0:
152,306,500364,2,0,L|237:298,1,85.0000016212464,2|0,3:2|0:0,0:0:0:0:
336,144,500614,2,0,L|251:152,1,85.0000016212464,2|0,1:2|0:0,0:0:0:0:
286,74,500864,5,2,1:2:0:0:
370,66,500989,1,2,3:2:0:0:
234,135,501114,5,2,1:2:0:0:
336,144,501239,1,2,3:2:0:0:
168,181,501364,5,2,1:2:0:0:
288,214,501489,1,2,3:2:0:0:
95,214,501614,5,2,1:2:0:0:
448,304,501864,1,2,1:2:0:0:
417,164,502114,6,0,L|376:171,1,42.5000008106232,4|0,1:2|1:0,0:0:0:0:
95,214,502239,1,0,1:0:0:0:
417,164,502614,6,0,L|376:171,1,42.5000008106232,4|0,1:2|1:0,0:0:0:0:
95,214,502739,1,0,1:0:0:0:
417,164,502989,6,0,L|376:171,1,42.5000008106232,4|0,1:2|3:0,0:0:0:0:
142,309,503114,2,0,L|171:279,1,42.5000008106232,0|0,1:2|3:0,0:0:0:0:
279,30,503239,2,0,L|272:72,1,42.5000008106232,4|0,1:2|3:0,0:0:0:0:
331,335,503364,2,0,L|312:298,1,42.5000008106232,0|0,1:0|3:0,0:0:0:0:
109,120,503489,2,0,L|147:138,1,42.5000008106232,4|0,1:2|3:0,0:0:0:0:
289,157,503614,6,0,P|254:232|223:156,1,209.999993591309,0|0,1:0|0:0,0:0:0:0:
360,263,504114,6,0,P|255:313|150:263,1,239.999992675781,0|8,1:0|0:0,0:0:0:0:
256,192,504489,1,0,0:0:0:0:
458,280,504614,2,0,L|360:263,1,100,0|0,1:0|0:0,0:0:0:0:
51,280,504864,2,0,L|149:263,1,100,8|0,0:0|0:0,0:0:0:0:
408,176,505114,6,0,P|415:127|393:83,1,100,0|0,1:0|0:0,0:0:0:0:
256,7,505364,1,8,0:0:0:0:
104,176,505489,6,0,P|96:127|118:83,1,100,0|0,0:0|1:0,0:0:0:0:
256,7,505739,1,0,0:0:0:0:
256,190,505864,6,0,L|256:290,1,100,8|0,0:0|0:0,0:0:0:0:
177,147,506114,6,0,P|257:98|340:156,1,200,0|8,1:0|0:0,0:0:0:0:
335,333,506489,2,0,P|255:382|172:324,1,200,0|0,0:0|0:0,0:0:0:0:
414,109,506864,2,0,L|431:208,1,100,8|0,0:0|0:0,0:0:0:0:
80,174,507114,6,0,L|97:75,1,100,0|0,1:0|0:0,0:0:0:0:
314,92,507364,2,0,L|332:191,1,100,8|0,0:0|0:0,0:0:0:0:
162,290,507614,2,0,L|180:191,1,100,0|0,1:0|0:0,0:0:0:0:
431,208,507864,2,0,L|413:307,1,100,8|0,0:0|0:0,0:0:0:0:
179,191,508114,6,0,L|197:92,1,100,0|0,1:0|0:0,0:0:0:0:
102,128,508364,1,8,0:0:0:0:
83,224,508489,1,0,0:0:0:0:
256,255,508614,1,0,1:0:0:0:
179,190,508739,1,0,0:0:0:0:
65,322,508864,1,8,0:0:0:0:
161,289,508989,1,0,0:0:0:0:
119,27,509114,6,0,L|25:61,1,100,0|0,1:0|0:0,0:0:0:0:
178,189,509364,2,0,L|273:156,1,100,8|0,0:0|0:0,0:0:0:0:
427,286,509614,6,0,L|332:319,1,100,0|0,1:0|0:0,0:0:0:0:
179,190,509864,2,0,L|273:156,1,100,8|0,0:0|0:0,0:0:0:0:
329,64,510114,5,6,2:3:0:0:
375,190,510239,1,2,2:3:0:0:
200,109,510364,1,2,2:3:0:0:
246,237,510489,1,2,2:3:0:0:
396,111,510614,5,2,2:3:0:0:
179,190,510739,1,2,2:3:0:0:
326,259,510864,1,2,2:3:0:0:
248,40,510989,1,2,2:3:0:0:
409,206,511114,5,6,2:3:0:0:
230,273,511239,1,2,2:3:0:0:
344,28,511364,1,2,2:3:0:0:
165,93,511489,1,2,2:3:0:0:
339,294,511614,5,2,2:3:0:0:
234,6,511739,1,2,2:3:0:0:
431,97,511864,1,2,2:3:0:0:
143,203,511989,1,2,2:3:0:0:
301,366,512114,6,0,P|393:351|409:259,2,200,4|8|0,1:3|0:0|1:0,0:0:0:0:
92,249,512739,1,0,0:0:0:0:
240,275,512864,2,0,L|338:292,1,100,8|0,0:0|0:0,0:0:0:0:
478,71,513114,6,0,L|379:88,1,100,0|0,1:0|0:0,0:0:0:0:
231,113,513364,1,8,0:0:0:0:
408,258,513489,2,0,L|442:163,1,100,0|0,0:0|1:0,0:0:0:0:
292,26,513739,1,0,0:0:0:0:
105,222,513864,2,0,L|204:205,1,100,8|0,0:0|0:0,0:0:0:0:
147,31,514114,6,0,B|117:74|117:74|104:221,1,200,0|8,1:0|0:0,0:0:0:0:
408,222,514489,2,0,B|395:75|395:75|365:31,1,200
206,307,514864,2,0,L|306:307,1,100,8|0,0:0|0:0,0:0:0:0:
506,205,515114,6,0,L|407:222,1,100,0|0,1:0|0:0,0:0:0:0:
104,221,515364,2,0,L|6:204,1,100,8|0,0:0|0:0,0:0:0:0:
147,31,515614,6,0,L|164:128,1,100,0|0,1:0|0:0,0:0:0:0:
347,128,515864,2,0,L|365:31,1,100,8|0,0:0|0:0,0:0:0:0:
193,260,516114,5,2,0:0:0:0:
198,292,516197,1,2,0:0:0:0:
204,325,516280,1,2,0:0:0:0:
210,358,516363,1,2,0:0:0:0:
301,298,516489,1,2,2:3:0:0:
107,213,516614,1,6,2:3:0:0:
107,213,516864,1,2,2:3:0:0:
319,200,517115,5,2,0:0:0:0:
313,232,517198,1,2,0:0:0:0:
307,265,517281,1,2,0:0:0:0:
301,298,517364,1,2,0:0:0:0:
210,238,517489,1,2,2:3:0:0:
405,153,517614,1,6,2:3:0:0:
405,153,517864,1,2,2:3:0:0:
193,140,518115,5,2,0:0:0:0:
198,172,518198,1,2,0:0:0:0:
204,205,518281,1,2,0:0:0:0:
210,238,518364,1,2,0:0:0:0:
301,178,518489,1,2,2:3:0:0:
107,93,518614,1,6,2:3:0:0:
107,93,518864,1,2,2:3:0:0:
319,80,519115,5,2,0:0:0:0:
313,112,519198,1,2,0:0:0:0:
307,145,519281,1,2,0:0:0:0:
301,178,519364,1,2,0:0:0:0:
210,118,519489,1,2,2:3:0:0:
405,33,519614,1,6,2:3:0:0:
405,33,519864,1,2,2:3:0:0:
162,121,520114,5,2,2:3:0:0:
184,247,520239,1,2,2:3:0:0:
350,121,520364,1,2,2:3:0:0:
328,247,520489,1,2,2:3:0:0:
139,102,520614,5,2,2:3:0:0:
168,265,520739,1,2,2:3:0:0:
373,102,520864,1,2,2:3:0:0:
344,265,520989,1,2,2:3:0:0:
116,83,521114,5,2,2:3:0:0:
151,284,521239,1,2,2:3:0:0:
396,83,521364,1,2,2:3:0:0:
361,284,521489,1,2,2:3:0:0:
93,64,521614,5,2,2:3:0:0:
134,303,521739,1,2,2:3:0:0:
419,64,521864,1,2,2:3:0:0:
378,303,521989,1,2,2:3:0:0:
256,40,522114,5,4,0:0:0:0:
256,192,522176,12,0,523551,0:0:0:0:
206,170,523614,6,0,L|198:120,3,50,0|0|0|0,3:0|3:0|3:0|3:0,0:0:0:0:
225,116,523864,1,8,3:0:0:0:
248,123,523926,1,8,3:0:0:0:
268,138,523989,1,8,3:0:0:0:
282,159,524051,1,8,3:0:0:0:
289,182,524114,6,0,P|341:250|428:243,1,179.999994506836,4|8,1:2|0:0,0:0:0:0:
378,169,524489,1,0,0:0:0:0:
267,309,524614,2,0,P|222:311|181:294,1,89.9999972534181,0|0,1:0|0:0,0:0:0:0:
203,167,524864,2,0,P|247:164|288:181,1,89.9999972534181,8|0,0:0|0:0,0:0:0:0:
132,222,525114,6,0,P|117:136|181:79,1,179.999994506836,4|8,1:2|0:0,0:0:0:0:
203,167,525489,1,0,0:0:0:0:
357,109,525614,2,0,L|268:93,1,89.9999972534181,0|0,1:0|0:0,0:0:0:0:
396,207,525864,2,0,L|484:191,1,89.9999972534181,8|0,0:0|0:0,0:0:0:0:
420,35,526114,6,0,P|386:117|395:206,1,179.999994506836,4|8,1:2|0:0,0:0:0:0:
314,352,526489,2,0,P|323:264|289:182,1,179.999994506836
17,271,526864,2,0,L|105:255,1,89.9999972534181,8|0,0:0|0:0,0:0:0:0:
195,104,527114,6,0,L|106:89,1,89.9999972534181,4|0,1:2|0:0,0:0:0:0:
166,322,527364,2,0,P|191:280|193:239,1,89.9999972534181,8|0,0:0|0:0,0:0:0:0:
18,72,527614,2,0,P|22:117|46:155,1,89.9999972534181
249,10,527864,2,0,L|159:25,1,89.9999972534181,8|0,0:0|0:0,0:0:0:0:
275,337,528114,6,0,B|340:347|340:347|393:310|393:310|458:320,2,179.999994506836,4|8|0,1:2|0:0|1:0,0:0:0:0:
298,250,528739,1,0,1:0:0:0:
253,172,528864,1,8,0:0:0:0:
297,92,528989,1,0,1:0:0:0:
342,15,529114,6,0,L|297:93,1,89.9999972534181,4|0,1:2|0:0,0:0:0:0:
253,172,529364,1,8,0:0:0:0:
119,97,529489,2,0,L|209:96,1,89.9999972534181,0|0,0:0|1:0,0:0:0:0:
298,93,529739,1,0,0:0:0:0:
298,250,529864,2,0,L|253:172,1,89.9999972534181,8|0,0:0|0:0,0:0:0:0:
388,94,530114,6,0,L|298:249,1,179.999994506836,4|8,1:2|0:0,0:0:0:0:
163,171,530489,2,0,L|342:171,1,179.999994506836,0|0,0:0|0:0,0:0:0:0:
342,327,530864,2,0,L|298:250,1,89.9999972534181,8|0,0:0|0:0,0:0:0:0:
477,248,531114,1,4,1:2:0:0:
416,149,531239,5,0,0:0:0:0:
416,149,531301,1,0,0:0:0:0:
416,149,531364,1,8,0:0:0:0:
416,149,531426,1,0,0:0:0:0:
416,149,531489,2,0,L|459:174,1,44.999998626709,0|0,3:0|3:0,0:0:0:0:
343,171,531614,2,0,L|364:209,1,44.999998626709,4|0,1:2|3:0,0:0:0:0:
270,152,531739,2,0,L|269:195,1,44.999998626709,0|0,3:0|3:0,0:0:0:0:
216,99,531864,2,0,L|193:137,1,44.999998626709,8|0,3:0|3:0,0:0:0:0:
196,26,531989,2,0,L|157:47,1,44.999998626709,0|0,3:0|3:0,0:0:0:0:
375,37,532114,6,0,B|348:74|348:74|216:98,1,179.999994506836,4|8,1:2|0:0,0:0:0:0:
78,52,532489,1,0,0:0:0:0:
20,153,532614,2,0,L|108:168,1,89.9999972534181,0|0,1:0|0:0,0:0:0:0:
285,168,532864,2,0,L|196:183,1,89.9999972534181,8|0,0:0|0:0,0:0:0:0:
124,357,533114,6,0,P|178:289|263:298,1,179.999994506836,4|8,1:2|0:0,0:0:0:0:
336,347,533489,1,0,0:0:0:0:
336,347,533614,2,0,L|423:330,1,89.9999972534181,0|0,1:0|0:0,0:0:0:0:
447,248,533864,2,0,L|358:264,1,89.9999972534181,8|0,0:0|0:0,0:0:0:0:
508,307,534113,6,0,P|529:224|468:164,1,179.999994506836,4|8,1:2|0:0,0:0:0:0:
295,203,534489,2,0,P|274:286|336:347,1,179.999994506836,0|0,0:0|0:0,0:0:0:0:
467,163,534864,2,0,L|378:179,1,89.9999972534181,8|0,0:0|0:0,0:0:0:0:
260,42,535114,6,0,L|348:26,1,89.9999972534181,4|0,1:2|0:0,0:0:0:0:
319,110,535364,2,0,L|231:126,1,89.9999972534181,8|0,0:0|0:0,0:0:0:0:
82,74,535614,2,0,L|170:58,1,89.9999972534181,0|0,1:0|0:0,0:0:0:0:
141,142,535864,2,0,L|53:158,1,89.9999972534181,8|0,0:0|0:0,0:0:0:0:
174,293,536114,6,0,P|198:255|198:212,1,89.9999972534181,4|0,1:2|0:0,0:0:0:0:
141,142,536364,1,8,0:0:0:0:
21,242,536489,2,0,L|198:211,1,179.999994506836,0|0,0:0|0:0,0:0:0:0:
421,340,536864,2,0,L|333:324,1,89.9999972534181,8|0,0:0|0:0,0:0:0:0:
174,293,537114,6,0,P|203:326|248:342,1,89.9999972534181,4|0,1:2|0:0,0:0:0:0:
348,214,537364,1,8,0:0:0:0:
291,74,537489,2,0,L|258:250,1,179.999994506836
363,125,537864,2,0,L|378:36,1,89.9999972534181,8|0,0:0|0:0,0:0:0:0:
213,23,538114,6,0,P|205:108|273:161,1,179.999994506836,4|8,1:2|0:0,0:0:0:0:
123,144,538489,2,0,P|193:193|273:160,1,179.999994506836,0|0,0:2|0:0,0:0:0:0:
125,40,538864,2,0,L|37:57,1,89.9999972534181,8|0,0:0|0:0,0:0:0:0:
6,142,539114,1,4,1:2:0:0:
94,244,539239,5,0,0:0:0:0:
94,244,539301,1,0,0:0:0:0:
94,244,539364,1,8,0:0:0:0:
94,244,539426,1,0,0:0:0:0:
94,244,539489,2,0,L|65:209,1,44.999998626709,0|0,3:0|3:0,0:0:0:0:
132,176,539614,2,0,L|124:131,1,44.999998626709,4|0,3:2|3:0,0:0:0:0:
200,137,539739,2,0,L|215:94,1,44.999998626709,0|0,3:0|3:0,0:0:0:0:
278,137,539864,2,0,L|312:107,1,44.999998626709,8|0,3:0|3:0,0:0:0:0:
347,176,539989,2,0,L|392:168,1,44.999998626709,0|0,3:0|3:0,0:0:0:0:
497,303,540114,6,0,L|320:271,1,179.999994506836,4|8,1:2|0:0,0:0:0:0:
142,303,540489,1,0,0:0:0:0:
214,199,540614,2,0,L|391:168,1,179.999994506836,0|8,1:2|0:0,0:0:0:0:
497,303,540989,1,0,0:0:0:0:
350,355,541114,6,0,L|262:339,1,89.9999972534181,4|0,1:2|0:0,0:0:0:0:
284,96,541364,2,0,L|372:80,1,89.9999972534181,8|0,1:0|0:0,0:0:0:0:
209,252,541614,5,0,1:0:0:0:
188,239,541676,1,0,0:0:0:0:
172,221,541739,1,0,0:0:0:0:
161,199,541801,1,0,0:0:0:0:
157,175,541864,1,8,0:0:0:0:
159,151,541926,1,0,0:0:0:0:
167,128,541989,1,0,0:0:0:0:
182,108,542051,1,0,0:0:0:0:
201,93,542114,1,4,1:2:0:0:
310,93,543614,5,0,1:0:0:0:
329,108,543677,1,0,0:0:0:0:
344,128,543739,1,0,0:0:0:0:
352,151,543802,1,0,0:0:0:0:
354,175,543864,1,0,0:0:0:0:
350,199,543927,1,0,0:0:0:0:
339,221,543989,1,0,0:0:0:0:
323,239,544052,1,0,0:0:0:0:
299,251,544114,6,0,P|353:173|449:176,1,200,4|8,1:2|0:0,0:0:0:0:
442,324,544489,1,0,0:0:0:0:
424,341,544551,1,0,0:0:0:0:
406,359,544614,2,0,L|398:260,1,100,0|0,1:0|0:0,0:0:0:0:
228,309,544864,2,0,P|266:339|315:342,1,100,8|0,0:0|0:0,0:0:0:0:
289,124,545114,6,0,B|250:175|250:175|227:309,1,200,0|8,1:0|0:0,0:0:0:0:
153,234,545489,2,0,P|244:205|320:265,1,200,0|0,0:0|0:0,0:0:0:0:
77,299,545864,2,0,L|59:200,1,100,8|0,0:0|0:0,0:0:0:0:
158,39,546114,6,0,B|177:100|177:100|152:234,1,200,4|8,1:2|0:0,0:0:0:0:
72,119,546489,2,0,L|268:154,1,200
400,42,546864,2,0,L|301:59,1,100,8|0,0:0|0:0,0:0:0:0:
137,266,547114,6,0,L|235:248,1,100,0|0,1:0|0:0,0:0:0:0:
367,136,547364,2,0,L|268:153,1,100,8|0,0:0|0:0,0:0:0:0:
263,344,547614,1,0,1:0:0:0:
291,330,547676,1,0,0:0:0:0:
313,309,547739,1,0,0:0:0:0:
328,281,547801,1,0,0:0:0:0:
333,251,547864,1,8,0:0:0:0:
330,220,547926,1,0,0:0:0:0:
316,192,547989,1,0,0:0:0:0:
295,169,548051,1,0,0:0:0:0:
268,153,548114,6,0,L|367:136,1,100,4|0,1:2|0:0,0:0:0:0:
465,118,548364,1,8,0:0:0:0:
399,265,548489,2,0,L|301:248,1,100,0|0,0:0|1:0,0:0:0:0:
203,230,548739,1,0,0:0:0:0:
189,33,548864,2,0,P|237:42|276:74,1,100,8|0,0:0|0:0,0:0:0:0:
203,230,549114,6,0,P|154:220|115:188,1,100,0|0,1:0|0:0,0:0:0:0:
196,131,549364,1,8,0:0:0:0:
293,274,549489,2,0,P|260:311|213:328,1,100,0|0,0:0|1:0,0:0:0:0:
287,175,549739,1,0,0:0:0:0:
375,218,549864,2,0,P|392:265|383:314,1,100,8|0,0:0|0:0,0:0:0:0:
213,327,550114,6,0,P|196:280|205:232,1,100,4|0,1:2|0:0,0:0:0:0:
286,175,550364,1,8,0:0:0:0:
381,312,550489,2,0,P|332:303|294:271,1,100,0|0,0:0|1:0,0:0:0:0:
286,175,550739,1,0,0:0:0:0:
453,165,550864,2,0,P|420:202|373:220,1,100,8|0,0:0|0:0,0:0:0:0:
89,101,551114,5,4,1:2:0:0:
106,75,551176,1,0,1:0:0:0:
131,56,551239,1,0,1:0:0:0:
160,46,551301,1,0,0:0:0:0:
192,47,551364,1,8,0:0:0:0:
221,57,551426,1,0,0:0:0:0:
245,76,551489,1,0,1:0:0:0:
263,102,551551,1,0,0:0:0:0:
271,133,551614,1,4,1:2:0:0:
278,163,551677,1,0,0:0:0:0:
296,189,551739,1,0,1:0:0:0:
320,208,551802,1,0,0:0:0:0:
349,218,551864,1,8,0:0:0:0:
381,219,551927,1,0,0:0:0:0:
410,209,551989,1,0,1:0:0:0:
435,190,552052,1,0,0:0:0:0:
452,165,552114,6,0,L|461:264,1,100,4|0,1:2|0:0,0:0:0:0:
470,363,552364,1,8,0:0:0:0:
290,280,552489,2,0,L|380:321,1,100,0|0,0:0|1:0,0:0:0:0:
470,363,552739,1,0,0:0:0:0:
309,192,552864,5,8,0:0:0:0:
284,191,552926,1,0,0:0:0:0:
259,196,552989,1,0,0:0:0:0:
237,207,553051,1,0,0:0:0:0:
219,224,553114,2,0,P|178:251|129:255,1,100,0|0,1:0|0:0,0:0:0:0:
49,194,553364,1,8,0:0:0:0:
163,67,553489,2,0,P|166:115|145:160,1,100,0|0,0:0|1:0,0:0:0:0:
49,194,553739,1,0,0:0:0:0:
112,350,553864,5,8,0:0:0:0:
125,328,553926,1,0,0:0:0:0:
132,304,553989,1,0,0:0:0:0:
133,279,554051,1,0,0:0:0:0:
128,255,554114,2,0,P|124:205|145:160,1,100,4|0,1:2|0:0,0:0:0:0:
236,128,554364,1,8,0:0:0:0:
400,159,554489,2,0,P|359:186|309:191,1,100,0|0,0:0|1:0,0:0:0:0:
236,128,554739,1,0,0:0:0:0:
400,159,554864,5,8,0:0:0:0:
417,171,554926,1,0,0:0:0:0:
434,191,554989,1,0,0:0:0:0:
444,213,555051,1,0,0:0:0:0:
449,237,555114,5,0,1:0:0:0:
446,243,555176,1,0,1:0:0:0:
443,249,555239,1,0,1:0:0:0:
440,255,555301,1,0,0:0:0:0:
438,261,555364,1,8,0:0:0:0:
435,265,555426,1,0,0:0:0:0:
432,270,555489,1,0,1:0:0:0:
430,276,555551,1,0,0:0:0:0:
426,281,555614,5,0,1:0:0:0:
396,303,555676,1,0,0:0:0:0:
359,310,555739,1,0,1:0:0:0:
322,302,555801,1,0,0:0:0:0:
293,277,555864,1,8,0:0:0:0:
276,244,555926,1,0,0:0:0:0:
274,207,555989,1,0,1:0:0:0:
288,173,556051,1,0,0:0:0:0:
315,146,556114,6,0,L|413:128,1,100,4|0,1:2|0:0,0:0:0:0:
511,114,556364,1,8,0:0:0:0:
276,244,556489,2,0,L|374:226,1,100,0|0,0:0|1:0,0:0:0:0:
473,212,556739,1,0,0:0:0:0:
344,358,556864,5,8,0:0:0:0:
318,355,556926,1,0,0:0:0:0:
295,350,556989,1,0,0:0:0:0:
270,345,557051,1,0,0:0:0:0:
245,343,557114,2,0,P|205:312|183:268,1,100,0|0,1:0|0:0,0:0:0:0:
207,172,557364,1,8,0:0:0:0:
374,225,557489,2,0,P|328:244|279:241,1,100,0|0,0:0|1:0,0:0:0:0:
207,172,557739,1,0,0:0:0:0:
61,24,557864,5,8,0:0:0:0:
48,46,557926,1,0,0:0:0:0:
42,70,557989,1,0,0:0:0:0:
40,95,558051,1,0,0:0:0:0:
46,119,558114,2,0,P|69:163|109:193,1,100,4|0,1:2|0:0,0:0:0:0:
207,172,558364,1,8,0:0:0:0:
172,7,558489,2,0,P|146:48|141:98,1,100,0|0,0:0|1:0,0:0:0:0:
207,172,558739,1,0,0:0:0:0:
332,61,558864,5,8,0:0:0:0:
308,57,558926,1,0,0:0:0:0:
283,58,558989,1,0,0:0:0:0:
259,66,559051,1,0,0:0:0:0:
237,78,559114,5,4,1:2:0:0:
236,83,559176,1,0,1:0:0:0:
234,89,559239,1,0,1:0:0:0:
232,95,559301,1,0,0:0:0:0:
230,101,559364,1,8,0:0:0:0:
228,107,559426,1,0,0:0:0:0:
226,113,559489,1,0,1:0:0:0:
224,119,559551,1,0,0:0:0:0:
223,124,559614,5,4,1:2:0:0:
211,160,559676,1,0,0:0:0:0:
187,188,559739,1,0,1:0:0:0:
153,204,559801,1,0,0:0:0:0:
116,204,559864,1,8,0:0:0:0:
81,190,559926,1,0,0:0:0:0:
55,163,559989,1,0,1:0:0:0:
43,128,560051,1,0,0:0:0:0:
45,91,560114,6,0,L|142:70,1,100,4|0,1:2|0:0,0:0:0:0:
307,122,560364,1,8,0:0:0:0:
179,239,560489,1,0,0:0:0:0:
240,48,560614,2,0,L|337:27,1,100,4|0,1:2|0:0,0:0:0:0:
277,218,560864,2,0,L|180:239,1,100,8|0,0:0|0:0,0:0:0:0:
307,122,561114,6,0,P|346:146|373:193,1,100,4|0,1:2|0:0,0:0:0:0:
209,143,561364,1,8,0:0:0:0:
179,239,561489,1,0,0:0:0:0:
252,313,561614,2,0,P|302:314|346:292,1,100,4|0,1:2|0:0,0:0:0:0:
466,213,561864,2,0,P|416:213|372:191,1,100,8|0,0:0|0:0,0:0:0:0:
431,16,562114,6,0,L|448:114,1,100,4|0,1:2|0:0,0:0:0:0:
233,50,562364,1,8,0:0:0:0:
331,32,562489,1,0,0:0:0:0:
258,223,562614,1,4,1:2:0:0:
238,207,562676,1,0,0:0:0:0:
222,188,562739,1,0,1:0:0:0:
211,166,562801,1,0,0:0:0:0:
204,142,562864,1,8,0:0:0:0:
203,117,562926,1,0,0:0:0:0:
208,93,562989,1,0,1:0:0:0:
217,70,563051,1,0,0:0:0:0:
232,49,563114,1,4,1:2:0:0:
256,192,563176,12,0,564989,0:0:0:0:
192,160,565114,5,0,1:0:0:0:
320,224,565239,1,0,1:0:0:0:
152,240,565489,5,0,1:0:0:0:
360,144,565614,1,0,1:0:0:0:
102,165,565864,5,0,1:0:0:0:
410,219,566114,1,0,1:0:0:0:
63,246,566364,1,8,1:0:0:0:
311,68,566614,6,0,B|293:172|293:172|256:197,1,149.999995422363,4|0,1:2|0:0,0:0:0:0:
117,215,567364,2,0,B|216:178|216:178|256:196,1,149.999995422363,4|0,1:2|0:0,0:0:0:0:
340,309,568114,2,0,B|260:239|260:239|256:196,1,149.999995422363,4|0,1:2|0:0,0:0:0:0:
385,68,568864,6,0,L|368:166,1,100,4|0,1:2|0:0,0:0:0:0:
129,75,569239,1,0,0:0:0:0:
129,75,569301,1,0,0:0:0:0:
129,75,569364,1,0,3:0:0:0:
77,223,569614,5,0,1:0:0:0:
160,252,569739,1,0,0:0:0:0:
213,107,569864,1,0,1:0:0:0:
144,164,569989,1,0,0:0:0:0:
243,284,570114,1,0,1:0:0:0:
229,194,570239,1,0,0:0:0:0:
90,310,570364,5,0,1:0:0:0:
243,284,570489,1,0,0:0:0:0:
213,107,570614,1,0,1:0:0:0:
160,253,570739,1,0,0:0:0:0:
329,315,570864,1,0,1:0:0:0:
229,194,570989,1,0,0:0:0:0:
175,347,571114,5,0,1:0:0:0:
315,230,571239,1,0,0:0:0:0:
213,107,571364,1,0,1:0:0:0:
243,284,571489,1,0,0:0:0:0:
401,262,571614,1,0,1:0:0:0:
229,194,571739,1,0,0:0:0:0:
395,345,571864,6,0,L|484:361,1,89.9999972534181,8|0,1:0|0:0,0:0:0:0:
115,288,572114,2,0,L|27:304,1,89.9999972534181,8|0,1:0|0:0,0:0:0:0:
395,231,572364,2,0,L|484:247,1,89.9999972534181,8|0,1:0|0:0,0:0:0:0:
27,158,572614,6,0,L|116:174,1,89.9999972534181,4|0,1:2|0:0,0:0:0:0:
342,43,572864,2,0,L|283:112,1,89.9999972534181,0|0,1:0|0:0,0:0:0:0:
284,373,573114,2,0,L|253:287,1,89.9999972534181,8|0,1:0|0:0,0:0:0:0:
430,59,573364,6,0,L|371:128,1,89.9999972534181,4|0,1:2|0:0,0:0:0:0:
84,88,573614,2,0,L|173:104,1,89.9999972534181,0|0,1:0|0:0,0:0:0:0:
284,373,573864,2,0,L|253:287,1,89.9999972534181,8|0,1:0|0:0,0:0:0:0:
230,35,574114,6,0,L|260:119,1,89.9999972534181,4|0,1:2|0:0,0:0:0:0:
290,203,574364,1,0,1:0:0:0:
57,240,574489,2,0,L|115:171,1,89.9999972534181,0|8,0:0|1:0,0:0:0:0:
172,103,574739,1,0,0:0:0:0:
322,288,574864,6,0,L|233:272,1,89.9999972534181,4|0,1:2|0:0,0:0:0:0:
172,103,575114,2,0,L|230:34,1,89.9999972534181,0|0,1:0|0:0,0:0:0:0:
407,65,575364,2,0,L|437:149,1,89.9999972534181,8|0,1:0|0:0,0:0:0:0:
233,272,575614,6,0,L|321:287,1,89.9999972534181,4|0,1:2|0:0,0:0:0:0:
172,103,575864,2,0,L|260:87,1,89.9999972534181,0|0,1:0|0:0,0:0:0:0:
113,339,576114,2,0,L|143:254,1,89.9999972534181,8|0,1:0|0:0,0:0:0:0:
51,33,576364,6,0,L|81:118,1,89.9999972534181,4|0,1:2|0:0,0:0:0:0:
232,272,576614,2,0,L|262:187,1,89.9999972534181,0|0,1:0|0:0,0:0:0:0:
407,65,576864,2,0,L|437:149,1,89.9999972534181,8|0,1:0|0:0,0:0:0:0:
177,156,577114,6,0,P|206:118|256:98,1,89.9999972534181,4|0,1:2|0:0,0:0:0:0:
316,303,577364,2,0,P|287:341|237:361,1,89.9999972534181,0|0,1:0|0:0,0:0:0:0:
88,141,577614,2,0,L|176:155,1,89.9999972534181,8|0,1:0|0:0,0:0:0:0:
404,317,577864,6,0,L|315:302,1,89.9999972534181,4|0,1:2|0:0,0:0:0:0:
30,240,578114,2,0,L|118:225,1,89.9999972534181,0|0,1:0|0:0,0:0:0:0:
460,222,578364,1,8,1:0:0:0:
437,225,578426,1,0,0:0:0:0:
415,228,578489,1,0,0:0:0:0:
393,232,578551,1,0,0:0:0:0:
370,235,578614,6,0,P|335:261|315:301,1,89.9999972534181,4|0,1:2|0:0,0:0:0:0:
266,184,578864,1,0,1:0:0:0:
203,289,578989,1,0,0:0:0:0:
162,121,579114,1,8,1:0:0:0:
98,225,579239,1,0,0:0:0:0:
100,54,579364,6,0,P|138:32|183:31,1,89.9999972534181,4|0,1:2|0:0,0:0:0:0:
223,181,579614,2,0,P|184:158|161:120,1,89.9999972534181,0|0,1:0|0:0,0:0:0:0:
275,16,579864,1,8,1:0:0:0:
276,38,579926,1,0,0:0:0:0:
272,60,579989,1,0,0:0:0:0:
263,81,580051,1,0,0:0:0:0:
249,98,580114,6,0,P|225:135|222:180,1,89.9999972534181,4|0,1:2|0:0,0:0:0:0:
379,267,580364,1,0,1:0:0:0:
420,99,580489,1,0,0:0:0:0:
315,162,580614,1,8,1:0:0:0:
483,203,580739,1,0,0:0:0:0:
249,98,580864,5,4,1:2:0:0:
235,117,580926,1,0,0:0:0:0:
226,137,580989,1,0,0:0:0:0:
223,159,581051,1,0,0:0:0:0:
225,182,581114,1,0,1:0:0:0:
232,203,581176,1,0,0:0:0:0:
245,222,581239,1,0,0:0:0:0:
261,237,581301,1,0,0:0:0:0:
281,248,581364,1,8,1:0:0:0:
303,253,581426,1,0,0:0:0:0:
325,254,581489,1,0,0:0:0:0:
347,249,581551,1,0,0:0:0:0:
367,238,581614,5,4,1:2:0:0:
135,202,581864,5,0,1:0:0:0:
315,162,582114,5,0,1:0:0:0:
42,366,582364,5,4,1:2:0:0:
136,353,582614,1,0,1:0:0:0:
230,340,582864,1,0,1:0:0:0:
324,327,583114,6,0,L|330:356,5,29.9999990844727,4|0|0|0|0|0,1:2|0:0|0:0|0:0|1:0|0:0,0:0:0:0:
272,222,583489,6,0,L|267:251,5,29.9999990844727,0|0|0|0|0|0,0:0|0:0|1:0|0:0|0:0|0:0,0:0:0:0:
187,123,583864,5,4,1:2:0:0:
211,140,583926,1,0,0:0:0:0:
239,147,583989,1,0,0:0:0:0:
269,143,584051,1,0,0:0:0:0:
294,128,584114,1,0,1:0:0:0:
338,108,584176,1,0,0:0:0:0:
385,116,584239,1,0,0:0:0:0:
422,147,584301,1,0,0:0:0:0:
436,193,584364,1,8,1:0:0:0:
424,239,584426,1,8,1:0:0:0:
389,272,584489,1,8,1:0:0:0:
342,282,584551,1,8,1:0:0:0:
294,263,584614,38,2,B|235:242|192:278|186:328|186:328|234:285|227:231|182:196|182:196|111:147|143:15|282:16|324:108|303:158|277:184,1,650.167801880492,4|0,1:2|0:0,0:0:0:0:
130,245,586614,6,0,P|80:120|157:11,1,278.422273781903,4|0,1:2|0:0,0:0:0:0:
293,126,587614,6,0,L|224:138,1,69.9999978637696,4|0,1:2|0:0,0:0:0:0:
370,114,587864,1,0,1:0:0:0:
404,185,587989,1,0,1:0:0:0:
438,256,588114,6,0,L|506:268,1,69.9999978637696,4|0,1:2|0:0,0:0:0:0:
475,151,588364,1,0,1:0:0:0:
404,185,588489,1,0,1:0:0:0:
333,219,588614,6,0,L|195:284,1,139.999995727539,4|0,1:2|0:0,0:0:0:0:
206,159,588989,2,0,L|344:224,1,139.999995727539,2|0,0:0|0:0,0:0:0:0:
333,338,589364,2,0,L|269:308,1,69.9999978637696,2|0,1:2|1:0,0:0:0:0:
509,371,589614,6,0,P|508:335|494:303,1,69.9999978637696,6|0,1:2|0:0,0:0:0:0:
333,338,589864,1,0,1:0:0:0:
421,355,589989,1,0,1:0:0:0:
464,219,590114,6,0,L|457:175,3,44.999998626709,6|0|0|0,1:2|0:0|0:0|0:0,0:0:0:0:
340,293,590364,2,0,L|332:337,3,44.999998626709,2|0|0|0,1:2|0:0|1:0|0:0,0:0:0:0:
310,182,590614,5,6,1:2:0:0:
284,179,590676,1,0,0:0:0:0:
259,183,590739,1,0,0:0:0:0:
235,191,590801,1,0,0:0:0:0:
215,205,590864,1,8,0:0:0:0:
198,223,590926,1,0,0:0:0:0:
184,244,590989,1,2,0:2:0:0:
176,267,591051,1,0,0:0:0:0:
172,293,591114,6,0,L|179:337,3,44.999998626709,0|0|0|0,1:0|0:0|0:0|0:0,0:0:0:0:
47,219,591364,2,0,L|55:175,3,44.999998626709,8|0|0|0,0:0|0:0|0:0|0:0,0:0:0:0:
59,59,591614,5,0,1:0:0:0:
81,81,591676,1,0,0:0:0:0:
107,95,591739,1,0,0:0:0:0:
136,102,591801,1,0,0:0:0:0:
166,101,591864,1,8,0:0:0:0:
194,92,591926,1,0,0:0:0:0:
219,76,591989,1,0,0:0:0:0:
243,59,592051,1,0,0:0:0:0:
272,50,592114,1,0,1:0:0:0:
302,49,592176,1,0,0:0:0:0:
331,56,592239,1,0,0:0:0:0:
357,70,592301,1,0,0:0:0:0:
378,92,592364,6,0,L|370:136,1,44.999998626709,8|0,0:0|0:0,0:0:0:0:
476,235,592489,2,0,L|468:190,1,44.999998626709,0|0,1:0|0:0,0:0:0:0:
281,151,592614,6,0,P|298:192|334:219,1,89.9999972534181,4|0,1:2|0:0,0:0:0:0:
445,319,592864,2,0,L|356:334,1,89.9999972534181,8|0,0:0|0:0,0:0:0:0:
155,280,593114,2,0,L|243:295,1,89.9999972534181,2|0,1:2|0:0,0:0:0:0:
171,170,593364,1,8,0:0:0:0:
51,321,593489,1,2,0:2:0:0:
19,143,593614,6,0,L|4:55,1,89.9999972534181,6|0,1:2|0:0,0:0:0:0:
186,81,593864,2,0,L|171:169,1,89.9999972534181,8|0,0:0|0:0,0:0:0:0:
51,321,594114,2,0,L|36:233,1,89.9999972534181,2|0,1:2|0:0,0:0:0:0:
155,257,594364,2,0,L|139:345,1,89.9999972534181,8|0,0:0|0:0,0:0:0:0:
236,305,594614,5,6,1:2:0:0:
252,289,594676,1,0,0:0:0:0:
271,279,594739,1,0,0:0:0:0:
294,275,594801,1,0,0:0:0:0:
316,277,594864,1,8,0:0:0:0:
337,286,594926,1,0,0:0:0:0:
354,299,594989,1,0,0:0:0:0:
373,313,595051,1,0,0:0:0:0:
394,321,595114,1,0,1:0:0:0:
416,323,595176,1,0,0:0:0:0:
438,319,595239,1,0,0:0:0:0:
458,309,595301,1,0,0:0:0:0:
475,295,595364,2,0,P|492:255|484:196,1,89.9999972534181,8|0,0:0|0:0,0:0:0:0:
339,116,595614,6,0,P|365:151|405:171,1,89.9999972534181,6|0,1:2|0:0,0:0:0:0:
427,76,595864,1,8,0:0:0:0:
415,56,595926,1,0,0:0:0:0:
400,40,595989,1,0,0:0:0:0:
381,28,596051,1,0,0:0:0:0:
360,20,596114,2,0,P|315:20|276:41,1,89.9999972534181,2|0,1:2|0:0,0:0:0:0:
257,214,596364,2,0,L|242:126,1,89.9999972534181,8|0,0:0|0:0,0:0:0:0:
10,216,596614,6,0,L|93:247,1,89.9999972534181,6|0,1:2|0:0,0:0:0:0:
276,59,596864,1,8,0:0:0:0:
94,92,596989,1,0,0:0:0:0:
322,148,597114,1,0,1:0:0:0:
140,181,597239,1,0,0:0:0:0:
368,237,597364,1,8,0:0:0:0:
186,270,597489,1,2,0:2:0:0:
427,123,597614,6,0,P|415:165|384:198,1,89.9999972534181,4|0,1:2|0:0,0:0:0:0:
102,175,597864,2,0,P|152:142|186:139,1,89.9999972534181,8|0,0:0|0:0,0:0:0:0:
393,326,598114,2,0,P|349:327|309:308,1,89.9999972534181,2|0,1:2|0:0,0:0:0:0:
196,357,598364,2,0,P|180:299|188:265,1,89.9999972534181,8|0,0:0|0:0,0:0:0:0:
246,33,598615,5,6,1:2:0:0:
266,41,598677,1,0,0:0:0:0:
284,55,598740,1,0,0:0:0:0:
298,72,598802,1,0,0:0:0:0:
308,92,598865,1,8,0:0:0:0:
312,115,598927,1,0,0:0:0:0:
311,137,598990,1,0,0:0:0:0:
305,158,599052,1,0,0:0:0:0:
293,178,599114,5,2,1:2:0:0:
281,221,599176,1,0,0:0:0:0:
286,265,599239,1,0,0:0:0:0:
307,304,599301,1,0,0:0:0:0:
342,333,599364,1,8,0:0:0:0:
385,346,599426,1,0,0:0:0:0:
429,342,599489,1,0,0:0:0:0:
469,322,599551,1,0,0:0:0:0:
499,288,599614,6,0,L|491:243,1,44.999998626709,6|0,1:2|0:0,0:0:0:0:
458,115,599739,2,0,L|450:159,1,44.999998626709,2|0,1:2|0:0,0:0:0:0:
402,300,599864,6,0,L|394:255,1,44.999998626709,2|0,0:2|0:0,0:0:0:0:
361,103,599989,2,0,L|353:147,1,44.999998626709,2|0,1:2|0:0,0:0:0:0:
305,312,600114,6,0,L|297:267,1,44.999998626709,6|0,1:2|0:0,0:0:0:0:
264,91,600239,2,0,L|256:135,1,44.999998626709,2|0,1:2|0:0,0:0:0:0:
208,324,600364,6,0,L|200:279,1,44.999998626709,2|0,0:2|0:0,0:0:0:0:
167,79,600489,2,0,L|159:123,1,44.999998626709,2|0,1:2|0:0,0:0:0:0:
87,380,600614,6,0,L|103:291,1,89.9999972534181,6|0,1:2|0:0,0:0:0:0:
295,193,600864,1,8,0:0:0:0:
149,212,600989,1,0,0:0:0:0:
105,209,601051,1,0,0:0:0:0:
69,183,601114,1,0,1:0:0:0:
53,141,601176,1,0,0:0:0:0:
63,98,601239,1,0,0:0:0:0:
95,67,601301,1,0,0:0:0:0:
138,58,601364,1,8,0:0:0:0:
180,74,601426,1,0,0:0:0:0:
220,92,601488,1,0,0:0:0:0:
264,91,601551,1,0,0:0:0:0:
304,69,601614,6,0,P|338:42|382:31,1,89.9999972534181,4|0,1:2|0:0,0:0:0:0:
473,225,601864,1,8,0:0:0:0:
295,193,601989,2,0,L|206:177,1,89.9999972534181,0|0,0:0|1:0,0:0:0:0:
442,140,602239,1,0,0:0:0:0:
367,297,602364,2,0,L|278:281,1,89.9999972534181,8|0,0:0|0:0,0:0:0:0:
372,76,602614,6,0,P|408:50|452:44,1,89.9999972534181,4|0,1:2|0:0,0:0:0:0:
384,210,602864,1,8,0:0:0:0:
253,94,602989,1,0,0:0:0:0:
210,81,603051,1,0,0:0:0:0:
166,89,603114,1,0,1:0:0:0:
131,117,603176,1,0,0:0:0:0:
112,157,603239,1,0,0:0:0:0:
113,202,603301,1,0,0:0:0:0:
135,241,603364,1,8,0:0:0:0:
172,265,603426,1,0,0:0:0:0:
209,289,603488,1,0,0:0:0:0:
231,328,603551,1,0,0:0:0:0:
234,373,603614,6,0,L|323:357,1,89.9999972534181,4|0,1:2|1:0,0:0:0:0:
438,217,603864,1,8,0:0:0:0:
260,249,603989,2,0,L|171:265,1,89.9999972534181,0|0,0:0|1:0,0:0:0:0:
71,121,604239,1,0,0:0:0:0:
249,153,604365,2,0,L|338:169,1,89.9999972534181,8|0,0:0|0:0,0:0:0:0:
96,212,604614,6,0,L|7:228,1,89.9999972534181,4|0,1:2|0:0,0:0:0:0:
96,30,604864,1,8,0:0:0:0:
170,118,604989,1,0,0:0:0:0:
205,145,605051,1,0,0:0:0:0:
249,153,605114,1,0,1:0:0:0:
292,141,605176,1,0,0:0:0:0:
324,110,605239,1,0,0:0:0:0:
356,80,605301,1,0,0:0:0:0:
399,68,605364,1,8,0:0:0:0:
442,78,605426,1,0,0:0:0:0:
476,107,605489,1,0,0:0:0:0:
492,149,605551,1,0,0:0:0:0:
486,193,605614,6,0,P|467:233|433:261,1,89.9999972534181,4|0,1:2|0:0,0:0:0:0:
226,237,605864,2,0,P|270:233|312:249,1,89.9999972534181,8|0,0:0|0:0,0:0:0:0:
115,339,606114,2,0,L|99:250,1,89.9999972534181,0|0,1:0|0:0,0:0:0:0:
345,358,606364,2,0,L|257:342,1,89.9999972534181,8|0,0:0|0:0,0:0:0:0:
144,100,606614,5,4,1:2:0:0:
181,63,606676,1,0,0:0:0:0:
226,36,606739,1,0,0:0:0:0:
276,21,606801,1,0,0:0:0:0:
328,19,606864,1,8,0:0:0:0:
380,30,606926,1,0,0:0:0:0:
427,53,606989,5,0,0:0:0:0:
404,100,607052,1,0,0:0:0:0:
393,152,607114,1,0,1:0:0:0:
395,204,607177,1,0,0:0:0:0:
410,254,607239,1,0,0:0:0:0:
437,299,607302,1,0,0:0:0:0:
474,336,607364,6,0,P|376:301|276:329,1,209.999993591309,8|0,0:0|0:0,0:0:0:0:
167,345,607614,6,0,L|184:246,1,100,4|0,1:2|0:0,0:0:0:0:
268,230,607801,1,0,0:0:0:0:
268,230,607864,2,0,L|250:131,1,100,8|0,0:0|0:0,0:0:0:0:
337,27,608114,6,0,L|248:42,1,89.9999972534181,4|0,1:2|0:0,0:0:0:0:
161,115,608364,2,0,L|250:131,1,89.9999972534181,8|0,0:0|0:0,0:0:0:0:
108,27,608614,6,0,P|59:99|83:183,1,179.999994506836,4|8,1:2|0:0,0:0:0:0:
161,115,608989,1,0,0:0:0:0:
267,250,609114,2,0,L|179:233,1,89.9999972534181,4|0,1:2|0:0,0:0:0:0:
0,307,609364,2,0,L|87:290,1,89.9999972534181,8|0,0:0|0:0,0:0:0:0:
180,341,609551,1,0,0:0:0:0:
180,341,609614,6,0,L|267:357,1,89.9999972534181,4|0,1:2|0:0,0:0:0:0:
447,313,609864,2,0,P|405:297|360:302,1,89.9999972534181,8|0,0:0|0:0,0:0:0:0:
266,144,610114,2,0,P|312:154|351:186,1,89.9999972534181,4|0,1:2|0:0,0:0:0:0:
446,32,610364,2,0,L|359:55,1,89.9999972534181,8|0,0:0|0:0,0:0:0:0:
180,273,610614,6,0,L|266:249,1,89.9999972534181,4|0,1:2|0:0,0:0:0:0:
123,17,610864,1,8,0:0:0:0:
112,208,610989,1,0,1:0:0:0:
279,19,611114,2,0,P|325:29|364:61,1,89.9999972534181,4|0,1:2|0:0,0:0:0:0:
352,272,611364,1,8,0:0:0:0:
284,116,611489,1,0,1:0:0:0:
112,208,611614,6,0,L|266:249,1,160,4|8,1:2|0:0,0:0:0:0:
485,158,612114,5,4,1:2:0:0:
470,158,612176,1,0,0:0:0:0:
455,162,612239,1,0,0:0:0:0:
442,169,612301,1,0,0:0:0:0:
430,178,612364,1,8,0:0:0:0:
420,189,612426,1,0,0:0:0:0:
412,202,612489,1,0,0:0:0:0:
407,216,612551,1,0,0:0:0:0:
404,231,612614,6,0,P|343:299|266:249,1,200,4|0,1:2|0:0,0:0:0:0:
329,37,613364,6,0,L|321:87,1,50,2|0,2:0|1:0,0:0:0:0:
302,100,613551,1,0,1:0:0:0:
283,114,613614,2,0,L|274:163,1,50,0|0,1:0|0:0,0:0:0:0:
113,139,613989,6,0,P|159:122|207:134,1,100,0|0,1:0|1:0,0:0:0:0:
164,209,614457,2,0,L|168:258,1,50,0|0,0:0|0:0,0:0:0:0:
82,283,614836,2,0,P|151:347|239:311,1,200,4|2,0:2|0:2,0:0:0:0:
347,253,616133,6,0,L|334:321,1,69.9999978637696,0|0,1:0|0:0,0:0:0:0:
299,185,616770,2,0,L|269:248,1,69.9999978637696,0|0,1:0|0:0,0:0:0:0:
270,106,617618,5,4,0:2:0:0:
256,192,617690,12,4,625694,0:2:0:0:
