osu file format v14

[General]
AudioFilename: audio.mp3
AudioLeadIn: 0
PreviewTime: -1
Countdown: 1
SampleSet: Normal
StackLeniency: 0.7
Mode: 0
LetterboxInBreaks: 0
WidescreenStoryboard: 1

[Editor]
Bookmarks: 1216,39616,49216,91216,100816,111616,121216,130816,140416,150016,158416,159616,175216,212416,231616,232816,242416,252016,260716,261616,271216,280816,290416,300016,309616,319216,328816,338416,348016,357916,367216,376816,386416,396016,405616,415216,424816,434416,443716,446116,448103,503603,504103,524103,544103,565103,584603
DistanceSpacing: 1.5
BeatDivisor: 4
GridSize: 4
TimelineZoom: 1.8

[Metadata]
Title:osu!favourites
TitleUnicode:osu!favourites
Artist:SakiZ
ArtistUnicode:SakiZ
Creator:[ Lilu ]
Version:Community
Source:
Tags:xlolicore krowzin eraser glasand ohwow shiratoi kuro yuki akitoshi DTM9 nowa kawaiikitsun lince cosmico tae turquoise2 vezagera xvoir coppertine
BeatmapID:1306174
BeatmapSetID:619683

[Difficulty]
HPDrainRate:6
CircleSize:4
OverallDifficulty:9
ApproachRate:9.5
SliderMultiplier:1.3999999666214
SliderTickRate:1

[Events]
//Background and Video events
0,0,"bgwedges.jpg",0,0
//Break Periods
2,197466,211816
2,425016,433816
2,443916,444916
//Storyboard Layer 0 (Background)
//Storyboard Layer 1 (Fail)
//Storyboard Layer 2 (Pass)
//Storyboard Layer 3 (Foreground)
//Storyboard Sound Samples

[TimingPoints]
1216,300,4,1,0,40,1,0
10816,-416.666666666667,4,1,0,40,0,0
20416,-133.333333333333,4,1,0,40,0,0
21616,-400,4,1,0,40,0,0
22816,-133.333333333333,4,1,0,40,0,0
24016,-200,4,1,0,40,0,0
25216,-133.333333333333,4,1,0,40,0,0
27616,-400,4,1,0,40,0,0
30016,-133.333333333333,4,1,0,40,0,0
34816,-100,4,1,0,40,0,0
39616,-100,4,2,0,40,0,0
40216,-66.6666666666667,4,2,0,40,0,0
41416,-100,4,2,0,40,0,0
42616,-66.6666666666667,4,2,0,40,0,0
43816,-100,4,2,0,40,0,0
44416,-66.6666666666667,4,2,0,40,0,0
45616,-100,4,2,0,40,0,0
47416,-66.6666666666667,4,2,0,40,0,0
49216,-83.3333333333333,4,1,0,40,0,0
78016,-142.857142857143,4,1,0,40,0,0
81616,-100,4,1,0,40,0,0
82066,-142.857142857143,4,1,0,40,0,0
85216,-90.9090909090909,4,1,0,40,0,0
87616,-83.3333333333333,4,1,0,40,0,0
91216,-55.5555555555556,4,1,0,40,0,0
92416,-50,4,1,0,40,0,0
93766,-133.333333333333,4,1,0,40,0,0
93916,-50,4,1,0,40,0,0
98566,-133.333333333333,4,1,0,40,0,0
98716,-50,4,1,0,40,0,0
102016,-52.6315789473684,4,1,0,40,0,0
102616,-73.5294117647059,4,1,0,40,0,0
103516,-50,4,1,0,40,0,0
103816,-67.5675675675676,4,1,0,40,0,0
104416,-52.6315789473684,4,1,0,40,0,0
105616,-61.3496932515337,4,1,0,40,0,0
105916,-62.5,4,1,0,40,0,0
106516,-61.3496932515337,4,1,0,40,0,0
106816,-52.6315789473684,4,1,0,40,0,0
107416,-73.5294117647059,4,1,0,40,0,0
108316,-50,4,1,0,40,0,0
108616,-67.5675675675676,4,1,0,40,0,0
109216,-52.6315789473684,4,1,0,40,0,0
111616,-100,4,1,0,40,0,0
111916,-76.9230769230769,4,1,0,40,0,0
112216,-66.6666666666667,4,1,0,40,0,0
112516,-76.9230769230769,4,1,0,40,0,0
112816,-66.6666666666667,4,1,0,40,0,0
113416,-57.1428571428571,4,1,0,40,0,0
113716,-50,4,1,0,40,0,0
114016,-100,4,1,0,40,0,0
114316,-66.6666666666667,4,1,0,40,0,0
114616,-76.9230769230769,4,1,0,40,0,0
114916,-76.9230769230769,4,1,0,40,0,0
115216,-57.1428571428571,4,1,0,40,0,0
116116,-66.6666666666667,4,1,0,40,0,0
116416,-76.9230769230769,4,1,0,40,0,0
116716,-66.6666666666667,4,1,0,40,0,0
117616,-100,4,1,0,40,0,0
117916,-66.6666666666667,4,1,0,40,0,0
118216,-57.1428571428571,4,1,0,40,0,0
118516,-50,4,1,0,40,0,0
119116,-66.6666666666667,4,1,0,40,0,0
120616,-57.1428571428571,4,1,0,40,0,0
121216,-72.9166666665907,4,1,0,40,0,0
121666,-50,4,1,0,40,0,0
122566,-58.3333333331875,4,1,0,40,0,0
123016,-50,4,1,0,40,0,0
123616,-72.992700729927,4,1,0,40,0,0
124066,-50,4,1,0,40,0,0
124966,-72.992700729927,4,1,0,40,0,0
125416,-50,4,1,0,40,0,0
126016,-72.992700729927,4,1,0,40,0,0
126466,-50,4,1,0,40,0,0
127366,-72.992700729927,4,1,0,40,0,0
127816,-50,4,1,0,40,0,0
128416,-58.1395348837209,4,1,0,40,0,0
128866,-50,4,1,0,40,0,0
130816,-76.9230769230769,4,1,0,40,0,0
142216,-90.9090909090909,4,1,0,40,0,0
147616,-71.4285714285714,4,1,0,40,0,0
159616,-83.3333333333333,4,1,0,40,0,0
174016,-166.666666666667,4,2,1,100,0,0
192016,-125,4,2,1,100,0,0
193216,-83.3333333333333,4,2,1,100,0,0
212416,-200,4,1,0,40,0,0
214516,-166.666666666667,4,1,0,40,0,0
217216,-133.333333333333,4,1,0,40,0,0
223066,-76.9230769230769,4,1,0,40,0,0
226816,-100,4,1,0,40,0,0
231616,-200,4,1,0,40,0,0
232516,-416.666666666667,4,1,0,40,0,0
232816,-50,4,1,0,40,0,0
241816,-71.4285714285714,4,1,0,40,0,0
242416,-69.9300699300699,4,1,0,40,0,0
252016,-69.9300699300699,4,1,0,40,0,0
261616,-62.5,4,1,0,40,0,0
271216,-66.6666666666667,4,1,0,40,0,0
280816,-93.4579439252336,4,1,0,40,0,0
290416,-100,4,1,0,40,0,0
300016,-76.9230769230769,4,1,0,40,0,0
309616,-66.6666666666667,4,1,0,40,0,0
319216,-71.4285714285714,4,1,0,40,0,0
328816,-77.5193798449612,4,1,0,40,0,0
329866,-76.9230769230769,4,1,0,40,0,0
330316,-77.5193798449612,4,1,0,40,0,0
338416,-66.6666666666667,4,1,0,40,0,0
347416,-83.3333333333333,4,1,0,40,0,0
357916,-90.9090909090909,4,1,0,40,0,0
376816,-83.3333333333333,4,1,0,40,0,0
386416,-66.6666666666667,4,1,0,40,0,0
394816,-62.5,4,1,0,40,0,0
402016,-50,4,1,0,40,0,0
405616,-72.463768115942,4,1,0,40,0,0
415216,-71.4285714285714,4,1,0,40,0,0
418516,-66.6666666666667,4,1,0,40,0,0
419416,-71.4285714285714,4,1,0,40,0,0
424816,-58.8235294117647,4,1,0,40,0,0
443716,1200,4,1,0,40,1,0
443716,-100,4,1,0,40,0,0
446116,300,4,1,0,40,1,0
447991,-100,4,1,0,40,0,0
448103,250,4,1,0,40,1,0
448103,-100,4,1,0,40,0,0
456103,-83.3333333333333,4,1,0,40,0,0
503603,-200,4,1,0,40,0,0
504103,-66.6666666666667,4,1,0,40,0,0
508103,-66.6666666666667,4,1,0,40,0,0
509103,-66.6666666666667,4,1,0,40,0,0
510103,-66.6666666666667,4,1,0,40,0,0
510603,-66.6666666666667,4,1,0,40,0,0
511103,-66.6666666666667,4,1,0,40,0,0
511603,-66.6666666666667,4,1,0,40,0,0
512103,-62.5,4,1,0,40,0,0
516103,-62.5,4,1,0,40,0,0
517103,-62.5,4,1,0,40,0,0
518103,-62.5,4,1,0,40,0,0
519103,-62.5,4,1,0,40,0,0
520103,-62.5,4,1,0,40,0,0
520603,-62.5,4,1,0,40,0,0
521103,-62.5,4,1,0,40,0,0
521603,-62.5,4,1,0,40,0,0
521978,-1000,4,1,0,40,0,0
523603,-1000,4,1,0,40,0,0
523853,-1000,4,1,0,40,0,0
524103,-100,4,1,0,40,0,0
524603,-100,4,1,0,40,0,0
526103,-151.515151515152,4,1,0,40,0,0
527603,-100,4,1,0,40,0,0
544103,-83.3333333333333,4,1,0,40,0,0
566603,250,3,1,0,40,1,0
584603,-666.666666666667,4,1,0,40,0,0
586603,-666.666666666667,4,1,0,40,0,0
588603,-181.818181818182,4,1,0,40,0,0
589603,-90.9090909090909,4,1,0,40,0,0
591603,-66.6666666666667,4,1,0,40,0,0
612603,250,4,1,0,40,1,0
612603,-333.333333333334,4,1,0,40,0,0
613603,375,4,1,0,40,1,0
613978,315.789473684211,4,1,0,40,1,0
614293,352.941176470588,4,1,0,40,1,0
614645,400,4,1,0,40,1,0
614845,342.857142857143,4,1,0,40,1,0
614845,-166.666666666667,4,1,0,40,0,0
615530,300,4,1,0,40,1,0
616130,-181.818181818182,4,1,0,40,0,0
616430,333.333333333333,4,1,0,40,1,0
616763,379.746835443038,4,1,0,40,1,0
617142,458.015267175573,4,1,0,40,1,0
617603,250,4,1,0,40,1,0
617603,-200,4,1,0,40,0,0

[HitObjects]
256,192,1216,5,0,0:0:0:0:
256,192,1291,12,0,6016,0:0:0:0:
256,192,6091,12,0,10516,0:0:0:0:
256,192,10816,6,0,B|493:175|373:-85|173:138|422:206,1,436.799986919861
344,263,15616,6,0,B|296:287|256:263|256:263|216:287|168:263|168:263|146:195|146:195|155:182|213:199|213:199|257:178|287:194,1,403.200000230713
426,112,20416,6,0,P|421:165|379:209,1,105.000001502037
237,143,20866,2,0,P|283:122|335:128,1,105.000001502037
359,291,21316,2,0,P|322:272|306:249,1,52.5000007510186
237,143,21616,6,0,L|221:269,1,122.499997079373
128,288,22816,6,0,L|141:183,1,104.999997496605
215,322,23266,2,0,L|228:217,1,104.999997496605
302,356,23716,2,0,L|308:303,1,52.5000007510186
336,160,24016,6,0,B|332:132|392:62|453:64|468:174|327:127|330:54,1,244.999994158745
416,240,25216,6,0,L|432:352,1,105.000001502037
273,224,25666,2,0,P|246:167|254:119,1,105.000001502037
160,320,26116,2,0,B|100:336|100:336|48:320,1,105.000001502037
58,323,26716,1,0,0:0:0:0:
96,240,26866,1,0,0:0:0:0:
256,320,27016,2,0,P|304:317|344:290,2,78.7500011265279
189,212,27616,6,0,P|150:157|95:142,1,122.499997079373
96,240,28816,2,0,P|135:295|190:310,1,122.499997079373
285,228,30016,6,0,B|397:196|397:196|365:244,1,157.500002253056
285,324,30616,1,0,0:0:0:0:
285,324,30766,1,0,0:0:0:0:
269,148,30916,1,0,0:0:0:0:
269,148,31066,1,0,0:0:0:0:
189,212,31216,6,0,P|168:172|174:122,2,78.7500011265279
285,228,31966,1,0,0:0:0:0:
368,176,32266,1,0,0:0:0:0:
368,176,32416,6,0,B|378:138|377:80|316:98|357:44|392:56|386:93,1,157.500002253056
269,148,33016,1,0,0:0:0:0:
269,148,33166,1,0,0:0:0:0:
224,304,33316,1,0,0:0:0:0:
224,304,33466,1,0,0:0:0:0:
368,288,33616,6,0,L|480:304,1,105.000001502037
224,304,34066,1,0,0:0:0:0:
128,288,34366,1,0,0:0:0:0:
192,208,34666,1,0,0:0:0:0:
192,208,34816,6,0,P|235:202|277:216,1,69.99999833107
336,240,35116,2,0,P|370:266|390:305,1,69.99999833107
352,160,35416,2,0,P|332:131|303:111,1,69.99999833107
227,79,35716,2,0,P|192:72|158:79,1,69.99999833107
64,192,36016,6,0,L|48:112,1,69.99999833107
213,147,36316,2,0,L|229:67,1,69.99999833107
64,272,36616,2,0,L|48:192,1,69.99999833107
213,227,36916,2,0,L|229:147,1,69.99999833107
256,192,37216,12,0,39316,0:0:0:0:
132,148,39616,6,0,L|139:221,1,69.99999833107
322,301,39916,2,0,L|313:226,1,69.99999833107
205,94,40216,6,0,L|217:217,1,105.000001502037
403,332,40516,2,0,L|386:207,1,105.000001502037
358,49,40816,5,0,0:0:0:0:
287,135,40966,1,0,0:0:0:0:
472,90,41116,1,0,0:0:0:0:
249,32,41266,1,0,0:0:0:0:
464,189,41416,6,0,L|381:134,1,69.99999833107
146,55,41716,2,0,L|229:110,1,69.99999833107
322,301,42016,6,0,L|312:216,1,69.99999833107
132,148,42316,2,0,L|142:233,1,69.99999833107
254,372,42616,6,0,L|235:234,1,105.000001502037
51,120,42916,2,0,L|67:258,1,105.000001502037
86,381,43216,5,0,0:0:0:0:
164,324,43366,1,0,0:0:0:0:
3,282,43516,1,0,0:0:0:0:
239,267,43666,1,0,0:0:0:0:
76,51,43816,6,0,L|168:55,1,69.99999833107
472,90,44116,2,0,L|380:96,1,69.99999833107
164,324,44416,6,0,L|150:216,1,105.000001502037
313,49,44716,2,0,L|328:164,1,105.000001502037
346,320,45016,5,0,0:0:0:0:
239,267,45166,1,0,0:0:0:0:
430,187,45316,1,0,0:0:0:0:
222,161,45466,1,0,0:0:0:0:
448,336,45616,6,0,L|424:261,1,69.99999833107
204,93,45916,2,0,L|223:168,1,69.99999833107
270,347,46216,5,0,0:0:0:0:
311,250,46366,1,0,0:0:0:0:
76,328,46516,2,0,B|82:294|82:294|69:267|69:267|77:204,1,104.999997496605
94,113,46816,6,0,L|133:180,1,69.99999833107
430,187,47116,2,0,L|391:120,1,69.99999833107
165,71,47416,6,0,L|235:183,1,105.000001502037
368,360,47716,1,0,0:0:0:0:
311,250,47866,1,0,0:0:0:0:
191,286,48016,5,0,0:0:0:0:
488,345,48466,1,0,0:0:0:0:
279,64,48916,1,0,0:0:0:0:
373,56,49216,6,0,L|272:51,1,83.9999974365235
248,136,49516,1,0,0:0:0:0:
204,40,49666,1,0,0:0:0:0:
162,206,49816,2,0,P|142:162|148:103,1,83.9999974365235
247,224,50116,1,0,0:0:0:0:
70,191,50266,1,0,0:0:0:0:
211,320,50416,6,0,L|294:304,1,83.9999974365235
383,207,50716,1,0,0:0:0:0:
247,224,50866,2,0,L|164:208,1,83.9999974365235
339,119,51166,2,0,L|256:135,1,83.9999974365235
410,28,51466,1,0,0:0:0:0:
463,172,51616,6,0,P|469:216|452:276,1,83.9999974365235
316,333,51916,2,0,P|351:305|411:290,1,83.9999974365235
247,224,52216,2,0,P|214:249|174:264,1,83.9999974365235
331,357,52516,1,0,0:0:0:0:
159,267,52666,6,0,B|144:223|158:180|158:180|173:135|149:88,1,167.999994873047
76,273,53116,2,0,P|72:221|79:173,1,83.9999974365235
152,77,53416,1,0,0:0:0:0:
235,196,53566,1,0,0:0:0:0:
303,13,53716,2,0,P|299:54|303:96,1,83.9999974365235
497,55,54016,6,0,L|398:55,1,83.9999974365235
273,103,54316,1,0,0:0:0:0:
416,136,54466,1,0,0:0:0:0:
330,266,54616,2,0,P|334:225|330:183,1,83.9999974365235
247,71,54916,1,0,0:0:0:0:
195,224,55066,1,0,0:0:0:0:
83,71,55216,5,0,0:0:0:0:
223,146,55366,1,0,0:0:0:0:
172,0,55516,1,0,0:0:0:0:
127,183,55666,2,0,L|152:102,1,83.9999974365235
58,288,55966,2,0,L|33:207,1,83.9999974365235
123,372,56266,1,0,0:0:0:0:
220,215,56416,6,0,P|264:210|311:217,1,83.9999974365235
303,365,56716,2,0,P|329:329|346:285,1,83.9999974365235
344,130,57016,2,0,P|317:165|300:209,1,83.9999974365235
443,239,57316,1,0,0:0:0:0:
350,49,57466,6,0,P|259:33|168:54,1,167.999994873047
268,179,57916,1,0,0:0:0:0:
150,125,58066,1,0,0:0:0:0:
219,265,58216,2,0,L|321:251,1,83.9999974365235
453,153,58516,2,0,L|369:141,1,83.9999974365235
236,32,58816,6,0,P|225:71|232:131,1,83.9999974365235
130,32,59116,2,0,P|89:20|47:23,1,83.9999974365235
150,125,59416,2,0,P|139:164|146:224,1,83.9999974365235
84,318,59716,6,0,L|-7:299,1,83.9999974365235
211,257,60016,2,0,L|293:239,1,83.9999974365235
173,378,60316,1,0,0:0:0:0:
61,270,60466,1,0,0:0:0:0:
214,225,60616,1,0,0:0:0:0:
145,377,60766,1,0,0:0:0:0:
119,198,60916,5,0,0:0:0:0:
243,322,61066,1,0,0:0:0:0:
186,128,61216,2,0,P|264:136|314:229,1,167.999994873047
396,340,61666,1,0,0:0:0:0:
496,212,61816,2,0,P|503:161|485:96,1,83.9999974365235
321,48,62116,2,0,P|315:89|322:131,1,83.9999974365235
416,0,62416,5,0,0:0:0:0:
272,83,62566,1,0,0:0:0:0:
407,188,62716,1,0,0:0:0:0:
316,8,62866,1,0,0:0:0:0:
290,211,63016,1,0,0:0:0:0:
456,97,63166,1,0,0:0:0:0:
237,156,63316,5,2,0:0:0:0:
441,198,63466,1,0,0:0:0:0:
286,288,63616,6,0,L|202:276,1,83.9999974365235
67,260,63916,1,0,0:0:0:0:
164,375,64066,1,0,0:0:0:0:
161,184,64216,2,0,L|149:101,1,83.9999974365235
242,0,64516,1,0,0:0:0:0:
338,103,64666,1,0,0:0:0:0:
136,107,64816,5,0,0:0:0:0:
278,205,64966,1,0,0:0:0:0:
191,54,65116,1,0,0:0:0:0:
117,217,65266,6,0,L|219:209,1,83.9999974365235
334,313,65566,2,0,L|250:306,1,83.9999974365235
392,189,65866,1,0,0:0:0:0:
419,367,66016,2,0,P|430:318|422:271,1,83.9999974365235
330,130,66316,2,0,P|289:141|255:164,1,83.9999974365235
399,49,66616,2,0,P|369:19|331:1,1,83.9999974365235
220,41,66916,1,0,0:0:0:0:
367,165,67066,6,0,P|298:146|245:167,1,125.999996154785
187,230,67366,2,0,P|140:241|90:228,1,83.9999974365235
23,159,67666,1,0,0:0:0:0:
110,253,67816,1,0,0:0:0:0:
20,337,67966,1,0,0:0:0:0:
109,163,68116,1,0,0:0:0:0:
28,237,68266,1,0,0:0:0:0:
199,234,68416,6,0,P|240:228|280:238,1,83.9999974365235
232,384,68716,2,0,P|226:343|236:303,1,83.9999974365235
300,165,69016,1,0,0:0:0:0:
384,273,69166,1,0,0:0:0:0:
255,308,69316,1,0,0:0:0:0:
322,173,69466,1,0,0:0:0:0:
440,302,69616,6,0,L|427:218,1,83.9999974365235
370,115,69916,1,0,0:0:0:0:
499,22,70066,2,0,L|416:35,1,83.9999974365235
265,81,70366,2,0,L|347:94,1,83.9999974365235
236,0,70666,1,0,0:0:0:0:
162,159,70816,6,0,P|138:109|135:49,1,83.9999974365235
222,239,71116,2,0,P|182:252|140:253,1,83.9999974365235
323,264,71416,2,0,P|301:300|270:328,1,83.9999974365235
287,195,71716,1,0,0:0:0:0:
167,289,71866,6,0,P|97:307|21:266,1,125.999996154785
10,220,72166,2,0,P|6:170|13:117,1,83.9999974365235
75,10,72466,1,0,0:0:0:0:
175,86,72616,1,0,0:0:0:0:
93,182,72766,1,0,0:0:0:0:
180,41,72916,1,0,0:0:0:0:
256,131,73066,1,0,0:0:0:0:
251,311,73216,6,0,P|197:256|178:154,1,167.999994873047
276,36,73666,1,0,0:0:0:0:
321,266,73816,2,0,P|260:214|272:103,1,167.999994873047
365,8,74266,1,0,0:0:0:0:
480,138,74416,6,0,P|484:180|476:243,1,83.9999974365235
339,290,74716,1,0,0:0:0:0:
366,134,74866,1,0,0:0:0:0:
481,236,75016,1,0,0:0:0:0:
332,279,75166,1,0,0:0:0:0:
280,105,75316,5,0,0:0:0:0:
392,213,75466,1,0,0:0:0:0:
227,192,75616,6,0,P|191:153|200:41,1,167.999994873047
303,182,76066,1,0,0:0:0:0:
171,253,76216,2,0,P|93:227|57:153,1,167.999994873047
25,296,76666,1,0,0:0:0:0:
151,148,76816,5,0,0:0:0:0:
229,302,76966,1,0,0:0:0:0:
80,213,77116,1,0,0:0:0:0:
145,369,77266,1,0,0:0:0:0:
261,188,77416,1,0,0:0:0:0:
49,286,77566,1,0,0:0:0:0:
105,80,77716,1,0,0:0:0:0:
200,278,77866,1,0,0:0:0:0:
360,86,78016,6,0,P|393:132|398:232,2,146.999995513916
271,49,79066,1,0,0:0:0:0:
327,157,79216,2,0,P|323:224|251:258,1,146.999995513916
237,144,79816,2,0,L|260:187,1,48.9999985046387
166,276,80116,2,0,L|189:232,1,48.9999985046387
266,334,80416,6,0,P|333:317|389:254,2,146.999995513916
195,247,81466,1,0,0:0:0:0:
115,331,81616,6,0,P|89:258|109:176,1,140
208,234,82066,2,0,P|210:166|156:97,1,146.999995513916
209,25,82816,6,0,P|235:21|275:25,1,48.9999985046387
333,39,83116,1,0,0:0:0:0:
284,94,83266,1,0,0:0:0:0:
380,115,83416,1,0,0:0:0:0:
354,183,83566,1,0,0:0:0:0:
452,42,83716,2,0,P|479:95|478:142,1,97.9999970092774
354,183,84316,6,0,P|351:210|358:243,1,48.9999985046387
408,287,84616,1,0,0:0:0:0:
355,342,84766,1,0,0:0:0:0:
469,220,84916,2,0,P|496:273|495:320,1,97.9999970092774
426,364,85366,5,0,0:0:0:0:
268,229,85516,2,0,P|307:243|348:276,1,77.0000023498536
208,355,85816,2,0,P|201:313|209:261,1,77.0000023498536
355,342,86116,2,0,P|323:363|287:376,1,77.0000023498536
157,270,86416,6,0,L|159:167,1,77.0000023498536
225,99,86716,2,0,L|292:136,1,77.0000023498536
90,100,87016,2,0,L|22:137,1,77.0000023498536
15,253,87316,2,0,L|81:293,1,77.0000023498536
160,144,87616,5,0,0:0:0:0:
192,261,87766,1,0,0:0:0:0:
266,133,87916,2,0,P|289:167|301:207,1,83.9999974365235
148,104,88216,2,0,P|159:63|183:29,1,83.9999974365235
289,110,88516,1,0,0:0:0:0:
201,237,88666,1,0,0:0:0:0:
311,95,88816,6,0,P|352:88|393:94,1,83.9999974365235
325,254,89116,1,0,0:0:0:0:
217,155,89266,1,0,0:0:0:0:
200,339,89416,2,0,L|192:220,1,83.9999974365235
331,287,89716,2,0,L|336:370,1,83.9999974365235
451,237,90016,5,0,0:0:0:0:
340,182,90166,1,0,0:0:0:0:
426,102,90316,1,0,0:0:0:0:
296,30,90466,1,0,0:0:0:0:
414,171,90616,1,0,0:0:0:0:
226,112,90766,1,0,0:0:0:0:
331,287,90916,1,0,0:0:0:0:
373,69,91066,1,0,0:0:0:0:
226,203,91216,6,0,P|243:169|282:130,1,62.9999980773926
373,69,91366,2,0,P|359:105|317:142,1,62.9999980773926
197,164,91516,6,0,P|233:151|288:151,1,62.9999980773926
391,181,91666,2,0,P|355:196|299:193,1,62.9999980773926
204,116,91816,6,0,P|237:133|276:172,1,62.9999980773926
335,270,91966,2,0,P|295:263|258:221,1,62.9999980773926
242,87,92116,6,0,P|254:123|254:178,1,62.9999980773926
232,308,92266,2,0,P|208:274|212:218,1,62.9999980773926
242,87,92416,6,0,P|191:169|89:148,1,210
28,71,92716,2,0,B|-2:128|-2:128|10:261,1,140
300,343,93016,5,0,0:0:0:0:
151,69,93166,1,0,0:0:0:0:
49,335,93316,1,0,0:0:0:0:
335,270,93466,1,0,0:0:0:0:
49,335,93616,1,0,0:0:0:0:
205,311,93766,6,0,L|254:305,2,26.2500010013581
77,237,94066,1,0,0:0:0:0:
335,270,94216,1,0,0:0:0:0:
49,335,94366,1,0,0:0:0:0:
248,228,94516,6,0,L|150:248,1,70
10,215,94666,2,0,L|102:245,1,70
135,122,94816,6,0,P|215:119|242:236,1,210
10,215,95116,2,0,B|11:143|11:143|75:60,1,140
335,270,95416,5,0,0:0:0:0:
240,38,95566,1,0,0:0:0:0:
232,308,95716,1,0,0:0:0:0:
454,194,95866,1,0,0:0:0:0:
179,241,96016,1,0,0:0:0:0:
350,120,96166,6,0,P|366:107|369:143,1,70
316,196,96316,1,0,0:0:0:0:
240,38,96466,1,0,0:0:0:0:
51,247,96616,6,0,P|35:260|32:224,1,70
145,214,96766,2,0,P|161:201|164:237,1,70
129,282,96916,6,0,L|146:205,1,70
168,35,97066,2,0,L|151:112,1,70
76,153,97216,6,0,P|18:73|122:33,1,210
282,100,97516,2,0,B|214:127|214:127|143:99,1,140
409,30,97816,5,0,0:0:0:0:
335,270,97966,1,0,0:0:0:0:
240,38,98116,1,0,0:0:0:0:
456,181,98266,1,0,0:0:0:0:
213,126,98416,1,0,0:0:0:0:
444,106,98566,6,0,L|485:102,2,26.2500010013581
213,126,98866,1,0,0:0:0:0:
456,181,99016,1,0,0:0:0:0:
274,214,99166,1,0,0:0:0:0:
355,75,99316,6,0,L|349:168,1,70
207,195,99466,2,0,L|215:97,1,70
350,144,99616,6,0,L|334:380,1,210
254,306,99916,2,0,P|176:268|120:322,1,140
336,353,100216,5,0,0:0:0:0:
212,125,100366,1,0,0:0:0:0:
190,349,100516,1,0,0:0:0:0:
350,144,100666,1,0,0:0:0:0:
114,88,100816,5,0,0:0:0:0:
144,95,100891,1,0,0:0:0:0:
175,95,100966,1,0,0:0:0:0:
204,85,101041,1,0,0:0:0:0:
260,30,101116,5,0,0:0:0:0:
290,21,101191,1,0,0:0:0:0:
321,22,101266,1,0,0:0:0:0:
351,31,101341,1,0,0:0:0:0:
414,84,101416,5,0,0:0:0:0:
410,125,101491,1,0,0:0:0:0:
407,166,101566,1,0,0:0:0:0:
401,207,101641,1,0,0:0:0:0:
346,272,101716,5,0,0:0:0:0:
300,267,101791,1,0,0:0:0:0:
254,262,101866,1,0,0:0:0:0:
208,257,101941,1,0,0:0:0:0:
159,198,102016,6,0,P|233:184|278:287,1,199.499993911743
193,355,102316,1,0,0:0:0:0:
164,352,102391,1,0,0:0:0:0:
135,349,102466,1,0,0:0:0:0:
106,347,102541,1,0,0:0:0:0:
77,345,102616,6,0,L|71:278,1,47.5
159,198,102766,2,0,L|165:131,1,47.5
38,33,102916,5,0,0:0:0:0:
90,27,102991,1,0,0:0:0:0:
142,23,103066,1,0,0:0:0:0:
194,19,103141,1,0,0:0:0:0:
246,17,103216,6,0,L|241:64,1,47.5
212,286,103366,1,0,0:0:0:0:
283,282,103441,1,0,0:0:0:0:
354,278,103516,6,0,B|389:285|389:285|436:275,1,71.2500027179719
422,62,103666,2,0,B|387:54|387:54|352:61,1,71.2500027179719
295,159,103816,6,0,B|382:133|367:195|461:169,1,156.750004783631
334,235,104116,5,0,0:0:0:0:
309,242,104191,1,0,0:0:0:0:
282,242,104266,1,0,0:0:0:0:
256,235,104341,1,0,0:0:0:0:
234,220,104416,6,0,P|210:161|302:73,1,199.499993911743
361,155,104716,6,0,L|294:158,1,66.4999979705811
127,165,104866,2,0,L|60:168,1,66.4999979705811
207,3,105016,5,0,0:0:0:0:
218,313,105166,1,0,0:0:0:0:
96,85,105316,5,0,0:0:0:0:
115,81,105391,1,0,0:0:0:0:
134,81,105466,1,0,0:0:0:0:
153,84,105541,1,0,0:0:0:0:
170,93,105616,6,0,B|229:88|229:88|261:109|261:109|355:103,1,170.999994781494
366,18,105916,6,0,P|331:12|282:23,1,56.9999982604981
311,195,106066,2,0,P|339:196|367:190,1,56.9999982604981
443,70,106216,6,0,L|444:142,1,56.9999982604981
203,172,106366,2,0,L|202:228,1,56.9999982604981
456,315,106516,6,0,B|361:294|391:363|289:341,1,170.999994781494
203,172,106816,6,0,B|189:171|169:152|169:152|187:206|182:266|182:266|191:241|213:217,1,199.499993911743
224,92,107116,5,0,0:0:0:0:
255,102,107191,1,0,0:0:0:0:
288,99,107266,1,0,0:0:0:0:
317,83,107341,1,0,0:0:0:0:
338,57,107416,6,0,L|333:132,1,47.5
448,186,107566,2,0,L|453:261,1,47.5
285,282,107716,5,0,0:0:0:0:
236,263,107791,1,0,0:0:0:0:
183,265,107866,1,0,0:0:0:0:
137,290,107941,1,0,0:0:0:0:
105,331,108016,6,0,L|101:283,1,47.5
254,52,108166,1,0,0:0:0:0:
248,122,108241,1,0,0:0:0:0:
241,192,108316,6,0,L|233:287,1,71.2500027179719
27,150,108466,2,0,L|21:79,1,71.2500027179719
172,21,108616,6,0,B|166:80|166:80|142:105|142:105|133:194,1,156.750004783631
248,122,108916,5,0,0:0:0:0:
271,111,108991,1,0,0:0:0:0:
296,107,109066,1,0,0:0:0:0:
322,109,109141,1,0,0:0:0:0:
346,119,109216,6,0,B|373:132|409:124|409:124|332:175|386:267,1,199.499993911743
511,196,109516,6,0,L|445:199,1,66.4999979705811
281,205,109666,2,0,L|214:207,1,66.4999979705811
382,30,109816,5,0,0:0:0:0:
359,345,109966,1,0,0:0:0:0:
248,122,110116,5,0,0:0:0:0:
234,123,110191,1,0,0:0:0:0:
220,124,110266,1,0,0:0:0:0:
206,125,110341,1,0,0:0:0:0:
149,67,110416,5,0,0:0:0:0:
127,105,110491,1,0,0:0:0:0:
128,149,110566,1,0,0:0:0:0:
153,185,110641,1,0,0:0:0:0:
223,231,110716,5,0,0:0:0:0:
244,268,110791,1,0,0:0:0:0:
243,312,110866,1,0,0:0:0:0:
218,348,110941,1,0,0:0:0:0:
123,290,111016,5,0,0:0:0:0:
136,289,111091,5,0,0:0:0:0:
149,288,111166,5,0,0:0:0:0:
162,288,111241,1,0,0:0:0:0:
243,312,111316,5,0,0:0:0:0:
238,253,111391,1,0,0:0:0:0:
197,210,111466,1,0,0:0:0:0:
140,192,111541,1,0,0:0:0:0:
124,130,111616,6,0,P|162:109|231:116,1,105,4|0,0:0|2:0,0:0:0:0:
247,124,111916,2,0,L|248:13,1,90.9999958343508
331,185,112216,6,0,P|266:227|191:214,1,157.500006008148
164,207,112516,2,0,L|159:272,1,45.4999979171754
124,130,112666,2,0,L|119:65,1,45.4999979171754
13,210,112816,6,0,L|23:314,1,105,0|0,0:0|2:0,0:0:0:0:
111,370,113116,6,0,B|160:359|160:359|212:373|212:373|298:359,1,157.500006008148,0|0,0:0|2:0,0:0:0:0:
344,285,113416,6,0,B|307:247|302:203|302:203|298:247|267:288,1,183.750001752377,0|0,0:0|2:0,0:0:0:0:
378,190,113716,6,0,P|325:131|227:199,1,210
169,262,114016,6,0,L|84:254,1,70
19,157,114316,2,0,P|23:93|56:47,1,105.000004005432
186,29,114616,6,0,L|197:106,1,45.4999979171754
335,99,114766,2,0,L|323:21,1,45.4999979171754
302,203,114916,2,0,P|362:205|424:159,1,136.499993751526
436,138,115216,6,0,B|461:195|461:195|451:272,1,122.500001168251
319,319,115441,2,0,B|294:262|294:262|304:185,1,122.500001168251
328,53,115666,2,0,P|300:39|270:38,1,61.2500005841255
103,119,115816,6,0,B|152:137|152:137|282:113,1,183.750001752377,0|0,0:0|2:0,0:0:0:0:
192,56,116116,2,0,P|176:128|236:209,1,157.500006008148,0|0,0:0|2:0,0:0:0:0:
295,263,116416,6,0,L|410:257,1,90.9999958343508
437,107,116716,2,0,B|379:109|379:109|357:103|357:103|338:109|338:109|281:112,1,157.500006008148,0|0,0:0|2:0,0:0:0:0:
216,197,117016,5,0,0:0:0:0:
194,218,117091,1,0,0:0:0:0:
194,248,117166,5,0,0:0:0:0:
172,269,117241,1,0,0:0:0:0:
172,299,117316,5,0,0:0:0:0:
150,320,117391,1,0,0:0:0:0:
150,350,117466,5,0,0:0:0:0:
128,371,117541,1,0,0:0:0:0:
105,379,117616,6,0,P|78:338|98:265,1,105,0|0,0:0|2:0,0:0:0:0:
172,269,117916,6,0,P|107:267|48:180,1,157.500006008148,0|0,0:0|2:0,0:0:0:0:
141,116,118216,6,0,B|147:146|147:146|144:177,1,61.2500005841255,0|0,0:0|2:0,0:0:0:0:
236,80,118366,2,0,B|230:50|230:50|233:19,1,61.2500005841255,0|0,0:0|2:0,0:0:0:0:
342,150,118516,6,0,L|341:241,1,70,0|0,0:0|2:0,0:0:0:0:
456,97,118666,2,0,L|455:6,1,70,0|0,0:0|2:0,0:0:0:0:
348,9,118816,5,0,0:0:0:0:
348,9,118966,1,0,0:0:0:0:
141,116,119116,2,0,B|88:129|88:129|31:120,1,105.000004005432
213,219,119416,5,0,0:0:0:0:
213,219,119566,1,0,0:0:0:0:
194,24,119716,1,0,0:0:0:0:
194,24,119866,1,0,0:0:0:0:
341,219,120016,5,0,0:0:0:0:
380,235,120091,1,0,0:0:0:0:
422,233,120166,1,0,0:0:0:0:
461,215,120241,1,0,0:0:0:0:
489,183,120316,1,0,0:0:0:0:
502,143,120391,1,0,0:0:0:0:
497,100,120466,1,0,0:0:0:0:
476,64,120541,1,0,0:0:0:0:
441,38,120616,6,0,L|347:39,1,61.2500005841255
279,129,120766,2,0,L|373:128,1,61.2500005841255
236,42,120916,2,0,L|141:42,1,61.2500005841255
73,132,121066,2,0,L|167:131,1,61.2500005841255
195,177,121216,6,0,B|272:168|272:168|312:120|312:120|384:112,1,192
363,114,121666,2,0,P|339:76|336:16,1,70
312,256,121816,2,0,P|336:294|340:352,1,70
224,88,121966,2,0,P|237:45|224:0,1,70
248,315,122116,2,0,P|232:356|247:410,1,70
160,160,122266,2,0,P|136:122|132:68,1,70
128,336,122416,5,0,0:0:0:0:
32,160,122566,2,0,L|48:88,1,60.0000013078962
24,128,122716,2,0,L|40:56,1,60.0000013078962
16,88,122866,2,0,L|32:16,1,60.0000013078962
56,288,123016,6,0,P|96:256|140:248,1,70
200,240,123166,2,0,P|250:250|280:272,1,70
384,352,123316,2,0,P|400:360|376:320,1,140
304,368,123616,6,0,B|288:304|288:304|320:156,1,191.800005414276
314,181,124066,2,0,L|337:101,1,70
200,240,124216,2,0,L|220:160,1,70
426,120,124366,2,0,L|448:40,1,70
314,181,124516,2,0,L|337:101,1,70
432,256,124666,1,0,0:0:0:0:
432,256,124741,1,0,0:0:0:0:
432,256,124816,5,0,0:0:0:0:
200,240,124966,2,0,L|205:309,1,48
168,224,125116,2,0,L|173:293,1,48
136,208,125266,2,0,L|141:277,1,48
313,180,125416,6,0,P|364:168|392:144,1,70
144,120,125566,2,0,P|93:132|64:156,1,70
336,56,125716,2,0,B|397:42|397:42|484:56,1,140
476,57,126016,6,0,P|501:117|455:62,1,192
444,71,126466,2,0,P|386:84|336:72,1,70
240,40,126616,2,0,P|181:27|132:36,1,70
464,176,126766,2,0,P|405:188|356:176,1,70
259,144,126916,2,0,P|200:131|152:140,1,70
352,296,127066,1,0,0:0:0:0:
352,296,127141,1,0,0:0:0:0:
352,296,127216,5,0,0:0:0:0:
104,288,127366,2,0,L|44:280,1,47.9500013535691
168,216,127516,2,0,L|100:208,1,47.9500013535691
120,365,127666,2,0,L|176:356,1,47.9500013535691
280,289,127816,6,0,L|360:296,1,70
96,200,127966,2,0,L|192:192,1,70
259,144,128116,2,0,B|280:104|280:104|159:114,1,140
104,120,128416,6,0,L|360:96,1,240.799997933197
342,97,128866,2,0,P|340:118|329:93,1,70
277,287,129016,2,0,P|282:268|292:295,1,70
458,161,129166,2,0,P|479:163|452:176,1,70
163,224,129316,2,0,P|142:222|167:210,1,70
411,304,129466,2,0,P|420:323|397:305,1,70
232,128,129616,5,0,0:0:0:0:
214,126,129691,1,0,0:0:0:0:
196,123,129766,1,0,0:0:0:0:
178,121,129841,1,0,0:0:0:0:
161,119,129916,1,0,0:0:0:0:
143,116,129991,1,0,0:0:0:0:
125,114,130066,1,0,0:0:0:0:
107,112,130141,1,0,0:0:0:0:
89,109,130216,5,0,0:0:0:0:
147,119,130291,1,0,0:0:0:0:
197,152,130366,1,0,0:0:0:0:
230,202,130441,1,0,0:0:0:0:
240,261,130516,1,0,0:0:0:0:
271,311,130591,1,0,0:0:0:0:
319,346,130666,1,0,0:0:0:0:
377,359,130741,1,0,0:0:0:0:
432,356,130816,6,0,P|477:324|497:272,1,90.9999958343508,4|0,1:2|1:0,0:0:0:0:
355,109,131116,1,8,0:0:0:0:
276,172,131266,1,2,0:0:0:0:
276,172,131341,1,2,0:0:0:0:
276,172,131416,2,0,P|322:199|380:209,1,90.9999958343508,2|0,1:2|1:0,0:0:0:0:
473,192,131716,1,8,0:0:0:0:
245,73,131866,2,0,P|192:117|201:242,2,181.999991668702,0|0|2,0:0|0:0|0:0,0:0:0:0:
285,64,132541,1,2,0:0:0:0:
324,76,132616,1,2,1:2:0:0:
73,23,132766,1,0,1:0:0:0:
22,238,132916,2,0,B|13:195|13:195|33:128,1,90.9999958343508,8|0,0:0|0:0,0:0:0:0:
240,256,133216,6,0,L|307:327,1,90.9999958343508,0|0,1:0|1:0,0:0:0:0:
258,119,133516,1,8,0:0:0:0:
120,271,133666,1,0,0:0:0:0:
120,271,133741,1,0,0:0:0:0:
120,271,133816,2,0,P|143:208|187:177,1,90.9999958343508,0|0,1:0|1:0,0:0:0:0:
376,229,134116,1,8,0:0:0:0:
430,40,134266,2,0,B|444:94|444:94|429:128,1,90.9999958343508,0|0,0:0|1:0,0:0:0:0:
485,356,134566,2,0,B|471:302|471:302|486:268,1,90.9999958343508,8|0,0:0|1:0,0:0:0:0:
376,229,134866,2,0,L|268:225,1,90.9999958343508,8|2,0:0|1:2,0:0:0:0:
253,224,135091,1,2,0:0:0:0:
221,223,135166,1,2,1:2:0:0:
189,222,135241,1,2,0:0:0:0:
120,262,135316,2,0,B|105:217|105:217|132:156,1,90.9999958343508,10|0,0:0|1:0,0:0:0:0:
206,0,135616,5,4,1:2:0:0:
266,164,135766,1,0,0:0:0:0:
59,109,135916,2,0,B|101:89|101:89|156:92,1,90.9999958343508,8|0,0:0|0:0,0:0:0:0:
281,253,136216,2,0,L|262:143,1,90.9999958343508,0|0,1:0|1:0,0:0:0:0:
445,107,136516,1,8,0:0:0:0:
183,251,136666,1,0,0:0:0:0:
183,251,136816,2,0,L|164:361,1,90.9999958343508,0|0,1:0|1:0,0:0:0:0:
64,127,137116,1,8,0:0:0:0:
64,127,137266,2,0,L|45:17,1,90.9999958343508,0|0,0:0|1:0,0:0:0:0:
35,278,137566,1,2,1:2:0:0:
35,278,137641,1,2,0:0:0:0:
35,278,137716,1,8,0:0:0:0:
207,155,137866,1,0,0:0:0:0:
306,334,138016,6,0,B|264:353|264:353|210:345,1,90.9999958343508,0|0,1:0|1:0,0:0:0:0:
373,196,138316,1,8,0:0:0:0:
512,57,138466,1,0,0:0:0:0:
365,60,138616,2,0,L|271:78,1,90.9999958343508,0|0,1:0|1:0,0:0:0:0:
224,244,138916,2,0,L|130:226,1,90.9999958343508,8|0,0:0|1:0,0:0:0:0:
33,205,139216,6,0,L|23:147,3,45.4999979171754,0|0|0|0,1:0|0:0|1:0|0:0,0:0:0:0:
106,61,139516,2,0,L|96:119,3,45.4999979171754,8|0|0|0,0:0|0:0|1:0|0:0,0:0:0:0:
168,356,139816,1,8,0:0:0:0:
175,326,139891,5,8,0:0:0:0:
175,295,139966,1,8,0:0:0:0:
168,264,140041,1,8,0:0:0:0:
156,235,140116,1,8,0:0:0:0:
150,204,140191,1,8,0:0:0:0:
150,173,140266,1,8,0:0:0:0:
155,142,140341,1,8,0:0:0:0:
168,116,140416,5,0,0:0:0:0:
336,116,140566,1,0,0:0:0:0:
340,284,140716,1,0,0:0:0:0:
172,284,140866,1,0,0:0:0:0:
187,99,141016,5,0,0:0:0:0:
351,134,141166,1,0,0:0:0:0:
320,300,141316,1,0,0:0:0:0:
156,265,141466,1,0,0:0:0:0:
209,88,141616,5,0,0:0:0:0:
363,156,141766,1,0,0:0:0:0:
298,311,141916,1,0,0:0:0:0:
144,243,142066,1,0,0:0:0:0:
232,76,142216,6,0,L|310:83,1,77.0000023498536
220,208,142516,2,0,L|142:215,1,77.0000023498536
244,336,142816,5,0,0:0:0:0:
332,212,142966,1,0,0:0:0:0:
244,336,143116,1,0,0:0:0:0:
332,212,143266,1,0,0:0:0:0:
220,208,143416,5,0,0:0:0:0:
340,308,143566,1,0,0:0:0:0:
220,208,143716,1,0,0:0:0:0:
340,308,143866,1,0,0:0:0:0:
272,132,144016,5,0,0:0:0:0:
168,288,144166,1,0,0:0:0:0:
332,212,144316,1,0,0:0:0:0:
180,128,144466,1,0,0:0:0:0:
244,336,144616,6,0,P|256:292|252:256,1,77.0000023498536
104,80,144916,2,0,P|92:124|96:160,1,77.0000023498536
340,308,145216,5,0,0:0:0:0:
261,65,145366,1,2,0:0:0:0:
176,308,145516,1,2,0:0:0:0:
388,163,145666,1,0,0:0:0:0:
132,163,145816,5,0,0:0:0:0:
352,336,145966,1,0,0:0:0:0:
260,36,146116,1,0,0:0:0:0:
168,336,146266,1,0,0:0:0:0:
416,160,146416,5,2,0:0:0:0:
104,164,146566,1,0,0:0:0:0:
360,360,146716,1,2,0:0:0:0:
260,8,146866,1,0,0:0:0:0:
181,308,147016,2,0,L|268:304,1,77.0000023498536
112,88,147316,2,0,L|25:92,1,77.0000023498536
156,232,147616,6,0,B|196:192|184:140|184:140|224:168|284:144,1,195.999994018555
236,60,148066,1,0,0:0:0:0:
272,232,148216,6,0,P|324:216|339:91,1,195.999994018555
275,147,148666,1,0,0:0:0:0:
276,324,148816,2,0,L|280:376,3,48.9999985046387
156,232,149116,2,0,L|159:183,3,48.9999985046387
104,336,149416,5,0,0:0:0:0:
96,336,149491,1,0,0:0:0:0:
88,336,149566,1,0,0:0:0:0:
80,336,149641,1,0,0:0:0:0:
72,336,149716,2,0,B|60:296|60:296|64:228,1,97.9999970092774
256,128,150016,6,0,B|256:192|256:192|248:244,1,97.9999946727755
264,344,150316,1,0,0:0:0:0:
416,224,150466,1,0,0:0:0:0:
132,188,150616,6,0,B|160:128|160:128|196:92,1,97.9999946727755
80,64,150916,2,0,P|40:108|36:160,1,97.9999946727755
256,316,151216,2,0,L|124:316,1,97.9999946727755
440,224,151516,1,0,0:0:0:0:
312,108,151666,1,0,0:0:0:0:
72,316,151816,6,0,P|96:260|160:228,1,97.9999946727755
408,220,152116,1,0,0:0:0:0:
240,92,152266,1,0,0:0:0:0:
328,360,152416,6,0,B|304:300|304:300|260:260,1,97.9999946727755
48,160,152716,1,0,0:0:0:0:
256,152,152866,1,0,0:0:0:0:
88,348,153016,6,0,P|128:272|152:248,1,97.9999946727755
340,152,153316,1,0,0:0:0:0:
132,112,153466,1,0,0:0:0:0:
280,304,153616,2,0,L|176:248,1,97.9999946727755
120,132,153916,2,0,L|220:180,1,97.9999946727755
384,156,154216,6,0,L|272:92,1,97.9999946727755
264,92,154441,1,0,0:0:0:0:
217,76,154516,1,0,0:0:0:0:
169,68,154591,1,0,0:0:0:0:
120,69,154666,1,0,0:0:0:0:
72,78,154741,1,0,0:0:0:0:
36,88,154816,6,0,B|96:216,1,97.9999946727755
224,32,155116,5,0,0:0:0:0:
116,300,155266,1,0,0:0:0:0:
376,48,155416,5,0,0:0:0:0:
224,348,155566,1,0,0:0:0:0:
480,196,155716,2,0,P|432:136|396:104,1,97.9999946727755
96,206,156016,2,0,L|124:112,1,97.9999946727755
256,320,156316,1,0,0:0:0:0:
412,144,156466,1,0,0:0:0:0:
56,120,156616,6,0,L|80:256,1,97.9999946727755
328,283,156916,2,0,P|338:235|360:192,1,97.9999946727755
200,112,157216,5,0,0:0:0:0:
208,276,157366,1,0,0:0:0:0:
120,92,157516,5,0,0:0:0:0:
280,260,157666,1,0,0:0:0:0:
84,160,157816,5,0,0:0:0:0:
344,200,157966,1,0,0:0:0:0:
152,340,158116,5,0,0:0:0:0:
244,64,158266,1,0,0:0:0:0:
388,344,158416,6,0,L|364:280,1,48.9999973363878
264,176,158566,2,0,L|288:240,1,48.9999973363878
228,360,158716,6,0,L|196:288,1,48.9999973363878
100,180,158866,2,0,L|124:252,1,48.9999973363878
336,276,159016,5,0,0:0:0:0:
339,227,159091,1,0,0:0:0:0:
324,181,159166,1,0,0:0:0:0:
292,144,159241,1,0,0:0:0:0:
248,123,159316,1,0,0:0:0:0:
283,188,159391,1,0,0:0:0:0:
317,253,159466,1,0,0:0:0:0:
439,51,159616,6,0,P|383:99|311:71,1,125.999996154785
335,91,159916,1,0,0:0:0:0:
368,24,160066,5,0,0:0:0:0:
212,116,160216,2,0,L|152:144,1,41.9999987182618
360,176,160366,2,0,L|368:240,1,41.9999987182618
220,324,160516,1,0,0:0:0:0:
80,312,160666,5,0,0:0:0:0:
118,294,160741,1,0,0:0:0:0:
156,277,160816,1,0,0:0:0:0:
112,148,160966,5,0,0:0:0:0:
151,131,161041,1,0,0:0:0:0:
189,114,161116,1,0,0:0:0:0:
56,36,161266,5,0,0:0:0:0:
20,156,161416,5,0,0:0:0:0:
69,173,161491,1,0,0:0:0:0:
121,175,161566,1,0,0:0:0:0:
171,160,161641,1,0,0:0:0:0:
220,108,161716,5,0,0:0:0:0:
269,90,161791,1,0,0:0:0:0:
321,88,161866,1,0,0:0:0:0:
371,103,161941,1,0,0:0:0:0:
440,64,162016,5,0,0:0:0:0:
376,28,162166,5,0,0:0:0:0:
376,28,162241,1,0,0:0:0:0:
376,28,162316,2,0,L|336:0,2,41.9999987182618
484,44,162616,5,0,0:0:0:0:
432,164,162766,2,0,L|448:236,1,41.9999987182618
304,96,162916,2,0,L|292:40,1,41.9999987182618
212,212,163066,1,0,0:0:0:0:
296,216,163216,6,0,P|280:160|212:128,1,125.999996154785
228,132,163516,1,0,0:0:0:0:
120,56,163666,6,0,L|180:36,1,41.9999987182618
280,4,163816,1,0,0:0:0:0:
152,168,163966,5,0,0:0:0:0:
152,168,164041,1,0,0:0:0:0:
152,168,164116,1,0,0:0:0:0:
300,120,164266,1,0,0:0:0:0:
176,288,164416,5,0,0:0:0:0:
328,252,164566,1,0,0:0:0:0:
328,252,164641,1,0,0:0:0:0:
328,252,164716,1,0,0:0:0:0:
176,288,164866,5,0,0:0:0:0:
172,176,165016,6,0,L|168:124,1,41.9999987182618
320,208,165166,2,0,L|364:168,1,41.9999987182618
348,44,165316,1,0,0:0:0:0:
232,40,165466,5,0,0:0:0:0:
232,40,165541,1,0,0:0:0:0:
232,40,165616,2,0,P|200:60|184:84,1,41.9999987182618
224,256,165766,2,0,P|204:232|184:200,1,41.9999987182618
116,112,165916,6,0,B|92:116|92:116|68:136,1,41.9999987182618
256,164,166066,2,0,B|280:156|280:156|312:116,1,41.9999987182618
393,124,166216,5,0,0:0:0:0:
415,160,166291,1,0,0:0:0:0:
432,200,166366,2,0,L|432:248,1,41.9999987182618
368,352,166516,1,0,0:0:0:0:
346,316,166591,1,0,0:0:0:0:
330,277,166666,2,0,L|330:229,1,41.9999987182618
292,128,166816,5,0,0:0:0:0:
120,108,166966,1,0,0:0:0:0:
123,149,167041,1,0,0:0:0:0:
126,191,167116,1,0,0:0:0:0:
292,128,167266,5,0,0:0:0:0:
168,24,167416,1,0,0:0:0:0:
172,82,167491,1,0,0:0:0:0:
176,140,167566,1,0,0:0:0:0:
216,248,167716,5,0,0:0:0:0:
264,264,167791,1,0,0:0:0:0:
315,260,167866,1,0,0:0:0:0:
357,229,167941,1,0,0:0:0:0:
377,181,168016,2,0,L|373:128,1,41.9999987182618
308,40,168166,5,0,0:0:0:0:
316,48,168241,1,0,0:0:0:0:
316,48,168316,2,0,L|276:72,1,41.9999987182618
232,204,168466,5,0,0:0:0:0:
240,212,168541,1,0,0:0:0:0:
240,212,168616,2,0,L|280:188,1,41.9999987182618
256,0,168766,6,0,L|192:36,1,41.9999987182618
216,316,168916,2,0,L|260:288,1,41.9999987182618
384,80,169066,6,0,L|336:108,1,41.9999987182618
200,100,169216,5,0,0:0:0:0:
360,16,169366,1,0,0:0:0:0:
200,0,169516,1,0,0:0:0:0:
368,164,169666,1,0,0:0:0:0:
224,96,169816,5,0,0:0:0:0:
224,96,169891,1,0,0:0:0:0:
224,96,169966,1,0,0:0:0:0:
112,144,170116,6,0,L|60:152,1,41.9999987182618
252,220,170266,2,0,L|296:276,1,41.9999987182618
220,356,170416,1,0,0:0:0:0:
392,312,170566,6,0,L|392:248,2,41.9999987182618
400,148,170866,5,0,0:0:0:0:
280,244,171016,1,0,0:0:0:0:
288,104,171166,6,0,L|288:168,2,41.9999987182618
220,308,171466,6,0,L|156:276,1,41.9999987182618
96,244,171616,5,0,0:0:0:0:
114,206,171691,1,0,0:0:0:0:
148,182,171766,1,0,0:0:0:0:
189,174,171841,1,0,0:0:0:0:
248,212,171916,5,0,0:0:0:0:
319,216,171991,1,0,0:0:0:0:
368,164,172066,1,0,0:0:0:0:
362,93,172141,1,0,0:0:0:0:
308,44,172216,2,0,L|264:12,1,41.9999987182618
268,220,172366,2,0,L|224:260,1,41.9999987182618
72,240,172516,6,0,L|124:196,1,41.9999987182618
200,128,172666,1,0,0:0:0:0:
48,136,172816,5,0,0:0:0:0:
256,76,172966,5,0,0:0:0:0:
256,76,173041,1,0,0:0:0:0:
256,76,173116,2,0,P|264:100|264:132,1,41.9999987182618
256,316,173266,2,0,P|248:292|248:260,1,41.9999987182618
376,192,173416,6,0,P|351:200|319:200,1,41.9999987182618
140,192,173566,2,0,P|164:184|196:184,1,41.9999987182618
344,64,173716,6,0,L|320:100,1,41.9999987182618
164,320,173866,2,0,L|192:280,1,41.9999987182618
256,192,174016,5,0,0:0:0:0:
337,91,175216,5,0,0:0:0:0:
384,304,176416,1,0,0:0:0:0:
176,239,177616,5,0,0:0:0:0:
380,100,178816,5,0,0:0:0:0:
392,184,179116,1,0,0:0:0:0:
404,268,179416,2,0,L|497:285,1,83.9999974365235
295,36,180016,5,0,0:0:0:0:
283,120,180316,1,0,0:0:0:0:
271,204,180616,2,0,L|178:221,1,83.9999974365235
370,85,181216,6,0,P|412:82|454:89,1,83.9999974365235
440,245,181816,2,0,P|399:247|357:240,1,83.9999974365235
261,136,182266,1,0,0:0:0:0:
261,136,182341,1,0,0:0:0:0:
261,136,182416,6,0,L|251:89,1,41.9999987182618
120,153,182716,2,0,L|112:194,1,41.9999987182618
79,329,183016,5,0,0:0:0:0:
170,274,183166,1,0,0:0:0:0:
277,271,183316,1,0,0:0:0:0:
371,322,183466,1,0,0:0:0:0:
475,256,183616,6,0,L|465:165,1,83.9999974365235
299,50,184216,2,0,L|289:141,1,83.9999974365235
413,72,184816,2,0,P|453:60|495:64,1,83.9999974365235
341,229,185416,2,0,P|301:241|260:238,1,83.9999974365235
135,91,186016,5,0,0:0:0:0:
117,271,186616,1,0,0:0:0:0:
362,112,187216,5,0,0:0:0:0:
384,328,187816,1,0,0:0:0:0:
215,160,188416,5,0,0:0:0:0:
124,143,188716,1,0,0:0:0:0:
33,126,189016,2,0,L|16:212,1,83.9999974365235
297,199,189616,5,0,0:0:0:0:
388,182,189916,1,0,0:0:0:0:
479,165,190216,2,0,L|496:251,1,83.9999974365235
392,272,190816,6,0,P|352:281|311:271,1,83.9999974365235
119,271,191416,2,0,P|160:281|201:270,1,83.9999974365235
438,118,192016,6,0,P|408:165|360:190,1,112
69,114,192616,6,0,P|97:161|146:188,1,112
115,226,192916,5,0,0:0:0:0:
129,265,192991,1,0,0:0:0:0:
157,295,193066,1,0,0:0:0:0:
195,312,193141,1,0,0:0:0:0:
237,313,193216,6,0,L|326:271,1,83.9999954338076
274,70,193516,2,0,L|186:113,1,83.9999954338076
240,310,193816,1,0,0:0:0:0:
273,66,193966,1,0,0:0:0:0:
313,277,194116,1,0,0:0:0:0:
198,106,194266,2,0,P|157:117|125:144,1,83.9999954338076
369,218,194566,1,0,0:0:0:0:
104,191,194716,6,0,L|84:303,1,83.9999954338076
432,113,195016,6,0,L|417:30,1,83.9999954338076
442,257,195316,6,0,L|456:339,1,83.9999954338076
254,108,195616,6,0,P|192:100|156:121,1,83.9999954338076
218,297,195916,1,0,0:0:0:0:
356,152,196066,1,0,0:0:0:0:
24,155,196216,6,0,P|45:198|74:238,1,83.9999954338076
199,87,196516,1,0,0:0:0:0:
357,190,196666,2,0,P|333:259|223:311,1,167.999990867615
227,183,197116,5,0,0:0:0:0:
357,190,197266,1,0,0:0:0:0:
60,244,212416,6,0,B|92:200|80:152|80:152|124:172|160:152,1,175
212,103,213316,1,0,0:0:0:0:
212,103,213466,2,0,P|230:168|187:225,1,140
122,266,214216,1,0,0:0:0:0:
200,344,214366,1,0,0:0:0:0:
340,332,214516,1,0,0:0:0:0:
408,208,214666,1,0,0:0:0:0:
332,264,214816,6,0,P|320:192|392:116,1,167.999990867615
338,52,215566,1,0,0:0:0:0:
251,46,215716,1,0,0:0:0:0:
165,60,215866,1,0,0:0:0:0:
84,100,216016,5,0,0:0:0:0:
66,129,216091,1,0,0:0:0:0:
60,162,216166,1,0,0:0:0:0:
64,196,216241,1,0,0:0:0:0:
79,227,216316,1,0,0:0:0:0:
129,288,216466,1,0,0:0:0:0:
206,304,216616,1,0,0:0:0:0:
279,275,216766,1,0,0:0:0:0:
320,204,216916,5,0,0:0:0:0:
336,168,216991,1,0,0:0:0:0:
348,136,217066,1,0,0:0:0:0:
364,104,217141,1,0,0:0:0:0:
388,72,217216,2,0,P|476:104|360:212,1,315.000012016297
300,196,218266,6,0,L|252:252,1,52.5000020027161,0|0,0:3|0:0,0:0:0:0:
212,296,218566,1,0,0:0:0:0:
140,312,218716,1,0,0:0:0:0:
84,260,218866,1,0,0:0:0:0:
76,188,219016,2,0,L|132:140,1,52.5000020027161,0|0,0:3|0:0,0:0:0:0:
160,88,219316,2,0,P|184:108|196:144,1,52.5000020027161
204,200,219616,5,0,0:0:0:0:
248,260,219766,2,0,L|318:278,1,52.5000020027161,0|0,0:3|0:0,0:0:0:0:
372,284,220066,1,0,0:0:0:0:
484,336,220216,1,0,0:0:0:0:
460,172,220366,2,0,P|427:159|397:159,1,52.5000020027161,0|0,0:3|0:0,0:0:0:0:
336,160,220666,1,0,0:0:0:0:
260,172,220816,6,0,P|216:180|186:190,1,52.5000020027161
138,203,221116,1,0,0:0:0:0:
68,122,221266,1,0,3:0:0:0:
155,58,221416,1,0,0:0:0:0:
155,58,221491,1,0,3:0:0:0:
155,58,221566,54,0,L|194:61,1,26.2500010013581
252,69,221716,1,0,0:0:0:0:
308,129,221866,1,2,0:3:0:0:
235,141,222016,5,0,0:0:0:0:
325,57,222166,1,0,0:0:0:0:
372,180,222316,1,2,3:0:0:0:
241,273,222466,1,0,0:0:0:0:
252,69,222616,1,0,0:0:0:0:
425,232,222766,1,0,0:0:0:0:
286,190,222916,1,0,0:0:0:0:
143,210,223066,6,0,P|104:238|85:283,1,90.9999958343508,2|0,0:0|0:0,0:0:0:0:
172,292,223366,2,0,B|237:327|237:327|346:327,1,181.999991668702,2|0,0:3|0:0,0:0:0:0:
404,257,223816,1,0,0:0:0:0:
286,190,223966,1,0,0:0:0:0:
184,144,224116,2,0,P|142:123|96:123,1,90.9999958343508,2|0,0:3|0:0,0:0:0:0:
38,197,224416,6,0,P|80:218|126:218,1,90.9999958343508,2|0,0:3|0:0,0:0:0:0:
184,144,224716,1,0,0:0:0:0:
284,56,224866,2,0,B|352:141|277:141|327:226,1,181.999991668702
431,310,225316,1,0,0:0:0:0:
351,339,225466,1,0,0:0:0:0:
289,281,225616,6,0,P|201:241|112:317,1,181.999991668702
70,330,226066,1,0,0:0:0:0:
42,249,226216,1,0,0:0:0:0:
86,176,226366,1,0,0:0:0:0:
35,107,226516,1,0,0:0:0:0:
104,56,226666,1,0,0:0:0:0:
185,37,226816,6,0,B|256:14|334:24|341:130|301:145|235:172|235:172|160:200|159:291|262:349|346:284,1,560
401,243,228166,1,0,0:0:0:0:
448,76,228316,1,0,0:0:0:0:
308,120,228466,1,0,0:0:0:0:
476,216,228616,1,0,0:0:0:0:
372,44,228766,1,0,0:0:0:0:
336,208,228916,1,0,0:0:0:0:
472,144,229066,1,0,0:0:0:0:
373,126,229216,5,0,0:0:0:0:
348,104,229291,1,0,0:0:0:0:
317,95,229366,1,0,0:0:0:0:
285,98,229441,1,0,0:0:0:0:
257,114,229516,1,0,0:0:0:0:
237,139,229591,1,0,0:0:0:0:
229,171,229666,1,0,0:0:0:0:
234,203,229741,1,0,0:0:0:0:
244,234,229816,5,0,0:0:0:0:
261,261,229891,1,0,0:0:0:0:
262,293,229966,1,0,0:0:0:0:
249,322,230041,1,0,0:0:0:0:
223,341,230116,1,0,0:0:0:0:
191,345,230191,1,0,0:0:0:0:
161,334,230266,1,0,0:0:0:0:
140,309,230341,1,0,0:0:0:0:
126,281,230416,5,0,0:0:0:0:
113,250,230491,1,0,0:0:0:0:
106,219,230566,1,0,0:0:0:0:
104,186,230641,1,0,0:0:0:0:
107,154,230716,1,0,0:0:0:0:
114,122,230791,1,0,0:0:0:0:
127,92,230866,1,0,0:0:0:0:
149,69,230941,1,0,0:0:0:0:
180,56,231016,5,0,0:0:0:0:
113,250,231166,1,0,0:0:0:0:
336,204,231316,1,0,0:0:0:0:
369,212,231391,1,0,0:0:0:0:
403,221,231466,1,0,0:0:0:0:
437,230,231541,1,0,0:0:0:0:
412,264,231616,5,0,0:0:0:0:
54,97,231916,1,0,0:0:0:0:
186,332,232216,5,0,0:0:0:0:
195,283,232291,1,0,0:0:0:0:
205,235,232366,1,0,0:0:0:0:
215,187,232441,1,0,0:0:0:0:
226,139,232516,2,0,L|232:112,1,25.2000000144196
334,85,232816,6,0,B|380:167|325:234|325:234|320:208|299:179,1,209.99999499321
143,152,233116,2,0,P|175:55|260:39,1,139.99999666214
202,39,233341,5,0,0:0:0:0:
444,168,233491,1,0,0:0:0:0:
444,168,233566,1,0,0:0:0:0:
389,332,233716,6,0,P|286:310|179:334,1,209.99999499321
12,319,234016,2,0,L|247:216,1,209.99999499321
403,256,234316,2,0,B|365:220|363:188|363:188|322:204|268:170,1,139.99999666214
304,187,234541,5,0,0:0:0:0:
114,357,234691,1,0,0:0:0:0:
114,357,234766,1,0,0:0:0:0:
66,62,234916,6,0,B|46:142|5:177|5:177|88:126,1,209.99999499321
150,72,235216,2,0,B|214:45|249:75|249:75|248:135|133:151,1,209.99999499321
69,232,235516,2,0,P|151:238|169:342,1,139.99999666214
179,281,235741,5,0,0:0:0:0:
315,115,235891,1,0,0:0:0:0:
315,115,235966,1,0,0:0:0:0:
478,318,236116,2,0,B|458:264|478:158|478:158|415:198,1,209.99999499321
359,180,236416,6,0,P|370:212|373:247,1,69.99999833107
381,316,236566,2,0,P|371:282|372:247,1,69.99999833107
437,183,236716,5,0,0:0:0:0:
437,183,236791,1,0,0:0:0:0:
149,80,236941,1,0,0:0:0:0:
277,339,237091,5,0,0:0:0:0:
277,339,237166,1,0,0:0:0:0:
64,320,237316,1,0,0:0:0:0:
315,115,237466,1,0,0:0:0:0:
136,228,237616,6,0,B|157:296|140:365|140:365|169:310|233:274,1,209.99999499321
209,210,237916,2,0,P|103:216|66:183,1,139.99999666214
79,199,238141,5,0,0:0:0:0:
253,360,238291,1,0,0:0:0:0:
253,360,238366,1,0,0:0:0:0:
337,153,238516,6,0,L|322:376,1,209.99999499321
484,271,238816,2,0,P|399:217|295:264,1,209.99999499321
484,271,239116,2,0,L|488:118,1,139.99999666214
487,131,239341,5,0,0:0:0:0:
372,20,239491,1,0,0:0:0:0:
372,20,239566,1,0,0:0:0:0:
204,53,239716,6,0,B|229:140|207:197|207:197|186:171|136:163,1,209.99999499321
32,227,240016,2,0,P|123:234|210:346,1,209.99999499321
25,321,240316,2,0,L|204:263,1,139.99999666214
158,277,240541,5,0,0:0:0:0:
344,216,240691,1,0,0:0:0:0:
344,216,240766,1,0,0:0:0:0:
152,166,240916,5,0,0:0:0:0:
235,321,241066,1,0,0:0:0:0:
235,321,241141,1,0,0:0:0:0:
235,321,241216,5,0,0:0:0:0:
237,248,241366,5,0,0:0:0:0:
302,288,241516,1,0,0:0:0:0:
235,321,241666,1,0,0:0:0:0:
93,353,241816,6,0,P|49:341|26:320,1,50
80,256,241966,2,0,P|57:216|56:185,1,50
142,181,242116,2,0,P|153:137|174:114,1,50,8|0,3:2|3:0,3:0:0:0:
233,183,242266,2,0,P|272:160|303:159,1,50
302,288,242416,6,0,B|352:266|411:302|411:302|462:285|445:227,1,200,4|8,0:2|0:2,0:0:0:0:
344,119,242866,1,0,0:0:0:0:
360,94,242941,1,0,0:0:0:0:
376,69,243016,2,0,P|428:63|477:84,1,100,8|0,0:0|0:0,0:0:0:0:
196,176,243241,1,0,0:0:0:0:
214,152,243316,2,0,P|266:158|315:137,1,100,8|0,0:2|0:0,0:0:0:0:
99,96,243616,5,8,0:0:0:0:
121,292,243766,1,0,0:0:0:0:
253,76,243916,1,8,0:2:0:0:
221,242,244066,1,0,0:0:0:0:
20,124,244216,2,0,P|26:55|146:27,1,200,8|8,0:0|0:2,0:0:0:0:
99,96,244591,1,0,0:0:0:0:
96,125,244666,1,0,0:0:0:0:
102,154,244741,1,0,0:0:0:0:
118,178,244816,6,0,L|361:152,1,200,4|8,0:2|0:2,0:0:0:0:
452,99,245266,1,0,0:0:0:0:
457,69,245341,1,0,0:0:0:0:
462,39,245416,1,8,0:0:0:0:
396,222,245566,1,0,0:0:0:0:
401,252,245641,1,0,0:0:0:0:
406,282,245716,1,8,0:2:0:0:
304,86,245866,1,0,0:0:0:0:
116,175,246016,5,8,0:0:0:0:
396,219,246166,1,0,0:0:0:0:
465,40,246316,1,8,0:2:0:0:
301,84,246466,1,0,0:0:0:0:
476,216,246616,2,0,P|454:278|322:247,1,200,8|8,0:0|0:2,0:0:0:0:
273,313,246991,1,0,0:0:0:0:
244,302,247066,1,0,0:0:0:0:
215,300,247141,1,0,0:0:0:0:
185,307,247216,6,0,P|129:318|60:199,1,200,4|8,0:2|0:2,0:0:0:0:
89,83,247666,1,0,0:0:0:0:
60,73,247741,1,0,0:0:0:0:
31,65,247816,2,0,B|21:38|21:38|219:72,1,200,8|8,0:0|0:2,0:0:0:0:
302,149,248266,1,0,0:0:0:0:
325,128,248341,1,0,0:0:0:0:
347,108,248416,6,0,P|402:102|451:115,1,100,8|0,0:0|0:0,0:0:0:0:
329,233,248716,2,0,P|306:283|270:319,1,100,8|0,0:2|0:0,0:0:0:0:
237,154,249016,2,0,P|204:109|191:60,1,100,8|0,0:0|0:0,0:0:0:0:
394,180,249316,1,8,0:2:0:0:
242,234,249466,1,0,0:0:0:0:
455,284,249616,6,0,L|469:358,1,50,4|0,0:2|0:0,0:0:0:0:
329,233,249766,2,0,L|348:362,1,100,0|8,0:0|0:2,0:0:0:0:
57,284,250066,6,0,L|43:358,1,50,0|0,0:2|0:0,0:0:0:0:
183,233,250216,2,0,L|164:362,1,100,4|0,0:2|0:0,0:0:0:0:
100,182,250516,1,8,0:2:0:0:
95,157,250591,1,0,0:0:0:0:
91,132,250666,1,0,0:0:0:0:
87,108,250741,1,0,0:0:0:0:
80,80,250816,6,0,P|122:74|149:77,1,50,4|0,3:2|3:2,3:2:0:0:
313,204,250966,2,0,P|271:210|244:207,1,50,0|0,3:2|3:2,3:2:0:0:
260,9,251116,2,0,P|266:51|263:78,1,50,12|0,3:2|3:2,3:2:0:0:
119,268,251266,2,0,P|113:226|116:199,1,50,0|0,3:2|3:2,3:2:0:0:
372,139,251416,1,4,3:2:0:0:
393,183,251491,1,0,3:2:0:0:
389,232,251566,1,0,3:2:0:0:
359,272,251641,1,0,3:2:0:0:
314,291,251716,1,12,3:2:0:0:
264,288,251791,1,0,3:2:0:0:
217,271,251866,6,0,P|188:268|160:272,1,50.0499994940472
32,304,252016,5,0,3:2:0:0:
22,280,252091,1,0,0:0:0:0:
22,251,252166,1,0,0:0:0:0:
28,228,252241,1,0,0:0:0:0:
44,205,252316,1,0,0:0:0:0:
60,181,252391,1,0,0:0:0:0:
68,153,252466,1,0,0:0:0:0:
68,121,252541,1,0,0:0:0:0:
60,93,252616,5,0,0:0:0:0:
84,109,252691,1,0,0:0:0:0:
112,113,252766,1,0,0:0:0:0:
140,105,252841,1,0,0:0:0:0:
160,85,252916,1,0,0:0:0:0:
168,57,252991,1,0,0:0:0:0:
164,29,253066,2,0,P|140:21|112:17,1,50.0499994940472
148,185,253216,5,0,0:0:0:0:
176,177,253291,1,0,0:0:0:0:
200,161,253366,1,0,0:0:0:0:
220,141,253441,1,0,0:0:0:0:
236,117,253516,1,0,0:0:0:0:
244,89,253591,1,0,0:0:0:0:
248,61,253666,1,0,0:0:0:0:
244,33,253741,1,0,0:0:0:0:
240,8,253816,5,0,0:0:0:0:
268,12,253891,1,0,0:0:0:0:
296,16,253966,1,0,0:0:0:0:
324,20,254041,1,0,0:0:0:0:
352,24,254116,1,0,0:0:0:0:
380,28,254191,1,0,0:0:0:0:
408,32,254266,2,0,L|412:92,1,50.0499994940472
348,245,254416,5,0,0:0:0:0:
320,253,254491,1,0,0:0:0:0:
288,253,254566,1,0,0:0:0:0:
260,245,254641,1,0,0:0:0:0:
232,233,254716,1,0,0:0:0:0:
204,229,254791,1,0,0:0:0:0:
176,233,254866,1,0,0:0:0:0:
152,249,254941,1,0,0:0:0:0:
136,277,255016,5,0,0:0:0:0:
116,253,255091,1,0,0:0:0:0:
108,225,255166,1,0,0:0:0:0:
108,193,255241,1,0,0:0:0:0:
116,165,255316,1,0,0:0:0:0:
132,141,255391,1,0,0:0:0:0:
160,125,255466,2,0,P|184:125|212:129,1,50.0499994940472
348,245,255616,5,0,0:0:0:0:
356,273,255691,1,0,0:0:0:0:
352,301,255766,1,0,0:0:0:0:
336,325,255841,1,0,0:0:0:0:
308,337,255916,1,0,0:0:0:0:
276,337,255991,1,0,0:0:0:0:
252,321,256066,1,0,0:0:0:0:
236,293,256141,1,0,0:0:0:0:
232,265,256216,5,0,0:0:0:0:
208,285,256291,1,0,0:0:0:0:
180,293,256366,1,0,0:0:0:0:
152,293,256441,1,0,0:0:0:0:
124,281,256516,1,0,0:0:0:0:
104,257,256591,1,0,0:0:0:0:
92,229,256666,2,0,P|89:203|92:177,1,50.0499994940472
184,37,256816,5,0,0:0:0:0:
213,38,256891,1,0,0:0:0:0:
243,39,256966,1,0,0:0:0:0:
273,41,257041,1,0,0:0:0:0:
303,42,257116,1,0,0:0:0:0:
333,44,257191,1,0,0:0:0:0:
363,45,257266,1,0,0:0:0:0:
393,46,257341,1,0,0:0:0:0:
423,48,257416,5,0,0:0:0:0:
436,77,257491,1,0,0:0:0:0:
440,105,257566,1,0,0:0:0:0:
436,133,257641,1,0,0:0:0:0:
424,161,257716,1,0,0:0:0:0:
416,189,257791,1,0,0:0:0:0:
408,217,257866,2,0,P|405:244|412:273,1,50.0499994940472
320,373,258016,5,0,0:0:0:0:
292,369,258091,1,0,0:0:0:0:
264,353,258166,1,0,0:0:0:0:
244,333,258241,1,0,0:0:0:0:
232,305,258316,1,0,0:0:0:0:
228,277,258391,1,0,0:0:0:0:
232,249,258466,1,0,0:0:0:0:
240,221,258541,1,0,0:0:0:0:
260,197,258616,5,0,0:0:0:0:
268,225,258691,1,0,0:0:0:0:
264,253,258766,1,0,0:0:0:0:
244,277,258841,1,0,0:0:0:0:
216,285,258916,1,0,0:0:0:0:
188,281,258991,1,0,0:0:0:0:
164,261,259066,2,0,P|164:236|172:209,1,50.0499994940472
312,121,259216,5,0,0:0:0:0:
332,145,259291,1,0,0:0:0:0:
344,173,259366,1,0,0:0:0:0:
352,201,259441,1,0,0:0:0:0:
352,229,259516,1,0,0:0:0:0:
344,257,259591,1,0,0:0:0:0:
328,281,259666,1,0,0:0:0:0:
304,297,259741,1,0,0:0:0:0:
276,309,259816,5,0,0:0:0:0:
304,317,259891,1,0,0:0:0:0:
332,325,259966,1,0,0:0:0:0:
360,333,260041,1,0,0:0:0:0:
388,341,260116,1,0,0:0:0:0:
416,349,260191,1,0,0:0:0:0:
444,357,260266,2,0,L|440:297,1,50.0499994940472
355,151,260416,5,0,0:0:0:0:
355,151,260491,1,0,0:0:0:0:
355,151,260566,2,0,L|351:211,1,50.0499994940472
266,357,260716,1,0,0:0:0:0:
266,357,260791,1,0,0:0:0:0:
266,357,260866,2,0,L|269:307,1,50.0499994940472
177,151,261016,5,0,0:0:0:0:
177,151,261091,1,0,0:0:0:0:
177,151,261166,2,0,L|180:200,1,50.0499994940472
88,357,261316,1,0,0:0:0:0:
88,357,261391,1,0,0:0:0:0:
88,357,261466,2,0,L|91:307,1,50.0499994940472
228,72,261616,6,0,B|280:72|280:72|325:93|325:93|363:85|363:85|321:64,1,167.999995994568
250,152,261916,1,0,0:0:0:0:
486,81,262066,1,0,0:0:0:0:
250,152,262216,6,0,L|122:147,1,111.999997329712
82,265,262441,1,0,0:0:0:0:
105,280,262516,2,0,L|113:220,1,55.999998664856
20,71,262666,2,0,L|27:126,1,55.999998664856
224,256,262816,6,0,B|344:246|344:246|286:223,1,167.999995994568
278,336,263116,1,0,0:0:0:0:
199,79,263266,1,0,0:0:0:0:
80,348,263416,2,0,P|42:288|125:295,1,167.999995994568
170,344,263716,6,0,P|191:320|198:287,1,55.999998664856
130,108,263866,1,0,0:0:0:0:
341,225,264016,6,0,L|211:216,1,111.999997329712
22,150,264316,1,0,0:0:0:0:
320,91,264466,1,0,0:0:0:0:
151,268,264616,6,0,P|134:213|162:150,1,111.999997329712
456,108,264916,1,0,0:0:0:0:
229,217,265066,1,0,0:0:0:0:
424,319,265216,6,0,B|436:196|436:196|401:236,1,167.999995994568
344,280,265516,2,0,L|274:272,1,55.999998664856
320,91,265666,2,0,L|390:83,1,55.999998664856
264,308,265816,6,0,B|216:309|216:309|181:292|181:292|88:295,1,167.999995994568
35,338,266116,1,0,0:0:0:0:
284,210,266266,2,0,L|214:218,1,55.999998664856
62,91,266416,6,0,B|-13:127|-13:127|42:191,1,167.999995994568
93,253,266716,1,0,0:0:0:0:
244,29,266866,1,0,0:0:0:0:
281,230,267016,1,0,0:0:0:0:
57,67,267166,1,0,0:0:0:0:
300,102,267316,6,0,L|223:106,1,55.999998664856
57,175,267466,2,0,L|134:179,1,55.999998664856
274,313,267616,2,0,B|323:313|323:313|356:325|356:325|389:304|389:304|456:289,1,167.999995994568
432,374,267916,5,0,0:0:0:0:
187,155,268066,1,0,0:0:0:0:
435,204,268216,5,0,0:0:0:0:
149,329,268366,1,0,0:0:0:0:
378,60,268516,6,0,L|382:115,1,55.999998664856
112,177,268666,2,0,L|119:94,1,55.999998664856
325,263,268816,2,0,B|358:265|386:287|386:287|417:269|451:263|451:263|425:257|410:238,1,167.999995994568
325,346,269116,5,0,0:0:0:0:
458,63,269266,1,0,0:0:0:0:
325,346,269416,2,0,B|292:348|264:370|264:370|233:352|199:346|199:346|225:340|240:321,1,167.999995994568
386,287,269716,5,0,0:0:0:0:
79,238,269866,1,0,0:0:0:0:
344,189,270016,6,0,L|284:193,1,55.999998664856
79,238,270166,2,0,L|139:242,1,55.999998664856
264,370,270316,6,0,L|260:310,1,55.999998664856
146,31,270466,2,0,L|142:91,1,55.999998664856
399,180,270616,6,0,L|339:189,1,55.999998664856
23,229,270766,6,0,L|82:238,1,55.999998664856
377,379,270916,6,0,L|367:319,1,55.999998664856
241,103,271066,1,0,0:0:0:0:
257,98,271141,1,0,0:0:0:0:
328,80,271216,6,0,P|408:108|436:152,1,105.000001502037,2|0,0:0|0:0,0:0:0:0:
184,304,271516,6,0,P|104:276|76:232,1,105.000001502037,2|0,0:0|0:0,0:0:0:0:
352,160,271816,5,8,0:0:0:0:
168,220,271966,1,0,0:0:0:0:
404,222,272116,5,8,0:0:0:0:
120,162,272266,1,0,0:0:0:0:
440,304,272416,6,0,P|384:320|328:312,1,105.000001502037,2|0,0:0|0:0,0:0:0:0:
328,80,272716,1,0,0:0:0:0:
184,304,272866,1,0,0:0:0:0:
376,232,273016,5,2,0:0:0:0:
328,80,273166,1,0,0:0:0:0:
440,304,273316,1,0,0:0:0:0:
184,304,273466,1,0,0:0:0:0:
120,162,273616,6,0,L|120:50,1,105.000001502037,2|0,0:0|0:0,0:0:0:0:
412,210,273916,2,0,L|412:322,1,105.000001502037,2|0,0:0|0:0,0:0:0:0:
120,162,274216,5,8,0:0:0:0:
412,210,274366,1,0,0:0:0:0:
284,32,274516,5,8,0:0:0:0:
231,353,274666,1,0,0:0:0:0:
412,210,274816,5,2,0:0:0:0:
200,148,274966,1,0,0:0:0:0:
412,210,275116,1,0,0:0:0:0:
120,162,275266,1,0,0:0:0:0:
120,162,275341,1,0,0:0:0:0:
120,162,275416,2,0,L|152:220,1,52.5000007510186,2|0,0:0|0:0,0:0:0:0:
352,240,275566,2,0,L|320:298,1,52.5000007510186
132,292,275716,1,0,0:0:0:0:
132,292,275791,1,0,0:0:0:0:
132,292,275866,1,0,0:0:0:0:
132,29,276016,5,2,0:0:0:0:
359,160,276166,1,0,0:0:0:0:
132,292,276316,1,0,0:0:0:0:
104,144,276466,1,0,0:0:0:0:
240,188,276616,1,2,0:0:0:0:
116,158,276766,5,0,0:0:0:0:
116,158,276841,1,0,0:0:0:0:
116,158,276916,1,0,0:0:0:0:
116,158,276991,1,0,0:0:0:0:
120,162,277066,2,0,L|152:220,1,52.5000007510186
212,348,277216,5,2,0:0:0:0:
484,190,277366,1,0,0:0:0:0:
212,32,277516,1,0,0:0:0:0:
212,348,277666,5,0,0:0:0:0:
348,269,277816,1,2,0:0:0:0:
212,190,277966,1,0,0:0:0:0:
348,115,278116,1,0,0:0:0:0:
348,115,278191,1,0,0:0:0:0:
348,115,278266,2,0,L|312:184,1,52.5000007510186
212,348,278416,5,10,0:0:0:0:
323,161,278566,1,0,0:0:0:0:
212,348,278716,1,0,0:0:0:0:
323,161,278866,1,0,0:0:0:0:
348,340,279016,5,10,0:0:0:0:
213,116,279166,1,0,0:0:0:0:
348,340,279316,1,0,0:0:0:0:
213,116,279466,1,0,0:0:0:0:
83,351,279616,5,8,0:0:0:0:
323,161,279766,1,2,0:0:0:0:
68,196,279916,5,8,0:0:0:0:
399,235,280066,1,2,0:0:0:0:
256,28,280216,5,8,0:0:0:0:
217,359,280366,1,2,0:0:0:0:
430,130,280516,1,0,0:0:0:0:
384,120,280591,1,0,0:0:0:0:
336,124,280666,1,0,0:0:0:0:
296,148,280741,1,0,0:0:0:0:
278,194,280816,6,0,P|266:237|282:281,1,75
425,202,281116,2,0,P|437:159|421:115,1,75
278,194,281416,1,0,0:0:0:0:
365,314,281566,1,0,0:0:0:0:
499,207,281716,2,0,L|410:200,1,75
144,206,282016,6,0,P|201:229|290:172,1,150
205,131,282466,1,0,0:0:0:0:
74,157,282616,2,0,P|61:215|68:235,1,75
268,265,282916,2,0,P|281:207|274:187,1,75
115,351,283216,6,0,L|271:356,1,150
365,314,283666,1,0,0:0:0:0:
268,265,283816,2,0,L|193:262,1,75
378,161,284116,2,0,L|452:158,1,75
275,118,284416,6,0,B|241:196|297:190|262:282,1,150
378,161,284866,1,0,0:0:0:0:
210,67,285016,2,0,P|188:117|184:159,1,75
358,77,285316,2,0,P|349:40|332:7,1,75
210,67,285541,1,0,0:0:0:0:
202,65,285616,6,0,B|166:76|166:76|106:60,1,75
63,196,285916,2,0,B|99:185|99:185|159:201,1,75
17,275,286216,1,0,0:0:0:0:
55,112,286366,1,0,0:0:0:0:
98,268,286516,2,0,P|87:324|56:357,1,75
211,268,286816,6,0,B|262:257|262:257|313:268|313:268|367:255,1,150
438,175,287266,1,0,0:0:0:0:
306,106,287416,2,0,L|318:199,1,75
201,342,287716,2,0,L|210:267,1,75
234,66,288016,6,0,P|296:26|379:65,1,150
458,83,288466,1,0,0:0:0:0:
315,180,288616,2,0,L|306:106,1,75
220,193,288916,2,0,L|210:267,1,75
125,129,289216,6,0,L|177:122,3,37.5
85,232,289516,2,0,L|33:225,3,37.5
220,193,289816,2,0,L|210:259,1,37.5
315,180,289966,2,0,L|320:142,1,37.5
399,221,290116,2,0,L|389:287,1,37.5
490,205,290266,2,0,L|495:167,1,37.5
403,95,290416,6,0,P|347:128|266:74,1,140,4|8,0:0|0:0,0:0:0:0:
203,13,290866,1,0,0:0:0:0:
97,125,291016,2,0,L|87:207,1,70
210,291,291316,2,0,L|200:209,1,70,8|0,0:0|0:0,0:0:0:0:
104,306,291616,5,0,0:0:0:0:
285,338,291766,1,0,0:0:0:0:
224,151,291916,1,8,0:0:0:0:
188,349,292066,5,0,0:0:0:0:
309,189,292216,2,0,P|361:172|385:143,1,70
229,72,292516,2,0,P|177:89|153:118,1,70,8|0,0:0|0:0,0:0:0:0:
112,161,292741,1,0,0:0:0:0:
112,161,292816,6,0,L|28:140,1,70,2|0,0:0|0:0,0:0:0:0:
309,189,293116,1,8,0:0:0:0:
187,312,293266,1,0,0:0:0:0:
412,106,293416,6,0,L|492:122,1,70
229,72,293716,1,8,0:0:0:0:
297,264,293866,1,0,0:0:0:0:
333,46,294016,5,0,0:0:0:0:
448,262,294166,1,0,0:0:0:0:
448,262,294241,1,0,0:0:0:0:
448,262,294316,6,0,L|372:275,1,70,8|0,0:0|0:0,0:0:0:0:
196,298,294616,5,0,0:0:0:0:
288,142,294766,1,0,0:0:0:0:
327,342,294916,1,8,0:0:0:0:
174,136,295066,1,0,0:0:0:0:
162,118,295141,1,0,0:0:0:0:
148,98,295216,6,0,P|110:73|20:113,1,140,4|8,0:0|0:0,0:0:0:0:
220,205,295666,1,0,0:0:0:0:
387,103,295816,2,0,B|403:57|403:57|386:22,1,70
226,139,296116,2,0,B|210:185|210:185|227:220,1,70,8|0,0:0|0:0,0:0:0:0:
461,132,296416,5,0,0:0:0:0:
302,237,296566,1,0,0:0:0:0:
461,343,296716,1,8,0:0:0:0:
359,151,296866,1,0,0:0:0:0:
256,343,297016,2,0,L|344:359,1,70
158,257,297316,2,0,L|70:273,1,70,8|0,0:0|0:0,0:0:0:0:
242,238,297541,1,0,0:0:0:0:
273,233,297616,5,4,0:0:0:0:
439,145,297766,1,0,0:0:0:0:
152,89,297916,1,8,0:0:0:0:
381,290,298066,5,0,0:0:0:0:
308,29,298216,1,4,0:0:0:0:
214,310,298366,1,0,0:0:0:0:
304,143,298516,5,8,0:0:0:0:
150,201,298666,1,0,0:0:0:0:
450,239,298816,5,4,0:0:0:0:
399,34,298966,1,0,0:0:0:0:
277,339,299116,5,12,0:0:0:0:
328,134,299266,1,0,0:0:0:0:
178,232,299416,6,0,P|186:263|195:273,1,35,4|0,3:2|3:0,3:0:0:0:
290,268,299566,2,0,P|317:284|331:284,1,35,0|0,3:0|3:0,3:0:0:0:
413,255,299716,2,0,P|444:247|454:238,1,35,8|0,3:2|3:0,3:0:0:0:
486,159,299866,2,0,P|502:131|502:117,1,35,8|0,3:2|3:0,3:0:0:0:
339,98,300016,6,0,P|256:130|169:94,1,181.999991668702
135,70,300391,1,0,0:0:0:0:
90,59,300466,1,0,0:0:0:0:
44,61,300541,1,0,0:0:0:0:
1,78,300616,1,0,0:0:0:0:
78,154,300766,1,0,0:0:0:0:
78,262,300916,1,0,0:0:0:0:
1,339,301066,6,0,P|80:297|166:319,1,181.999991668702
264,357,301516,2,0,P|309:358|349:339,1,90.9999958343508
459,175,301816,2,0,P|413:173|373:192,1,90.9999958343508
453,365,302116,2,0,P|454:319|435:279,1,90.9999958343508
271,168,302416,5,0,0:0:0:0:
288,253,302566,1,0,0:0:0:0:
340,66,302716,5,0,0:0:0:0:
254,83,302866,1,0,0:0:0:0:
442,135,303016,6,0,L|422:34,1,90.9999958343508
374,236,303316,2,0,L|394:337,1,90.9999958343508
256,382,303616,5,0,0:0:0:0:
167,295,303766,1,0,0:0:0:0:
256,208,303916,1,0,0:0:0:0:
340,295,304066,1,0,0:0:0:0:
120,325,304366,5,0,0:0:0:0:
120,325,304441,1,0,0:0:0:0:
120,325,304516,1,0,0:0:0:0:
129,280,304591,1,0,0:0:0:0:
138,236,304666,1,0,0:0:0:0:
146,191,304741,1,0,0:0:0:0:
155,145,304816,6,0,L|244:128,1,90.9999958343508
267,123,305041,1,0,0:0:0:0:
289,119,305116,1,0,0:0:0:0:
429,278,305266,2,0,L|339:294,1,90.9999958343508
317,300,305491,1,0,0:0:0:0:
295,304,305566,1,0,0:0:0:0:
469,113,305716,6,0,L|477:157,1,45.4999979171754
410,197,305866,1,0,0:0:0:0:
401,152,305941,1,0,0:0:0:0:
392,107,306016,1,0,0:0:0:0:
236,220,306166,6,0,L|227:264,1,45.4999979171754
295,304,306316,1,0,0:0:0:0:
304,259,306391,1,0,0:0:0:0:
313,214,306466,1,0,0:0:0:0:
190,54,306616,5,0,0:0:0:0:
187,67,306691,1,0,0:0:0:0:
184,80,306766,1,0,0:0:0:0:
181,93,306841,1,0,0:0:0:0:
178,106,306916,1,0,0:0:0:0:
333,107,307066,5,0,0:0:0:0:
330,94,307141,1,0,0:0:0:0:
327,81,307216,1,0,0:0:0:0:
324,68,307291,1,0,0:0:0:0:
321,55,307366,1,0,0:0:0:0:
166,288,307516,5,0,0:0:0:0:
211,288,307591,1,0,0:0:0:0:
257,288,307666,1,0,0:0:0:0:
302,288,307741,1,0,0:0:0:0:
348,288,307816,1,0,0:0:0:0:
333,107,307966,6,0,P|255:65|178:106,1,181.999991668702
257,288,308416,5,0,0:0:0:0:
143,177,308566,1,0,0:0:0:0:
252,65,308716,1,0,0:0:0:0:
363,174,308866,1,0,0:0:0:0:
143,177,309016,5,0,0:0:0:0:
151,132,309091,1,0,0:0:0:0:
176,95,309166,1,0,0:0:0:0:
214,70,309241,1,0,0:0:0:0:
258,63,309316,1,0,0:0:0:0:
302,75,309391,1,0,0:0:0:0:
337,103,309466,1,0,0:0:0:0:
359,143,309541,1,0,0:0:0:0:
361,189,309616,6,0,B|345:253|345:253|293:292,1,105.000001502037
195,159,309916,2,0,B|259:174|259:174|298:226,1,105.000001502037
166,329,310216,2,0,B|181:264|181:264|212:241,1,105.000001502037
302,75,310516,5,0,0:0:0:0:
76,217,310666,2,0,P|78:293|101:341,1,105.000001502037
258,140,310966,1,0,0:0:0:0:
118,65,311116,1,0,0:0:0:0:
185,310,311266,2,0,B|250:328|250:328|330:317,1,105.000001502037
364,248,311566,5,0,0:0:0:0:
62,186,311716,1,0,0:0:0:0:
262,186,311866,1,0,0:0:0:0:
161,341,312016,6,0,B|128:275|128:275|116:205,1,105.000001502037
181,36,312316,2,0,B|214:102|214:102|226:172,1,105.000001502037
161,341,312616,5,0,0:0:0:0:
181,36,312766,1,0,0:0:0:0:
122,244,312916,1,0,0:0:0:0:
219,134,313066,2,0,P|298:121|339:140,1,105.000001502037
425,279,313366,1,0,0:0:0:0:
273,229,313516,1,0,0:0:0:0:
463,182,313666,6,0,B|449:231|449:231|420:287,1,105.000001502037
344,122,313966,1,0,0:0:0:0:
349,315,314116,1,0,0:0:0:0:
424,85,314266,1,0,0:0:0:0:
287,233,314416,6,0,P|324:296|356:319,1,105.000001502037,4|0,0:0|0:0,0:0:0:0:
402,136,314716,1,0,0:0:0:0:
223,134,314866,1,0,0:0:0:0:
349,316,315016,5,0,0:0:0:0:
464,181,315166,1,0,0:0:0:0:
287,232,315316,1,0,0:0:0:0:
403,134,315466,2,0,P|354:89|305:89,1,105.000001502037
287,233,315766,5,0,0:0:0:0:
425,233,315916,1,0,0:0:0:0:
254,117,316066,1,0,0:0:0:0:
343,318,316216,1,0,0:0:0:0:
433,191,316366,1,0,0:0:0:0:
252,237,316516,1,0,0:0:0:0:
362,350,316666,1,0,0:0:0:0:
367,117,316816,6,0,P|271:135|232:160,1,105.000001502037
358,285,317116,1,0,0:0:0:0:
145,117,317266,6,0,P|241:135|280:160,1,105.000001502037
154,285,317566,1,0,0:0:0:0:
47,190,317716,1,0,0:0:0:0:
246,137,317866,1,0,0:0:0:0:
158,338,318016,1,0,0:0:0:0:
115,317,318091,1,0,0:0:0:0:
87,280,318166,1,0,0:0:0:0:
79,234,318241,1,0,0:0:0:0:
92,189,318316,5,0,0:0:0:0:
143,203,318391,1,0,0:0:0:0:
195,206,318466,1,0,0:0:0:0:
247,199,318541,1,0,0:0:0:0:
296,182,318616,5,0,0:0:0:0:
344,165,318691,5,0,0:0:0:0:
353,116,318766,1,0,0:0:0:0:
316,83,318841,1,0,0:0:0:0:
268,98,318916,5,0,0:0:0:0:
150,336,319066,1,0,0:0:0:0:
41,212,319216,6,0,B|94:199|94:199|170:218|170:218|245:198,1,195.999994018555
361,158,319666,1,0,0:0:0:0:
171,124,319816,1,0,0:0:0:0:
305,267,319966,1,0,0:0:0:0:
269,21,320116,1,0,0:0:0:0:
230,201,320266,1,0,0:0:0:0:
416,93,320416,6,0,P|443:138|436:196,1,97.9999970092774
333,357,320716,2,0,P|306:312|313:254,1,97.9999970092774
361,158,321016,1,0,0:0:0:0:
386,292,321166,1,0,0:0:0:0:
230,201,321316,1,0,0:0:0:0:
386,292,321466,1,0,0:0:0:0:
230,201,321616,6,0,B|181:190|133:213|133:213|87:235|36:217,2,195.999994018555
196,316,322366,1,0,0:0:0:0:
80,120,322516,2,0,L|92:0,1,97.9999970092774
230,201,322816,5,0,0:0:0:0:
42,216,322966,1,0,0:0:0:0:
169,62,323116,1,0,0:0:0:0:
131,269,323266,1,0,0:0:0:0:
319,202,323416,2,0,P|306:155|271:121,1,97.9999970092774
131,269,323716,2,0,P|143:315|178:349,1,97.9999970092774
409,246,324016,6,0,B|276:238|276:238|221:270,1,195.999994018555
310,357,324466,1,0,0:0:0:0:
405,162,324616,2,0,L|307:156,1,97.9999970092774
379,319,324916,2,0,L|476:324,1,97.9999970092774
506,101,325216,6,0,P|461:58|333:69,2,195.999994018555
405,162,325966,1,0,0:0:0:0:
224,118,326116,2,0,L|229:-14,1,97.9999970092774
278,229,326416,6,0,P|205:240|106:144,1,195.999994018555
224,118,326866,1,0,0:0:0:0:
159,326,327016,1,0,0:0:0:0:
113,168,327166,1,0,0:0:0:0:
278,229,327316,2,0,L|414:215,1,97.9999970092774
501,67,327616,5,0,0:0:0:0:
471,41,327691,1,0,0:0:0:0:
433,31,327766,1,0,0:0:0:0:
393,31,327841,1,0,0:0:0:0:
358,50,327916,1,0,0:0:0:0:
327,75,327991,1,0,0:0:0:0:
288,79,328066,1,0,0:0:0:0:
250,67,328141,1,0,0:0:0:0:
218,43,328216,6,0,L|166:51,1,48.9999985046387
106,133,328366,2,0,L|158:141,1,48.9999985046387
201,233,328516,2,0,L|149:241,1,48.9999985046387
89,323,328666,2,0,L|141:331,1,48.9999985046387
304,192,328816,6,0,P|352:200|384:232,1,90
400,328,329116,2,0,P|448:304|464:268,1,90
464,156,329416,2,0,P|428:116|376:96,1,90
208,44,329716,1,0,0:0:0:0:
36,124,329866,6,0,P|124:160|232:140,1,181.999991668702
312,148,330316,1,0,0:0:0:0:
252,220,330466,2,0,P|212:264|144:288,1,90
80,256,330766,1,8,0:0:0:0:
296,316,330916,1,8,0:0:0:0:
124,344,331066,1,8,0:0:0:0:
252,220,331216,6,0,P|296:228|340:220,1,90
440,140,331516,2,0,P|396:148|352:140,1,90
296,56,331816,2,0,P|340:64|384:52,1,90
472,36,332116,1,0,0:0:0:0:
351,139,332266,6,0,P|375:175|384:232,1,90
252,220,332566,1,0,0:0:0:0:
416,300,332716,1,0,0:0:0:0:
292,328,332866,2,0,P|244:336|200:324,1,90
108,244,333166,1,0,0:0:0:0:
252,220,333316,1,0,0:0:0:0:
156,147,333466,1,0,0:0:0:0:
248,68,333616,6,0,P|296:48|356:56,1,90
428,132,333916,1,0,0:0:0:0:
340,272,334066,1,0,0:0:0:0:
312,144,334216,1,0,0:0:0:0:
456,264,334366,1,0,0:0:0:0:
256,192,334516,1,0,0:0:0:0:
411,44,334666,6,0,P|460:44|504:68,2,90
296,56,335116,1,0,0:0:0:0:
184,100,335266,1,0,0:0:0:0:
128,336,335566,5,0,0:0:0:0:
336,280,335716,1,0,0:0:0:0:
116,248,335866,1,0,0:0:0:0:
284,344,336016,5,0,0:0:0:0:
252,136,336166,1,0,0:0:0:0:
208,344,336316,1,0,0:0:0:0:
356,208,336466,1,0,0:0:0:0:
112,196,336616,1,0,0:0:0:0:
252,136,336766,1,0,0:0:0:0:
100,116,336916,1,0,0:0:0:0:
344,84,337066,6,0,P|324:56|268:36,2,90
364,200,337516,1,0,0:0:0:0:
396,332,337666,1,0,0:0:0:0:
480,224,337816,1,0,0:0:0:0:
284,288,337966,6,0,L|200:280,1,45.1499996124745
84,320,338116,2,0,L|168:312,1,45.1499996124745
168,184,338266,2,0,L|84:176,1,45.1499996124745
248,156,338416,6,0,L|236:16,1,105.000001502037
392,96,338716,2,0,P|412:156|392:232,1,105.000001502037
376,220,338941,1,0,0:0:0:0:
376,220,339016,1,0,0:0:0:0:
368,64,339166,1,0,0:0:0:0:
476,136,339316,1,0,0:0:0:0:
136,180,339466,6,0,L|240:176,1,105.000001502037
428,236,339766,2,0,L|323:232,1,105.000001502037
148,260,340066,1,0,0:0:0:0:
292,328,340216,1,0,0:0:0:0:
212,192,340366,1,0,0:0:0:0:
192,348,340516,1,0,0:0:0:0:
292,240,340666,1,0,0:0:0:0:
292,240,340741,1,0,0:0:0:0:
292,240,340816,6,0,B|308:184|308:184|300:120,1,105.000001502037
180,16,341116,2,0,B|164:72|164:72|172:136,1,105.000001502037
124,276,341416,1,0,0:0:0:0:
172,140,341566,1,0,0:0:0:0:
172,140,341641,1,0,0:0:0:0:
172,140,341716,1,0,0:0:0:0:
240,300,341866,1,0,0:0:0:0:
64,144,342016,6,0,L|52:28,1,105.000001502037
232,156,342316,2,0,L|220:272,1,105.000001502037
440,176,342616,6,0,P|360:160|308:180,1,105.000001502037
416,304,342841,2,0,P|448:263|461:212,1,105.000001502037
320,208,343066,2,0,P|332:258|365:299,1,105.000001502037
384,300,343516,6,0,L|256:296,1,105.000001502037
64,224,343816,1,0,0:0:0:0:
252,196,343966,1,0,0:0:0:0:
72,352,344116,2,0,B|60:304|60:304|68:240,1,105.000001502037
252,64,344416,2,0,B|264:112|264:112|256:176,1,105.000001502037
68,200,344716,1,0,0:0:0:0:
128,32,344866,1,0,0:0:0:0:
164,208,345016,2,0,B|180:256|180:256|172:320|172:320|184:368,2,157.500002253056
352,292,345616,6,0,P|300:308|236:308,1,105.000001502037
428,160,345916,1,0,0:0:0:0:
448,356,346066,1,0,0:0:0:0:
268,144,346216,6,0,L|256:12,1,105.000001502037
184,232,346516,1,0,0:0:0:0:
368,212,346666,1,0,0:0:0:0:
164,180,346816,2,0,L|128:176,1,26.2500003755093
256,244,346966,2,0,L|220:240,1,26.2500003755093
184,56,347116,2,0,L|148:52,1,26.2500003755093
276,112,347266,2,0,L|240:108,1,26.2500003755093
359,77,347416,6,0,P|361:126|270:199,1,167.999994873047
286,15,347866,1,0,0:0:0:0:
408,265,348016,5,4,1:2:0:0:
270,103,348166,2,0,P|214:102|164:122,1,83.9999974365235,0|8,0:0|0:0,0:0:0:0:
278,288,348466,1,0,0:0:0:0:
65,341,348616,1,0,1:0:0:0:
248,198,348766,2,0,P|296:197|339:217,1,83.9999974365235,0|8,0:0|0:0,0:0:0:0:
188,309,349066,5,0,0:0:0:0:
86,135,349216,1,0,1:0:0:0:
273,178,349366,1,0,0:0:0:0:
421,48,349516,1,8,0:0:0:0:
499,212,349666,6,0,P|500:167|476:130,1,83.9999974365235,0|0,0:0|1:0,0:0:0:0:
277,196,349966,1,0,0:0:0:0:
184,369,350116,1,8,0:0:0:0:
94,88,350266,1,0,0:0:0:0:
27,265,350416,5,4,1:2:0:0:
213,98,350566,2,0,P|262:93|306:114,1,83.9999974365235,0|8,0:0|0:0,0:0:0:0:
427,347,350866,1,0,0:0:0:0:
498,227,351016,1,0,1:0:0:0:
244,179,351166,2,0,P|191:186|147:209,1,83.9999974365235,0|8,0:0|0:0,0:0:0:0:
43,322,351466,5,0,0:0:0:0:
70,213,351616,1,0,1:0:0:0:
414,215,351766,1,0,0:0:0:0:
392,110,351916,1,8,0:0:0:0:
10,180,352066,1,0,0:0:0:0:
32,61,352216,1,0,1:0:0:0:
237,250,352366,1,2,0:0:0:0:
237,250,352441,1,2,0:0:0:0:
237,250,352516,1,10,0:0:0:0:
259,97,352666,1,0,0:0:0:0:
405,220,352816,5,4,1:2:0:0:
231,105,352966,2,0,B|198:106|180:96|180:96|153:113|122:115|122:115|109:146|77:167,1,167.999994873047
270,323,353416,2,0,B|293:340|300:352|300:352|315:345|354:350,1,83.9999974365235,0|0,1:0|0:0,0:0:0:0:
343,194,353716,1,8,0:0:0:0:
210,258,353866,2,0,B|184:278|177:298|177:298|145:303|121:321|121:321|91:307|53:312,1,167.999994873047,0|0,1:0|1:0,0:0:0:0:
241,171,354316,2,0,P|279:193|302:237,1,83.9999974365235,8|0,0:0|0:0,0:0:0:0:
146,183,354616,2,0,B|146:140|146:140|179:98,1,83.9999974365235,0|0,1:0|0:0,0:0:0:0:
473,261,354916,2,0,B|472:303|472:303|439:345,1,83.9999974365235,8|0,0:0|0:0,0:0:0:0:
228,237,355216,6,0,B|181:262|167:290|167:290|131:266|71:267,1,167.999994873047,4|8,1:2|0:0,0:0:0:0:
96,358,355666,1,0,0:0:0:0:
170,33,355816,1,0,1:0:0:0:
423,239,355966,1,0,1:0:0:0:
423,239,356116,1,8,0:0:0:0:
216,204,356266,1,0,1:0:0:0:
257,297,356416,2,0,L|278:351,3,41.9999987182618,0|0|0|0,1:0|0:0|1:0|0:0,0:0:0:0:
320,212,356716,2,0,L|394:226,3,41.9999987182618,8|0|0|0,0:0|0:0|1:0|0:0,0:0:0:0:
289,118,357016,1,8,0:0:0:0:
268,96,357091,1,8,0:0:0:0:
240,86,357166,1,8,0:0:0:0:
210,84,357241,1,8,0:0:0:0:
182,93,357316,1,8,0:0:0:0:
157,109,357391,1,8,0:0:0:0:
144,135,357466,1,8,0:0:0:0:
139,163,357541,1,8,0:0:0:0:
142,192,357616,5,8,0:0:0:0:
440,146,357916,5,0,0:0:0:0:
402,138,357991,1,0,0:0:0:0:
364,131,358066,1,0,0:0:0:0:
326,124,358141,1,0,0:0:0:0:
288,117,358216,1,0,0:0:0:0:
423,239,358366,1,0,0:0:0:0:
364,35,358516,1,0,0:0:0:0:
320,212,358666,1,0,0:0:0:0:
464,68,358816,6,0,P|506:98|520:147,1,77.0000005140305
416,276,359116,2,0,L|425:221,1,38.5000002570153
320,315,359266,2,0,L|326:352,1,38.5000002570153
427,374,359416,1,0,0:0:0:0:
320,212,359566,1,0,0:0:0:0:
228,366,359716,1,0,0:0:0:0:
416,276,359866,1,0,0:0:0:0:
170,304,360016,6,0,P|147:344|147:388,1,77.0000005140305
222,213,360316,1,0,0:0:0:0:
186,198,360391,1,0,0:0:0:0:
148,199,360466,1,0,0:0:0:0:
113,215,360541,1,0,0:0:0:0:
87,243,360616,1,0,0:0:0:0:
228,366,360766,1,0,0:0:0:0:
240,124,360916,1,0,0:0:0:0:
170,304,361066,1,0,0:0:0:0:
178,71,361216,6,0,B|215:31|271:48|271:48|305:41|325:4,1,154.000001028061
97,17,361666,1,0,0:0:0:0:
240,124,361816,2,0,P|290:125|326:111,1,77.0000005140305
93,107,362116,2,0,P|43:106|7:120,1,77.0000005140305
222,213,362416,5,0,0:0:0:0:
178,71,362566,1,0,0:0:0:0:
170,304,362716,1,0,0:0:0:0:
205,318,362791,1,0,0:0:0:0:
243,318,362866,1,0,0:0:0:0:
279,304,362941,1,0,0:0:0:0:
307,279,363016,1,0,0:0:0:0:
87,243,363166,1,0,0:0:0:0:
222,213,363316,1,0,0:0:0:0:
92,362,363466,1,0,0:0:0:0:
307,279,363616,6,0,P|328:225|323:180,1,77.0000005140305
465,348,363916,2,0,L|525:339,1,38.5000002570153
457,260,364066,2,0,L|418:254,1,38.5000002570153
371,343,364216,1,0,0:0:0:0:
456,161,364366,1,0,0:0:0:0:
465,348,364516,1,0,0:0:0:0:
307,279,364666,1,0,0:0:0:0:
407,84,364816,6,0,P|453:69|510:89,1,77.0000005140305
310,126,365116,1,0,0:0:0:0:
271,124,365191,1,0,0:0:0:0:
233,122,365266,1,0,0:0:0:0:
194,120,365341,1,0,0:0:0:0:
156,118,365416,1,0,0:0:0:0:
234,224,365566,1,0,0:0:0:0:
185,37,365716,1,0,0:0:0:0:
130,231,365866,1,0,0:0:0:0:
310,126,366016,6,0,L|294:41,1,77.0000005140305
57,159,366316,2,0,L|42:234,1,77.0000005140305
308,227,366616,2,0,B|266:215|266:215|216:229,1,77.0000005140305
77,317,366916,2,0,B|119:329|119:329|169:315,1,77.0000005140305
310,126,367216,5,0,0:0:0:0:
259,311,367366,1,0,0:0:0:0:
227,118,367516,2,0,P|247:70|291:45,1,77.0000005140305
346,290,367816,2,0,P|335:253|308:227,1,77.0000005140305
130,231,368116,1,0,0:0:0:0:
259,311,368266,1,0,0:0:0:0:
227,118,368416,6,0,L|124:106,1,77.0000005140305
346,290,368716,2,0,L|449:278,1,77.0000005140305
323,8,369016,2,0,B|291:87|348:83|311:167,1,154.000001028061
227,118,369466,1,0,0:0:0:0:
416,47,369616,6,0,P|461:38|512:63,1,77.0000005140305
388,157,369916,2,0,P|343:166|292:141,1,77.0000005140305
487,138,370216,1,0,0:0:0:0:
503,302,370366,1,0,0:0:0:0:
386,233,370516,2,0,L|388:143,1,77.0000005140305
223,268,370816,6,0,B|167:248|167:248|125:264|125:264|58:248,1,154.000001028061
118,162,371266,1,0,0:0:0:0:
223,268,371416,2,0,L|221:344,1,77.0000005140305
386,233,371716,2,0,L|388:143,1,77.0000005140305
187,120,372016,6,0,P|126:79|56:105,1,154.000001028061
76,252,372466,1,0,0:0:0:0:
247,182,372616,2,0,P|270:138|265:88,1,77.0000005140305
76,252,372916,2,0,P|80:289|100:322,1,77.0000005140305
323,175,373216,6,0,L|221:183,1,77.0000005140305
330,340,373516,2,0,L|432:348,1,77.0000005140305
323,175,373816,1,0,0:0:0:0:
217,309,373966,1,0,0:0:0:0:
187,120,374116,2,0,B|176:82|176:82|189:29,1,77.0000005140305
323,175,374416,6,0,B|234:154|261:224|158:207,1,154.000001028061
87,143,374866,1,0,0:0:0:0:
304,90,375016,2,0,P|362:103|403:185,1,154.000001028061
298,253,375466,1,0,0:0:0:0:
304,90,375616,6,0,P|293:45|305:-1,1,77.0000005140305
473,124,375916,2,0,P|484:169|472:215,1,77.0000005140305
227,100,376216,2,0,L|328:86,1,77.0000005140305
473,124,376516,6,0,L|396:113,1,77.0000005140305
193,238,376816,6,0,L|356:292,1,167.999994873047,4|8,1:2|0:0,0:0:0:0:
183,138,377266,1,0,0:0:0:0:
90,171,377416,2,0,L|8:197,1,83.9999974365235,0|0,1:0|0:0,0:0:0:0:
263,73,377716,2,0,P|284:124|276:162,1,83.9999974365235,8|0,0:0|0:0,0:0:0:0:
140,269,378016,1,0,1:0:0:0:
183,138,378166,1,0,0:0:0:0:
388,257,378316,2,0,P|435:256|472:225,1,83.9999974365235,8|0,0:0|0:0,0:0:0:0:
248,28,378616,2,0,P|201:29|164:60,1,83.9999974365235,0|0,1:0|0:0,0:0:0:0:
206,331,378916,2,0,P|253:330|290:299,1,83.9999974365235,8|0,0:0|0:0,0:0:0:0:
143,221,379216,6,0,B|103:201|94:158|94:158|65:200|13:203,1,167.999994873047,0|8,1:0|0:0,0:0:0:0:
136,63,379666,1,0,0:0:0:0:
275,127,379816,2,0,P|230:147|181:140,1,83.9999974365235,0|0,1:0|0:0,0:0:0:0:
380,88,380116,1,8,0:0:0:0:
316,299,380266,1,0,0:0:0:0:
397,237,380416,2,0,P|442:217|491:224,1,83.9999974365235,0|0,1:0|0:0,0:0:0:0:
220,373,380716,2,0,P|159:367|121:347,1,83.9999974365235,8|0,0:0|0:0,0:0:0:0:
184,245,381016,2,0,P|134:232|96:194,1,83.9999974365235,0|0,1:0|0:0,0:0:0:0:
237,102,381316,2,0,P|207:67|200:21,1,83.9999974365235,8|0,0:0|0:0,0:0:0:0:
382,114,381616,6,0,B|362:210|304:163|289:259,1,167.999994873047,0|8,1:0|0:0,0:0:0:0:
127,125,382066,2,0,P|77:127|38:149,1,83.9999974365235,0|0,0:0|1:0,0:0:0:0:
67,335,382366,1,0,0:0:0:0:
245,172,382516,2,0,P|298:159|347:170,1,83.9999974365235,8|0,0:0|0:0,0:0:0:0:
458,274,382816,5,0,1:0:0:0:
293,377,382966,1,0,0:0:0:0:
184,200,383116,1,8,0:0:0:0:
349,97,383266,1,0,0:0:0:0:
339,206,383416,2,0,L|332:296,1,83.9999974365235,0|0,1:0|0:0,0:0:0:0:
81,106,383716,2,0,L|88:16,1,83.9999974365235,8|0,0:0|0:0,0:0:0:0:
296,20,384016,6,0,P|363:8|438:71,1,167.999994873047,0|8,1:0|0:0,0:0:0:0:
199,291,384466,2,0,L|107:311,1,83.9999974365235,0|0,0:0|1:0,0:0:0:0:
349,97,384766,1,0,0:0:0:0:
479,247,384916,2,0,P|495:294|488:327,1,83.9999974365235,8|0,0:0|0:0,0:0:0:0:
320,208,385216,2,0,L|332:161,3,41.9999987182618,0|0|0|0,1:0|0:0|1:0|0:0,0:0:0:0:
216,117,385516,2,0,L|228:70,3,41.9999987182618,8|0|0|0,0:0|0:0|1:0|0:0,0:0:0:0:
152,239,385816,1,8,0:0:0:0:
139,211,385891,5,8,0:0:0:0:
136,182,385966,1,8,0:0:0:0:
141,154,386041,1,8,0:0:0:0:
154,127,386116,1,8,0:0:0:0:
174,106,386191,1,8,0:0:0:0:
198,88,386266,1,8,0:0:0:0:
227,77,386341,1,8,0:0:0:0:
260,72,386416,6,0,P|320:80|376:128,1,105.000001502037
272,328,386716,2,0,B|300:304|300:304|316:272,1,52.5000007510186
266,206,386866,2,0,B|278:174|278:174|288:138,1,52.5000007510186
84,208,387016,6,0,P|64:156|92:96,2,105.000004005432,10|0|2,0:0|0:0|0:0,0:0:0:0:
284,157,387466,1,0,0:0:0:0:
144,156,387616,1,10,0:0:0:0:
336,100,387766,1,0,0:0:0:0:
316,84,387841,1,0,0:0:0:0:
292,76,387916,1,0,0:0:0:0:
264,64,387991,2,0,B|236:44|236:44|200:36,1,52.5000007510186
104,80,388141,5,0,0:0:0:0:
104,80,388216,1,8,0:0:0:0:
78,110,388291,1,0,0:0:0:0:
78,110,388366,1,0,0:0:0:0:
143,306,388516,5,2,0:0:0:0:
268,132,388666,1,0,0:0:0:0:
78,110,388816,2,0,P|66:158|102:214,1,105.000001502037,8|0,0:0|0:0,0:0:0:0:
338,263,389116,2,0,L|378:319,1,52.5000020027161
144,152,389266,2,0,L|192:88,1,52.5000020027161
143,306,389416,2,0,P|94:323|45:306,2,105.000004005432,10|0|2,0:0|0:0|0:0,0:0:0:0:
208,256,389791,1,0,0:0:0:0:
272,136,389941,1,0,0:0:0:0:
272,136,390016,2,0,P|320:88|384:108,1,105.000004005432,8|0,0:0|0:0,0:0:0:0:
376,276,390316,5,0,0:0:0:0:
340,160,390466,1,0,0:0:0:0:
97,234,390616,1,8,0:0:0:0:
208,256,390766,5,0,0:0:0:0:
208,256,390841,1,0,0:0:0:0:
208,256,390916,1,0,0:0:0:0:
272,136,391066,1,0,0:0:0:0:
272,136,391141,1,0,0:0:0:0:
272,136,391216,6,0,P|320:88|384:108,1,105.000004005432,8|0,0:0|0:0,0:0:0:0:
340,160,391516,2,0,P|388:208|368:272,1,105.000004005432
316,228,391816,2,0,P|268:276|288:340,1,105.000004005432,8|0,0:0|0:0,0:0:0:0:
268,309,392041,1,0,0:0:0:0:
268,309,392116,1,2,0:0:0:0:
353,88,392266,6,0,P|302:95|272:136,1,105.000004005432,0|8,0:0|0:0,0:0:0:0:
340,296,392566,1,0,0:0:0:0:
353,88,392716,1,2,0:0:0:0:
153,95,392866,6,0,B|124:104|124:104|109:133,1,52.5000020027161
175,168,393016,2,0,B|160:192|160:192|158:225,1,52.5000020027161,8|0,0:0|0:0,0:0:0:0:
237,222,393166,2,0,B|240:252|240:252|261:282,1,52.5000020027161
316,228,393316,2,0,P|368:264|428:256,1,105.000004005432,2|0,0:0|0:0,0:0:0:0:
336,152,393616,5,8,0:0:0:0:
52,52,393916,5,2,0:0:0:0:
52,52,394066,1,2,0:0:0:0:
384,192,394216,1,8,0:0:0:0:
384,192,394366,1,0,0:0:0:0:
52,270,394516,1,2,0:0:0:0:
52,270,394591,1,4,0:0:0:0:
52,270,394666,1,2,0:0:0:0:
348,148,394816,6,0,B|268:117|248:164|221:182|216:220|232:256|245:271|245:271|196:326|137:337|79:338|47:249|26:242,1,448,8|8,0:0|0:0,0:0:0:0:
308,220,395566,1,2,0:0:0:0:
146,210,395716,1,8,0:0:0:0:
348,148,395866,1,2,0:0:0:0:
348,148,396016,6,0,B|237:120|237:120|144:196|92:96|92:96|192:-4|264:184|264:184|240:248|96:252|48:176,1,783.999981307984
288,44,397216,1,0,0:0:0:0:
168,316,397366,1,0,0:0:0:0:
52,184,397516,1,0,0:0:0:0:
52,184,397591,1,0,0:0:0:0:
52,184,397666,5,0,0:0:0:0:
264,184,397816,1,0,0:0:0:0:
152,340,397966,1,0,0:0:0:0:
148,76,398116,1,0,0:0:0:0:
272,308,398266,1,0,0:0:0:0:
52,184,398416,6,0,B|23:122|66:29|186:49|212:112|201:175|201:175|249:177|277:129|277:129|317:141|344:177|344:177|382:173|415:127|415:127|482:164|482:164|434:241|359:253,1,783.999981307984
124,152,399616,1,0,0:0:0:0:
356,72,399766,1,0,0:0:0:0:
252,316,399916,1,0,0:0:0:0:
252,316,399991,1,0,0:0:0:0:
252,316,400066,5,0,0:0:0:0:
276,128,400216,1,0,0:0:0:0:
344,376,400366,1,0,0:0:0:0:
148,176,400516,1,0,0:0:0:0:
381,247,400666,1,0,0:0:0:0:
67,343,400816,6,0,B|7:91|215:31|215:31|231:111|143:179,1,559.99998664856
64,8,401716,1,0,0:0:0:0:
308,96,401866,1,0,0:0:0:0:
67,343,402016,6,0,B|7:91|215:31|215:31|222:62|212:96,1,419.99998998642
148,312,402616,2,0,P|136:240|152:160,1,139.99999666214
384,24,402916,2,0,P|396:96|380:176,1,139.99999666214
148,312,403216,5,0,0:0:0:0:
268,136,403366,1,0,0:0:0:0:
256,380,403516,1,0,0:0:0:0:
256,380,403591,1,0,0:0:0:0:
256,380,403666,1,0,0:0:0:0:
146,174,403816,5,0,0:0:0:0:
296,264,403966,1,0,0:0:0:0:
48,344,404116,1,0,0:0:0:0:
48,344,404191,1,0,0:0:0:0:
48,344,404266,1,0,0:0:0:0:
88,88,404416,5,0,0:0:0:0:
148,288,404566,1,0,0:0:0:0:
204,56,404716,5,0,0:0:0:0:
184,288,404866,1,0,0:0:0:0:
316,96,405016,5,0,0:0:0:0:
224,288,405166,1,0,0:0:0:0:
412,172,405316,5,0,0:0:0:0:
260,288,405466,1,0,0:0:0:0:
204,56,405616,5,0,0:0:0:0:
233,34,405691,1,0,0:0:0:0:
267,22,405766,1,0,0:0:0:0:
303,20,405841,1,0,0:0:0:0:
338,27,405916,1,0,0:0:0:0:
158,135,406066,1,0,0:0:0:0:
158,135,406141,1,0,0:0:0:0:
158,135,406216,2,0,P|124:94|115:32,1,95.9999970703126
291,152,406516,1,0,0:0:0:0:
282,196,406591,1,0,0:0:0:0:
273,240,406666,1,0,0:0:0:0:
264,283,406741,1,0,0:0:0:0:
254,326,406816,6,0,L|244:383,2,47.9999985351563
166,184,407116,2,0,L|148:84,1,95.9999970703126
309,31,407416,1,0,0:0:0:0:
309,31,407491,1,0,0:0:0:0:
309,31,407566,2,0,L|299:88,1,47.9999985351563
339,148,407716,1,0,0:0:0:0:
328,189,407791,1,0,0:0:0:0:
326,232,407866,1,0,0:0:0:0:
333,275,407941,1,0,0:0:0:0:
349,315,408016,6,0,P|364:338|384:363,2,47.9999985351563
206,185,408316,1,0,0:0:0:0:
63,315,408466,6,0,P|48:338|28:363,1,47.9999985351563
136,352,408616,1,0,0:0:0:0:
170,342,408691,1,0,0:0:0:0:
206,339,408766,1,0,0:0:0:0:
242,342,408841,1,0,0:0:0:0:
277,352,408916,2,0,P|334:362|388:349,1,95.9999970703126
436,304,409141,1,0,0:0:0:0:
436,304,409216,6,0,L|445:207,1,95.9999970703126
241,133,409516,2,0,L|249:228,1,95.9999970703126
419,102,409816,1,0,0:0:0:0:
419,102,409891,1,0,0:0:0:0:
419,102,409966,1,0,0:0:0:0:
182,39,410116,2,0,L|131:44,1,47.9999985351563
2,128,410266,2,0,L|53:133,1,47.9999985351563
182,226,410416,5,0,0:0:0:0:
182,226,410491,1,0,0:0:0:0:
182,226,410566,1,0,0:0:0:0:
330,104,410716,2,0,P|387:98|446:117,1,95.9999970703126
487,289,411016,1,0,0:0:0:0:
487,289,411091,1,0,0:0:0:0:
487,289,411166,2,0,L|480:343,1,47.9999985351563
370,371,411316,1,0,0:0:0:0:
340,352,411391,1,0,0:0:0:0:
306,340,411466,1,0,0:0:0:0:
270,336,411541,1,0,0:0:0:0:
235,340,411616,6,0,P|180:350|125:339,1,95.9999970703126
220,152,411916,2,0,P|256:194|274:247,1,95.9999970703126
80,147,412216,1,0,0:0:0:0:
80,147,412291,1,0,0:0:0:0:
80,147,412366,2,0,P|83:118|92:94,1,47.9999985351563
192,40,412516,1,0,0:0:0:0:
228,36,412591,1,0,0:0:0:0:
264,33,412666,1,0,0:0:0:0:
300,30,412741,1,0,0:0:0:0:
336,27,412816,6,0,L|384:23,2,47.9999985351563
155,142,413116,2,0,P|145:189|160:250,1,95.9999970703126
299,360,413416,1,0,0:0:0:0:
299,360,413491,1,0,0:0:0:0:
299,360,413566,2,0,L|364:349,1,47.9999985351563
417,287,413716,1,0,0:0:0:0:
401,254,413791,1,0,0:0:0:0:
395,219,413866,1,0,0:0:0:0:
397,183,413941,1,0,0:0:0:0:
408,152,414016,6,0,L|428:92,3,48.2999989221383
348,40,414316,2,0,L|332:88,3,48.2999989221383
241,116,414616,5,0,0:0:0:0:
206,124,414691,1,0,0:0:0:0:
170,126,414766,1,0,0:0:0:0:
134,120,414841,1,0,0:0:0:0:
101,106,414916,2,0,P|70:73|57:19,1,96.5999978442765
71,214,415216,6,0,P|102:247|116:304,1,97.9999946727755
60,384,415516,1,0,0:0:0:0:
209,233,415666,1,0,0:0:0:0:
324,356,415816,6,0,L|424:356,1,97.9999946727755
336,188,416116,2,0,P|303:223|290:274,1,97.9999946727755
388,272,416416,1,0,0:0:0:0:
288,108,416566,1,0,0:0:0:0:
480,104,416716,1,0,0:0:0:0:
376,296,416866,1,0,0:0:0:0:
384,112,417016,6,0,B|384:8|384:8|344:60,1,146.999992009163
288,108,417316,2,0,P|236:124|168:92,1,97.9999946727755
120,44,417616,1,0,0:0:0:0:
116,204,417766,5,0,0:0:0:0:
24,40,417916,1,0,0:0:0:0:
216,208,418066,1,0,0:0:0:0:
32,144,418216,6,0,P|16:196|40:276,1,97.9999946727755
152,344,418516,2,0,L|280:344,1,105.000001502037
368,212,418816,1,0,0:0:0:0:
216,208,418966,1,0,0:0:0:0:
336,380,419116,1,0,0:0:0:0:
296,160,419266,1,0,0:0:0:0:
133,256,419416,6,0,P|121:190|171:122,1,146.999992009163
228,68,419716,2,0,B|256:72|256:72|352:52,1,97.9999946727755
400,20,419941,1,0,0:0:0:0:
400,20,420016,1,0,0:0:0:0:
488,192,420166,5,0,0:0:0:0:
296,160,420316,1,0,0:0:0:0:
328,332,420466,1,0,0:0:0:0:
200,160,420616,6,0,P|140:160|88:184,1,97.9999946727755
32,240,420916,1,0,0:0:0:0:
32,240,420991,1,0,0:0:0:0:
32,240,421066,1,0,0:0:0:0:
168,264,421216,5,0,0:0:0:0:
72,88,421366,1,0,0:0:0:0:
200,160,421516,1,0,0:0:0:0:
224,0,421666,1,0,0:0:0:0:
372,72,421816,6,0,B|332:88|332:88|212:84,1,146.999992009163
200,160,422116,2,0,L|324:164,1,97.9999946727755
468,172,422416,6,0,B|472:224|472:224|464:284,1,97.9999946727755
416,360,422716,1,0,0:0:0:0:
416,360,422866,1,0,0:0:0:0:
336,188,423016,6,0,P|290:206|244:268,1,97.9999946727755
208,344,423316,1,0,0:0:0:0:
208,344,423466,1,0,0:0:0:0:
92,184,423616,5,0,0:0:0:0:
84,216,423691,1,0,0:0:0:0:
92,248,423766,1,0,0:0:0:0:
116,272,423841,1,0,0:0:0:0:
148,280,423916,1,0,0:0:0:0:
180,268,423991,1,0,0:0:0:0:
200,240,424066,1,0,0:0:0:0:
184,200,424141,5,0,0:0:0:0:
176,156,424216,1,0,0:0:0:0:
188,112,424291,1,0,0:0:0:0:
220,80,424366,1,0,0:0:0:0:
232,132,424441,5,0,0:0:0:0:
272,168,424516,1,0,0:0:0:0:
324,164,424591,1,0,0:0:0:0:
368,136,424666,1,0,0:0:0:0:
388,84,424741,1,0,0:0:0:0:
372,32,424816,1,0,0:0:0:0:
408,160,434416,5,0,0:0:0:0:
358,117,434491,1,0,0:0:0:0:
300,116,434566,1,0,0:0:0:0:
253,151,434641,1,0,0:0:0:0:
237,207,434716,1,8,0:0:0:0:
226,275,434791,1,0,0:0:0:0:
169,316,434866,1,0,0:0:0:0:
100,304,434941,1,0,0:0:0:0:
60,247,435016,6,0,P|57:216|63:179,3,59.4999997162819
150,53,435316,2,0,P|153:84|147:121,3,59.4999997162819,8|0|0|0,0:0|0:0|0:0|0:0,0:0:0:0:
149,234,435616,5,2,0:0:0:0:
165,290,435691,1,0,0:0:0:0:
211,326,435766,1,0,0:0:0:0:
269,331,435841,1,0,0:0:0:0:
319,301,435916,2,0,P|348:288|392:295,1,59.4999997162819,8|0,0:0|0:0,0:0:0:0:
441,204,436066,2,0,P|414:191|384:191,1,59.4999997162819
284,174,436216,5,0,0:0:0:0:
268,117,436291,1,0,0:0:0:0:
291,64,436366,1,0,0:0:0:0:
343,36,436441,1,0,0:0:0:0:
400,47,436516,2,0,L|414:109,1,59.4999997162819,8|0,0:0|0:0,0:0:0:0:
284,174,436666,2,0,L|297:235,1,59.4999997162819
211,326,436816,5,4,0:0:0:0:
152,318,436891,1,0,0:0:0:0:
110,278,436966,1,0,0:0:0:0:
101,221,437041,1,0,0:0:0:0:
127,169,437116,1,8,0:0:0:0:
155,101,437191,1,0,0:0:0:0:
105,48,437266,1,0,0:0:0:0:
36,71,437341,1,0,0:0:0:0:
30,144,437416,6,0,L|52:205,3,59.4999997162819,4|0|0|0,0:0|0:0|0:0|0:0,0:0:0:0:
151,323,437716,2,0,L|129:384,3,59.4999997162819,8|0|0|0,0:0|0:0|0:0|0:0,0:0:0:0:
269,260,438016,5,4,0:0:0:0:
339,249,438091,1,0,0:0:0:0:
410,239,438166,2,0,L|481:229,1,59.4999997162819
274,164,438316,5,12,0:0:0:0:
203,153,438391,1,0,0:0:0:0:
132,143,438466,2,0,L|61:132,1,59.4999997162819
389,149,438616,6,0,L|459:138,1,59.4999997162819,4|0,0:0|0:0,0:0:0:0:
120,227,438766,2,0,L|61:218,1,59.4999997162819
339,249,438916,2,0,L|328:307,1,59.4999997162819,12|0,0:0|0:0,0:0:0:0:
203,153,439066,2,0,L|192:94,1,59.4999997162819
389,149,439216,5,4,0:0:0:0:
379,206,439291,1,0,0:0:0:0:
339,249,439366,1,0,0:0:0:0:
281,261,439441,1,0,0:0:0:0:
227,238,439516,1,8,0:0:0:0:
161,213,439591,1,0,0:0:0:0:
94,234,439666,1,0,0:0:0:0:
55,292,439741,1,0,0:0:0:0:
60,362,439816,6,0,L|140:352,3,59.4999997162819
283,259,440116,2,0,L|362:269,3,59.4999997162819,8|0|0|0,0:0|0:0|0:0|0:0,0:0:0:0:
163,209,440416,5,2,0:0:0:0:
161,150,440491,1,0,0:0:0:0:
195,102,440566,1,0,0:0:0:0:
250,84,440641,1,0,0:0:0:0:
306,103,440716,2,0,P|338:116|375:114,1,59.4999997162819,8|0,0:0|0:0,0:0:0:0:
119,79,440866,2,0,P|87:66|50:68,1,59.4999997162819
240,174,441016,5,0,0:0:0:0:
241,232,441091,1,0,0:0:0:0:
207,280,441166,1,0,0:0:0:0:
152,298,441241,1,0,0:0:0:0:
96,279,441316,2,0,P|64:266|27:268,1,59.4999997162819,8|0,0:0|0:0,0:0:0:0:
284,304,441466,2,0,P|315:316|352:314,1,59.4999997162819
156,209,441616,5,4,0:0:0:0:
150,150,441691,1,0,0:0:0:0:
181,100,441766,1,0,0:0:0:0:
235,78,441841,1,0,0:0:0:0:
292,92,441916,1,8,0:0:0:0:
357,102,441991,1,0,0:0:0:0:
381,41,442066,1,0,0:0:0:0:
327,6,442141,1,0,0:0:0:0:
278,48,442216,6,0,L|266:112,3,59.4999997162819,4|0|0|0,0:0|0:0|0:0|0:0,0:0:0:0:
155,208,442516,2,0,L|142:271,3,59.4999997162819,8|0|0|0,0:0|0:0|0:0|0:0,0:0:0:0:
257,322,442816,5,4,0:0:0:0:
322,347,442891,1,0,0:0:0:0:
389,328,442966,1,0,0:0:0:0:
432,273,443041,1,0,0:0:0:0:
434,203,443116,1,8,0:0:0:0:
401,145,443191,1,0,0:0:0:0:
447,98,443266,1,0,0:0:0:0:
499,130,443341,1,0,0:0:0:0:
490,195,443416,5,0,0:0:0:0:
415,228,443491,1,0,0:0:0:0:
335,208,443566,1,0,0:0:0:0:
283,145,443641,1,0,0:0:0:0:
280,64,443716,1,4,0:0:0:0:
256,192,446116,12,0,447991,0:0:0:0:
100,100,448103,5,0,0:0:0:0:
292,228,448353,1,0,0:0:0:0:
48,236,448603,5,0,0:0:0:0:
240,364,448853,1,0,0:0:0:0:
224,160,449103,6,0,B|238:93|238:93|316:62,1,139.99999666214
416,138,449603,2,0,B|402:205|402:205|324:236,1,139.99999666214
264,76,450103,5,0,0:0:0:0:
356,296,450353,1,0,0:0:0:0:
108,76,450603,5,0,0:0:0:0:
200,296,450853,1,0,0:0:0:0:
260,128,451103,5,0,0:0:0:0:
80,260,451353,1,0,0:0:0:0:
332,232,451603,5,0,0:0:0:0:
152,364,451853,1,0,0:0:0:0:
240,208,452103,6,0,P|264:144|208:72,1,139.99999666214
76,112,452603,2,0,P|52:176|108:248,1,139.99999666214
196,304,453103,5,0,0:0:0:0:
196,304,453353,1,0,0:0:0:0:
228,80,453603,1,0,0:0:0:0:
228,80,453853,1,0,0:0:0:0:
104,160,454103,5,0,0:0:0:0:
296,288,454353,1,0,0:0:0:0:
392,184,454603,5,0,0:0:0:0:
200,312,454853,1,0,0:0:0:0:
320,252,455103,6,0,L|344:100,1,139.99999666214
168,112,455603,2,0,L|189:250,1,139.99999666214
232,344,456103,5,0,0:0:0:0:
388,328,456228,1,0,0:0:0:0:
316,240,456353,2,0,L|300:160,2,41.9999977169038
208,224,456603,5,0,0:0:0:0:
317,111,456728,1,0,0:0:0:0:
205,90,456853,2,0,L|141:39,2,41.9999977169038
300,160,457103,5,0,0:0:0:0:
216,284,457228,2,0,L|152:308,2,41.9999977169038
344,304,457478,1,0,0:0:0:0:
296,152,457603,6,0,L|352:68,1,83.9999954338076
176,244,457853,2,0,L|112:336,1,83.9999954338076
140,144,458103,5,0,0:0:0:0:
292,236,458228,1,0,0:0:0:0:
300,244,458290,1,0,0:0:0:0:
300,244,458353,1,0,0:0:0:0:
140,144,458478,1,0,0:0:0:0:
164,252,458603,6,0,P|232:184|236:164,2,83.9999954338076
64,236,458978,5,0,0:0:0:0:
64,236,459103,2,0,P|84:168|116:136,1,83.9999954338076
216,72,459353,2,0,P|220:144|200:184,1,83.9999954338076
264,332,459603,2,0,P|284:264|316:232,1,83.9999954338076
416,168,459853,2,0,P|420:240|400:280,1,83.9999954338076
348,320,460103,5,0,0:0:0:0:
280,200,460228,1,0,0:0:0:0:
192,308,460353,2,0,L|156:276,2,41.9999977169038
172,196,460603,5,0,0:0:0:0:
36,223,460728,1,0,0:0:0:0:
112,340,460853,2,0,L|70:364,2,41.9999977169038
92,168,461103,5,0,0:0:0:0:
204,280,461228,2,0,L|220:328,2,41.9999977169038
252,136,461478,1,0,0:0:0:0:
312,232,461603,6,0,B|352:196|352:196|348:132,1,83.9999954338076
236,16,461853,2,0,B|196:52|196:52|200:116,1,83.9999954338076
264,192,462103,5,0,0:0:0:0:
344,84,462228,1,0,0:0:0:0:
344,84,462290,1,0,0:0:0:0:
344,84,462353,1,0,0:0:0:0:
268,196,462478,1,0,0:0:0:0:
196,64,462603,5,0,0:0:0:0:
356,176,462728,1,0,0:0:0:0:
196,64,462853,1,0,0:0:0:0:
104,192,462978,1,0,0:0:0:0:
104,192,463103,6,0,L|164:252,1,83.9999954338076
352,136,463353,2,0,L|272:196,1,83.9999954338076
120,64,463603,6,0,L|180:124,1,83.9999954338076
328,24,463853,2,0,L|248:84,1,83.9999954338076
108,192,464103,6,0,P|160:232|192:276,1,83.9999954338076
232,344,464353,6,0,L|244:264,1,41.9999977169038
312,284,464478,2,0,L|320:224,1,41.9999977169038
376,164,464603,1,0,0:0:0:0:
448,320,464728,1,0,0:0:0:0:
336,288,464853,5,0,0:0:0:0:
299,268,464915,1,0,0:0:0:0:
276,233,464978,1,0,0:0:0:0:
274,192,465040,1,0,0:0:0:0:
292,156,465103,2,0,P|320:120|372:112,1,83.9999954338076
192,176,465353,2,0,P|152:208|92:208,1,83.9999954338076
236,88,465603,6,0,B|280:140|280:140|280:232,2,125.999993150711
120,32,466103,6,0,P|80:80|80:136,1,83.9999954338076
52,208,466353,6,0,L|96:252,1,41.9999977169038
152,228,466478,2,0,L|200:272,1,41.9999977169038
268,268,466603,1,0,0:0:0:0:
240,132,466728,1,0,0:0:0:0:
400,168,466853,5,0,0:0:0:0:
411,209,466915,1,0,0:0:0:0:
405,250,466978,1,0,0:0:0:0:
383,286,467040,1,0,0:0:0:0:
352,308,467103,2,0,P|288:312|248:288,1,83.9999954338076
224,120,467353,2,0,P|292:140|320:176,1,83.9999954338076
112,256,467603,6,0,L|116:204,2,41.9999977169038
44,72,467853,2,0,L|44:184,1,83.9999954338076
100,328,468103,6,0,P|144:272|144:228,1,83.9999954338076
124,116,468353,1,0,0:0:0:0:
154,88,468415,1,0,0:0:0:0:
195,80,468478,1,0,0:0:0:0:
234,95,468540,1,0,0:0:0:0:
268,120,468603,2,0,P|320:128|352:104,1,83.9999954338076
456,20,468853,1,0,0:0:0:0:
475,55,468915,1,0,0:0:0:0:
473,97,468978,1,0,0:0:0:0:
449,131,469040,1,0,0:0:0:0:
417,158,469103,2,0,P|396:206|412:243,1,83.9999954338076
492,320,469353,5,0,0:0:0:0:
320,236,469478,1,0,0:0:0:0:
492,316,469603,1,0,0:0:0:0:
392,192,469728,5,0,0:0:0:0:
363,164,469790,1,0,0:0:0:0:
322,155,469853,1,0,0:0:0:0:
282,170,469915,1,0,0:0:0:0:
248,193,469978,1,0,0:0:0:0:
207,202,470040,1,0,0:0:0:0:
168,188,470103,2,0,L|180:136,2,41.9999977169038
104,260,470353,2,0,L|88:316,2,41.9999977169038
72,156,470603,6,0,P|120:104|156:96,1,83.9999954338076
236,48,470853,6,0,L|252:116,1,41.9999977169038
208,152,470978,2,0,L|220:216,1,41.9999977169038
220,280,471103,5,0,0:0:0:0:
332,128,471228,1,0,0:0:0:0:
220,280,471353,5,0,0:0:0:0:
332,128,471478,1,0,0:0:0:0:
292,304,471603,5,0,0:0:0:0:
192,144,471728,1,0,0:0:0:0:
372,192,471853,1,0,0:0:0:0:
220,72,472103,5,0,0:0:0:0:
248,200,472228,2,0,L|312:236,2,41.9999977169038
120,228,472478,1,0,0:0:0:0:
224,76,472603,6,0,P|288:88|328:120,1,83.9999954338076
384,164,472853,5,0,0:0:0:0:
394,204,472915,1,0,0:0:0:0:
404,245,472978,1,0,0:0:0:0:
415,286,473040,1,0,0:0:0:0:
424,324,473103,2,0,B|316:280|316:280|320:280,1,83.9999954338076
160,228,473353,2,0,L|248:200,1,83.9999954338076
424,140,473603,2,0,B|316:96|316:96|320:96,1,83.9999954338076
160,44,473853,2,0,L|248:16,1,83.9999954338076
120,136,474103,6,0,L|56:160,2,41.9999977169038
208,200,474353,2,0,L|272:176,2,41.9999977169038
384,136,474603,6,0,P|344:92|292:72,1,83.9999954338076
144,68,474853,5,0,0:0:0:0:
123,104,474915,1,0,0:0:0:0:
102,140,474978,1,0,0:0:0:0:
81,177,475040,1,0,0:0:0:0:
60,212,475103,2,0,P|96:256|136:264,1,83.9999954338076
304,160,475353,2,0,P|268:116|228:108,1,83.9999954338076
116,92,475603,5,0,0:0:0:0:
244,248,475728,1,0,0:0:0:0:
116,92,475853,5,0,0:0:0:0:
244,248,475978,1,0,0:0:0:0:
112,220,476103,5,0,0:0:0:0:
256,112,476228,2,0,L|296:80,2,41.9999977169038
116,224,476478,1,0,0:0:0:0:
112,96,476603,6,0,P|180:136|196:164,1,83.9999954338076
288,240,476853,5,0,0:0:0:0:
301,200,476915,1,0,0:0:0:0:
315,160,476978,1,0,0:0:0:0:
329,121,477040,1,0,0:0:0:0:
344,84,477103,2,0,P|392:64|444:64,1,83.9999954338076
456,204,477353,2,0,P|418:221|376:226,1,83.9999954338076
232,148,477603,5,0,0:0:0:0:
292,328,477728,1,0,0:0:0:0:
232,148,477853,5,0,0:0:0:0:
292,328,477978,1,0,0:0:0:0:
148,240,478103,6,0,L|96:264,2,41.9999977169038
340,200,478353,2,0,L|396:176,2,41.9999977169038
304,296,478603,2,0,P|260:268|240:208,1,83.9999954338076
194,57,478853,5,0,0:0:0:0:
225,84,478915,1,0,0:0:0:0:
256,112,478978,1,0,0:0:0:0:
288,140,479040,1,0,0:0:0:0:
318,169,479103,5,0,0:0:0:0:
160,284,479228,1,0,0:0:0:0:
256,112,479353,1,0,0:0:0:0:
332,288,479478,1,0,0:0:0:0:
136,228,479603,5,0,0:0:0:0:
352,104,479728,1,0,0:0:0:0:
256,324,479853,1,0,0:0:0:0:
160,104,479978,1,0,0:0:0:0:
256,192,480103,5,0,0:0:0:0:
356,208,480228,5,0,0:0:0:0:
356,208,480353,2,0,P|348:248|321:279,1,83.9999954338076
280,216,480603,6,0,P|279:172|264:120,1,83.9999954338076
104,120,480853,2,0,P|104:172|124:224,1,83.9999954338076
264,284,481103,6,0,L|213:205,1,83.9999954338076
284,296,481353,1,0,0:0:0:0:
392,132,481478,1,0,0:0:0:0:
392,132,481540,1,0,0:0:0:0:
392,132,481603,6,0,L|448:212,1,83.9999954338076
488,280,481853,5,0,0:0:0:0:
320,264,481978,1,0,0:0:0:0:
388,180,482103,6,0,L|384:280,1,83.9999954338076
384,336,482353,5,0,0:0:0:0:
188,312,482478,1,0,0:0:0:0:
260,348,482603,6,0,L|272:260,1,83.9999954338076
288,196,482853,5,0,0:0:0:0:
92,172,482978,1,0,0:0:0:0:
112,304,483103,5,0,0:0:0:0:
216,240,483228,2,0,L|224:148,1,83.9999954338076
256,40,483478,5,0,0:0:0:0:
256,40,483540,1,0,0:0:0:0:
256,40,483603,2,0,P|312:36|364:48,1,83.9999954338076
428,200,483853,2,0,P|372:204|320:192,1,83.9999954338076
224,160,484103,6,0,P|228:232|212:272,1,83.9999954338076
64,296,484353,6,0,P|60:224|76:184,1,83.9999954338076
200,144,484603,5,0,0:0:0:0:
32,112,484728,1,0,0:0:0:0:
188,116,484853,1,0,0:0:0:0:
20,84,484978,1,0,0:0:0:0:
164,28,485103,6,0,P|212:28|260:64,1,83.9999954338076
248,224,485353,1,0,0:0:0:0:
168,96,485478,1,0,0:0:0:0:
168,96,485540,1,0,0:0:0:0:
168,96,485603,6,0,P|120:96|72:132,1,83.9999954338076
180,256,485853,6,0,P|228:256|276:220,1,83.9999954338076
208,88,486103,6,0,P|200:140|216:192,1,83.9999954338076
384,188,486353,1,0,0:0:0:0:
204,224,486478,1,0,0:0:0:0:
352,72,486603,6,0,P|360:124|344:176,1,83.9999954338076
192,64,486853,1,0,0:0:0:0:
328,172,486978,1,0,0:0:0:0:
184,256,487103,5,0,0:0:0:0:
276,112,487228,6,0,L|264:168,2,41.9999977169038
152,312,487478,6,0,L|140:256,2,41.9999977169038
140,132,487728,5,0,0:0:0:0:
252,276,487853,1,0,0:0:0:0:
312,112,487978,1,0,0:0:0:0:
208,216,488103,6,0,P|260:236|328:208,1,125.999993150711
356,240,488353,2,0,L|372:352,1,83.9999954338076
256,232,488603,2,0,L|241:137,1,83.9999954338076
332,64,488853,5,0,0:0:0:0:
373,69,488915,1,0,0:0:0:0:
408,91,488978,1,0,0:0:0:0:
432,124,489040,1,0,0:0:0:0:
444,164,489103,2,0,P|413:175|343:160,1,83.9999954338076
144,188,489353,2,0,P|174:176|244:191,1,83.9999954338076
448,260,489603,2,0,P|417:271|347:256,1,83.9999954338076
140,292,489853,2,0,P|170:280|240:295,1,83.9999954338076
304,308,490103,5,0,0:0:0:0:
376,160,490228,1,0,0:0:0:0:
480,316,490353,2,0,L|392:272,1,83.9999954338076
328,184,490603,5,0,0:0:0:0:
256,332,490728,1,0,0:0:0:0:
152,176,490853,2,0,L|240:220,1,83.9999954338076
264,236,491040,1,0,0:0:0:0:
267,241,491103,2,0,P|295:195|283:135,1,83.9999954338076
160,64,491353,2,0,P|204:82|240:70,1,83.9999954338076
328,24,491603,5,0,0:0:0:0:
368,224,491728,1,0,0:0:0:0:
444,88,491853,1,0,0:0:0:0:
256,128,491978,1,0,0:0:0:0:
348,256,492103,6,0,P|364:196|356:160,1,83.9999954338076
272,40,492353,6,0,P|256:100|264:136,1,83.9999954338076
160,268,492603,6,0,P|176:208|168:172,1,83.9999954338076
60,52,492853,5,0,0:0:0:0:
45,91,492915,1,0,0:0:0:0:
46,132,492978,1,0,0:0:0:0:
64,170,493040,1,0,0:0:0:0:
92,204,493103,6,0,B|128:160|128:160|132:112,1,83.9999954338076
168,284,493353,1,0,0:0:0:0:
236,112,493478,1,0,0:0:0:0:
292,252,493603,6,0,B|256:208|256:208|252:160,1,83.9999954338076
216,332,493853,1,0,0:0:0:0:
148,160,493978,1,0,0:0:0:0:
64,244,494103,6,0,P|116:280|164:268,1,83.9999954338076
284,140,494353,6,0,P|232:104|184:116,1,83.9999954338076
312,272,494603,6,0,B|340:192|340:192|300:104,1,167.999990867615
276,84,494978,5,0,0:0:0:0:
196,264,495103,2,0,P|124:288|84:280,1,83.9999954338076
256,124,495353,2,0,P|328:100|368:108,1,83.9999954338076
296,244,495603,5,0,0:0:0:0:
108,116,495728,1,0,0:0:0:0:
224,288,495853,5,0,0:0:0:0:
181,64,495978,1,0,0:0:0:0:
128,184,496103,6,0,B|188:240|188:240|284:240,1,167.999990867615
392,160,496478,1,0,0:0:0:0:
472,268,496603,2,0,L|472:360,1,83.9999954338076
308,248,496853,2,0,L|308:128,1,83.9999954338076
264,64,497103,5,0,0:0:0:0:
176,180,497228,1,0,0:0:0:0:
384,124,497353,1,0,0:0:0:0:
312,256,497478,1,0,0:0:0:0:
404,188,497603,6,0,P|468:192|492:216,1,83.9999954338076
368,336,497853,6,0,P|304:332|280:308,1,83.9999954338076
168,164,498103,6,0,P|256:140|336:164,1,167.999990867615
144,240,498478,5,0,0:0:0:0:
144,240,498540,1,0,0:0:0:0:
144,240,498603,2,0,P|96:204|88:156,1,83.9999954338076
168,32,498853,2,0,P|216:68|224:116,1,83.9999954338076
224,256,499103,5,0,0:0:0:0:
324,76,499228,1,0,0:0:0:0:
172,152,499353,5,0,0:0:0:0:
380,172,499478,1,0,0:0:0:0:
416,244,499603,6,0,P|356:252|320:240,1,83.9999954338076
112,276,499853,2,0,P|172:268|208:280,1,83.9999954338076
300,344,500103,6,0,P|336:280|300:168,1,167.999990867615
224,256,500478,5,0,0:0:0:0:
224,256,500540,1,0,0:0:0:0:
224,256,500603,1,0,0:0:0:0:
256,100,500728,5,0,0:0:0:0:
376,228,500853,2,0,P|332:204|288:208,1,83.9999954338076
144,280,501103,5,0,0:0:0:0:
112,96,501228,1,0,0:0:0:0:
220,216,501353,5,0,0:0:0:0:
24,180,501478,1,0,0:0:0:0:
116,96,501603,6,0,P|168:44|216:32,1,83.9999954338076
152,308,501853,2,0,P|187:285|212:252,1,83.9999954338076
240,104,502103,5,0,0:0:0:0:
272,356,502228,1,0,0:0:0:0:
340,276,502603,5,0,0:0:0:0:
192,96,502728,1,0,0:0:0:0:
120,196,502978,5,0,0:0:0:0:
153,213,503040,5,0,0:0:0:0:
190,218,503103,1,0,0:0:0:0:
226,212,503165,1,0,0:0:0:0:
258,196,503228,1,0,0:0:0:0:
292,181,503290,1,0,0:0:0:0:
328,175,503353,1,0,0:0:0:0:
364,178,503415,1,0,0:0:0:0:
399,191,503478,1,0,0:0:0:0:
424,168,503603,6,0,P|416:232|380:256,1,105,8|0,0:0|0:0,0:0:0:0:
364,192,504103,6,4,P|300:172|220:180,1,105.000004005432
152,312,504353,2,0,P|216:332|296:324,1,105.000004005432
424,168,504603,2,0,P|444:104|436:24,1,105.000004005432
88,216,504853,2,0,P|68:280|76:360,1,105.000004005432,8|0,0:0|0:0,0:0:0:0:
262,171,505103,5,4,0:0:0:0:
262,171,505165,1,0,0:0:0:0:
262,171,505228,2,0,P|276:220|324:268,1,105.000004005432
374,136,505478,2,0,P|426:104|446:52,1,105.000004005432
262,171,505728,1,0,0:0:0:0:
368,60,505853,1,8,0:0:0:0:
364,192,505978,1,0,0:0:0:0:
168,192,506103,6,4,P|132:116|128:68,1,105.000004005432,4|0,0:0|0:0,0:0:0:0:
252,244,506353,2,0,P|280:164|311:128,1,105.000004005432
368,308,506603,2,0,P|439:266|492:264,1,105.000004005432
291,148,506853,1,8,0:0:0:0:
252,244,506978,1,0,0:0:0:0:
368,308,507103,6,0,P|440:280|472:248,1,105.000004005432,4|0,0:0|0:0,0:0:0:0:
220,50,507353,2,0,P|148:78|116:110,1,105.000004005432
256,248,507603,2,0,P|328:220|360:188,1,105.000004005432
132,100,507853,1,8,0:0:0:0:
256,248,507978,1,0,0:0:0:0:
364,192,508103,6,0,L|396:300,1,105.000004005432,4|0,0:0|0:0,0:0:0:0:
148,192,508353,2,0,L|116:300,1,105.000004005432
384,172,508603,2,0,L|416:280,1,105.000004005432
128,172,508853,2,0,L|96:280,1,105.000004005432,8|0,0:0|0:0,0:0:0:0:
404,152,509103,6,0,L|472:48,1,105.000004005432,4|0,0:0|0:0,0:0:0:0:
108,152,509353,2,0,L|40:48,1,105.000004005432
424,176,509603,2,0,L|492:72,1,105.000004005432
88,176,509853,2,0,L|20:72,1,105.000004005432,8|0,0:0|0:0,0:0:0:0:
98,272,510103,5,4,0:0:0:0:
200,252,510228,1,0,0:0:0:0:
98,272,510353,1,8,0:0:0:0:
200,252,510478,1,0,0:0:0:0:
88,176,510603,5,4,0:0:0:0:
244,204,510728,1,0,0:0:0:0:
88,176,510853,1,8,0:0:0:0:
244,204,510978,1,0,0:0:0:0:
104,72,511103,5,4,0:0:0:0:
296,160,511228,1,0,0:0:0:0:
104,72,511353,1,8,0:0:0:0:
296,160,511478,1,0,0:0:0:0:
368,60,511603,5,4,0:0:0:0:
140,188,511728,1,0,0:0:0:0:
372,196,511853,1,8,0:0:0:0:
118,292,511978,1,0,0:0:0:0:
140,188,512103,6,0,P|152:120|176:72,1,112,6|0,0:0|0:0,0:0:0:0:
372,196,512353,2,0,P|360:264|336:312,1,112
140,188,512603,2,0,P|72:200|24:224,1,112
341,302,512853,2,0,P|409:290|457:266,1,112,8|0,0:0|0:0,0:0:0:0:
170,81,513103,5,4,0:0:0:0:
170,81,513165,1,0,0:0:0:0:
170,81,513228,2,0,P|147:132|139:187,1,112
341,302,513478,2,0,P|364:251|372:196,1,112
124,236,513728,1,0,0:0:0:0:
296,144,513853,1,8,0:0:0:0:
170,81,513978,1,0,0:0:0:0:
33,218,514103,6,0,P|49:282|93:322,1,112,4|0,0:0|0:0,0:0:0:0:
170,81,514353,1,0,0:0:0:0:
160,288,514478,2,0,P|216:321|275:319,1,112
170,81,514728,1,0,0:0:0:0:
124,236,514853,1,8,0:0:0:0:
296,144,514978,1,0,0:0:0:0:
342,303,515103,6,0,P|382:243|402:179,1,112
170,81,515353,2,0,P|130:141|110:205,1,112,4|0,0:0|0:0,0:0:0:0:
424,348,515603,2,0,P|464:288|484:224,1,112
88,36,515853,2,0,P|48:96|28:160,1,112,8|0,0:0|0:0,0:0:0:0:
256,48,516103,5,8,0:0:0:0:
256,64,516165,1,0,0:0:0:0:
256,80,516228,1,0,0:0:0:0:
256,96,516290,1,0,0:0:0:0:
256,112,516353,1,0,0:0:0:0:
176,212,516478,1,0,0:0:0:0:
339,212,516603,1,4,0:0:0:0:
256,280,516853,5,0,0:0:0:0:
256,48,517103,5,8,0:0:0:0:
256,72,517165,1,0,0:0:0:0:
256,96,517228,1,0,0:0:0:0:
256,120,517290,1,0,0:0:0:0:
256,144,517353,1,0,0:0:0:0:
156,232,517478,1,0,0:0:0:0:
356,232,517603,1,4,0:0:0:0:
256,300,517853,5,0,0:0:0:0:
256,48,518103,5,8,0:0:0:0:
256,76,518165,1,0,0:0:0:0:
256,104,518228,1,0,0:0:0:0:
256,132,518290,1,0,0:0:0:0:
256,160,518353,1,0,0:0:0:0:
136,252,518478,1,0,0:0:0:0:
376,252,518603,1,4,0:0:0:0:
256,320,518853,5,0,0:0:0:0:
256,48,519103,5,8,0:0:0:0:
256,80,519165,1,0,0:0:0:0:
256,112,519228,1,0,0:0:0:0:
256,144,519290,1,0,0:0:0:0:
256,176,519353,1,0,0:0:0:0:
116,272,519478,1,0,0:0:0:0:
396,272,519603,1,4,0:0:0:0:
256,340,519853,5,0,0:0:0:0:
136,252,520103,5,8,0:0:0:0:
376,252,520228,1,0,0:0:0:0:
124,244,520353,1,8,0:0:0:0:
376,252,520478,1,0,0:0:0:0:
104,232,520603,5,8,0:0:0:0:
376,252,520728,1,0,0:0:0:0:
88,224,520853,1,8,0:0:0:0:
376,252,520978,1,0,0:0:0:0:
80,208,521103,5,8,0:0:0:0:
384,272,521228,1,0,0:0:0:0:
80,176,521353,1,8,0:0:0:0:
384,296,521478,1,0,0:0:0:0:
148,64,521603,5,8,0:0:0:0:
328,350,521728,1,4,0:0:0:0:
414,120,521853,1,8,0:0:0:0:
128,300,521978,2,2,L|88:328,1,49
414,120,523103,5,8,0:0:0:0:
148,64,523353,5,4,0:0:0:0:
328,350,523603,5,2,0:0:0:0:
294,346,523665,1,0,0:0:0:0:
269,323,523728,1,0,0:0:0:0:
260,289,523790,1,0,0:0:0:0:
271,257,523853,5,2,0:0:0:0:
296,210,523915,1,0,0:0:0:0:
303,160,523977,1,0,0:0:0:0:
274,118,524040,1,0,0:0:0:0:
228,92,524103,5,0,0:0:0:0:
56,56,524228,1,0,0:0:0:0:
40,296,524353,1,0,0:0:0:0:
240,84,524478,1,0,0:0:0:0:
272,260,524603,6,0,P|324:240|356:144,1,140
240,84,524978,1,0,0:0:0:0:
136,332,525103,2,0,P|92:308|84:264,1,70
56,136,525353,1,0,0:0:0:0:
244,168,525478,1,0,0:0:0:0:
352,288,525603,6,0,P|396:268|432:168,1,140
352,68,525978,1,0,0:0:0:0:
244,168,526103,2,0,P|200:188|172:232,1,92.39999751503,4|0,0:0|0:0,0:0:0:0:
192,384,526478,1,0,0:0:0:0:
244,168,526603,1,0,0:0:0:0:
416,384,526728,1,0,0:0:0:0:
404,208,526853,5,0,0:0:0:0:
152,92,526978,1,0,0:0:0:0:
436,92,527103,1,4,0:0:0:0:
175,223,527228,1,0,0:0:0:0:
304,0,527353,2,0,P|316:36|316:64,1,46.199998757515
200,384,527603,6,0,P|140:348|128:264,1,140
96,132,527978,1,0,0:0:0:0:
0,0,528103,1,4,0:0:0:0:
232,28,528228,1,0,0:0:0:0:
98,221,528353,2,0,P|106:265|146:293,1,70
312,384,528603,6,0,P|372:348|384:264,1,140
415,133,528978,1,0,0:0:0:0:
332,24,529103,2,0,P|280:28|264:56,1,70,4|0,0:0|0:0,0:0:0:0:
216,188,529353,1,0,0:0:0:0:
415,133,529478,1,0,0:0:0:0:
452,256,529603,6,0,P|460:196|392:124,1,140
264,212,529978,1,0,0:0:0:0:
91,218,530103,2,0,P|97:150|140:96,1,140
264,212,530478,1,0,0:0:0:0:
436,140,530603,2,0,P|440:209|396:264,1,139.99999666214
184,20,530978,1,0,0:0:0:0:
69,92,531103,5,0,0:0:0:0:
73,129,531165,1,0,0:0:0:0:
92,161,531228,1,0,0:0:0:0:
120,185,531290,1,0,0:0:0:0:
152,203,531353,1,0,0:0:0:0:
185,213,531415,1,0,0:0:0:0:
222,217,531478,1,0,0:0:0:0:
259,213,531540,1,0,0:0:0:0:
292,196,531603,6,0,L|372:156,1,69.99999833107
180,36,531853,2,0,L|116:92,1,69.99999833107
0,208,532103,2,0,L|88:196,1,69.99999833107
180,36,532353,2,0,L|260:88,1,69.99999833107
400,248,532603,5,0,0:0:0:0:
184,328,532728,1,0,0:0:0:0:
400,248,532853,2,0,L|336:184,1,69.99999833107
192,32,533103,2,0,L|132:88,1,69.99999833107
204,216,533353,2,0,L|280:160,1,69.99999833107
72,180,533603,6,0,P|24:236|12:324,1,140
136,304,533978,1,0,0:0:0:0:
224,148,534103,1,0,0:0:0:0:
432,260,534228,1,0,0:0:0:0:
244,220,534353,5,0,0:0:0:0:
384,332,534478,1,0,0:0:0:0:
368,144,534603,1,0,0:0:0:0:
244,220,534728,1,0,0:0:0:0:
160,80,534853,2,0,P|116:128|108:160,1,70
68,264,535103,6,0,L|140:240,1,69.99999833107,4|0,0:0|0:0,0:0:0:0:
280,144,535353,1,0,0:0:0:0:
296,160,535603,5,0,0:0:0:0:
416,304,535853,1,0,0:0:0:0:
424,140,536103,6,0,P|404:96|364:76,1,70
288,44,536353,1,0,0:0:0:0:
248,184,536478,1,0,0:0:0:0:
132,80,536603,1,0,0:0:0:0:
156,312,536728,1,0,0:0:0:0:
248,184,536853,1,0,0:0:0:0:
384,304,536978,1,0,0:0:0:0:
396,164,537103,6,0,P|402:145|380:76,2,70,4|0|0,0:0|0:0|0:0,0:0:0:0:
320,292,537478,1,0,0:0:0:0:
236,216,537603,1,0,0:0:0:0:
76,208,537728,1,0,0:0:0:0:
76,208,537853,2,0,P|48:172|48:128,1,70
77,38,538103,5,0,0:0:0:0:
103,77,538165,1,0,0:0:0:0:
134,113,538228,1,0,0:0:0:0:
169,139,538290,1,0,0:0:0:0:
213,148,538353,1,0,0:0:0:0:
257,135,538415,1,0,0:0:0:0:
292,104,538478,1,0,0:0:0:0:
310,60,538540,1,0,0:0:0:0:
292,24,538603,5,0,0:0:0:0:
260,0,538665,1,0,0:0:0:0:
220,8,538728,1,0,0:0:0:0:
192,40,538790,1,0,0:0:0:0:
196,84,538853,2,0,L|236:104,1,34.999999165535
320,76,538978,2,0,L|348:108,1,34.999999165535
384,124,539103,5,0,0:0:0:0:
415,160,539165,1,0,0:0:0:0:
432,204,539228,1,0,0:0:0:0:
441,248,539290,1,0,0:0:0:0:
432,292,539353,1,0,0:0:0:0:
415,336,539415,1,0,0:0:0:0:
375,362,539478,1,0,0:0:0:0:
331,375,539540,1,0,0:0:0:0:
283,375,539603,5,0,0:0:0:0:
243,353,539665,1,0,0:0:0:0:
217,318,539728,1,0,0:0:0:0:
208,274,539790,1,0,0:0:0:0:
208,226,539853,1,0,0:0:0:0:
199,182,539915,1,0,0:0:0:0:
177,142,539978,1,0,0:0:0:0:
137,120,540040,1,0,0:0:0:0:
93,107,540103,5,4,0:0:0:0:
0,48,540228,1,0,0:0:0:0:
120,328,540353,1,0,0:0:0:0:
264,132,540478,1,0,0:0:0:0:
264,132,540540,1,0,0:0:0:0:
264,132,540603,1,0,0:0:0:0:
280,352,540728,1,0,0:0:0:0:
424,132,540853,6,0,P|380:92|352:84,1,70
200,56,541103,1,4,0:0:0:0:
200,212,541228,1,0,0:0:0:0:
280,352,541353,2,0,P|312:308|312:280,1,69.99999833107
303,181,541603,5,0,0:0:0:0:
296,152,541665,1,0,0:0:0:0:
283,126,541728,1,0,0:0:0:0:
264,105,541790,1,0,0:0:0:0:
241,88,541853,1,0,0:0:0:0:
214,79,541915,1,0,0:0:0:0:
185,75,541978,1,0,0:0:0:0:
157,80,542040,1,0,0:0:0:0:
130,91,542103,1,0,0:0:0:0:
130,91,542853,6,0,P|96:112|80:148,1,69.99999833107
0,348,543103,2,0,P|32:316|64:304,1,69.99999833107
216,328,543353,2,0,P|260:320|300:304,1,69.99999833107
492,280,543603,5,0,0:0:0:0:
504,241,543665,1,0,0:0:0:0:
510,199,543728,1,0,0:0:0:0:
496,160,543790,1,0,0:0:0:0:
463,135,543853,1,0,0:0:0:0:
425,120,543915,1,0,0:0:0:0:
392,94,543978,1,0,0:0:0:0:
378,56,544040,1,0,0:0:0:0:
401,18,544103,6,0,P|459:41|487:93,1,83.9999974365235,4|0,1:2|0:0,0:0:0:0:
370,256,544353,1,8,0:0:0:0:
267,168,544478,2,0,L|221:165,2,41.9999987182618,0|0|0,0:0|0:0|1:0,0:0:0:0:
381,125,544728,1,0,0:0:0:0:
483,215,544853,2,0,P|492:273|476:314,1,83.9999974365235,8|0,0:0|0:0,0:0:0:0:
340,370,545103,6,0,B|297:367|270:326|270:326|246:356|179:362,1,167.999990867615,0|8,1:0|0:0,0:0:0:0:
66,260,545478,2,0,P|123:252|171:214,1,83.9999954338076,0|0,0:0|1:0,0:0:0:0:
75,127,545728,1,0,0:0:0:0:
285,230,545853,2,0,P|265:181|223:143,1,83.9999954338076,8|0,0:0|0:0,0:0:0:0:
105,14,546103,6,0,B|146:22|169:62|169:62|203:30|264:42,1,167.999990867615,0|8,1:0|0:0,0:0:0:0:
382,206,546478,2,0,P|384:264|366:300,1,83.9999974365235,0|0,0:0|1:0,0:0:0:0:
148,352,546728,1,0,0:0:0:0:
45,211,546853,2,0,P|43:153|61:117,1,83.9999974365235,8|0,0:0|0:0,0:0:0:0:
288,30,547103,5,0,1:0:0:0:
299,234,547228,1,2,0:0:0:0:
299,234,547290,1,2,0:0:0:0:
299,234,547353,1,10,0:0:0:0:
196,126,547478,1,0,0:0:0:0:
347,42,547603,2,0,L|437:62,1,83.9999974365235,0|0,1:0|0:0,0:0:0:0:
299,234,547853,2,0,L|209:214,1,83.9999974365235,8|0,0:0|0:0,0:0:0:0:
89,99,548103,5,4,1:2:0:0:
28,278,548228,1,0,0:0:0:0:
217,215,548353,2,0,L|308:237,1,83.9999954338076,8|0,0:0|0:0,0:0:0:0:
466,343,548603,1,0,1:0:0:0:
348,114,548728,1,0,0:0:0:0:
144,281,548853,2,0,P|122:236|124:193,1,83.9999974365235,8|0,0:0|0:0,0:0:0:0:
239,54,549103,6,0,B|257:100|236:139|236:139|260:171|237:245,1,167.999994873047,0|8,1:0|0:0,0:0:0:0:
59,137,549478,2,0,P|95:105|143:100,1,83.9999974365235,0|0,0:0|1:0,0:0:0:0:
373,132,549728,1,0,0:0:0:0:
165,190,549853,2,0,P|219:202|265:235,1,83.9999974365235,8|0,0:0|0:0,0:0:0:0:
218,333,550103,6,0,B|183:286|112:287|112:287|91:358,1,167.999994873047,0|8,1:0|0:0,0:0:0:0:
365,263,550478,2,0,P|416:273|469:267,1,83.9999974365235,0|0,0:0|1:0,0:0:0:0:
354,77,550728,1,0,0:0:0:0:
178,175,550853,2,0,P|137:192|97:193,1,83.9999974365235,8|0,0:0|0:0,0:0:0:0:
0,143,551103,5,0,1:0:0:0:
251,40,551228,1,2,0:0:0:0:
251,40,551290,1,2,0:0:0:0:
251,40,551353,1,10,0:0:0:0:
189,330,551478,1,0,0:0:0:0:
440,227,551603,2,0,B|453:271|453:271|439:317,1,83.9999974365235,0|0,1:0|0:0,0:0:0:0:
277,193,551853,2,0,B|264:149|264:149|278:103,1,83.9999974365235,8|0,0:0|0:0,0:0:0:0:
361,61,552103,5,4,1:2:0:0:
175,125,552228,1,0,0:0:0:0:
137,16,552353,1,8,0:0:0:0:
35,188,552478,2,0,B|24:232|24:232|55:302|55:302|114:321,1,167.999994873047,0|0,1:0|1:0,0:0:0:0:
343,340,552853,1,8,0:0:0:0:
277,193,552978,1,0,0:0:0:0:
203,384,553103,6,0,P|212:324|205:283,1,83.9999974365235,0|0,1:0|0:0,0:0:0:0:
3,147,553353,1,8,0:0:0:0:
40,275,553478,2,0,B|118:253|96:202|192:174,1,167.999994873047,0|0,1:0|1:0,0:0:0:0:
459,117,553853,1,8,0:0:0:0:
467,241,553978,1,0,0:0:0:0:
270,211,554103,6,0,P|225:182|199:142,1,83.9999974365235,0|0,1:0|0:0,0:0:0:0:
152,18,554353,1,8,0:0:0:0:
271,211,554478,2,0,P|326:220|372:213,1,83.9999974365235,0|0,1:0|0:0,0:0:0:0:
512,150,554728,1,0,1:0:0:0:
281,91,554853,2,0,P|324:120|359:124,1,83.9999954338076,8|0,0:0|0:0,0:0:0:0:
351,27,555103,5,0,1:0:0:0:
304,204,555228,1,2,0:0:0:0:
304,204,555290,1,2,0:0:0:0:
304,204,555353,1,10,0:0:0:0:
111,140,555478,1,0,1:0:0:0:
72,304,555603,2,0,B|41:274|41:274|35:226,1,83.9999974365235,0|0,1:0|0:0,0:0:0:0:
176,47,555853,2,0,B|206:76|206:76|212:124,1,83.9999974365235,8|0,0:0|0:0,0:0:0:0:
238,243,556103,6,0,B|190:238|171:209|171:209|136:239|86:232,1,167.999994873047,0|8,1:2|0:0,0:0:0:0:
305,169,556478,2,0,P|340:206|343:259,1,83.9999974365235,0|0,0:0|1:0,0:0:0:0:
199,347,556728,1,0,0:0:0:0:
212,118,556853,2,0,P|244:89|303:76,1,83.9999974365235,8|0,0:0|0:0,0:0:0:0:
465,128,557103,6,0,B|473:183|452:210|452:210|469:252|438:301,1,167.999994873047,0|8,1:0|0:0,0:0:0:0:
266,230,557478,2,0,P|262:185|277:144,1,83.9999974365235,0|0,0:0|1:0,0:0:0:0:
360,198,557728,1,0,0:0:0:0:
167,179,557853,2,0,L|67:171,1,83.9999974365235,8|0,0:0|0:0,0:0:0:0:
32,322,558103,6,0,P|91:348|181:264,1,167.999994873047,0|8,1:0|0:0,0:0:0:0:
295,149,558478,2,0,P|269:107|223:96,1,83.9999974365235,0|0,0:0|1:0,0:0:0:0:
211,179,558728,1,0,0:0:0:0:
368,313,558853,2,0,P|417:304|457:270,1,83.9999974365235,8|0,0:0|0:0,0:0:0:0:
479,127,559103,5,0,1:0:0:0:
366,30,559228,1,2,0:0:0:0:
366,30,559290,1,2,0:0:0:0:
366,30,559353,1,10,0:0:0:0:
293,267,559478,1,0,0:0:0:0:
481,324,559603,2,0,P|490:278|477:223,1,83.9999974365235,0|0,1:0|0:0,0:0:0:0:
114,285,559853,2,0,P|114:244|130:196,1,83.9999974365235,8|0,0:0|0:0,0:0:0:0:
255,41,560103,6,0,B|323:29|357:83|357:83|317:153,1,167.999994873047,4|8,1:2|0:0,0:0:0:0:
241,273,560478,1,0,0:0:0:0:
39,206,560603,2,0,P|23:152|34:113,1,83.9999974365235,0|0,1:0|0:0,0:0:0:0:
434,33,560853,2,0,P|450:87|439:126,1,83.9999974365235,8|0,0:0|0:0,0:0:0:0:
206,274,561103,6,0,B|165:263|152:263|152:263|262:211,1,167.999994873047,4|8,1:2|0:0,0:0:0:0:
472,117,561478,1,0,0:0:0:0:
435,343,561603,2,0,P|390:330|360:293,1,83.9999974365235,0|0,1:0|0:0,0:0:0:0:
316,102,561853,2,0,P|326:56|363:26,1,83.9999974365235,8|0,0:0|0:0,0:0:0:0:
359,203,562103,6,0,B|302:207|273:199|273:199|253:238|213:268,1,167.999994873047,4|8,1:2|0:0,0:0:0:0:
225,105,562478,1,0,0:0:0:0:
323,295,562603,1,0,1:0:0:0:
321,302,562665,1,0,1:0:0:0:
319,309,562728,1,0,1:0:0:0:
318,317,562790,1,0,1:0:0:0:
316,324,562853,1,0,1:0:0:0:
315,331,562915,1,0,1:0:0:0:
314,339,562978,1,0,1:0:0:0:
313,346,563040,1,0,1:0:0:0:
311,353,563103,1,0,1:0:0:0:
256,192,563165,12,0,564978,0:0:0:0:
216,56,565103,5,0,0:0:0:0:
232,360,565228,1,0,0:0:0:0:
428,76,565478,5,0,0:0:0:0:
316,368,565603,1,0,0:0:0:0:
48,0,565853,5,0,0:0:0:0:
316,368,566103,1,0,0:0:0:0:
156,112,566353,1,2,0:3:0:0:
0,188,566603,5,4,0:0:0:0:
256,268,566853,2,0,P|320:276|388:212,1,140
436,28,567353,5,4,0:0:0:0:
192,56,567603,2,0,P|156:100|156:192,1,140
208,384,568103,1,0,0:0:0:0:
408,192,568478,6,0,P|428:152|380:52,1,140
240,228,568853,1,4,0:0:0:0:
264,40,569353,2,0,L|312:108,1,70
372,188,569603,5,8,0:3:0:0:
304,384,569728,1,0,0:0:0:0:
432,224,569853,1,8,0:3:0:0:
192,300,569978,1,0,0:0:0:0:
452,208,570103,1,8,0:3:0:0:
185,284,570228,1,0,0:0:0:0:
392,96,570353,6,0,P|332:56|312:56,1,70,8|0,0:3|0:3,0:3:0:0:
192,44,570603,1,8,0:3:0:0:
304,292,570728,1,0,0:0:0:0:
336,56,570853,1,8,0:3:0:0:
192,300,570978,1,0,0:0:0:0:
143,91,571103,6,0,P|171:55|215:39,1,70,8|0,0:3|0:3,0:3:0:0:
312,24,571353,1,8,0:3:0:0:
304,292,571478,1,0,0:0:0:0:
340,60,571603,1,8,0:3:0:0:
185,284,571728,1,0,0:0:0:0:
392,104,571853,1,8,0:3:0:0:
144,92,571978,1,0,0:0:0:0:
240,316,572103,2,0,P|196:304|184:272,1,70,8|0,0:3|0:3,0:3:0:0:
236,136,572353,2,0,P|280:156|296:196,1,70,8|0,0:3|0:3,0:3:0:0:
208,60,572603,6,0,P|172:88|176:188,1,140
476,312,573103,1,0,0:0:0:0:
48,16,573353,5,4,0:0:0:0:
60,216,573603,2,0,P|80:264|180:296,1,140
480,36,574103,1,0,0:0:0:0:
272,160,574353,5,0,0:0:0:0:
184,172,574478,2,0,P|192:124|280:72,1,140
400,216,574853,2,0,P|392:264|304:316,1,140
68,344,575353,1,0,0:0:0:0:
292,36,575603,5,0,0:0:0:0:
468,348,575853,1,0,0:0:0:0:
8,200,576103,1,0,0:0:0:0:
240,200,576353,2,0,P|292:200|380:136,1,140
152,48,576853,5,0,0:0:0:0:
404,344,577103,1,0,0:0:0:0:
40,132,577353,1,0,0:0:0:0:
484,232,577603,1,0,0:0:0:0:
152,48,577853,5,0,0:0:0:0:
354,153,577978,1,0,0:0:0:0:
209,302,578103,5,0,0:0:0:0:
236,297,578165,1,0,0:0:0:0:
263,286,578228,1,0,0:0:0:0:
290,276,578290,1,0,0:0:0:0:
311,254,578353,1,0,0:0:0:0:
327,233,578415,1,0,0:0:0:0:
338,206,578478,1,0,0:0:0:0:
348,179,578540,1,0,0:0:0:0:
354,153,578603,1,4,0:0:0:0:
140,68,578853,5,0,0:0:0:0:
209,302,578978,1,0,0:0:0:0:
260,136,579103,1,0,0:0:0:0:
24,184,579228,1,0,0:0:0:0:
244,64,579353,2,0,P|304:80|328:172,1,140,4|0,0:0|0:0,0:0:0:0:
156,304,579853,1,0,0:0:0:0:
384,96,580103,6,0,P|392:156|328:224,1,140,4|0,0:0|0:0,0:0:0:0:
216,272,580478,1,0,0:0:0:0:
308,140,580603,1,0,0:0:0:0:
64,260,580728,1,0,0:0:0:0:
324,236,580853,2,0,P|380:240|464:172,1,140,4|0,0:0|0:0,0:0:0:0:
144,264,581353,1,0,0:0:0:0:
184,68,581603,5,0,0:0:0:0:
380,384,581853,1,0,0:0:0:0:
476,4,582103,1,0,0:0:0:0:
144,364,582353,1,0,0:0:0:0:
512,184,582603,1,0,0:0:0:0:
8,184,582853,1,0,0:0:0:0:
324,64,583103,6,0,P|344:104|340:144,1,70
72,300,583353,2,0,P|72:252|88:208,1,70
262,34,583603,2,0,P|315:55|338:82,1,69.99999833107
76,304,583853,5,0,0:0:0:0:
102,306,583915,1,0,0:0:0:0:
129,303,583978,1,0,0:0:0:0:
152,292,584040,5,0,0:0:0:0:
182,256,584103,5,4,0:3:0:0:
190,212,584165,1,0,0:0:0:0:
182,169,584228,1,0,0:0:0:0:
172,126,584290,1,0,0:0:0:0:
184,61,584353,5,0,0:0:0:0:
226,15,584415,1,8,0:3:0:0:
286,6,584478,1,8,0:3:0:0:
337,43,584540,1,8,0:3:0:0:
376,96,584603,6,0,P|405:144|389:233,1,146.999995513916,4|2,0:0|0:0,0:0:0:0:
312,176,586603,2,0,P|280:136|248:124,1,83.9999974365235,4|2,0:0|0:0,0:0:0:0:
176,288,587853,5,8,0:0:0:0:
312,176,587978,1,0,0:0:0:0:
168,148,588103,1,4,0:0:0:0:
324,344,588353,5,8,0:0:0:0:
460,232,588478,1,0,0:0:0:0:
344,152,588603,2,0,P|384:104|440:84,1,115.50000352478,4|0,0:0|0:0,0:0:0:0:
460,232,589353,1,2,0:0:0:0:
244,104,589603,6,0,P|160:96|116:156,1,154.000004699707,12|0,0:0|0:0,0:0:0:0:
116,160,589978,1,2,0:0:0:0:
192,280,590103,6,0,P|208:224|240:208,1,77.0000023498536,2|0,0:0|0:0,0:0:0:0:
176,68,590353,6,0,P|192:124|224:140,1,77.0000023498536,6|0,0:0|0:0,0:0:0:0:
312,184,590603,5,8,0:0:0:0:
324,189,590665,1,0,0:0:0:0:
335,194,590728,1,0,0:0:0:0:
346,202,590790,1,0,0:0:0:0:
357,209,590853,1,2,0:0:0:0:
367,218,590915,1,0,0:0:0:0:
376,232,590977,5,0,0:0:0:0:
394,250,591040,1,0,0:0:0:0:
419,257,591103,1,8,0:0:0:0:
444,252,591165,1,0,0:0:0:0:
465,236,591228,1,0,0:0:0:0:
475,212,591290,1,0,0:0:0:0:
472,186,591353,5,2,0:0:0:0:
463,155,591415,1,0,0:0:0:0:
445,129,591478,1,0,0:0:0:0:
421,110,591540,1,0,0:0:0:0:
391,99,591603,2,0,P|368:92|336:92,3,52.5000020027161
412,192,591853,2,0,P|468:188|484:180,3,52.5000020027161
368,152,592103,5,2,0:0:0:0:
344,104,592165,1,0,0:0:0:0:
320,68,592228,5,0,0:0:0:0:
283,41,592290,1,0,0:0:0:0:
237,29,592353,1,8,0:0:0:0:
191,35,592415,1,0,0:0:0:0:
150,59,592478,1,2,0:0:0:0:
122,96,592540,1,0,0:0:0:0:
100,144,592603,6,0,P|124:220|152:244,1,105.000004005432,12|0,0:0|0:0,0:0:0:0:
232,96,592853,1,0,0:0:0:0:
52,84,592978,1,0,0:0:0:0:
140,236,593103,6,0,P|156:168|148:128,1,105.000004005432
32,44,593353,1,2,0:0:0:0:
140,236,593478,2,0,P|200:260|248:260,1,105.000004005432
216,56,593728,5,2,0:0:0:0:
108,156,593853,1,8,0:0:0:0:
336,108,593978,1,2,0:0:0:0:
168,240,594103,1,8,0:0:0:0:
100,48,594228,5,2,0:0:0:0:
316,224,594353,1,8,0:0:0:0:
24,144,594478,1,2,0:0:0:0:
296,56,594603,6,0,P|356:84|384:132,1,105.000004005432,12|0,0:0|0:0,0:0:0:0:
216,204,594853,1,2,0:0:0:0:
208,52,594978,1,2,0:0:0:0:
84,200,595103,2,0,P|56:132|56:84,1,105.000004005432,12|0,0:0|0:0,0:0:0:0:
232,136,595353,6,0,P|248:228|244:264,1,105.000004005432,12|0,0:0|0:0,0:0:0:0:
99,302,595603,2,0,P|83:210|87:174,1,105.000004005432,12|0,0:0|0:0,0:0:0:0:
308,84,595853,1,2,0:0:0:0:
164,212,595978,1,2,0:0:0:0:
260,28,596103,5,10,0:0:0:0:
232,280,596228,1,2,0:0:0:0:
404,72,596353,1,8,0:0:0:0:
92,212,596478,1,2,0:0:0:0:
408,256,596603,6,0,P|376:172|340:144,1,105.000004005432,10|0,0:0|0:0,0:0:0:0:
168,188,596853,1,0,0:0:0:0:
292,320,596978,1,0,0:0:0:0:
288,80,597103,2,0,P|272:184|284:212,1,105.000004005432
416,160,597353,5,0,0:0:0:0:
160,144,597478,1,0,0:0:0:0:
224,320,597603,5,4,0:0:0:0:
272,64,597728,1,0,0:0:0:0:
368,304,597853,1,8,0:0:0:0:
144,128,597978,1,2,0:0:0:0:
224,320,598103,6,0,P|275:329|327:326,1,105.000004005432,12|0,0:0|0:0,0:0:0:0:
336,144,598353,1,0,0:0:0:0:
192,240,598478,1,0,0:0:0:0:
432,176,598603,5,0,0:0:0:0:
430,170,598665,1,0,0:0:0:0:
429,165,598728,1,0,0:0:0:0:
428,160,598790,1,0,0:0:0:0:
426,155,598853,1,0,0:0:0:0:
424,150,598915,1,0,0:0:0:0:
422,146,598978,1,0,0:0:0:0:
420,141,599040,1,0,0:0:0:0:
417,136,599103,1,0,0:0:0:0:
415,132,599165,1,0,0:0:0:0:
410,125,599228,5,0,0:0:0:0:
399,113,599290,1,0,0:0:0:0:
387,103,599353,1,0,0:0:0:0:
373,95,599415,1,0,0:0:0:0:
359,88,599478,1,0,0:0:0:0:
344,84,599540,1,0,0:0:0:0:
328,80,599603,6,0,P|260:92|240:108,3,52.5000020027161
295,166,599853,2,0,P|282:189|264:208,3,52.5000020027161
279,284,600103,5,0,0:0:0:0:
318,249,600165,1,0,0:0:0:0:
341,203,600228,1,0,0:0:0:0:
345,151,600290,1,0,0:0:0:0:
329,101,600353,1,0,0:0:0:0:
295,61,600415,1,0,0:0:0:0:
249,37,600478,1,0,0:0:0:0:
197,33,600540,1,0,0:0:0:0:
166,38,600603,6,0,P|136:56|98:69,3,52.5000020027161
97,133,600853,2,0,L|35:182,7,52.5000020027161
185,139,601353,6,0,L|234:122,3,52.5000020027161
177,237,601603,2,0,L|121:280,5,52.5000020027161
271,246,601978,2,0,L|350:198,5,52.5000020027161
350,139,602353,6,0,P|374:78|382:68,3,52.5000020027161
392,232,602603,2,0,P|409:286|427:308,3,52.5000020027161
436,162,602853,2,0,P|465:104|476:94,7,52.5000020027161
392,232,603353,6,0,P|335:247|304:244,3,52.5000020027161
320,160,603603,2,0,P|288:128|260:96,5,52.5000020027161
424,136,603978,2,0,P|472:96|480:76,5,52.5000020027161
283,122,604353,6,0,P|225:159|214:176,3,52.5000020027161
424,136,604603,2,0,P|470:176|487:223,1,105.000004005432
266,331,604853,1,0,0:0:0:0:
237,146,604978,1,0,0:0:0:0:
403,218,605103,1,0,0:0:0:0:
185,254,605228,1,0,0:0:0:0:
371,108,605353,1,0,0:0:0:0:
392,311,605478,1,0,0:0:0:0:
152,100,605603,6,0,P|118:154|115:217,1,105.000004005432
272,296,605853,1,0,0:0:0:0:
240,116,605978,1,0,0:0:0:0:
132,344,606103,6,0,P|188:300|216:268,1,105.000004005432
132,56,606353,2,0,P|160:120|188:152,1,105.000004005432
376,228,606603,2,0,P|320:212|256:212,1,105.000004005432
132,344,606853,1,0,0:0:0:0:
376,228,606978,1,0,0:0:0:0:
182,146,607103,1,0,0:0:0:0:
256,356,607228,1,0,0:0:0:0:
340,140,607353,1,0,0:0:0:0:
144,240,607478,1,0,0:0:0:0:
368,308,607603,6,0,P|424:328|464:328,3,52.5000020027161
248,188,607853,2,0,P|236:120|240:100,3,52.5000020027161
366,84,608103,2,0,P|370:58|368:32,3,52.5000020027161
356,208,608353,2,0,P|300:264|292:268,3,52.5000020027161
288,268,608603,6,0,P|212:280|168:268,1,105.000004005432
184,84,608853,1,0,0:0:0:0:
288,192,608978,1,0,0:0:0:0:
120,220,609103,6,0,P|40:200|16:168,1,105.000004005432
124,36,609353,2,0,P|128:100|104:144,1,105.000004005432
80,308,609603,2,0,P|112:248|152:208,1,105.000004005432
268,344,609853,6,0,P|208:316|184:284,1,105.000004005432
268,240,610103,2,0,P|336:200|360:148,1,105.000004005432
184,104,610353,2,0,P|240:144|276:152,1,105.000004005432
360,16,610603,6,0,P|308:60|280:96,1,105.000004005432
284,292,610853,1,0,0:0:0:0:
392,160,610978,1,0,0:0:0:0:
284,88,611103,6,0,P|240:160|232:208,1,105.000004005432
320,316,611353,1,0,0:0:0:0:
376,140,611478,1,0,0:0:0:0:
232,176,611603,6,0,P|228:256|236:300,1,105.000004005432
376,144,611853,2,0,P|336:96|284:72,1,105.000004005432
84,192,612103,1,0,0:0:0:0:
102,240,612165,1,0,0:0:0:0:
136,280,612228,1,0,0:0:0:0:
183,304,612290,1,0,0:0:0:0:
234,310,612353,1,0,0:0:0:0:
269,279,612415,1,0,0:0:0:0:
313,261,612478,1,0,0:0:0:0:
360,257,612540,1,0,0:0:0:0:
405,270,612603,6,0,P|456:240|480:176,1,125.999996154785
416,88,613478,1,0,0:0:0:0:
397,106,613540,1,0,0:0:0:0:
388,132,613603,2,0,P|360:156|304:168,1,70
256,84,613978,1,0,0:0:0:0:
200,248,614293,1,0,0:0:0:0:
360,232,614469,5,0,0:0:0:0:
184,136,614645,1,0,0:0:0:0:
156,300,614845,2,0,P|212:272|332:288,1,167.999994873047
256,336,616130,6,0,P|216:296|144:288,1,119.699998538818
89,327,616763,2,0,P|76:282|140:210,1,140
156,284,617603,6,0,B|214:211|279:234|279:234|367:254|366:165|366:165|429:222|471:164|471:164|520:76|429:32|429:32|289:32|289:32|159:87|256:144|256:144|351:87|222:31|222:31|97:31|97:31|40:40|16:80|16:136|16:136|112:152|108:268|28:296|28:296|76:340|157:396|224:352|244:304|244:304|296:344|352:392|438:362|440:268,1,2056.25
440,260,625040,5,0,0:0:0:0:
256,96,625665,5,0,0:0:0:0:
256,192,625728,12,0,626665,0:0:0:0:
