osu file format v14

[General]
AudioFilename: audio.mp3
AudioLeadIn: 0
PreviewTime: 69218
Countdown: 0
SampleSet: Normal
StackLeniency: 0.7
Mode: 0
LetterboxInBreaks: 0
WidescreenStoryboard: 0

[Editor]
Bookmarks: 71113,71429,71744,73639,73955,74271,76165,76481,76797,78692,79008,79323,81218,81534,81850,83744,84060,84376,86271,86586
DistanceSpacing: 2.2
BeatDivisor: 4
GridSize: 4
TimelineZoom: 2

[Metadata]
Title:THE GLORY CHRISTMAS
TitleUnicode:THE GLORY CHRISTMAS
Artist:SakiZ
ArtistUnicode:SakiZ
Creator:Epiclol
Version:Last Christmas
Source:Youtube
Tags:MOMOIRO CLOVER Z SANTA SAN Tia The Glory Days Ayase Rie Yuima-ru*World Flezlin
BeatmapID:1160076
BeatmapSetID:547726

[Difficulty]
HPDrainRate:6
CircleSize:4
OverallDifficulty:8
ApproachRate:9.6
SliderMultiplier:1.9
SliderTickRate:1

[Events]
//Background and Video events
0,0,"SANTA-SAN.jpg",0,0
Video,-50,"THE GLORY CHRISTMAS.mp4"
//Break Periods
2,97208,103288
//Storyboard Layer 0 (Background)
//Storyboard Layer 1 (Fail)
//Storyboard Layer 2 (Pass)
//Storyboard Layer 3 (Foreground)
//Storyboard Sound Samples

[TimingPoints]
1008,315.789473684211,4,1,0,60,1,0
1008,-156.25,4,1,0,60,0,0
2271,-144.927536231884,4,1,0,60,0,0
16165,-129.87012987013,4,1,0,60,0,0
16797,-97.0873786407767,4,1,0,60,0,0
16955,-97.0873786407767,4,1,0,5,0,0
17350,-81.3008130081301,4,1,0,50,0,0
17586,-81.3008130081301,4,1,0,5,0,0
17665,-108.695652173913,4,1,0,50,0,0
17902,-108.695652173913,4,1,0,5,0,0
17981,-81.3008130081301,4,1,0,50,0,0
18218,-81.3008130081301,4,1,0,5,0,0
18376,-97.0873786407767,4,1,0,60,0,0
18692,-92.5925925925926,4,1,0,70,0,0
22481,-92.5925925925926,4,3,0,70,0,0
22639,-92.5925925925926,4,1,0,70,0,0
22797,-92.5925925925926,4,3,0,70,0,0
22955,-92.5925925925926,4,1,0,70,0,0
23113,-92.5925925925926,4,3,0,70,0,0
23271,-92.5925925925926,4,1,0,70,0,0
28797,-138.888888888889,4,2,0,40,0,0
64165,-119.047619047619,4,1,0,50,0,0
65429,-119.047619047619,4,1,0,60,0,0
67955,-81.3008130081301,4,1,0,70,0,0
68192,-81.3008130081301,4,1,0,5,0,0
68271,-81.3008130081301,4,1,0,70,0,0
68508,-81.3008130081301,4,1,0,5,0,0
68586,-81.3008130081301,4,1,0,70,0,0
68823,-81.3008130081301,4,1,0,5,0,0
68902,-81.3008130081301,4,1,0,60,0,0
69218,-86.9565217391304,4,1,0,90,0,1
86902,-156.25,4,1,0,90,0,1
89429,-200,4,3,0,40,0,0
91955,-86.9565217391304,4,1,0,70,0,0
93218,-81.3008130081301,4,1,0,60,0,0
93455,-81.3008130081301,4,1,0,5,0,0
93534,-108.695652173913,4,1,0,60,0,0
93771,-108.695652173913,4,1,0,5,0,0
93850,-81.3008130081301,4,1,0,60,0,0
94086,-81.3008130081301,4,1,0,5,0,0
103797,-54.6448087431694,4,1,0,90,0,1
103876,-54.6448087431694,4,1,0,5,0,0

[HitObjects]
196,264,1008,6,0,L|136:244,2,40.5333333333333
316,184,1323,2,0,L|376:168,2,40.5333333333333
172,112,1639,2,0,L|112:96,2,40.5333333333333
280,32,1954,2,0,L|336:20,2,40.5333333333333
244,156,2271,6,0,P|178:126|144:64,2,131.100000200043
352,300,3534,6,0,P|420:256|436:208,2,131.100000200043
152,100,4797,6,0,L|16:84,1,131.100000200043
139,215,5429,2,0,P|203:203|255:150,1,131.100000200043
304,44,5902,1,0,0:0:0:0:
364,160,6060,2,0,P|420:224|447:100,1,262.200000400085
188,108,7323,6,0,P|128:128|88:208,2,131.100000200043
368,316,8429,5,0,0:0:0:0:
400,204,8586,1,0,0:0:0:0:
232,276,8902,2,0,B|178:288|178:288|84:268,1,131.100000200043
240,112,9534,2,0,L|244:40,1,65.5500001000214
324,296,9850,5,0,0:0:0:0:
96,80,10165,1,0,0:0:0:0:
408,112,10481,1,0,0:0:0:0:
160,304,10797,1,0,0:0:0:0:
256,192,11113,12,0,12218,0:0:0:0:
256,192,12376,12,0,13481,0:0:0:0:
256,192,13639,12,0,14744,0:0:0:0:
256,192,14902,12,0,16007,0:0:0:0:
96,192,16165,6,0,P|57:145|168:97,1,219.449995646896
218,53,16797,2,0,L|200:156,1,97.8499991788101
96,320,17350,6,0,B|120:280|120:280|140:320|140:320|176:296|176:296|192:344,1,175.275002674484
204,288,17665,2,0,P|187:224|252:208,1,131.09999559906
260,148,17981,6,0,B|284:108|284:108|304:148|304:148|344:128|344:128|352:168,1,175.275002674484
420,252,18376,2,0,P|360:276|300:260,1,97.8499991788101
188,216,18692,6,0,L|156:116,1,102.600002504883,4|0,0:0|0:0,0:0:0:0:
248,108,19008,2,0,L|264:4,1,102.600002504883
212,312,19323,1,0,0:0:0:0:
128,208,19481,1,0,0:0:0:0:
372,184,19639,2,0,P|420:156|448:108,1,102.600002504883
292,144,19955,6,0,P|288:216|316:260,1,102.600002504883
104,88,20271,2,0,L|0:48,1,102.600002504883
216,136,20586,1,0,0:0:0:0:
164,304,20744,1,0,0:0:0:0:
344,260,20902,2,0,L|439:296,1,102.600002504883
392,32,21218,6,0,L|380:140,1,102.600002504883
268,88,21534,2,0,L|279:189,1,102.600002504883
132,44,21850,1,0,0:0:0:0:
48,288,22008,1,0,0:0:0:0:
240,216,22165,1,0,0:0:0:0:
44,148,22323,1,0,0:0:0:0:
156,356,22481,5,8,0:0:0:0:
228,132,22639,1,0,0:0:0:0:
296,280,22797,1,8,0:0:0:0:
356,52,22955,1,0,0:0:0:0:
428,276,23113,5,8,0:0:0:0:
248,80,23271,1,0,0:0:0:0:
156,332,23429,2,0,L|48:320,1,102.600002504883
292,52,23744,6,0,L|396:60,1,102.600002504883
200,316,24060,2,0,P|136:312|100:280,1,102.600002504883
292,52,24376,2,0,P|342:50|385:78,1,102.600002504883
107,289,24692,2,0,L|3:269,1,102.600002504883
152,80,25008,6,0,L|256:84,1,102.600002504883
464,284,25323,2,0,P|428:328|384:336,1,102.600002504883
80,232,25639,2,0,L|200:252,1,102.600002504883
424,108,25955,2,0,P|384:68|320:60,1,102.600002504883
148,136,26271,6,0,L|36:112,1,102.600002504883
364,204,26586,2,0,L|464:182,1,102.600002504883
148,280,26902,2,0,L|36:256,1,102.600002504883
364,348,27218,2,0,L|464:326,1,102.600002504883
148,280,27534,5,0,0:0:0:0:
424,204,27850,1,0,0:0:0:0:
64,128,28165,1,0,0:0:0:0:
344,272,28481,2,0,P|392:304|444:308,1,102.600002504883
248,320,28797,6,0,B|232:256|232:256|248:176,1,136.800003339844
280,88,29271,1,0,0:0:0:0:
352,160,29429,2,0,P|432:184|488:160,1,136.800003339844
360,72,29902,1,0,0:0:0:0:
240,208,30060,6,0,P|208:264|232:352,1,136.800003339844
344,200,30534,1,0,0:0:0:0:
176,144,30692,1,0,0:0:0:0:
288,280,30850,1,0,0:0:0:0:
376,128,31008,1,0,0:0:0:0:
264,320,31165,1,0,0:0:0:0:
160,192,31323,6,0,P|88:168|8:192,1,136.800003339844
185,305,31955,6,0,P|249:265|273:185,1,136.800003339844
376,80,32586,6,0,L|392:224,1,136.800003339844
96,320,33218,6,0,L|80:184,1,136.800003339844
128,80,33692,1,0,0:0:0:0:
216,144,33850,2,0,P|288:160|360:144,1,136.800003339844
216,56,34323,1,0,0:0:0:0:
128,200,34481,6,0,L|-13:218,1,136.800003339844
128,104,34955,1,0,0:0:0:0:
224,280,35113,2,0,P|272:312|357:298,1,136.800003339844
240,112,35586,1,0,0:0:0:0:
136,312,35744,1,0,0:0:0:0:
299,216,35902,1,0,0:0:0:0:
144,160,36060,1,0,0:0:0:0:
112,344,36218,1,0,0:0:0:0:
112,344,36376,6,0,P|184:368|256:336,1,136.800003339844
384,200,37008,6,0,P|319:181|256:205,1,136.800003339844
184,288,37481,1,0,0:0:0:0:
104,176,37639,2,0,P|160:128|240:128,1,136.800003339844
56,245,38271,6,0,P|24:197|61:105,1,136.800003339844
96,32,38744,1,0,0:0:0:0:
176,112,38902,2,0,L|320:88,1,136.800003339844,4|0,0:0|0:0,0:0:0:0:
384,8,39376,1,0,0:0:0:0:
480,128,39534,6,0,P|496:232|472:280,1,136.800003339844
352,192,40008,1,0,0:0:0:0:
280,272,40165,2,0,L|145:294,1,136.800003339844
64,216,40639,1,0,0:0:0:0:
176,208,40797,1,0,0:0:0:0:
120,56,40955,1,0,0:0:0:0:
288,128,41113,1,0,0:0:0:0:
108,168,41271,1,0,0:0:0:0:
344,200,41429,6,0,P|376:144|352:64,1,136.800003339844
168,183,42060,6,0,P|135:242|150:307,1,136.800003339844
312,96,42692,6,0,L|456:72,1,136.800003339844
184,288,43323,6,0,L|49:310,1,136.800003339844
16,208,43797,1,0,0:0:0:0:
128,224,43955,2,0,P|152:144|128:80,1,136.800003339844
96,8,44429,1,0,0:0:0:0:
200,32,44586,6,0,B|264:48|264:48|352:40,1,136.800003339844
432,88,45060,1,0,0:0:0:0:
344,152,45218,2,0,P|344:216|416:280,1,136.800003339844
256,136,45692,1,0,0:0:0:0:
440,181,45850,1,0,0:0:0:0:
304,320,46008,1,0,0:0:0:0:
352,136,46165,1,0,0:0:0:0:
432,312,46323,1,0,0:0:0:0:
256,192,46481,12,0,47429,0:0:0:0:
256,192,47586,12,0,48692,0:0:0:0:
56,152,49008,5,4,0:0:0:0:
63,77,49165,1,0,0:0:0:0:
132,46,49323,1,0,0:0:0:0:
193,90,49481,1,0,0:0:0:0:
116,196,49797,5,0,0:0:0:0:
132,46,49955,1,0,0:0:0:0:
364,332,51534,5,0,0:0:0:0:
424,287,51692,1,0,0:0:0:0:
417,212,51850,1,0,0:0:0:0:
348,182,52008,1,0,0:0:0:0:
295,301,52323,5,0,0:0:0:0:
417,212,52481,1,0,0:0:0:0:
104,116,54060,6,0,L|8:116,1,68.4000016699219
240,216,54376,2,0,L|308:216,1,68.4000016699219
100,49,54850,2,0,P|96:82|104:116,1,68.4000016699219
296,348,56586,6,0,L|227:348,1,68.4000016699219
408,232,56902,2,0,L|476:232,1,68.4000016699219
288,276,57376,2,0,P|284:309|292:343,1,68.4000016699219
112,192,59113,5,0,0:0:0:0:
256,336,59429,1,0,0:0:0:0:
400,192,59744,1,0,0:0:0:0:
256,44,60060,1,0,0:0:0:0:
116,228,60376,5,0,0:0:0:0:
292,328,60692,1,0,0:0:0:0:
392,156,61007,1,0,0:0:0:0:
216,48,61323,1,0,0:0:0:0:
128,264,61639,5,0,0:0:0:0:
324,312,61955,1,0,0:0:0:0:
376,120,62270,1,0,0:0:0:0:
180,64,62586,1,0,0:0:0:0:
152,296,62902,5,0,0:0:0:0:
352,292,63218,1,0,0:0:0:0:
352,92,63533,1,0,0:0:0:0:
152,88,63849,1,0,0:0:0:0:
356,320,64165,6,0,L|371:210,1,79.7999975646973
158,320,64481,2,0,L|142:217,1,79.7999975646973
385,145,64797,6,0,L|401:36,1,79.7999975646973
126,145,65113,2,0,L|110:42,1,79.7999975646973
100,248,65429,6,0,P|140:247|178:236,1,79.7999975646973
411,248,65744,2,0,P|371:247|334:236,1,79.7999975646973
104,352,66060,6,0,L|180:327,1,79.7999975646973
420,352,66376,2,0,L|346:324,1,79.7999975646973
256,192,66613,12,0,67639,0:0:0:0:
88,240,67955,6,0,B|120:224|128:196|128:196|152:320,1,175.275002674484
260,192,68271,2,0,B|196:200|196:200|200:152|180:124|148:120|116:124,1,175.275002674484
224,20,68586,2,0,B|284:4|260:56|260:56|312:60|304:104|260:120,1,175.275002674484
176,80,68902,6,0,P|172:154|215:204,1,116.85000178299
428,180,69218,6,0,L|316:180,1,109.250002083778,4|0,0:0|0:0,0:0:0:0:
260,116,69534,1,0,0:0:0:0:
472,252,69692,2,0,P|508:204|504:148,1,109.250002083778
272,108,70008,2,0,P|238:149|236:203,1,109.250002083778
216,312,70323,6,0,P|269:310|316:276,1,109.250002083778
400,76,70639,1,0,0:0:0:0:
248,232,70797,1,0,0:0:0:0:
272,80,70955,1,0,0:0:0:0:
368,276,71113,1,4,0:0:0:0:
176,172,71271,1,0,0:0:0:0:
388,124,71429,2,0,P|448:88|464:48,1,109.250002083778,4|0,0:0|0:0,0:0:0:0:
232,124,71744,6,0,L|248:244,1,109.250002083778,4|0,0:0|0:0,0:0:0:0:
296,40,72060,1,0,0:0:0:0:
104,76,72218,2,0,P|112:140|148:164,1,109.250002083778
268,240,72534,2,0,P|212:256|168:296,1,109.250002083778
368,288,72850,6,0,P|420:274|455:234,1,109.250002083778
468,16,73165,1,0,0:0:0:0:
368,188,73323,1,0,0:0:0:0:
324,40,73481,1,0,0:0:0:0:
496,208,73639,1,4,0:0:0:0:
268,132,73797,1,0,0:0:0:0:
232,336,73955,2,0,P|172:352|124:340,1,109.250002083778,4|0,0:0|0:0,0:0:0:0:
163,126,74271,6,0,P|216:115|267:131,1,109.250002083778,4|0,0:0|0:0,0:0:0:0:
84,268,74586,1,0,0:0:0:0:
48,120,74744,2,0,L|56:4,1,109.250002083778
184,200,75060,2,0,L|164:88,1,109.250002083778
280,272,75376,6,0,L|292:156,1,109.250002083778,4|0,0:0|0:0,0:0:0:0:
304,32,75692,1,0,0:0:0:0:
180,252,75850,2,0,P|192:324|228:364,1,109.250002083778
428,168,76165,2,0,L|308:188,1,109.250002083778,4|0,0:0|0:0,0:0:0:0:
164,80,76481,2,0,L|284:92,1,109.250002083778,4|0,0:0|0:0,0:0:0:0:
212,268,76797,6,0,L|100:288,1,109.250002083778,4|0,0:0|0:0,0:0:0:0:
12,208,77113,1,0,0:0:0:0:
244,184,77271,2,0,P|280:212|300:272,1,109.250002083778
264,376,77586,1,0,0:0:0:0:
148,192,77744,1,0,0:0:0:0:
120,308,77902,1,0,0:0:0:0:
276,188,78060,5,0,0:0:0:0:
48,200,78218,1,0,0:0:0:0:
260,292,78376,5,0,0:0:0:0:
104,104,78534,1,0,0:0:0:0:
176,336,78692,5,4,0:0:0:0:
212,84,78850,1,0,0:0:0:0:
96,312,79008,5,4,0:0:0:0:
308,144,79165,1,0,0:0:0:0:
112,232,79323,6,0,L|-5:233,1,109.250002083778,4|0,0:0|0:0,0:0:0:0:
124,72,79639,1,0,0:0:0:0:
208,248,79797,2,0,L|319:266,1,109.250002083778
308,20,80113,2,0,L|186:22,1,109.250002083778
400,192,80429,6,0,L|520:192,1,109.250002083778,4|0,0:0|0:0,0:0:0:0:
376,96,80744,1,0,0:0:0:0:
340,268,80902,1,0,0:0:0:0:
296,144,81060,1,0,0:0:0:0:
116,208,81218,1,4,0:0:0:0:
196,80,81376,1,0,0:0:0:0:
240,208,81534,1,4,0:0:0:0:
372,96,81692,1,0,0:0:0:0:
324,240,81850,6,0,P|284:288|228:300,1,109.250002083778,4|0,0:0|0:0,0:0:0:0:
64,216,82165,1,0,0:0:0:0:
284,172,82323,2,0,P|332:160|392:192,1,109.250002083778
436,28,82639,2,0,L|444:140,1,109.250002083778
204,268,82955,6,0,L|211:159,1,109.250002083778,4|0,0:0|0:0,0:0:0:0:
224,16,83271,1,0,0:0:0:0:
116,140,83429,1,0,0:0:0:0:
272,100,83586,5,0,0:0:0:0:
340,308,83744,1,4,0:0:0:0:
192,148,83902,5,0,0:0:0:0:
224,344,84060,1,4,0:0:0:0:
83,252,84218,1,0,0:0:0:0:
356,292,84376,6,0,P|400:240|400:184,1,109.250002083778,4|0,0:0|0:0,0:0:0:0:
328,44,84692,1,0,0:0:0:0:
164,204,84850,2,0,L|32:216,1,109.250002083778
196,108,85165,2,0,L|304:98,1,109.250002083778
132,68,85481,6,0,P|124:128|148:172,1,109.250002083778
356,160,85797,6,0,P|378:111|369:58,1,109.250002083778
260,236,86113,1,0,0:0:0:0:
132,48,86271,1,4,0:0:0:0:
300,100,86429,1,0,0:0:0:0:
116,232,86586,1,4,0:0:0:0:
128,92,86744,1,0,0:0:0:0:
224,240,86902,5,4,0:0:0:0:
245,256,86980,1,0,0:0:0:0:
269,269,87059,1,0,0:0:0:0:
296,276,87138,1,0,0:0:0:0:
323,279,87217,1,0,0:0:0:0:
350,277,87296,1,0,0:0:0:0:
376,271,87375,1,0,0:0:0:0:
401,259,87454,1,0,0:0:0:0:
400,232,87534,5,0,0:0:0:0:
385,208,87612,1,0,0:0:0:0:
363,192,87691,1,0,0:0:0:0:
337,186,87770,1,0,0:0:0:0:
310,191,87849,1,0,0:0:0:0:
287,206,87928,1,0,0:0:0:0:
272,229,88007,1,0,0:0:0:0:
267,255,88086,1,0,0:0:0:0:
264,280,88165,5,0,0:0:0:0:
233,278,88243,1,0,0:0:0:0:
203,277,88322,1,0,0:0:0:0:
172,275,88401,1,0,0:0:0:0:
142,274,88480,1,0,0:0:0:0:
112,272,88559,1,0,0:0:0:0:
81,271,88638,1,0,0:0:0:0:
51,269,88717,1,0,0:0:0:0:
21,268,88796,5,0,0:0:0:0:
48,252,88876,1,0,0:0:0:0:
75,239,88954,1,0,0:0:0:0:
97,217,89033,1,0,0:0:0:0:
110,190,89112,1,0,0:0:0:0:
115,160,89191,1,0,0:0:0:0:
110,131,89270,1,0,0:0:0:0:
96,104,89349,1,0,0:0:0:0:
76,80,89429,6,0,P|22:78|32:188,1,190
260,280,90692,6,0,P|314:282|356:172,1,190
188,124,91955,6,0,L|76:108,1,109.250002083778
256,260,92271,2,0,L|380:280,1,109.250002083778
197,198,92586,2,0,P|173:246|180:300,1,109.250002083778
120,124,92902,2,0,B|136:8,1,109.250002083778
96,320,93218,6,0,B|120:280|120:280|140:320|140:320|176:296|176:296|192:344,1,175.275002674484
204,288,93534,2,0,P|187:224|252:208,1,131.09999559906
260,148,93850,6,0,B|284:108|284:108|304:148|304:148|344:128|344:128|352:168,1,175.275002674484
256,192,94165,12,0,97008,0:0:0:0:
344,272,103797,6,0,P|336:316|352:368,1,86.924998441515
