osu file format v14

[General]
AudioFilename: audio.mp3
AudioLeadIn: 0
PreviewTime: -1
Countdown: 0
SampleSet: None
StackLeniency: 1
Mode: 0
LetterboxInBreaks: 0
WidescreenStoryboard: 1

[Editor]
DistanceSpacing: 0.8
BeatDivisor: 4
GridSize: 8
TimelineZoom: 1

[Metadata]
Title:Serval Power
TitleUnicode:Serval Power
Artist:SakiZ
ArtistUnicode:SakiZ
Creator:Hootless
Version:Extra
Source:
Tags:Serval, Power, Brain, Power, NOMA, SakiZ
BeatmapID:1333129
BeatmapSetID:631349

[Difficulty]
HPDrainRate:5
CircleSize:3.8
OverallDifficulty:8
ApproachRate:9
SliderMultiplier:1.4
SliderTickRate:1

[Events]
//Background and Video events
0,0,"maxresdefault (3).jpg",0,0
//Break Periods
//Storyboard Layer 0 (Background)
//Storyboard Layer 1 (Fail)
//Storyboard Layer 2 (Pass)
//Storyboard Layer 3 (Foreground)
//Storyboard Sound Samples

[TimingPoints]
5608,346.820809248555,4,1,0,100,1,0
5608,-100,4,1,0,100,0,1
6301,-66.6666666666667,4,1,0,100,0,1
8382,-100,4,1,0,100,0,1
9076,-66.6666666666667,4,1,0,100,0,1
11157,-100,4,1,0,100,0,1
11850,-66.6666666666667,4,1,0,100,0,1
13931,-100,4,1,0,100,0,1
14625,-66.6666666666667,4,1,0,100,0,1
16706,-100,4,1,0,100,0,1
17399,-66.6666666666667,4,1,0,100,0,1
19480,-100,4,1,0,100,0,1
20174,-66.6666666666667,4,1,0,100,0,1
22255,-100,4,1,0,100,0,1
22949,-66.6666666666667,4,1,0,100,0,1
25029,-100,4,1,0,100,0,1
25723,-66.6666666666667,4,1,0,100,0,1
27457,-200,4,1,0,100,0,1
27804,-66.6666666666667,4,1,0,100,0,1
30665,-100,4,1,0,100,0,1
31272,-66.6666666666667,4,1,0,100,0,1
33353,-100,4,1,0,100,0,1
33787,-80,4,1,0,100,0,1
34047,-66.6666666666667,4,1,0,100,0,1
36128,-100,4,1,0,100,0,1
36821,-66.6666666666667,4,1,0,100,0,1
37862,-50,4,1,0,100,0,1

[Colours]
Combo1 : 255,128,0
Combo2 : 255,255,0

[HitObjects]
114,73,5608,5,0,0:0:0:0:
118,107,5694,1,0,0:0:0:0:
131,139,5781,1,0,0:0:0:0:
154,166,5868,1,0,0:0:0:0:
183,185,5954,5,0,0:0:0:0:
216,195,6041,1,0,0:0:0:0:
251,196,6128,1,0,0:0:0:0:
285,186,6214,1,0,0:0:0:0:
306,158,6301,6,0,L|330:107,1,52.5000020027161
387,281,6475,2,0,L|411:230,1,52.5000020027161
263,234,6648,2,0,L|287:183,1,52.5000020027161
344,357,6822,2,0,L|368:306,1,52.5000020027161
235,289,6995,5,0,0:0:0:0:
184,278,7081,1,0,0:0:0:0:
146,243,7168,1,0,0:0:0:0:
131,193,7255,1,0,0:0:0:0:
144,143,7342,5,0,0:0:0:0:
368,111,7515,1,0,0:0:0:0:
155,59,7688,1,0,0:0:0:0:
355,194,7861,1,0,0:0:0:0:
238,0,8035,1,0,0:0:0:0:
273,242,8208,1,0,0:0:0:0:
338,36,8382,5,0,0:0:0:0:
303,38,8468,1,0,0:0:0:0:
270,50,8555,1,0,0:0:0:0:
242,70,8642,1,0,0:0:0:0:
219,97,8728,1,0,0:0:0:0:
205,128,8815,5,0,0:0:0:0:
199,163,8902,1,0,0:0:0:0:
203,197,8988,1,0,0:0:0:0:
215,230,9076,2,0,L|240:287,1,52.5000020027161
346,143,9249,2,0,L|371:200,1,52.5000020027161
250,303,9423,2,0,L|275:360,1,52.5000020027161
381,216,9596,2,0,L|406:273,1,52.5000020027161
235,135,9769,5,0,0:0:0:0:
235,135,9856,1,0,0:0:0:0:
235,135,9943,1,0,0:0:0:0:
92,260,10116,1,0,0:0:0:0:
256,179,10290,1,0,0:0:0:0:
51,215,10463,1,0,0:0:0:0:
252,235,10636,1,0,0:0:0:0:
37,161,10809,1,0,0:0:0:0:
217,292,10983,1,0,0:0:0:0:
54,106,11156,5,0,0:0:0:0:
83,87,11243,1,0,0:0:0:0:
117,78,11330,1,0,0:0:0:0:
152,77,11417,1,0,0:0:0:0:
186,85,11503,1,0,0:0:0:0:
216,101,11590,5,0,0:0:0:0:
242,125,11677,1,0,0:0:0:0:
260,155,11763,1,0,0:0:0:0:
270,188,11850,2,0,P|294:235|295:257,1,52.5000020027161
378,75,12024,2,0,P|401:121|402:143,1,52.5000020027161
257,203,12197,2,0,P|286:260|287:288,1,52.5000020027161
391,60,12371,2,0,P|420:118|421:145,1,52.5000020027161
399,277,12544,5,0,0:0:0:0:
347,285,12630,1,0,0:0:0:0:
295,293,12717,1,0,0:0:0:0:
243,301,12804,1,0,0:0:0:0:
191,309,12891,5,0,0:0:0:0:
31,89,13064,1,0,0:0:0:0:
289,173,13238,1,0,0:0:0:0:
31,257,13411,1,0,0:0:0:0:
191,37,13585,1,0,0:0:0:0:
0,202,13758,1,0,0:0:0:0:
235,91,13931,5,0,0:0:0:0:
269,89,14017,1,0,0:0:0:0:
303,99,14104,1,0,0:0:0:0:
331,119,14191,1,0,0:0:0:0:
352,147,14277,1,0,0:0:0:0:
363,180,14364,5,0,0:0:0:0:
363,215,14451,1,0,0:0:0:0:
352,248,14537,1,0,0:0:0:0:
331,276,14625,2,0,L|284:311,1,52.5000020027161
260,147,14798,2,0,L|212:181,1,52.5000020027161
243,334,14972,2,0,L|195:368,1,52.5000020027161
171,204,15145,2,0,L|123:238,1,52.5000020027161
289,307,15318,5,0,0:0:0:0:
291,254,15404,1,0,0:0:0:0:
277,204,15491,1,0,0:0:0:0:
248,161,15578,1,0,0:0:0:0:
206,128,15665,2,0,B|151:142|151:142|114:171,1,105.000004005432
229,320,16012,1,0,0:0:0:0:
229,320,16099,1,0,0:0:0:0:
229,320,16186,2,0,L|280:293,1,52.5000020027161
267,163,16359,2,0,L|318:136,1,52.5000020027161
328,271,16532,2,0,L|379:244,1,52.5000020027161
415,125,16706,5,0,0:0:0:0:
385,105,16792,1,0,0:0:0:0:
352,95,16879,1,0,0:0:0:0:
317,95,16966,1,0,0:0:0:0:
283,105,17052,1,0,0:0:0:0:
254,123,17139,5,0,0:0:0:0:
231,150,17226,1,0,0:0:0:0:
216,181,17312,1,0,0:0:0:0:
211,216,17399,2,0,P|237:272|243:278,1,52.5000020027161
338,179,17573,2,0,P|363:234|369:240,1,52.5000020027161
192,168,17746,2,0,P|217:223|223:229,1,52.5000020027161
318,130,17920,2,0,P|343:185|349:191,1,52.5000020027161
177,120,18093,5,0,0:0:0:0:
127,135,18179,1,0,0:0:0:0:
95,175,18266,1,0,0:0:0:0:
90,227,18353,1,0,0:0:0:0:
115,272,18439,1,0,0:0:0:0:
334,319,18613,1,0,0:0:0:0:
129,207,18787,1,0,0:0:0:0:
347,253,18961,1,0,0:0:0:0:
135,142,19134,1,0,0:0:0:0:
353,188,19308,1,0,0:0:0:0:
146,82,19480,5,0,0:0:0:0:
177,67,19566,1,0,0:0:0:0:
211,58,19653,1,0,0:0:0:0:
246,56,19740,1,0,0:0:0:0:
281,60,19826,1,0,0:0:0:0:
314,71,19913,5,0,0:0:0:0:
345,87,20000,1,0,0:0:0:0:
372,109,20086,1,0,0:0:0:0:
395,135,20174,2,0,L|370:200,1,52.5000020027161
271,189,20347,2,0,L|245:253,1,52.5000020027161
146,242,20521,2,0,L|120:306,1,52.5000020027161
21,295,20694,2,0,L|-4:359,1,52.5000020027161
88,133,20868,5,0,0:0:0:0:
88,133,20954,1,0,0:0:0:0:
88,133,21041,1,0,0:0:0:0:
263,274,21214,1,0,0:0:0:0:
163,91,21388,1,0,0:0:0:0:
187,315,21561,1,0,0:0:0:0:
245,115,21735,1,0,0:0:0:0:
104,291,21908,1,0,0:0:0:0:
287,191,22081,1,0,0:0:0:0:
63,215,22255,5,0,0:0:0:0:
79,184,22341,1,0,0:0:0:0:
101,157,22428,1,0,0:0:0:0:
129,135,22515,1,0,0:0:0:0:
160,120,22601,1,0,0:0:0:0:
194,112,22688,5,0,0:0:0:0:
229,111,22775,1,0,0:0:0:0:
264,117,22861,1,0,0:0:0:0:
296,130,22949,2,0,L|330:177,1,52.5000020027161
247,282,23122,2,0,L|280:328,1,52.5000020027161
306,115,23295,2,0,L|348:173,1,52.5000020027161
244,304,23468,2,0,L|286:362,1,52.5000020027161
143,163,23642,5,0,0:0:0:0:
175,123,23728,1,0,0:0:0:0:
225,112,23815,1,0,0:0:0:0:
271,136,23902,1,0,0:0:0:0:
291,183,23989,1,0,0:0:0:0:
114,344,24162,1,0,0:0:0:0:
63,110,24336,1,0,0:0:0:0:
291,183,24509,1,0,0:0:0:0:
57,252,24683,1,0,0:0:0:0:
129,24,24857,1,0,0:0:0:0:
310,165,25029,5,0,0:0:0:0:
277,152,25115,1,0,0:0:0:0:
242,147,25202,1,0,0:0:0:0:
208,152,25289,1,0,0:0:0:0:
176,166,25375,1,0,0:0:0:0:
148,187,25462,5,0,0:0:0:0:
127,215,25549,1,0,0:0:0:0:
113,247,25635,1,0,0:0:0:0:
109,281,25723,2,0,B|114:306|114:306|126:335,1,52.5000020027161
403,281,25897,2,0,B|398:306|398:306|386:335,1,52.5000020027161
105,215,26070,2,0,B|110:240|110:240|122:269,1,52.5000020027161
399,215,26244,2,0,B|394:240|394:240|382:269,1,52.5000020027161
258,346,26417,5,0,0:0:0:0:
223,306,26503,1,0,0:0:0:0:
199,260,26590,1,0,0:0:0:0:
187,209,26677,1,0,0:0:0:0:
187,156,26763,5,0,0:0:0:0:
394,86,26937,1,0,0:0:0:0:
257,226,27110,1,0,0:0:0:0:
257,226,27197,1,0,0:0:0:0:
257,226,27284,1,0,0:0:0:0:
142,54,27457,1,0,0:0:0:0:
131,67,27543,1,0,0:0:0:0:
120,81,27630,1,0,0:0:0:0:
109,94,27717,1,0,0:0:0:0:
96,109,27804,6,0,P|92:168|105:221,1,105.000004005432
416,275,28151,2,0,P|420:216|407:163,1,105.000004005432
173,352,28498,2,0,P|232:356|285:343,1,105.000004005432
305,331,28758,2,0,B|308:317|308:317|310:304|310:304|291:297|291:297|296:268|296:268|289:251|298:197,1,105.000004005432
291,202,29018,1,0,0:0:0:0:
278,154,29104,1,0,0:0:0:0:
229,147,29191,6,0,P|182:118|153:71,1,105.000004005432
283,237,29538,2,0,P|330:266|359:313,1,105.000004005432
301,165,29885,2,0,P|330:118|377:89,1,105.000004005432
392,112,30145,2,0,B|397:129|397:129|390:152|390:152|401:186|401:186|403:217,1,105.000004005432
400,252,30405,2,0,B|383:257|383:257|360:250|360:250|326:261|326:261|295:263,1,105.000004005432
264,263,30665,5,0,0:0:0:0:
229,262,30751,1,0,0:0:0:0:
196,251,30838,1,0,0:0:0:0:
169,229,30925,1,0,0:0:0:0:
151,199,31011,1,0,0:0:0:0:
144,165,31098,5,0,0:0:0:0:
148,131,31185,1,0,0:0:0:0:
164,100,31272,2,0,L|211:72,1,52.5000020027161
345,182,31446,2,0,L|298:210,1,52.5000020027161
299,44,31619,2,0,L|327:90,1,52.5000020027161
217,224,31793,2,0,L|188:177,1,52.5000020027161
329,112,31966,5,0,0:0:0:0:
329,112,32053,1,0,0:0:0:0:
329,112,32139,1,0,0:0:0:0:
415,335,32313,1,0,0:0:0:0:
450,106,32486,1,0,0:0:0:0:
227,192,32660,1,0,0:0:0:0:
464,238,32833,1,0,0:0:0:0:
378,15,33007,1,0,0:0:0:0:
227,192,33180,1,0,0:0:0:0:
450,106,33354,5,0,0:0:0:0:
419,79,33440,1,0,0:0:0:0:
388,64,33527,1,0,0:0:0:0:
354,57,33614,1,0,0:0:0:0:
319,59,33700,1,0,0:0:0:0:
285,71,33788,5,0,0:0:0:0:
249,97,33874,1,0,0:0:0:0:
214,123,33961,1,0,0:0:0:0:
179,149,34047,2,0,P|158:177|165:207,1,52.5000020027161
332,149,34220,2,0,P|354:177|346:207,1,52.5000020027161
182,209,34394,2,0,P|161:237|168:267,1,52.5000020027161
335,209,34567,2,0,P|357:237|349:267,1,52.5000020027161
259,348,34740,5,0,0:0:0:0:
208,334,34826,1,0,0:0:0:0:
164,306,34913,1,0,0:0:0:0:
131,265,35000,1,0,0:0:0:0:
112,216,35087,2,0,B|97:161|97:161|99:107,1,105.000004005432
399,167,35434,2,0,B|415:223|415:223|413:277,1,105.000004005432
112,216,35781,2,0,B|97:161|97:161|99:107,1,105.000004005432
397,92,36128,5,0,0:0:0:0:
379,122,36214,1,0,0:0:0:0:
361,152,36301,1,0,0:0:0:0:
343,182,36388,1,0,0:0:0:0:
325,212,36474,5,0,0:0:0:0:
307,242,36561,1,0,0:0:0:0:
290,272,36648,1,0,0:0:0:0:
272,302,36734,1,0,0:0:0:0:
254,333,36821,2,0,B|223:311|223:311|214:284,1,52.5000020027161
239,126,36995,2,0,B|270:148|270:148|279:175,1,52.5000020027161
143,237,37168,2,0,B|165:205|165:205|192:196,1,52.5000020027161
350,221,37342,2,0,B|328:253|328:253|301:262,1,52.5000020027161
141,237,37515,1,0,0:0:0:0:
176,197,37601,1,0,0:0:0:0:
211,158,37688,1,0,0:0:0:0:
246,119,37775,1,0,0:0:0:0:
281,80,37862,2,0,P|334:131|348:203,1,140
230,303,38209,1,0,0:0:0:0:
179,256,38295,1,0,0:0:0:0:
163,189,38382,1,0,0:0:0:0:
378,323,38555,1,0,0:0:0:0:
404,259,38641,1,0,0:0:0:0:
385,193,38728,1,0,0:0:0:0:
363,127,38815,1,0,0:0:0:0:
393,67,38901,1,0,0:0:0:0:
256,192,38989,12,0,41668,0:0:0:0:
