osu file format v14

[General]
AudioFilename: audio.mp3
AudioLeadIn: 0
PreviewTime: 0
Countdown: 0
SampleSet: Normal
StackLeniency: 0.2
Mode: 0
LetterboxInBreaks: 0
WidescreenStoryboard: 0

[Editor]
DistanceSpacing: 0.2
BeatDivisor: 4
GridSize: 4
TimelineZoom: 2.5

[Metadata]
Title:Kick-ass osu!
TitleUnicode:☆ Kick-ass osu! ☆
Artist:SakiZ
ArtistUnicode:SakiZ
Creator:[-Haqua-]
Version:Cringe Heaven
Source:osu!
Tags:I don't know
BeatmapID:1028037
BeatmapSetID:481715

[Difficulty]
HPDrainRate:6.9
CircleSize:4.4
OverallDifficulty:6.9
ApproachRate:10
SliderMultiplier:1.79999990463257
SliderTickRate:1

[Events]
//Background and Video events
0,0,"bgV3.png",0,0
Video,0,"Kick-ass osu! .mp4"
//Break Periods
//Storyboard Layer 0 (Background)
//Storyboard Layer 1 (Fail)
//Storyboard Layer 2 (Pass)
//Storyboard Layer 3 (Foreground)
//Storyboard Sound Samples

[TimingPoints]
0,409.08161178155,4,1,0,100,1,0
9110,272.789270288702,4,1,0,100,1,0
17837,-66.6666666666667,4,1,0,100,0,0
24382,-133.333333333333,4,1,0,100,0,0
24791,-66.6666666666667,4,1,0,100,0,0
24928,-133.333333333333,4,1,0,100,0,0
25337,-66.6666666666667,4,1,0,100,0,0
32837,-50,4,1,0,100,0,0
96402,-200,4,1,0,100,0,0
113861,-133.333333333333,4,1,0,100,0,0
137866,-66.6666666666667,4,1,0,100,0,0
139912,-50,4,1,0,100,0,1
174965,-50,4,1,0,100,0,0
198562,-66.6666666666667,4,1,0,100,0,0
199039,-200,4,1,0,100,0,0

[HitObjects]
256,192,2403,12,0,3016,0:0:0:0:
256,192,3528,12,0,4193,0:0:0:0:
256,192,4755,12,0,5369,0:0:0:0:
256,192,5880,12,0,6545,0:0:0:0:
256,192,7005,12,0,7874,0:0:0:0:
130,29,9102,5,8,0:0:0:0:
68,128,9246,1,8,0:0:0:0:
188,128,9382,1,8,0:0:0:0:
92,106,9519,5,8,0:0:0:0:
103,213,9655,1,8,0:0:0:0:
188,128,9791,1,8,0:0:0:0:
105,180,9928,5,8,0:0:0:0:
188,247,10064,1,8,0:0:0:0:
188,128,10201,1,8,0:0:0:0:
169,235,10337,5,8,0:0:0:0:
264,202,10473,1,8,0:0:0:0:
188,128,10610,1,0,0:0:0:0:
188,128,10746,5,0,0:0:0:0:
212,124,10814,1,0,0:0:0:0:
236,124,10883,1,0,0:0:0:0:
260,128,10951,1,0,0:0:0:0:
284,136,11019,1,0,0:0:0:0:
286,304,11155,1,0,0:0:0:0:
283,86,11292,5,0,0:0:0:0:
220,188,11428,1,8,0:0:0:0:
340,188,11565,1,8,0:0:0:0:
244,166,11701,5,8,0:0:0:0:
255,273,11837,1,8,0:0:0:0:
340,188,11974,1,8,0:0:0:0:
257,240,12110,5,8,0:0:0:0:
340,307,12247,1,8,0:0:0:0:
340,188,12383,1,8,0:0:0:0:
321,295,12519,5,8,0:0:0:0:
416,262,12656,1,8,0:0:0:0:
340,188,12792,1,0,0:0:0:0:
340,188,12929,5,0,0:0:0:0:
301,168,12997,1,0,0:0:0:0:
260,155,13065,1,0,0:0:0:0:
215,151,13133,1,0,0:0:0:0:
175,164,13201,1,0,0:0:0:0:
200,284,13338,1,0,0:0:0:0:
200,288,13474,1,0,0:0:0:0:
348,116,13611,6,8,P|360:164|368:204,1,89.9999952316284
200,40,13883,1,0,0:0:0:0:
332,284,14020,6,8,P|284:296|244:304,1,89.9999952316284
408,136,14292,1,0,0:0:0:0:
164,268,14429,6,8,P|152:220|144:180,1,89.9999952316284
312,344,14702,1,0,0:0:0:0:
180,100,14838,6,8,P|228:88|268:80,1,89.9999952316284
264,148,15111,5,0,0:0:0:0:
224,172,15179,1,0,0:0:0:0:
222,223,15247,1,0,0:0:0:0:
183,251,15315,1,0,0:0:0:0:
184,300,15384,1,0,0:0:0:0:
68,317,15520,1,0,0:0:0:0:
336,356,15656,5,8,0:0:0:0:
400,184,15793,2,0,P|408:228|419:271,1,89.9999952316284
420,112,16066,5,8,0:0:0:0:
248,48,16202,2,0,P|292:39|335:28,1,89.9999952316284
176,28,16475,5,8,0:0:0:0:
112,200,16611,2,0,P|103:155|92:112,1,89.9999952316284
92,272,16884,5,8,0:0:0:0:
264,336,17020,2,0,P|219:344|176:355,1,89.9999952316284
336,356,17293,5,8,0:0:0:0:
368,286,17361,1,0,0:0:0:0:
358,212,17430,1,0,0:0:0:0:
318,150,17498,1,0,0:0:0:0:
261,92,17566,2,0,P|196:133|166:121,1,89.9999952316284
108,220,17839,5,0,0:0:0:0:
288,88,17975,2,0,P|240:48|172:127,1,134.999997997284
194,199,18248,5,0,0:0:0:0:
224,88,18384,2,0,P|272:48|340:127,1,134.999997997284
296,156,18657,5,0,0:0:0:0:
224,296,18794,6,0,P|272:336|340:257,1,134.999997997284
216,228,19066,1,0,0:0:0:0:
224,296,19203,6,0,P|272:336|343:243,1,202.499996995926
372,221,19475,1,0,0:0:0:0:
388,179,19544,1,0,0:0:0:0:
388,132,19612,1,0,0:0:0:0:
369,94,19680,1,0,0:0:0:0:
335,67,19748,1,0,0:0:0:0:
335,67,19885,1,0,0:0:0:0:
356,200,20021,6,0,L|186:196,1,134.999997997284
161,125,20294,1,0,0:0:0:0:
441,60,20430,2,0,P|335:127|304:95,1,134.999997997284
161,259,20703,1,0,0:0:0:0:
441,324,20839,2,0,P|335:257|304:289,1,134.999997997284
351,125,21112,1,0,0:0:0:0:
71,60,21249,2,0,P|177:127|208:95,1,134.999997997284
302,48,21521,1,0,0:0:0:0:
244,264,21658,5,0,0:0:0:0:
206,247,21726,1,0,0:0:0:0:
179,208,21794,1,0,0:0:0:0:
192,165,21862,1,0,0:0:0:0:
232,139,21931,1,0,0:0:0:0:
428,62,21999,1,0,0:0:0:0:
472,280,22203,1,0,0:0:0:0:
316,332,22340,6,0,L|129:314,1,134.999997997284
316,332,22613,1,0,0:0:0:0:
116,252,22749,6,0,L|133:65,1,134.999997997284
116,252,23022,1,0,0:0:0:0:
196,52,23158,6,0,L|382:69,1,134.999997997284
196,52,23431,1,0,0:0:0:0:
396,132,23567,6,0,L|378:318,1,134.999997997284
396,132,23840,1,0,0:0:0:0:
280,184,23977,6,0,L|200:192,1,67.5000007867814
192,224,24113,2,0,L|160:300,1,67.5000007867814
184,320,24249,2,0,L|260:360,1,67.5000007867814
349,323,24386,6,8,P|379:276|378:237,1,67.4999989986419
349,323,24590,6,8,P|379:276|378:237,1,67.4999989986419
349,323,24795,6,8,P|379:276|378:237,1,67.4999989986419
349,323,24931,6,8,P|379:276|378:237,1,67.4999989986419
349,323,25136,6,8,P|379:276|378:237,1,67.4999989986419
349,323,25340,6,8,P|379:276|378:237,1,67.4999989986419
349,323,25477,6,8,P|379:276|378:237,1,67.4999989986419
349,323,25613,6,8,P|379:276|378:237,1,67.4999989986419
349,323,25750,6,8,P|379:276|378:237,1,67.4999989986419
349,323,25886,6,8,P|379:276|378:237,1,67.4999989986419
352,220,26022,6,8,L|304:220,1,44.9999988079071
160,240,26295,2,8,B|124:240|124:240|120:172|120:172|172:172|172:172,1,134.999997997284
395,105,26568,5,0,0:0:0:0:
364,320,26704,1,0,0:0:0:0:
95,106,26841,5,0,0:0:0:0:
148,320,26977,1,0,0:0:0:0:
143,140,27114,5,2,0:0:0:0:
207,94,27182,1,2,0:0:0:0:
279,82,27250,1,2,0:0:0:0:
342,87,27318,1,2,0:0:0:0:
404,104,27386,2,2,B|320:152|320:152|412:176|412:176,1,134.999997997284
344,352,27659,5,2,0:0:0:0:
337,167,27796,5,0,0:0:0:0:
64,88,27932,1,0,0:0:0:0:
392,92,28068,1,0,0:0:0:0:
272,368,28205,6,0,L|271:282,1,67.4999989986419
216,200,28341,1,8,0:0:0:0:
280,179,28409,1,8,0:0:0:0:
344,200,28478,6,8,L|347:307,1,67.4999989986419
300,292,28614,2,8,L|192:292,1,67.4999989986419
120,248,28750,6,0,P|124:152|194:143,1,134.999997997284
280,228,29023,1,0,0:0:0:0:
424,81,29091,2,0,P|379:183|336:215,1,134.999997997284
304,220,29296,5,8,0:0:0:0:
332,276,29364,1,8,0:0:0:0:
304,332,29432,1,8,0:0:0:0:
240,332,29500,1,8,0:0:0:0:
200,272,29569,1,8,0:0:0:0:
232,43,29705,1,0,0:0:0:0:
380,196,29841,5,0,0:0:0:0:
119,119,29978,1,0,0:0:0:0:
356,336,30114,1,0,0:0:0:0:
308,88,30251,1,0,0:0:0:0:
192,289,30387,1,0,0:0:0:0:
260,336,30455,5,8,0:0:0:0:
324,304,30523,5,8,0:0:0:0:
392,284,30592,5,8,0:0:0:0:
336,240,30660,5,8,0:0:0:0:
173,143,30796,5,8,0:0:0:0:
300,182,30933,6,8,L|300:278,1,67.499998998642
196,144,31069,6,8,L|196:248,1,67.499998998642
408,208,31205,6,8,L|408:308,1,67.499998998642
107,104,31342,6,8,L|107:200,1,67.499998998642
252,312,31478,5,0,0:0:0:0:
296,290,31546,1,0,0:0:0:0:
320,248,31615,1,0,0:0:0:0:
329,199,31683,1,0,0:0:0:0:
305,153,31751,5,0,0:0:0:0:
120,198,31887,2,8,L|120:120,1,67.499998998642
408,298,32024,6,8,L|408:216,1,67.499998998642
196,234,32160,6,8,L|196:152,1,67.499998998642
312,258,32297,6,8,L|312:180,1,67.499998998642
260,48,32433,6,0,L|260:168,1,67.499998998642
260,244,32569,5,0,0:0:0:0:
260,352,32638,1,0,0:0:0:0:
152,352,32706,1,0,0:0:0:0:
152,244,32774,1,0,0:0:0:0:
44,348,32842,2,0,P|40:196|122:143,1,179.999990463257
304,220,33115,5,0,0:0:0:0:
372,304,33251,1,0,0:0:0:0:
248,304,33388,1,0,0:0:0:0:
304,120,33524,1,0,0:0:0:0:
64,120,33661,5,0,0:0:0:0:
88,188,33729,1,0,0:0:0:0:
132,244,33797,1,0,0:0:0:0:
188,288,33865,1,0,0:0:0:0:
252,316,33933,1,0,0:0:0:0:
320,336,34002,1,0,0:0:0:0:
304,240,34138,6,0,P|272:124|240:264,1,359.999980926514
252,192,34547,1,0,0:0:0:0:
256,196,34683,1,0,0:0:0:0:
256,280,34752,5,0,0:0:0:0:
256,136,34888,1,0,0:0:0:0:
256,356,35024,1,0,0:0:0:0:
256,64,35161,1,0,0:0:0:0:
256,196,35297,5,0,0:0:0:0:
288,180,35434,1,0,0:0:0:0:
308,212,35570,1,0,0:0:0:0:
276,232,35706,1,0,0:0:0:0:
100,280,35843,1,0,0:0:0:0:
136,200,35911,1,0,0:0:0:0:
196,136,35979,1,0,0:0:0:0:
276,100,36047,1,0,0:0:0:0:
368,112,36116,1,0,0:0:0:0:
440,164,36184,1,0,0:0:0:0:
476,248,36252,5,0,0:0:0:0:
340,228,36388,6,0,L|236:232,1,89.9999952316285
300,156,36525,1,0,0:0:0:0:
296,296,36661,1,0,0:0:0:0:
296,144,36798,1,0,0:0:0:0:
128,208,36934,5,0,0:0:0:0:
176,284,37002,1,0,0:0:0:0:
248,340,37070,1,0,0:0:0:0:
336,348,37139,1,0,0:0:0:0:
420,320,37207,1,0,0:0:0:0:
496,272,37275,1,0,0:0:0:0:
388,212,37343,5,0,0:0:0:0:
248,160,37480,6,8,L|248:296,1,89.9999952316285
312,252,37616,6,8,L|312:162,1,89.9999952316285
248,70,37752,6,8,L|248:206,1,89.9999952316285
312,162,37889,6,8,L|312:72,1,89.9999952316285
408,112,38025,5,0,0:0:0:0:
388,152,38093,1,0,0:0:0:0:
360,188,38162,1,0,0:0:0:0:
324,216,38230,1,0,0:0:0:0:
284,236,38298,1,0,0:0:0:0:
240,248,38366,1,0,0:0:0:0:
240,96,38434,5,0,0:0:0:0:
432,232,38571,6,8,L|432:96,1,89.9999952316285
368,140,38707,6,8,L|368:230,1,89.9999952316285
432,322,38844,6,8,L|432:186,1,89.9999952316285
368,230,38980,6,8,L|368:320,1,89.9999952316285
280,304,39116,5,0,0:0:0:0:
248,220,39185,1,0,0:0:0:0:
288,140,39253,1,0,0:0:0:0:
372,112,39321,1,0,0:0:0:0:
444,164,39389,1,0,0:0:0:0:
432,256,39457,1,0,0:0:0:0:
440,296,39526,5,0,0:0:0:0:
284,260,39662,6,8,L|160:256,1,89.9999952316285
284,260,39798,2,8,L|288:152,1,89.9999952316285
284,260,39935,2,8,L|412:264,1,89.9999952316285
284,260,40071,2,8,L|280:360,1,89.9999952316285
373,262,40207,6,8,L|376:148,1,89.9999952316285
373,262,40344,2,8,L|276:264,1,89.9999952316285
373,262,40480,2,8,L|372:368,1,89.9999952316285
373,262,40617,2,8,L|464:264,1,89.9999952316285
312,197,40753,6,8,L|396:287,1,89.9999952316285
312,197,40889,2,8,L|232:270,1,89.9999952316285
312,197,41026,2,8,L|224:103,1,89.9999952316285
312,197,41162,2,8,L|385:129,1,89.9999952316285
251,132,41299,6,8,L|168:211,1,89.9999952316285
251,132,41435,2,8,L|321:200,1,89.9999952316285
251,132,41571,2,8,L|326:59,1,89.9999952316285
251,132,41708,2,8,L|188:67,1,89.9999952316285
254,221,41844,6,8,L|343:218,1,89.9999952316285
254,221,41981,2,8,L|250:131,1,89.9999952316285
254,221,42117,2,8,L|164:223,1,89.9999952316285
254,221,42253,2,8,L|257:310,1,89.9999952316285
164,223,42390,6,8,L|162:133,1,89.9999952316285
164,223,42526,2,8,L|253:224,1,89.9999952316285
164,223,42663,2,8,L|165:312,1,89.9999952316285
164,223,42799,2,8,L|73:224,1,89.9999952316285
292,144,42935,6,0,B|360:84|360:84|335:274|408:252,1,269.999985694885
280,308,43208,6,0,P|246:351|184:340,1,89.9999952316285
280,308,43345,6,0,P|246:351|184:340,1,89.9999952316285
360,216,43481,6,0,P|393:259|456:248,1,89.9999952316285
360,216,43617,6,0,P|393:259|456:248,1,89.9999952316285
208,152,43754,6,0,P|174:108|56:248,1,269.999985694885
256,192,44027,12,0,46072,0:0:0:0:
368,160,46209,5,8,0:0:0:0:
344,312,46345,1,8,0:0:0:0:
304,164,46482,1,8,0:0:0:0:
408,312,46618,1,8,0:0:0:0:
224,116,46754,5,8,0:0:0:0:
204,316,46891,1,8,0:0:0:0:
160,120,47027,1,8,0:0:0:0:
268,316,47164,1,8,0:0:0:0:
104,32,47300,5,8,0:0:0:0:
80,308,47436,1,8,0:0:0:0:
40,36,47573,1,8,0:0:0:0:
144,308,47709,1,8,0:0:0:0:
336,272,47846,6,0,B|440:256|448:164|248:128|272:224|276:244,1,269.999985694885
192,240,48118,5,0,0:0:0:0:
192,92,48255,1,8,0:0:0:0:
192,240,48391,1,8,0:0:0:0:
192,92,48528,1,8,0:0:0:0:
264,316,48664,5,8,0:0:0:0:
264,92,48800,1,8,0:0:0:0:
264,316,48937,1,8,0:0:0:0:
264,92,49073,1,8,0:0:0:0:
336,316,49210,5,8,0:0:0:0:
336,32,49346,1,8,0:0:0:0:
336,316,49482,1,8,0:0:0:0:
336,32,49619,1,8,0:0:0:0:
412,192,49755,5,0,0:0:0:0:
388,232,49891,1,0,0:0:0:0:
256,224,50028,5,0,0:0:0:0:
280,184,50164,1,0,0:0:0:0:
60,168,50301,5,0,0:0:0:0:
36,208,50437,1,0,0:0:0:0:
168,216,50573,5,0,0:0:0:0:
256,192,50642,12,0,51256,0:0:0:0:
200,96,51392,5,0,0:0:0:0:
280,216,51528,1,0,0:0:0:0:
316,76,51665,1,0,0:0:0:0:
224,188,51801,1,0,0:0:0:0:
364,228,51937,5,0,0:0:0:0:
272,116,52074,1,0,0:0:0:0:
308,256,52210,1,0,0:0:0:0:
192,196,52347,6,0,B|272:192|272:192|268:76|268:76|364:192|364:192,1,269.999985694885
236,296,52756,6,14,P|276:324|460:316,1,179.999990463257
296,260,53029,6,14,P|336:288|464:272,1,179.999990463257
256,292,53301,6,14,P|216:320|84:312,1,179.999990463257
212,240,53574,6,14,P|172:268|44:236,1,179.999990463257
296,72,53847,6,14,P|256:44|72:52,1,179.999990463257
236,108,54120,6,14,P|196:80|68:96,1,179.999990463257
196,156,54393,6,14,P|156:128|28:176,1,179.999990463257
276,76,54597,6,14,L|360:40,1,89.9999952316285
320,128,54734,6,14,P|360:100|400:88,1,89.9999952316285
376,184,54938,6,14,P|404:224|368:344,1,179.999990463257
344,340,55211,6,14,P|316:300|352:180,1,179.999990463257
321,169,55484,6,14,P|316:217|212:286,1,179.999990463257
196,268,55756,6,14,P|200:219|304:150,1,179.999990463257
287,122,56029,6,14,P|252:156|140:144,1,89.9999952316285
287,122,56166,6,14,P|252:156|140:144,1,89.9999952316285
128,118,56302,6,14,P|162:83|286:98,1,179.999990463257
283,95,56507,6,14,P|200:69|128:118,1,179.999990463257
256,192,56711,12,0,61075,0:0:0:0:
280,240,61144,6,0,L|360:184,1,89.9999952316285
288,152,61280,1,0,0:0:0:0:
192,92,61349,6,0,B|80:168|80:168|180:236|180:236,1,179.999990463257
184,288,61553,5,0,0:0:0:0:
416,180,61758,1,0,0:0:0:0:
416,304,61894,1,0,0:0:0:0:
184,176,62031,1,0,0:0:0:0:
280,216,62167,6,0,B|216:288|216:288|280:360,1,179.999990463257
320,352,62440,6,0,B|384:280|384:280|328:217,1,179.999990463257
292,280,62713,1,0,0:0:0:0:
416,176,62849,6,0,P|296:120|104:216,3,359.999980926514
372,204,63872,5,8,0:0:0:0:
276,328,64008,1,8,0:0:0:0:
52,104,64213,5,8,0:0:0:0:
460,344,64418,1,8,0:0:0:0:
364,312,64486,6,0,P|468:264|360:128,1,269.999985694885
472,224,64827,2,0,L|248:228,1,179.999990463257
384,100,65304,6,0,P|272:56|156:104,1,179.999990463257
176,96,65509,6,0,P|104:184|176:240,1,179.999990463257
312,304,65781,6,0,P|424:352|452:248,1,179.999990463257
220,168,66122,2,2,L|328:112,1,89.9999952316285
380,168,66259,2,2,L|272:112,1,89.9999952316285
300,36,66395,2,0,L|304:288,1,179.999990463257
136,112,66600,5,0,0:0:0:0:
136,240,66736,1,0,0:0:0:0:
408,336,66941,2,0,P|400:248|456:136,2,179.999990463257
136,288,67418,5,0,0:0:0:0:
432,164,67691,5,0,0:0:0:0:
268,208,67964,6,0,B|360:208|360:208|360:160|124:124|124:124,1,269.999985694885
268,208,68305,6,0,L|268:304,1,89.9999952316285
268,208,68441,6,0,L|268:88,1,89.9999952316285
268,208,68578,5,0,0:0:0:0:
464,96,68782,5,0,0:0:0:0:
256,192,68850,12,0,69396,0:0:0:0:
364,192,69464,5,0,0:0:0:0:
152,192,69601,1,0,0:0:0:0:
332,324,69737,1,0,0:0:0:0:
264,84,69873,1,0,0:0:0:0:
216,320,70010,2,0,B|256:240|256:240|276:336|276:336|300:280|300:280,1,179.999990463257
280,324,70214,6,0,P|376:328|424:248,1,179.999990463257
280,324,70487,6,0,P|376:328|424:248,1,179.999990463257
340,164,70760,6,0,L|152:160,1,179.999990463257
256,48,71033,6,0,L|256:140,1,89.9999952316285
112,324,71237,6,0,L|236:320,1,89.9999952316285
400,324,71442,6,0,L|276:320,1,89.9999952316285
456,296,71851,6,0,P|364:96|228:176,1,359.999980926514
256,192,72397,5,8,0:0:0:0:
256,192,72601,5,8,0:0:0:0:
256,192,72806,5,8,0:0:0:0:
256,192,72942,5,8,0:0:0:0:
256,192,73147,5,8,0:0:0:0:
256,192,73283,5,8,0:0:0:0:
256,192,73624,5,8,0:0:0:0:
256,192,73761,5,8,0:0:0:0:
256,192,74033,5,8,0:0:0:0:
256,192,74238,5,8,0:0:0:0:
264,192,74443,2,0,L|400:280,1,89.9999952316285
444,296,74579,6,0,L|440:188,1,89.9999952316285
440,206,74784,6,0,L|336:140,1,89.9999952316285
364,158,74920,6,0,L|260:148,1,89.9999952316285
272,152,75125,6,0,L|184:200,1,89.9999952316285
200,196,75397,6,0,L|284:264,1,89.9999952316285
269,252,75534,6,0,L|492:284,1,179.999990463257
364,264,75738,1,0,0:0:0:0:
376,188,75806,6,0,L|344:376,1,179.999990463257
160,304,76147,6,0,P|120:220|172:184,1,89.9999952316285
276,200,76352,2,0,P|324:248|296:308,1,89.9999952316285
156,48,76693,6,0,L|416:88,1,179.999990463257
156,48,76966,1,0,0:0:0:0:
400,92,77102,6,0,L|360:352,1,179.999990463257
400,92,77375,1,0,0:0:0:0:
356,336,77511,6,0,L|96:296,1,179.999990463257
352,332,77784,6,0,L|392:72,1,179.999990463257
352,332,78057,1,0,0:0:0:0:
256,192,78193,5,0,0:0:0:0:
180,188,78330,5,0,0:0:0:0:
340,192,78466,1,0,0:0:0:0:
100,192,78603,5,0,0:0:0:0:
420,192,78739,1,0,0:0:0:0:
32,192,78875,5,0,0:0:0:0:
136,200,79012,5,0,0:0:0:0:
352,200,79148,1,0,0:0:0:0:
184,324,79285,1,0,0:0:0:0:
256,108,79421,1,0,0:0:0:0:
248,72,79557,5,0,0:0:0:0:
248,288,79693,1,0,0:0:0:0:
124,120,79830,1,0,0:0:0:0:
340,192,79966,1,0,0:0:0:0:
376,184,80103,5,0,0:0:0:0:
160,184,80239,1,0,0:0:0:0:
328,60,80376,1,0,0:0:0:0:
256,276,80512,1,0,0:0:0:0:
264,312,80648,5,0,0:0:0:0:
264,96,80784,1,0,0:0:0:0:
388,264,80921,1,0,0:0:0:0:
172,192,81057,1,0,0:0:0:0:
256,192,81126,12,0,82967,0:0:0:0:
220,300,83035,6,0,P|328:296|444:192,1,269.999985694885
444,191,83308,5,0,0:0:0:0:
400,104,83445,1,0,0:0:0:0:
348,196,83581,1,0,0:0:0:0:
288,96,83717,1,0,0:0:0:0:
256,380,83854,5,0,0:0:0:0:
344,336,83991,1,0,0:0:0:0:
252,284,84127,1,0,0:0:0:0:
352,224,84263,1,0,0:0:0:0:
67,192,84399,5,0,0:0:0:0:
112,280,84536,1,0,0:0:0:0:
164,188,84672,1,0,0:0:0:0:
224,288,84808,1,0,0:0:0:0:
255,3,84945,5,0,0:0:0:0:
168,48,85082,1,0,0:0:0:0:
260,100,85218,1,0,0:0:0:0:
256,192,85354,12,0,87605,0:0:0:0:
360,312,87673,5,0,0:0:0:0:
248,252,87809,5,0,0:0:0:0:
408,248,87946,5,0,0:0:0:0:
200,316,88082,5,0,0:0:0:0:
328,244,88218,5,0,0:0:0:0:
216,184,88354,5,0,0:0:0:0:
376,180,88491,5,0,0:0:0:0:
168,248,88627,5,0,0:0:0:0:
296,180,88764,5,0,0:0:0:0:
184,120,88900,5,0,0:0:0:0:
344,116,89037,5,0,0:0:0:0:
136,184,89173,5,0,0:0:0:0:
264,120,89310,5,0,0:0:0:0:
152,60,89446,5,0,0:0:0:0:
312,56,89583,5,0,0:0:0:0:
104,124,89719,5,0,0:0:0:0:
256,192,89787,12,0,91765,0:0:0:0:
144,340,91833,6,0,B|84:252|84:252|40:332,1,179.999990463257
48,316,92037,1,0,0:0:0:0:
144,52,92174,1,0,0:0:0:0:
152,328,92310,5,0,0:0:0:0:
247,63,92447,1,0,0:0:0:0:
252,336,92583,5,0,0:0:0:0:
347,71,92720,1,0,0:0:0:0:
368,340,92856,5,0,0:0:0:0:
463,75,92993,1,0,0:0:0:0:
463,316,93129,1,0,0:0:0:0:
368,52,93266,1,0,0:0:0:0:
360,328,93401,5,0,0:0:0:0:
265,63,93538,1,0,0:0:0:0:
260,336,93674,6,0,P|244:244|147:59,1,269.999985694885
440,136,94220,6,0,P|356:192|280:184,1,179.999990463257
228,176,94424,1,0,0:0:0:0:
228,176,94493,1,0,0:0:0:0:
40,208,94561,6,0,P|124:264|200:256,1,179.999990463257
252,248,94765,1,0,0:0:0:0:
252,248,94834,1,0,0:0:0:0:
468,280,94902,6,0,P|384:336|308:328,1,179.999990463257
256,320,95106,1,0,0:0:0:0:
256,320,95175,1,0,0:0:0:0:
256,192,95243,12,0,96334,0:0:0:0:
92,204,96402,6,0,P|154:203|183:177,1,89.9999952316285
64,144,96811,1,0,0:0:0:0:
123,136,96948,1,0,0:0:0:0:
159,114,97084,2,0,P|214:121|248:160,1,89.9999952316285
268,176,97493,1,0,0:0:0:0:
251,214,97630,5,0,0:0:0:0:
261,248,97766,2,0,L|310:252,1,44.9999976158143
305,287,98039,2,0,L|361:293,1,44.9999976158143
349,327,98312,1,0,0:0:0:0:
316,348,98448,1,0,0:0:0:0:
282,354,98584,6,0,P|245:318|240:273,1,89.9999952316285
196,316,98994,1,0,0:0:0:0:
166,281,99130,1,0,0:0:0:0:
173,245,99266,2,0,P|220:205|260:208,1,89.9999952316285
260,236,99607,1,0,0:0:0:0:
271,229,99676,6,0,P|296:178|441:258,1,269.999985694885
417,274,100630,1,0,0:0:0:0:
391,299,100767,6,0,P|324:265|299:268,1,89.9999952316285
376,324,101176,1,0,0:0:0:0:
327,336,101312,2,0,P|275:328|243:288,1,89.9999952316285
224,277,101721,1,0,0:0:0:0:
160,242,101994,5,0,0:0:0:0:
196,224,102131,1,0,0:0:0:0:
222,206,102267,1,0,0:0:0:0:
222,170,102403,1,0,0:0:0:0:
209,136,102540,1,0,0:0:0:0:
183,110,102676,2,0,L|130:104,1,44.9999976158143
138,68,102949,6,0,P|100:95|80:146,1,89.9999952316285
120,156,103358,1,0,0:0:0:0:
132,184,103495,2,0,P|141:246|131:279,1,89.9999952316285
108,296,103904,2,0,B|196:278|304:347|468:264,1,359.999980926514
400,216,105131,6,0,P|320:229|302:222,1,89.9999952316285
392,148,105541,1,0,0:0:0:0:
321,137,105677,2,0,P|271:131|259:135,1,44.9999976158143
213,97,106086,2,0,P|178:124|126:115,1,89.9999952316285
108,145,106495,6,0,L|117:202,1,44.9999976158143
140,215,106768,2,0,L|150:265,1,44.9999976158143
174,284,107041,1,0,0:0:0:0:
200,248,107177,1,0,0:0:0:0:
212,223,107314,6,0,P|248:200|309:207,1,89.9999952316285
271,268,107859,1,0,0:0:0:0:
305,277,107996,2,0,P|363:244|375:210,1,89.9999952316285
404,209,108405,6,0,B|319:204|306:137|331:87|331:87|284:116|241:79,1,269.999985694885
206,80,109360,1,0,0:0:0:0:
171,69,109496,6,0,P|183:134|171:169,1,89.9999952316285
136,88,109905,1,0,0:0:0:0:
112,122,110042,2,0,B|71:154|71:154|61:199,1,89.9999952316285
71,226,110451,2,0,P|156:222|171:235,1,89.9999952316285
164,272,110860,5,0,0:0:0:0:
206,272,110996,1,0,0:0:0:0:
231,246,111133,1,0,0:0:0:0:
248,214,111269,1,0,0:0:0:0:
255,178,111405,1,0,0:0:0:0:
247,142,111542,1,0,0:0:0:0:
231,109,111678,6,0,P|151:114|128:103,1,89.9999952316285
116,52,112087,1,0,0:0:0:0:
182,49,112224,2,0,P|223:35|242:34,1,44.9999976158143
249,60,112497,1,0,0:0:0:0:
283,68,112633,6,0,P|352:126|219:251,1,314.9999833107
267,164,113861,6,0,P|211:155|146:193,2,134.999997997284
316,200,114543,1,0,0:0:0:0:
296,244,114679,1,0,0:0:0:0:
256,280,114815,1,0,0:0:0:0:
224,239,114952,6,0,L|240:320,3,67.499998998642
160,212,115429,6,0,L|136:277,3,67.499998998642
252,248,116043,6,0,B|229:141|229:141|267:160,2,134.999997997284
340,256,116725,1,0,0:0:0:0:
252,308,116861,1,0,0:0:0:0:
160,236,116998,1,0,0:0:0:0:
229,207,117134,6,0,L|288:156,3,67.499998998642
264,248,117611,6,0,L|323:197,3,67.499998998642
240,272,118089,1,0,0:0:0:0:
209,279,118225,6,0,P|165:245|167:166,2,134.999997997284
340,288,119044,1,0,0:0:0:0:
272,252,119180,1,0,0:0:0:0:
231,208,119316,6,0,L|314:144,3,89.999998664856
304,252,119998,1,0,0:0:0:0:
360,304,120135,1,0,0:0:0:0:
424,236,120271,1,0,0:0:0:0:
378,171,120408,6,0,P|361:103|292:75,2,134.999997997284
312,232,121089,1,0,0:0:0:0:
268,248,121158,2,0,P|252:192|208:180,1,101.249998497963
168,132,121499,6,0,B|206:124|234:92|234:92|371:84|371:84|343:132,1,269.999995994568
328,132,122112,2,0,B|364:88|364:88|304:60|228:84,1,168.749997496605
321,54,122590,5,0,0:0:0:0:
321,54,122863,2,0,L|304:126,1,67.499998998642
369,214,123135,2,0,L|297:197,1,67.499998998642
209,262,123408,2,0,L|226:190,1,67.499998998642
160,96,123681,5,0,0:0:0:0:
160,96,123954,2,0,P|214:92|246:108,1,67.499998998642
194,226,124227,2,0,P|190:172|206:140,1,67.499998998642
324,191,124499,2,0,P|270:195|238:179,1,67.499998998642
287,62,124772,6,0,P|291:116|275:148,1,67.499998998642
354,21,125045,2,0,P|371:77|371:107,1,67.499998998642
445,140,125318,1,0,0:0:0:0:
366,179,125454,2,0,P|402:219|435:234,1,67.499998998642
496,212,125727,1,0,0:0:0:0:
371,85,125863,5,0,0:0:0:0:
371,85,126136,1,0,0:0:0:0:
371,85,126409,1,0,0:0:0:0:
371,85,126682,2,0,P|347:155|341:159,1,67.499998998642
296,98,126954,6,0,P|245:127|242:208,1,134.999997997284
306,168,127500,2,0,B|321:229|274:262|274:262|316:267,1,134.999997997284
371,250,127909,2,0,P|354:311|330:330,1,67.499998998642
286,336,128182,6,0,L|208:322,1,67.499998998642
200,245,128455,1,0,0:0:0:0:
141,308,128591,2,0,P|114:263|111:237,1,67.499998998642
153,176,128864,2,0,P|115:166|67:179,1,67.499998998642
31,231,129137,6,0,P|37:293|81:366,1,134.999997997284
100,73,129682,2,0,P|78:132|82:158,1,67.499998998642
202,88,129955,2,0,P|154:116|143:138,1,67.499998998642
256,348,131319,6,0,P|218:281|153:256,1,134.999997997284
165,341,131728,1,0,0:0:0:0:
256,36,132410,6,0,P|294:103|359:128,1,134.999997997284
347,43,132819,1,0,0:0:0:0:
381,283,133229,1,0,0:0:0:0:
256,348,133501,6,0,P|218:281|153:256,1,134.999997997284
165,341,133910,1,0,0:0:0:0:
256,36,134592,6,0,P|294:103|359:128,1,134.999997997284
347,43,135001,1,0,0:0:0:0:
381,283,135411,1,0,0:0:0:0:
290,197,135547,1,0,0:0:0:0:
253,343,135684,6,0,P|216:293|190:285,1,67.499998998642
144,312,135888,2,0,P|138:279|159:241,1,67.499998998642
213,202,136093,2,0,L|253:202,1,33.749999499321
105,189,136229,6,0,P|155:152|163:126,1,67.499998998642
136,80,136433,2,0,P|169:74|207:95,1,67.499998998642
246,149,136638,2,0,L|246:189,1,33.749999499321
259,41,136775,6,0,P|296:91|322:99,1,67.499998998642
368,72,136979,2,0,P|374:105|353:143,1,67.499998998642
299,182,137184,2,0,L|259:182,1,33.749999499321
407,195,137320,6,0,P|357:232|349:258,1,67.499998998642
376,304,137524,2,0,P|343:310|305:289,1,67.499998998642
266,235,137729,2,0,L|266:195,1,33.749999499321
253,343,137866,6,0,P|230:309|196:289,1,67.499998998642
135,326,138002,2,0,P|136:247|160:220,1,67.499998998642
200,222,138139,2,0,P|166:192|120:180,1,67.499998998642
71,208,138275,2,0,P|49:273|52:298,1,67.499998998642
97,165,138412,6,0,L|130:140,1,33.749999499321
128,128,138480,2,0,L|170:97,1,33.749999499321
174,119,138548,2,0,L|214:91,1,33.749999499321
223,127,138616,2,0,L|261:95,1,33.749999499321
260,147,138684,6,0,L|298:115,1,33.749999499321
279,195,138753,2,0,L|317:163,1,33.749999499321
276,244,138821,2,0,L|319:204,1,33.749999499321
257,287,138889,2,0,L|301:255,1,33.749999499321
384,216,139094,5,0,0:0:0:0:
384,216,139366,1,0,0:0:0:0:
384,216,139639,1,0,0:0:0:0:
364,48,139912,5,8,0:0:0:0:
364,136,140048,5,8,0:0:0:0:
364,228,140185,5,8,0:0:0:0:
364,316,140321,5,8,0:0:0:0:
288,312,140458,5,8,0:0:0:0:
288,224,140594,5,8,0:0:0:0:
288,132,140731,5,8,0:0:0:0:
288,44,140867,5,8,0:0:0:0:
208,40,141003,5,8,0:0:0:0:
208,128,141139,5,8,0:0:0:0:
208,220,141276,5,8,0:0:0:0:
208,308,141412,5,8,0:0:0:0:
132,304,141549,5,8,0:0:0:0:
132,216,141685,5,8,0:0:0:0:
132,124,141822,5,8,0:0:0:0:
132,36,141958,5,8,0:0:0:0:
56,192,142094,5,8,0:0:0:0:
80,252,142162,6,0,P|180:316|352:296,1,269.999985694885
56,192,142572,5,8,0:0:0:0:
104,56,142709,5,8,0:0:0:0:
392,176,142845,5,8,0:0:0:0:
340,52,142981,5,8,0:0:0:0:
220,84,143185,6,8,L|316:152,1,89.9999952316285
216,152,143322,6,8,L|312:220,1,89.9999952316285
216,216,143458,6,8,L|312:284,1,89.9999952316285
212,272,143595,6,8,L|308:340,1,89.9999952316285
285,324,143731,6,8,L|212:272,1,89.9999952316285
289,268,143868,6,8,L|216:216,1,89.9999952316285
289,204,144004,6,8,L|216:152,1,89.9999952316285
293,136,144141,6,8,L|220:84,1,89.9999952316285
440,200,144277,6,8,L|264:312,1,179.999990463257
440,200,144549,6,8,L|328:344,1,179.999990463257
440,200,144822,6,8,L|384:372,1,179.999990463257
440,200,145095,6,8,L|328:344,1,179.999990463257
144,44,145368,6,8,L|312:176,1,179.999990463257
144,44,145640,6,8,L|216:208,1,179.999990463257
144,44,145913,6,8,L|116:232,1,179.999990463257
144,44,146186,6,8,L|40:192,1,179.999990463257
136,256,146459,6,8,P|180:352|280:364,1,179.999990463257
320,312,146732,6,8,P|416:268|428:168,1,179.999990463257
376,128,147004,6,8,P|332:32|232:20,1,179.999990463257
192,72,147277,6,8,P|96:116|84:216,2,179.999990463257
266,12,147686,6,8,P|347:45|376:128,1,179.999990463257
435,202,147959,6,8,P|402:283|320:312,1,179.999990463257
245,371,148232,6,8,P|164:338|136:256,1,179.999990463257
304,292,148505,6,0,P|340:188|220:156,1,179.999990463257
168,160,148778,5,8,0:0:0:0:
168,160,148846,1,8,0:0:0:0:
168,160,148914,5,8,0:0:0:0:
320,280,149050,5,8,0:0:0:0:
320,280,149118,1,8,0:0:0:0:
320,280,149186,5,8,0:0:0:0:
328,152,149323,5,8,0:0:0:0:
328,152,149391,1,8,0:0:0:0:
328,152,149459,5,8,0:0:0:0:
180,280,149596,5,8,0:0:0:0:
180,280,149664,1,8,0:0:0:0:
180,280,149732,5,8,0:0:0:0:
180,280,149869,5,8,0:0:0:0:
180,280,149937,1,8,0:0:0:0:
180,280,150005,5,8,0:0:0:0:
328,152,150142,5,8,0:0:0:0:
328,152,150210,1,8,0:0:0:0:
328,152,150278,5,8,0:0:0:0:
320,280,150415,5,8,0:0:0:0:
320,280,150483,1,8,0:0:0:0:
320,280,150551,5,8,0:0:0:0:
168,160,150687,5,8,0:0:0:0:
168,160,150755,1,8,0:0:0:0:
168,160,150823,5,8,0:0:0:0:
136,280,150960,5,8,0:0:0:0:
136,244,151028,5,8,0:0:0:0:
136,208,151096,1,8,0:0:0:0:
208,312,151233,5,8,0:0:0:0:
172,312,151301,5,8,0:0:0:0:
136,312,151369,1,8,0:0:0:0:
344,312,151506,5,8,0:0:0:0:
308,312,151574,5,8,0:0:0:0:
272,312,151642,1,8,0:0:0:0:
376,240,151778,5,8,0:0:0:0:
376,276,151846,5,8,0:0:0:0:
376,312,151914,1,8,0:0:0:0:
376,104,152051,5,8,0:0:0:0:
376,140,152119,5,8,0:0:0:0:
376,176,152187,1,8,0:0:0:0:
136,72,152324,5,8,0:0:0:0:
232,232,152460,1,8,0:0:0:0:
296,80,152597,1,8,0:0:0:0:
392,352,152733,1,8,0:0:0:0:
92,180,152869,1,8,0:0:0:0:
452,56,153006,1,8,0:0:0:0:
232,276,153142,1,8,0:0:0:0:
384,208,153279,6,8,P|456:132|396:92,1,179.999990463257
168,264,153483,6,8,P|232:312|328:252,1,179.999990463257
184,76,153688,6,8,P|96:144|132:208,1,179.999990463257
416,164,153892,6,8,P|368:80|260:72,1,179.999990463257
291,62,154097,6,8,P|376:86|416:164,1,179.999990463257
113,192,154301,6,8,P|106:108|184:76,1,179.999990463257
316,275,154506,6,8,P|238:312|168:264,1,179.999990463257
421,95,154710,6,8,P|456:169|384:208,4,179.999990463257
412,316,155325,6,8,P|328:368|276:316,1,179.999990463257
216,320,155529,6,8,P|132:372|80:320,1,179.999990463257
132,348,155734,6,8,P|80:264|132:212,1,179.999990463257
128,152,155938,6,8,P|76:68|128:16,1,179.999990463257
100,68,156143,6,8,P|184:16|236:68,1,179.999990463257
296,64,156347,6,8,P|380:12|432:64,1,179.999990463257
296,64,156620,6,8,P|380:12|432:64,1,179.999990463257
296,64,156893,6,8,P|380:12|432:64,1,179.999990463257
296,64,157166,6,8,P|380:12|432:64,1,179.999990463257
256,148,157507,5,8,0:0:0:0:
256,232,157643,1,8,0:0:0:0:
285,160,157780,5,8,0:0:0:0:
226,219,157916,1,8,0:0:0:0:
300,192,158052,5,8,0:0:0:0:
216,192,158188,1,8,0:0:0:0:
287,221,158325,5,8,0:0:0:0:
228,162,158461,1,8,0:0:0:0:
256,104,158598,5,8,0:0:0:0:
256,264,158734,1,8,0:0:0:0:
316,128,158871,5,8,0:0:0:0:
200,244,159007,1,8,0:0:0:0:
336,192,159143,5,8,0:0:0:0:
176,184,159279,1,8,0:0:0:0:
304,256,159416,5,8,0:0:0:0:
220,136,159552,1,8,0:0:0:0:
256,36,159689,5,8,0:0:0:0:
256,328,159826,1,8,0:0:0:0:
360,76,159962,5,8,0:0:0:0:
152,292,160098,1,8,0:0:0:0:
412,192,160235,5,8,0:0:0:0:
120,192,160372,1,8,0:0:0:0:
372,296,160508,5,8,0:0:0:0:
156,88,160644,1,8,0:0:0:0:
248,200,160780,6,8,P|344:184|448:100,1,179.999990463257
240,64,160985,6,8,L|320:104,1,89.9999952316285
220,120,161121,6,8,L|300:160,1,89.9999952316285
184,176,161258,6,8,L|264:216,1,89.9999952316285
144,220,161394,6,8,L|224:260,1,89.9999952316285
96,268,161531,6,8,L|176:308,1,89.9999952316285
36,312,161667,6,8,L|116:352,1,89.9999952316285
156,88,161871,5,8,0:0:0:0:
372,296,162007,1,8,0:0:0:0:
120,192,162143,5,8,0:0:0:0:
412,192,162280,1,8,0:0:0:0:
152,292,162417,5,8,0:0:0:0:
360,76,162553,1,8,0:0:0:0:
256,328,162689,5,8,0:0:0:0:
256,36,162826,1,8,0:0:0:0:
220,136,162963,5,8,0:0:0:0:
304,256,163099,1,8,0:0:0:0:
176,184,163236,5,8,0:0:0:0:
336,192,163372,1,8,0:0:0:0:
200,244,163508,5,8,0:0:0:0:
316,128,163644,1,8,0:0:0:0:
256,264,163781,5,8,0:0:0:0:
256,104,163917,1,8,0:0:0:0:
228,162,164054,5,8,0:0:0:0:
287,221,164190,1,8,0:0:0:0:
216,192,164327,5,8,0:0:0:0:
300,192,164463,1,8,0:0:0:0:
226,219,164599,5,8,0:0:0:0:
285,160,164735,1,8,0:0:0:0:
256,232,164872,5,8,0:0:0:0:
256,148,165008,1,8,0:0:0:0:
240,272,165145,6,8,P|360:300|400:232,1,179.999990463257
400,236,165350,6,8,L|452:48,1,179.999990463257
420,56,165554,6,8,L|204:88,1,179.999990463257
228,168,165759,6,8,B|454:198|454:198|484:220|484:220|380:260,1,359.999980926514
344,192,166236,5,8,0:0:0:0:
180,188,166373,5,8,0:0:0:0:
312,304,166509,5,8,0:0:0:0:
268,108,166645,5,8,0:0:0:0:
224,288,166782,5,8,0:0:0:0:
256,280,166918,5,8,0:0:0:0:
260,116,167055,5,8,0:0:0:0:
144,248,167191,5,8,0:0:0:0:
340,204,167327,5,8,0:0:0:0:
160,160,167464,5,8,0:0:0:0:
256,280,167600,5,8,0:0:0:0:
260,116,167737,5,8,0:0:0:0:
144,248,167873,5,8,0:0:0:0:
340,204,168009,5,8,0:0:0:0:
160,160,168146,5,8,0:0:0:0:
400,88,168282,5,8,0:0:0:0:
400,88,168418,1,8,0:0:0:0:
400,88,168555,1,8,0:0:0:0:
400,88,168691,1,8,0:0:0:0:
76,176,168828,5,8,0:0:0:0:
404,88,168964,1,8,0:0:0:0:
232,352,169100,5,8,0:0:0:0:
404,92,169237,1,8,0:0:0:0:
140,252,169373,2,8,P|232:296|272:284,1,89.9999952316285
460,344,169782,5,8,0:0:0:0:
356,24,169919,1,8,0:0:0:0:
64,344,170055,5,8,0:0:0:0:
168,24,170192,1,8,0:0:0:0:
256,352,170328,5,8,0:0:0:0:
256,24,170465,1,8,0:0:0:0:
420,280,170601,6,8,P|420:92|304:92,2,269.999985694885
340,320,171078,6,8,P|56:220|112:112,1,449.999976158143
24,168,171487,2,8,L|128:184,1,89.9999952316285
344,128,171624,6,2,L|288:224,1,89.9999952316285
184,280,171760,6,2,L|244:184,1,89.9999952316285
368,172,171896,6,2,L|320:260,1,89.9999952316285
236,276,172033,6,2,L|292:200,1,89.9999952316285
192,128,172169,6,2,L|139:201,1,89.9999952316285
268,128,172306,6,2,L|312:49,1,89.9999952316285
232,160,172442,6,2,L|185:237,1,89.9999952316285
224,96,172578,6,2,L|270:19,1,89.9999952316285
184,60,172715,6,0,B|88:80|88:80|176:164|176:164|240:72|240:72,1,269.999985694885
388,120,173056,6,0,B|368:24|368:24|284:112|284:112|376:176|376:176,1,269.999985694885
328,324,173397,6,0,B|424:304|424:304|336:220|336:220|272:312|272:312,1,269.999985694885
124,264,173738,6,0,P|144:360|144:360,1,89.9999952316285
216,336,173874,6,0,B|232:236|232:236|144:200|144:200|272:184|272:184|148:152|148:152|280:140|280:140|152:112|152:112|288:96|288:96|236:60,1,899.999952316285
272,68,174624,6,0,B|416:96|416:96|336:152|336:152|416:208|416:208|364:200,1,359.999980926514
256,192,174965,12,0,192628,0:0:0:0:
272,220,192901,6,14,P|360:156|184:160,1,449.999988079071
228,208,193515,6,14,P|292:296|288:120,1,449.999988079071
240,164,194061,6,14,P|152:228|328:224,1,449.999988079071
284,176,194538,6,14,L|220:88,1,89.9999952316285
240,164,194811,6,14,L|152:228,1,89.9999952316285
292,296,195084,6,14,L|288:120,1,89.9999952316285
272,220,195288,6,14,L|360:156,1,89.9999952316285
220,88,195561,6,14,L|224:264,1,89.9999952316285
240,164,195766,6,14,L|152:228,1,89.9999952316285
228,208,195970,6,14,L|292:296,1,89.9999952316285
272,220,196175,6,14,L|360:156,1,89.9999952316285
284,176,196379,6,14,L|220:88,1,89.9999952316285
240,164,196584,6,14,L|152:228,1,89.9999952316285
228,208,196789,6,14,L|292:296,1,89.9999952316285
188,96,197607,6,14,P|268:40|392:136,1,269.999992847443
324,288,198084,2,14,P|244:344|120:248,1,269.999992847443
188,96,198562,6,14,P|268:40|392:136,1,269.999992847443
364,308,199039,2,14,B|244:344|-32:392|208:136,1,449.999976158143
256,192,200539,12,0,202516,0:0:0:0:
256,192,202585,5,14,0:0:0:0:
260,192,202653,1,14,0:0:0:0:
264,192,202722,1,0,0:0:0:0:
