osu file format v14

[General]
AudioFilename: audio.mp3
AudioLeadIn: 0
PreviewTime: 42679
Countdown: 0
SampleSet: Normal
StackLeniency: 0.7
Mode: 1
LetterboxInBreaks: 0
WidescreenStoryboard: 1

[Editor]
DistanceSpacing: 1.1
BeatDivisor: 4
GridSize: 32
TimelineZoom: 2.699999

[Metadata]
Title:In the soil, daily life with a sardine
TitleUnicode:土屋的イワシがくる生活
Artist:SakiZ
ArtistUnicode:SakiZ
Creator:skolodojko
Version:Oni
Source:
Tags:At the Ryugu, Daily Life on Turtle Back ころんば イワシがつちからはえてくるんだ Iwashi ga Tsuchi kara Haete Kurunda Kasane Teto UTAU castle goemon's great adventure goemons Japanese Electronic otoMAD 音MAD MAD tasuke912
BeatmapID:2920204
BeatmapSetID:1417185

[Difficulty]
HPDrainRate:6.5
CircleSize:2
OverallDifficulty:5.5
ApproachRate:10
SliderMultiplier:1.4
SliderTickRate:1

[Events]
//Background and Video events
0,0,"Sardine.png",0,-80
//Break Periods
//Storyboard Layer 0 (Background)
//Storyboard Layer 1 (Fail)
//Storyboard Layer 2 (Pass)
//Storyboard Layer 3 (Foreground)
//Storyboard Layer 4 (Overlay)
//Storyboard Sound Samples

[TimingPoints]
113,447.761194029851,4,1,0,40,1,0
113,-111.666666674111,4,1,0,40,0,0
336,-106.951871657754,4,1,0,40,0,0
560,-103.076923473373,4,1,0,40,0,0
784,-100.502512562814,4,1,0,40,0,0
1009,396.694214876033,4,1,0,40,1,8
1009,-108.000000108,4,1,0,40,0,8
1207,-104.166666666667,4,1,0,40,0,0
1405,-100.833337114583,4,1,0,40,0,8
1792,358.208955223881,4,1,0,40,1,0
1792,-104.687596508878,4,1,0,40,0,8
1971,-101.522842639594,4,1,0,40,0,0
2150,-98.5294479887676,4,1,0,40,0,8
2329,-96.6183574879227,4,1,0,40,0,0
2512,326.086956521739,4,1,0,40,1,8
2512,-102.222313086501,4,1,0,40,0,8
2675,-99.502487562189,4,1,0,40,0,0
2838,-96.8429207824908,4,1,0,40,0,8
3154,300,4,1,0,80,1,0
3754,-99.009900990099,4,1,0,80,0,0
3829,-98.0392156862745,4,1,0,80,0,0
3904,-97.0873786407767,4,1,0,80,0,0
3979,-96.1538461538461,4,1,0,80,0,0
4054,-95.2380952380952,4,1,0,80,0,0
4204,-94.3396226415094,4,1,0,80,0,0
4279,-93.4579439252336,4,1,0,80,0,0
4354,-92.5925925925926,4,1,0,80,0,0
4916,-105.263157894737,4,1,0,70,0,0
5029,-104.166666666667,4,1,0,70,0,0
5104,-103.092783505155,4,1,0,70,0,0
5179,-102.040816326531,4,1,0,70,0,0
5254,-101.010101010101,4,1,0,70,0,0
5516,-100,4,1,0,80,0,0
9754,-101.010101010101,4,1,0,80,0,0
9829,-102.040816326531,4,1,0,80,0,0
9904,-103.092783505155,4,1,0,80,0,0
9979,-104.166666666667,4,1,0,80,0,0
10054,-105.263157894737,4,1,0,80,0,0
10204,-106.382978723404,4,1,0,80,0,0
10354,-100,4,1,0,80,0,0
18754,-99.009900990099,4,1,0,80,0,0
18829,-98.0392156862745,4,1,0,80,0,0
18904,-97.0873786407767,4,1,0,80,0,0
18979,-96.1538461538461,4,1,0,80,0,0
19054,-95.2380952380952,4,1,0,80,0,0
19204,-94.3396226415094,4,1,0,80,0,0
19354,-95.2380952380952,4,1,0,80,0,0
19429,-96.1538461538461,4,1,0,80,0,0
19504,-97.0873786407767,4,1,0,80,0,0
19654,-98.0392156862745,4,1,0,80,0,0
19729,-99.009900990099,4,1,0,80,0,0
23104,-99.009900990099,4,1,0,80,0,0
23179,-98.0392156862745,4,1,0,80,0,0
23254,-97.0873786407767,4,1,0,80,0,0
23404,-96.1538461538461,4,1,0,80,0,0
23554,-95.2380952380952,4,1,0,80,0,0
24079,-105.263157894737,4,1,0,60,0,0
24304,-104.166666666667,4,1,0,60,0,0
24379,-103.092783505155,4,1,0,60,0,0
24454,-102.040816326531,4,1,0,60,0,0
24604,-101.010101010101,4,1,0,60,0,0
24716,-100,4,1,0,80,0,0
26854,-99.009900990099,4,1,0,80,0,0
27004,-98.0392156862745,4,1,0,80,0,0
27079,-97.0873786407767,4,1,0,80,0,0
27154,-96.1538461538461,4,1,0,80,0,0
33754,-97.0873786407767,4,1,0,80,0,0
33904,-98.0392156862745,4,1,0,80,0,0
33979,-99.009900990099,4,1,0,80,0,0
34054,-100,4,1,0,80,0,0
34204,-101.010101010101,4,1,0,80,0,0
34354,-102.040816326531,4,1,0,80,0,0
34616,-111.111111111111,4,1,0,65,0,0
36604,-108.695652173913,4,1,0,65,0,0
36716,-106.382978723404,4,1,0,70,0,0
37804,-105.263157894737,4,1,0,70,0,0
37879,-104.166666666667,4,1,0,70,0,0
37954,-103.092783505155,4,1,0,70,0,0
38104,-102.040816326531,4,1,0,70,0,0
38179,-101.010101010101,4,1,0,70,0,0
38254,-100,4,1,0,70,0,0
38629,-101.010101010101,4,1,0,70,0,0
38704,-102.040816326531,4,1,0,70,0,0
38779,-103.092783505155,4,1,0,70,0,0
38854,-104.166666666667,4,1,0,70,0,0
38929,-105.263157894737,4,1,0,70,0,0
39004,-106.382978723404,4,1,0,70,0,0
39116,-104.166666666667,4,1,0,80,0,0
42304,-102.040816326531,4,1,0,80,0,0
42454,-100,4,1,0,80,0,0
42604,-98.0392156862745,4,1,0,80,0,0
42754,-96.1538461538461,4,1,0,80,0,0
43429,-95.2380952380952,4,1,0,80,0,0
43504,-94.3396226415094,4,1,0,80,0,0
43579,-93.4579439252336,4,1,0,80,0,0
43654,-92.5925925925926,4,1,0,80,0,0
43804,-91.743119266055,4,1,0,80,0,0
43954,-90.9090909090909,4,1,0,80,0,1
48454,-90.9090909090909,4,1,0,80,0,0
48754,-90.9090909090909,4,1,0,80,0,1
52354,-90.9090909090909,4,1,0,80,0,0
52466,-91.743119266055,4,1,0,65,0,0
52579,-92.5925925925926,4,1,0,65,0,0
52654,-93.4579439252336,4,1,0,65,0,0
52804,-94.3396226415094,4,1,0,65,0,0
52954,-95.2380952380952,4,1,0,65,0,0
53029,-96.1538461538461,4,1,0,65,0,0
53104,-97.0873786407767,4,1,0,65,0,0
53179,-98.0392156862745,4,1,0,65,0,0
53254,-99.009900990099,4,1,0,65,0,0
53554,-100,4,1,0,65,0,0

[HitObjects]
224,245,113,5,0,0:0:0:0:
224,245,336,1,8,0:0:0:0:
224,245,560,1,0,0:0:0:0:
224,245,784,1,8,0:0:0:0:
224,245,1009,1,0,0:0:0:0:
224,245,1207,1,8,0:0:0:0:
224,245,1405,1,0,0:0:0:0:
224,245,1792,1,0,0:0:0:0:
224,245,1971,1,8,0:0:0:0:
224,245,2150,1,0,0:0:0:0:
224,245,2329,1,8,0:0:0:0:
224,245,2512,1,0,0:0:0:0:
224,245,2675,1,8,0:0:0:0:
224,245,2838,1,0,0:0:0:0:
224,245,3154,1,0,0:0:0:0:
224,245,3304,1,8,0:0:0:0:
296,216,3379,1,8,0:0:0:0:
214,255,3454,1,8,0:0:0:0:
224,245,3604,1,0,0:0:0:0:
224,245,3754,1,8,0:0:0:0:
286,216,3829,1,8,0:0:0:0:
224,245,3904,1,0,0:0:0:0:
286,216,3979,1,8,0:0:0:0:
224,245,4054,1,0,0:0:0:0:
224,245,4204,1,0,0:0:0:0:
364,278,4279,1,0,0:0:0:0:
224,245,4354,1,12,0:0:0:0:
284,261,4954,5,0,0:0:0:0:
284,261,5029,1,0,0:0:0:0:
284,261,5104,1,8,0:0:0:0:
284,261,5179,1,0,0:0:0:0:
341,220,5254,1,8,0:0:0:0:
328,232,5554,1,12,0:0:0:0:
206,221,5854,5,8,0:0:0:0:
189,142,6004,1,0,0:0:0:0:
241,187,6079,1,0,0:0:0:0:
189,142,6154,1,8,0:0:0:0:
189,142,6304,1,8,0:0:0:0:
189,142,6454,1,0,0:0:0:0:
189,142,6604,1,0,0:0:0:0:
189,142,6754,1,8,0:0:0:0:
189,142,6904,1,8,0:0:0:0:
241,187,6979,1,8,0:0:0:0:
189,142,7054,1,0,0:0:0:0:
189,142,7204,1,0,0:0:0:0:
189,142,7354,1,8,0:0:0:0:
189,142,7504,1,8,0:0:0:0:
241,187,7579,1,8,0:0:0:0:
189,142,7654,1,8,0:0:0:0:
189,142,7804,1,0,0:0:0:0:
189,142,7954,1,8,0:0:0:0:
189,142,8254,5,8,0:0:0:0:
189,142,8404,1,0,0:0:0:0:
189,142,8554,1,8,0:0:0:0:
189,142,8704,1,8,0:0:0:0:
236,212,8779,1,8,0:0:0:0:
189,142,8854,1,8,0:0:0:0:
189,142,9004,1,0,0:0:0:0:
189,142,9154,1,8,0:0:0:0:
189,142,9454,1,8,0:0:0:0:
189,142,9604,1,0,0:0:0:0:
189,142,9754,1,8,0:0:0:0:
236,212,9829,1,8,0:0:0:0:
189,142,9904,1,0,0:0:0:0:
236,212,9979,1,0,0:0:0:0:
189,142,10054,1,8,0:0:0:0:
189,142,10204,1,0,0:0:0:0:
189,142,10354,1,12,0:0:0:0:
189,142,10654,5,0,0:0:0:0:
189,142,10804,1,0,0:0:0:0:
189,142,10954,1,8,0:0:0:0:
189,142,11104,1,0,0:0:0:0:
298,141,11179,1,0,0:0:0:0:
189,142,11254,1,8,0:0:0:0:
189,142,11404,1,8,0:0:0:0:
189,142,11554,1,0,0:0:0:0:
189,142,11704,1,0,0:0:0:0:
193,147,11854,1,8,0:0:0:0:
298,141,11929,1,0,0:0:0:0:
193,147,12004,1,0,0:0:0:0:
193,147,12154,1,0,0:0:0:0:
193,147,12304,1,8,0:0:0:0:
183,148,12379,1,0,0:0:0:0:
193,147,12454,1,8,0:0:0:0:
193,147,12604,1,0,0:0:0:0:
193,147,12754,1,8,0:0:0:0:
193,147,12904,1,0,0:0:0:0:
193,147,13054,1,8,0:0:0:0:
221,181,13204,1,0,0:0:0:0:
221,181,13279,1,8,0:0:0:0:
193,147,13354,1,0,0:0:0:0:
193,147,13504,1,8,0:0:0:0:
292,143,13579,1,8,0:0:0:0:
193,147,13654,1,0,0:0:0:0:
283,186,13729,1,8,0:0:0:0:
193,147,13804,1,0,0:0:0:0:
248,261,13879,1,0,0:0:0:0:
193,147,13954,1,8,0:0:0:0:
193,147,14254,1,8,0:0:0:0:
193,147,14404,1,0,0:0:0:0:
193,147,14554,1,8,0:0:0:0:
193,147,14704,1,8,0:0:0:0:
193,147,14854,1,0,0:0:0:0:
193,147,15004,1,0,0:0:0:0:
193,147,15154,1,12,0:0:0:0:
193,147,15454,1,8,0:0:0:0:
193,147,15604,1,0,0:0:0:0:
281,213,15754,1,8,0:0:0:0:
281,213,15829,1,8,0:0:0:0:
281,213,15904,1,0,0:0:0:0:
281,213,15979,1,0,0:0:0:0:
281,213,16054,1,8,0:0:0:0:
186,247,16354,1,0,0:0:0:0:
186,247,16429,1,0,0:0:0:0:
186,247,16504,1,8,0:0:0:0:
186,247,16579,1,0,0:0:0:0:
186,247,16654,1,8,0:0:0:0:
186,247,16804,1,0,0:0:0:0:
186,247,16879,1,8,0:0:0:0:
188,130,17029,1,8,0:0:0:0:
188,130,17179,1,8,0:0:0:0:
188,130,17329,1,8,0:0:0:0:
210,168,17479,1,8,0:0:0:0:
240,138,17554,1,0,0:0:0:0:
249,189,17629,1,0,0:0:0:0:
250,197,17704,1,8,0:0:0:0:
246,199,17854,1,8,0:0:0:0:
246,199,18004,1,0,0:0:0:0:
246,199,18079,1,8,0:0:0:0:
249,198,18229,1,0,0:0:0:0:
249,198,18304,1,8,0:0:0:0:
243,198,18454,1,8,0:0:0:0:
243,198,18604,1,0,0:0:0:0:
246,199,18754,5,8,0:0:0:0:
246,199,18829,1,0,0:0:0:0:
246,199,18904,1,0,0:0:0:0:
246,199,18979,1,8,0:0:0:0:
241,199,19054,1,0,0:0:0:0:
241,199,19204,1,8,0:0:0:0:
241,199,19354,1,0,0:0:0:0:
243,198,19429,1,0,0:0:0:0:
243,198,19504,1,8,0:0:0:0:
241,199,19654,1,8,0:0:0:0:
235,146,19729,1,8,0:0:0:0:
241,199,19804,1,0,0:0:0:0:
241,199,19954,1,4,0:0:0:0:
240,190,20254,5,8,0:0:0:0:
233,180,20404,1,0,0:0:0:0:
233,180,20554,1,8,0:0:0:0:
251,131,20704,1,8,0:0:0:0:
213,200,20779,1,8,0:0:0:0:
251,131,20854,1,0,0:0:0:0:
251,131,21004,1,0,0:0:0:0:
251,131,21154,1,8,0:0:0:0:
195,145,21304,1,0,0:0:0:0:
195,145,21379,1,0,0:0:0:0:
251,131,21454,1,8,0:0:0:0:
251,131,21604,1,0,0:0:0:0:
251,131,21754,1,8,0:0:0:0:
251,131,21904,1,0,0:0:0:0:
235,230,21979,1,0,0:0:0:0:
251,131,22054,1,0,0:0:0:0:
228,233,22204,1,8,0:0:0:0:
251,131,22354,1,8,0:0:0:0:
251,131,22504,1,0,0:0:0:0:
215,234,22579,1,0,0:0:0:0:
251,131,22654,1,8,0:0:0:0:
218,240,22804,1,0,0:0:0:0:
251,131,22954,1,8,0:0:0:0:
374,218,23029,1,8,0:0:0:0:
251,131,23104,1,0,0:0:0:0:
323,215,23179,1,0,0:0:0:0:
251,131,23254,1,8,0:0:0:0:
323,215,23404,1,0,0:0:0:0:
323,215,23554,1,12,0:0:0:0:
238,167,24154,5,0,0:0:0:0:
238,167,24304,1,8,0:0:0:0:
352,177,24379,1,8,0:0:0:0:
238,167,24454,1,8,0:0:0:0:
238,167,24604,1,8,0:0:0:0:
238,167,24754,1,4,0:0:0:0:
238,167,24904,1,0,0:0:0:0:
238,167,25054,1,8,0:0:0:0:
303,170,25204,1,8,0:0:0:0:
303,170,25279,1,0,0:0:0:0:
238,167,25354,1,8,0:0:0:0:
238,167,25504,1,0,0:0:0:0:
238,167,25654,1,8,0:0:0:0:
238,167,25804,1,0,0:0:0:0:
238,167,25954,1,8,0:0:0:0:
238,167,26104,1,0,0:0:0:0:
303,170,26179,1,0,0:0:0:0:
238,167,26254,1,8,0:0:0:0:
238,167,26404,1,8,0:0:0:0:
238,167,26554,1,0,0:0:0:0:
238,167,26854,1,0,0:0:0:0:
334,252,27004,1,0,0:0:0:0:
334,252,27079,1,0,0:0:0:0:
238,167,27154,1,8,0:0:0:0:
238,167,27304,1,0,0:0:0:0:
238,167,27454,1,8,0:0:0:0:
327,176,27604,1,8,0:0:0:0:
326,187,27679,1,8,0:0:0:0:
238,167,27754,1,8,0:0:0:0:
238,167,27904,1,0,0:0:0:0:
238,167,28054,1,8,0:0:0:0:
238,167,28204,1,0,0:0:0:0:
238,167,28354,1,8,0:0:0:0:
238,167,28504,1,8,0:0:0:0:
238,167,28654,1,0,0:0:0:0:
238,167,28804,1,8,0:0:0:0:
326,194,28879,1,8,0:0:0:0:
238,167,28954,1,0,0:0:0:0:
238,167,29104,1,0,0:0:0:0:
323,199,29179,1,0,0:0:0:0:
323,199,29254,1,8,0:0:0:0:
326,194,29404,1,0,0:0:0:0:
238,167,29554,1,8,0:0:0:0:
238,167,29854,1,8,0:0:0:0:
238,167,30004,1,8,0:0:0:0:
320,116,30079,1,0,0:0:0:0:
238,167,30154,1,0,0:0:0:0:
238,167,30304,1,0,0:0:0:0:
238,167,30454,1,8,0:0:0:0:
238,167,30604,1,8,0:0:0:0:
278,181,30679,1,0,0:0:0:0:
238,167,30754,1,8,0:0:0:0:
238,167,30904,1,0,0:0:0:0:
238,167,31054,1,8,0:0:0:0:
271,179,31129,1,8,0:0:0:0:
238,167,31204,1,0,0:0:0:0:
271,179,31279,1,0,0:0:0:0:
238,167,31354,1,8,0:0:0:0:
238,167,31504,1,0,0:0:0:0:
238,167,31654,1,8,0:0:0:0:
238,167,31804,1,0,0:0:0:0:
238,167,31954,1,8,0:0:0:0:
238,167,32254,1,0,0:0:0:0:
238,167,32404,1,8,0:0:0:0:
270,179,32479,1,8,0:0:0:0:
238,167,32554,1,8,0:0:0:0:
238,167,32704,1,0,0:0:0:0:
270,179,32854,1,8,0:0:0:0:
270,191,32929,1,0,0:0:0:0:
270,191,33004,1,0,0:0:0:0:
267,194,33079,1,0,0:0:0:0:
238,167,33154,1,8,0:0:0:0:
238,167,33304,1,0,0:0:0:0:
238,167,33454,1,8,0:0:0:0:
238,167,33604,1,0,0:0:0:0:
238,167,33754,1,0,0:0:0:0:
238,167,33904,1,8,0:0:0:0:
270,191,33979,1,8,0:0:0:0:
238,167,34054,1,8,0:0:0:0:
238,167,34204,1,0,0:0:0:0:
244,170,34354,1,8,0:0:0:0:
324,201,34654,1,8,0:0:0:0:
324,201,34804,1,0,0:0:0:0:
324,201,34954,1,8,0:0:0:0:
324,201,35104,1,8,0:0:0:0:
324,201,35179,1,8,0:0:0:0:
324,201,35254,1,0,0:0:0:0:
324,201,35404,1,0,0:0:0:0:
324,201,35554,1,8,0:0:0:0:
316,206,35704,1,8,0:0:0:0:
316,206,35779,1,8,0:0:0:0:
316,206,35854,1,8,0:0:0:0:
316,206,36004,1,0,0:0:0:0:
316,206,36154,1,8,0:0:0:0:
316,206,36304,1,8,0:0:0:0:
316,206,36379,1,0,0:0:0:0:
159,119,36454,1,0,0:0:0:0:
101,187,36529,1,0,0:0:0:0:
316,206,36604,1,8,0:0:0:0:
308,196,36754,1,8,0:0:0:0:
158,250,36904,1,0,0:0:0:0:
158,250,36979,1,0,0:0:0:0:
158,250,37054,1,8,0:0:0:0:
209,258,37204,1,0,0:0:0:0:
209,258,37354,1,8,0:0:0:0:
209,268,37504,1,0,0:0:0:0:
206,267,37654,1,8,0:0:0:0:
217,178,37804,1,0,0:0:0:0:
217,178,37879,1,0,0:0:0:0:
217,178,37954,1,8,0:0:0:0:
295,208,38104,1,8,0:0:0:0:
295,208,38179,1,8,0:0:0:0:
295,208,38254,1,0,0:0:0:0:
290,202,38404,1,0,0:0:0:0:
290,202,38554,1,8,0:0:0:0:
106,223,38629,1,8,0:0:0:0:
290,202,38704,1,0,0:0:0:0:
295,208,38779,1,0,0:0:0:0:
295,208,38854,1,8,0:0:0:0:
163,237,38929,1,8,0:0:0:0:
295,208,39004,1,0,0:0:0:0:
295,208,39154,1,12,0:0:0:0:
222,268,39454,5,8,0:0:0:0:
222,268,39604,1,0,0:0:0:0:
181,199,39679,1,0,0:0:0:0:
222,268,39754,1,8,0:0:0:0:
222,268,39904,1,0,0:0:0:0:
262,118,39979,1,8,0:0:0:0:
222,268,40054,1,0,0:0:0:0:
222,268,40204,1,0,0:0:0:0:
222,268,40354,1,12,0:0:0:0:
222,268,40504,1,8,0:0:0:0:
222,268,40654,1,0,0:0:0:0:
222,268,40804,1,8,0:0:0:0:
222,268,40954,1,8,0:0:0:0:
222,268,41104,1,0,0:0:0:0:
313,216,41179,1,0,0:0:0:0:
222,268,41254,1,8,0:0:0:0:
222,268,41404,1,8,0:0:0:0:
427,104,41479,1,0,0:0:0:0:
222,268,41554,1,8,0:0:0:0:
219,149,41704,1,0,0:0:0:0:
222,268,41854,1,8,0:0:0:0:
273,155,42004,1,8,0:0:0:0:
268,164,42079,1,8,0:0:0:0:
222,268,42154,1,0,0:0:0:0:
222,268,42304,1,8,0:0:0:0:
222,268,42454,1,8,0:0:0:0:
368,152,42604,1,0,0:0:0:0:
222,268,42754,1,12,0:0:0:0:
277,222,43354,5,8,0:0:0:0:
277,222,43429,1,8,0:0:0:0:
277,222,43504,1,0,0:0:0:0:
277,222,43579,1,0,0:0:0:0:
339,201,43654,1,8,0:0:0:0:
339,201,43804,1,0,0:0:0:0:
339,201,43954,1,12,0:0:0:0:
295,276,44104,1,0,0:0:0:0:
218,253,44179,1,8,0:0:0:0:
218,253,44329,1,8,0:0:0:0:
211,256,44404,1,0,0:0:0:0:
211,257,44554,1,8,0:0:0:0:
214,240,44704,1,0,0:0:0:0:
214,240,44854,1,8,0:0:0:0:
214,240,45004,1,0,0:0:0:0:
216,163,45154,1,8,0:0:0:0:
213,182,45304,1,8,0:0:0:0:
212,182,45379,1,0,0:0:0:0:
212,182,45529,1,8,0:0:0:0:
212,182,45604,1,0,0:0:0:0:
212,182,45679,1,8,0:0:0:0:
212,182,45754,1,8,0:0:0:0:
179,196,45904,1,0,0:0:0:0:
179,196,46054,1,8,0:0:0:0:
256,152,46204,1,0,0:0:0:0:
179,196,46354,1,8,0:0:0:0:
287,168,46504,1,0,0:0:0:0:
237,148,46579,1,8,0:0:0:0:
247,122,46729,1,8,0:0:0:0:
239,128,46804,1,0,0:0:0:0:
238,180,46954,1,8,0:0:0:0:
234,192,47104,1,0,0:0:0:0:
234,192,47254,1,8,0:0:0:0:
234,192,47329,1,8,0:0:0:0:
234,192,47404,1,0,0:0:0:0:
234,192,47479,1,0,0:0:0:0:
233,192,47554,1,8,0:0:0:0:
211,235,47704,1,0,0:0:0:0:
211,235,47779,1,8,0:0:0:0:
211,235,47929,1,0,0:0:0:0:
211,235,48004,1,8,0:0:0:0:
194,122,48079,1,8,0:0:0:0:
211,235,48154,1,0,0:0:0:0:
204,241,48304,1,8,0:0:0:0:
204,241,48454,1,4,0:0:0:0:
163,238,48754,1,12,0:0:0:0:
163,238,48904,1,0,0:0:0:0:
163,238,48979,1,8,0:0:0:0:
163,238,49129,1,8,0:0:0:0:
161,245,49204,1,0,0:0:0:0:
163,238,49354,1,8,0:0:0:0:
191,215,49504,1,0,0:0:0:0:
191,216,49654,1,8,0:0:0:0:
191,216,49804,1,0,0:0:0:0:
191,216,49954,1,8,0:0:0:0:
185,224,50104,1,8,0:0:0:0:
185,224,50179,1,0,0:0:0:0:
185,224,50329,1,8,0:0:0:0:
185,223,50404,1,0,0:0:0:0:
203,185,50479,1,0,0:0:0:0:
296,247,50554,1,8,0:0:0:0:
214,239,50704,1,0,0:0:0:0:
386,172,50854,1,8,0:0:0:0:
140,117,51004,1,0,0:0:0:0:
379,181,51154,1,8,0:0:0:0:
251,212,51304,1,0,0:0:0:0:
192,234,51379,5,8,0:0:0:0:
246,124,51529,1,8,0:0:0:0:
293,249,51604,1,0,0:0:0:0:
238,159,51754,1,8,0:0:0:0:
293,249,51904,1,0,0:0:0:0:
238,159,52054,1,8,0:0:0:0:
238,159,52129,1,8,0:0:0:0:
238,159,52204,1,0,0:0:0:0:
238,166,52354,1,12,0:0:0:0:
252,89,52504,1,0,0:0:0:0:
252,89,52579,1,0,0:0:0:0:
252,89,52654,1,0,0:0:0:0:
252,89,52804,1,0,0:0:0:0:
245,223,52954,1,8,0:0:0:0:
245,223,53029,1,8,0:0:0:0:
245,223,53104,1,0,0:0:0:0:
245,223,53179,1,0,0:0:0:0:
245,223,53254,1,8,0:0:0:0:
162,208,53554,1,12,0:0:0:0:
