osu file format v14

[General]
AudioFilename: audio.mp3
AudioLeadIn: 0
PreviewTime: 42717
Countdown: 0
SampleSet: Soft
StackLeniency: 0.4
Mode: 0
LetterboxInBreaks: 0
WidescreenStoryboard: 0

[Editor]
DistanceSpacing: 0.3
BeatDivisor: 8
GridSize: 8
TimelineZoom: 4.699997

[Metadata]
Title:In the soil, daily life with a sardine
TitleUnicode:土屋的イワシがくる生活
Artist:SakiZ
ArtistUnicode:SakiZ
Creator:eiri-
Version:Yooh's Extra
Source:
Tags:Ayyri Djulus Yooh At the Ryugu, Daily Life on Turtle Back ころんば イワシがつちからはえてくるんだ Iwashi ga Tsuchi kara Haete Kurunda Kasane Teto UTAU Japanese Electronic MAD
BeatmapID:2233987
BeatmapSetID:1067029

[Difficulty]
HPDrainRate:6
CircleSize:3.8
OverallDifficulty:9
ApproachRate:9.2
SliderMultiplier:2.4
SliderTickRate:1

[Events]
//Background and Video events
0,0,"Sardine.png",0,0
Video,0,"Fish.avi"
//Break Periods
//Storyboard Layer 0 (Background)
//Storyboard Layer 1 (Fail)
//Storyboard Layer 2 (Pass)
//Storyboard Layer 3 (Foreground)
//Storyboard Layer 4 (Overlay)
//Storyboard Sound Samples

[TimingPoints]
76,447.761194029851,4,2,1,60,1,0
523,-200,4,2,1,60,0,0
859,-100,4,2,1,5,0,0
972,396.694214876033,4,2,1,60,1,0
972,-100,4,2,1,60,0,0
1368,-200,4,2,1,60,0,0
1665,-100,4,2,1,5,0,0
1755,358.208955223881,4,2,1,60,1,0
1755,-100,4,2,1,60,0,0
2113,-200,4,2,1,60,0,0
2381,-200,4,2,1,5,0,0
2475,326.086956521739,4,2,1,60,1,0
2475,-100,4,2,1,60,0,0
2801,-200,4,2,1,60,0,0
3045,-200,4,2,1,5,0,0
3117,300,4,2,1,60,1,0
3267,-100,4,2,1,60,0,0
4317,-100,4,2,1,70,0,0
5517,-100,4,2,1,70,0,0
9117,-83.3333333333333,4,2,1,70,0,0
10017,-83.3333333333333,4,2,1,70,0,0
10092,-83.3333333333333,4,2,1,65,0,0
10167,-83.3333333333333,4,2,1,60,0,0
10242,-83.3333333333333,4,2,1,55,0,0
10317,-100,4,2,1,70,0,0
14704,-100,4,2,1,5,0,0
14817,-100,4,2,1,70,0,0
14854,-100,4,2,1,5,0,0
14967,-100,4,2,1,70,0,0
15004,-100,4,2,1,5,0,0
15117,-100,4,2,1,70,0,0
16017,-76.9230769230769,4,2,1,70,0,0
16879,-76.9230769230769,4,2,1,5,0,0
16992,-76.9230769230769,4,2,1,70,0,0
17029,-76.9230769230769,4,2,1,5,0,0
17142,-76.9230769230769,4,2,1,70,0,0
17179,-76.9230769230769,4,2,1,5,0,0
17292,-76.9230769230769,4,2,1,70,0,0
17329,-76.9230769230769,4,2,1,5,0,0
17442,-76.9230769230769,4,2,1,70,0,0
18717,-100,4,2,1,70,0,0
19317,-100,4,2,1,70,0,1
19917,-100,4,2,1,70,0,0
22317,-83.3333333333333,4,2,1,70,0,0
23217,-100,4,2,1,70,0,0
23517,-100,4,2,1,70,0,0
23667,-100,4,2,1,70,0,0
23817,-100,4,2,1,60,0,0
23967,-100,4,2,1,55,0,0
24117,-100,4,2,1,55,0,0
24192,-100,4,2,1,60,0,0
24267,-100,4,2,1,65,0,0
24342,-100,4,2,1,70,0,0
24417,-100,4,2,1,70,0,0
29217,-100,4,2,1,70,0,1
29517,-100,4,2,1,70,0,0
34317,-100,4,2,1,70,0,0
39117,-100,4,2,1,70,0,0
41517,-100,4,2,1,70,0,0
42567,-100,4,2,1,70,0,0
42942,-100,4,2,1,5,0,0
43017,-100,4,2,1,70,0,0
43917,-100,4,2,1,70,0,1
48417,-100,4,2,1,70,0,0
48717,-100,4,2,1,70,0,1
52017,-80,4,2,1,70,0,1
52317,-100,4,2,1,60,0,0

[Colours]
Combo1 : 152,197,241
Combo2 : 245,154,245
Combo3 : 241,202,143
Combo4 : 181,238,147

[HitObjects]
151,44,76,22,0,P|164:102|154:161,1,120,10|0,0:0|0:0,0:0:0:0:
121,315,523,6,0,P|112:260|127:220,1,90,8|0,0:0|0:0,0:0:0:0:
190,274,972,38,0,L|317:281,1,120,10|0,0:0|0:0,0:0:0:0:
478,295,1368,22,0,L|384:289,1,90,8|0,0:0|0:0,0:0:0:0:
348,213,1755,22,0,L|476:205,1,120,10|0,0:0|0:0,0:0:0:0:
374,132,2113,6,0,L|284:136,1,90,8|0,0:0|0:0,0:0:0:0:
233,205,2475,38,0,P|205:147|218:83,1,120,10|0,0:0|0:0,0:0:0:0:
130,185,2801,22,0,P|87:196|45:182,1,90,8|0,0:0|0:0,0:0:0:0:
93,114,3117,5,10,0:0:0:0:
122,42,3267,2,0,P|93:32|65:39,2,60,2|2|2,0:0|0:0|1:2,0:0:0:0:
212,93,3567,1,2,0:0:0:0:
212,93,3642,1,2,0:0:0:0:
212,93,3717,1,10,0:0:0:0:
298,36,3867,1,10,0:0:0:0:
384,93,4017,2,2,L|385:122,6,30,2|0|0|0|2|0|10,1:2|1:0|1:0|1:0|1:2|0:0|0:0,0:1:0:0:
388,157,4317,21,14,0:0:0:0:
480,59,4467,1,2,0:0:0:0:
478,82,4542,1,2,0:0:0:0:
476,105,4617,2,0,B|473:133|473:133|476:153|476:153|469:235,1,120,2|2,0:0|0:0,0:0:0:0:
460,359,4917,1,10,0:0:0:0:
460,359,5067,1,10,0:0:0:0:
307,278,5217,2,2,L|262:281,6,30,10|0|0|0|0|0|0,0:0|0:0|0:0|0:0|0:0|0:0|0:0,0:1:0:0:
260,355,5517,6,0,L|139:346,1,120,14|0,0:0|0:0,0:0:0:0:
208,210,5817,1,2,1:2:0:0:
260,355,5967,1,2,0:0:0:0:
88,218,6117,6,0,L|209:209,1,120,10|2,0:0|0:0,0:0:0:0:
140,73,6417,1,2,1:2:0:0:
88,218,6567,1,2,0:0:0:0:
307,278,6717,6,0,L|428:287,1,120,10|2,0:0|0:0,0:0:0:0:
467,291,6942,1,2,0:0:0:0:
467,291,7017,1,2,1:2:0:0:
444,139,7167,1,2,0:0:0:0:
307,278,7317,1,10,0:0:0:0:
337,95,7467,1,0,0:0:0:0:
487,210,7617,1,2,1:2:0:0:
455,25,7767,1,2,0:0:0:0:
337,95,7917,6,0,L|215:87,1,120,10|0,0:0|0:0,0:0:0:0:
307,278,8217,2,0,B|428:270,1,120,2|2,1:2|0:0,0:0:0:0:
199,254,8517,5,10,0:0:0:0:
231,372,8667,1,2,0:0:0:0:
47,215,8817,1,2,1:2:0:0:
0,384,8967,1,0,0:0:0:0:
4,143,9117,6,0,B|70:108|82:168|157:119,1,143.999995605469,10|0,0:0|0:0,0:0:0:0:
209,30,9417,1,2,1:2:0:0:
199,254,9567,1,2,0:0:0:0:
271,116,9717,5,10,0:0:0:0:
331,98,9792,1,10,0:0:0:0:
395,99,9867,1,10,0:0:0:0:
455,82,9942,1,10,0:0:0:0:
512,66,10017,5,2,1:2:0:0:
497,99,10092,1,2,1:2:0:0:
499,135,10167,1,2,1:2:0:0:
490,170,10242,1,2,1:2:0:0:
481,205,10317,6,0,L|347:185,1,120,14|0,0:0|0:0,0:0:0:0:
253,321,10617,2,0,P|309:326|364:284,1,120,2|2,1:2|0:0,0:0:0:0:
258,176,10917,1,10,0:0:0:0:
258,176,11067,1,0,0:0:0:0:
78,239,11217,2,0,L|96:357,1,120,2|2,1:2|0:0,0:0:0:0:
153,189,11517,6,0,P|104:155|45:157,1,120,10|2,0:0|0:0,0:0:0:0:
171,268,11817,2,0,L|289:249,1,120,0|2,1:0|0:0,0:0:0:0:
435,228,12117,5,10,0:0:0:0:
261,58,12267,1,2,0:0:0:0:
261,58,12342,1,2,0:0:0:0:
261,58,12417,1,2,1:2:0:0:
289,249,12567,1,10,0:0:0:0:
470,107,12717,5,10,0:0:0:0:
239,139,12867,1,8,0:0:0:0:
423,266,13017,5,10,1:2:0:0:
191,234,13167,1,10,0:0:0:0:
261,58,13317,2,0,P|309:99|316:173,1,120,10|10,0:0|0:0,0:0:0:0:
213,351,13617,2,0,L|186:208,1,120,10|10,1:2|0:0,0:0:0:0:
67,86,13917,38,0,L|40:229,1,120,14|10,0:0|0:0,0:0:0:0:
19,333,14217,1,14,1:2:0:0:
176,158,14367,1,0,0:0:0:0:
44,203,14517,1,10,0:0:0:0:
115,356,14667,6,2,L|119:326,1,30,14|0,0:0|0:0,0:1:0:0:
163,84,14817,2,2,L|167:113,1,30,14|0,0:0|0:0,0:1:0:0:
191,234,14967,2,2,L|220:237,1,30,14|0,0:0|0:0,0:1:0:0:
414,263,15117,1,14,0:0:0:0:
332,330,15267,5,2,0:0:0:0:
309,294,15342,1,2,0:0:0:0:
303,252,15417,1,2,1:2:0:0:
315,213,15492,1,2,0:0:0:0:
343,182,15567,1,2,0:0:0:0:
381,165,15642,1,2,0:0:0:0:
404,129,15717,5,10,0:0:0:0:
417,84,15792,1,2,0:0:0:0:
400,40,15867,1,2,0:0:0:0:
361,16,15942,1,2,0:0:0:0:
314,21,16017,6,0,B|258:27|258:27|211:41|211:41|148:49,1,155.999992858887,2|0,1:2|0:0,0:0:0:0:
29,83,16317,5,10,0:0:0:0:
33,121,16392,1,2,0:0:0:0:
37,160,16467,1,2,0:0:0:0:
41,199,16542,1,2,0:0:0:0:
45,238,16617,1,2,1:2:0:0:
128,350,16767,5,2,0:0:0:0:
132,311,16842,2,0,L|137:263,1,38.9999982147218,2|0,0:0|0:0,0:0:0:0:
200,143,16992,38,0,L|204:181,1,38.9999982147218,2|0,0:0|0:0,0:0:0:0:
220,333,17142,2,0,L|258:328,1,38.9999982147218,2|0,0:0|0:0,0:0:0:0:
408,307,17292,2,0,L|403:268,1,38.9999982147218,2|0,0:0|0:0,0:0:0:0:
386,123,17442,5,2,0:0:0:0:
342,129,17517,5,10,0:0:0:0:
383,166,17592,1,2,0:0:0:0:
394,177,17667,1,2,0:0:0:0:
204,181,17817,5,2,1:2:0:0:
358,276,17967,5,2,0:0:0:0:
403,268,18042,1,2,0:0:0:0:
344,41,18192,21,2,0:0:0:0:
299,49,18267,1,2,0:0:0:0:
254,57,18342,1,2,0:0:0:0:
214,35,18417,1,2,1:2:0:0:
159,43,18492,1,2,0:0:0:0:
104,53,18567,2,0,B|60:50|60:50|17:70,1,77.9999964294435,2|2,0:0|0:0,0:0:0:0:
0,139,18717,6,0,L|7:202,1,60,10|0,0:0|0:0,0:0:0:0:
146,222,18867,1,2,0:0:0:0:
145,237,18942,1,2,0:0:0:0:
144,252,19017,6,0,L|136:315,1,60,0|2,1:0|0:0,0:0:0:0:
57,314,19167,2,0,L|63:254,1,60,2|0,0:0|0:0,0:0:0:0:
227,190,19317,5,10,0:0:0:0:
241,214,19392,1,10,0:0:0:0:
287,286,19467,5,10,0:0:0:0:
301,310,19542,1,10,0:0:0:0:
347,382,19617,37,2,1:2:0:0:
357,365,19692,1,2,0:0:0:0:
398,292,19767,5,2,1:2:0:0:
408,275,19842,1,2,0:0:0:0:
449,202,19917,6,0,L|297:185,1,120,14|0,0:0|0:0,0:0:0:0:
254,57,20217,2,0,L|373:43,1,120,2|2,1:2|0:0,0:0:0:0:
459,185,20517,2,0,L|339:171,1,120,10|2,0:0|0:0,0:0:0:0:
151,276,20817,1,2,1:2:0:0:
125,67,20967,1,2,0:0:0:0:
226,226,21117,5,10,0:0:0:0:
29,192,21267,1,2,0:0:0:0:
287,175,21417,2,0,P|309:231|285:285,1,120,2|0,1:2|0:0,0:0:0:0:
132,150,21717,21,10,0:0:0:0:
140,144,21867,2,0,L|128:213,1,60,2|2,0:0|0:0,0:0:0:0:
96,362,22017,37,2,1:2:0:0:
96,362,22167,1,10,0:0:0:0:
232,339,22317,22,0,L|380:309,1,143.999995605469,14|10,0:0|0:0,0:0:0:0:
507,138,22617,1,14,1:2:0:0:
464,342,22767,1,10,0:0:0:0:
459,318,22842,1,10,0:0:0:0:
441,243,22917,2,0,L|422:161,1,71.9999978027344,14|0,0:0|0:0,0:0:0:0:
392,32,23067,1,10,0:0:0:0:
337,191,23217,2,2,L|321:234,6,30,6|0|0|0|0|0|0,1:2|0:0|0:0|0:0|0:0|0:0|0:0,0:1:0:0:
305,111,23517,6,0,B|226:132|226:132|202:174,1,120,14|2,0:0|0:0,0:0:0:0:
167,250,23817,1,2,0:0:0:0:
122,64,23967,1,2,0:0:0:0:
16,170,24117,5,10,0:0:0:0:
39,165,24192,1,10,0:0:0:0:
62,160,24267,1,10,0:0:0:0:
85,155,24342,1,10,0:0:0:0:
131,144,24417,5,2,1:2:0:0:
165,136,24492,1,2,1:2:0:0:
223,123,24567,5,2,1:2:0:0:
257,115,24642,1,2,1:2:0:0:
316,104,24717,6,0,L|292:221,2,120,14|2|2,0:0|0:0|0:0,0:0:0:0:
439,39,25167,1,0,0:0:0:0:
467,167,25317,2,0,L|491:284,1,120,10|10,0:0|0:0,0:0:0:0:
388,367,25617,1,0,0:0:0:0:
402,235,25767,1,0,0:0:0:0:
273,257,25917,6,0,B|216:268|216:268|205:278|205:278|134:291,1,120,10|2,0:0|0:0,0:0:0:0:
129,293,26142,1,10,0:0:0:0:
98,299,26217,1,10,0:0:0:0:
125,117,26367,1,10,0:0:0:0:
181,366,26517,1,10,0:0:0:0:
421,81,26817,5,10,0:0:0:0:
342,295,26967,1,10,0:0:0:0:
322,141,27117,2,0,P|261:119|192:152,1,120,14|0,0:0|0:0,0:0:0:0:
79,224,27417,2,0,P|140:246|209:213,1,120,2|0,1:2|0:0,0:0:0:0:
126,39,27717,2,0,L|138:172,1,120,10|0,0:0|0:0,0:0:0:0:
272,322,28017,2,0,L|260:189,1,120,2|2,1:2|0:0,0:0:0:0:
261,202,28242,1,2,0:0:0:0:
261,202,28317,21,10,0:0:0:0:
482,250,28467,1,10,0:0:0:0:
272,322,28617,1,10,1:2:0:0:
324,113,28767,2,0,L|346:196,1,60,10|0,0:0|0:0,0:0:0:0:
362,245,28917,1,10,0:0:0:0:
369,273,28992,1,8,0:0:0:0:
376,301,29067,1,8,0:0:0:0:
382,329,29142,1,8,0:0:0:0:
388,357,29217,38,0,L|429:277,1,60,2|8,1:2|0:0,0:0:0:0:
491,172,29367,2,0,L|470:89,1,60,8|8,0:0|0:0,0:0:0:0:
327,30,29517,6,0,P|262:57|246:131,1,120,14|14,0:0|0:0,0:0:0:0:
233,254,29817,1,2,1:2:0:0:
168,47,29967,1,2,0:0:0:0:
128,263,30117,1,10,0:0:0:0:
324,113,30267,1,2,0:0:0:0:
14,143,30417,5,2,1:2:0:0:
228,164,30567,1,2,0:0:0:0:
19,275,30717,1,10,0:0:0:0:
233,254,30867,1,2,0:0:0:0:
233,254,30942,1,2,0:0:0:0:
233,254,31017,1,2,1:2:0:0:
148,122,31167,1,2,0:0:0:0:
275,325,31317,2,0,P|313:272|294:201,1,120,10|0,0:0|0:0,0:0:0:0:
130,261,31617,5,2,1:2:0:0:
372,330,31767,1,2,0:0:0:0:
332,132,31917,2,0,P|273:127|227:163,1,120,10|0,0:0|0:0,0:0:0:0:
391,241,32217,1,2,1:2:0:0:
462,62,32367,2,0,L|480:201,1,120,2|8,0:0|0:0,0:0:0:0:
299,208,32667,5,2,0:0:0:0:
299,208,32742,1,2,0:0:0:0:
299,208,32817,1,2,1:2:0:0:
381,34,32967,1,2,0:0:0:0:
511,174,33117,2,0,L|493:313,2,120,10|10|10,0:0|0:0|1:2,0:0:0:0:
481,376,33567,5,14,0:0:0:0:
257,47,33867,1,14,0:0:0:0:
31,376,34167,1,14,0:0:0:0:
162,292,34317,5,10,0:0:0:0:
285,303,34467,2,0,L|348:310,2,60,2|2|2,0:0|0:0|1:2,0:0:0:0:
136,312,34767,1,2,0:0:0:0:
310,281,34917,1,10,0:0:0:0:
232,201,35067,2,0,L|172:194,3,40,2|2|2|2,0:0|0:0|0:0|1:2,0:0:0:0:
366,188,35367,1,2,0:0:0:0:
288,82,35517,6,0,L|297:163,1,60,10|0,0:0|0:0,0:0:0:0:
189,104,35667,2,0,L|180:23,1,60,2|2,0:0|0:0,0:0:0:0:
322,100,35817,2,0,L|331:181,1,60,2|0,1:2|0:0,0:0:0:0:
154,84,35967,2,0,L|145:3,1,60,2|2,0:0|0:0,0:0:0:0:
168,258,36117,5,10,0:0:0:0:
78,139,36267,1,2,0:0:0:0:
73,174,36342,2,0,L|61:244,1,60,2|2,0:0|1:2,0:0:0:0:
258,306,36492,1,2,0:0:0:0:
253,271,36567,1,2,0:0:0:0:
248,236,36642,1,0,0:0:0:0:
243,201,36717,1,10,0:0:0:0:
390,258,36867,5,10,0:0:0:0:
395,223,36942,1,2,0:0:0:0:
400,188,37017,2,0,L|418:68,1,120,10|10,1:2|0:0,0:0:0:0:
493,191,37317,1,10,0:0:0:0:
316,156,37467,1,2,0:0:0:0:
489,27,37617,1,2,1:2:0:0:
276,69,37767,21,2,0:0:0:0:
263,72,37817,1,2,0:0:0:0:
250,75,37867,1,2,0:0:0:0:
237,78,37917,1,10,0:0:0:0:
82,188,38067,21,2,0:0:0:0:
104,194,38142,1,2,0:0:0:0:
125,199,38217,1,2,1:2:0:0:
335,245,38367,1,2,0:0:0:0:
212,377,38517,21,10,0:0:0:0:
217,354,38592,1,10,0:0:0:0:
225,312,38667,21,10,0:0:0:0:
230,289,38742,1,10,0:0:0:0:
238,247,38817,21,2,1:2:0:0:
243,224,38892,1,2,1:2:0:0:
251,182,38967,21,2,1:2:0:0:
256,159,39042,1,2,1:2:0:0:
264,117,39117,6,0,P|230:59|160:44,1,120,14|2,0:0|0:0,0:0:0:0:
63,148,39417,2,0,L|181:128,1,120,2|2,1:2|0:0,0:0:0:0:
397,49,39717,2,0,L|377:167,1,120,10|2,0:0|0:0,0:0:0:0:
376,167,39916,1,2,0:0:0:0:
376,167,39966,1,2,0:0:0:0:
376,167,40016,1,2,1:2:0:0:
346,366,40167,1,8,0:0:0:0:
472,297,40317,5,14,0:0:0:0:
247,334,40467,1,2,0:0:0:0:
446,223,40617,5,2,1:2:0:0:
221,186,40767,2,2,L|228:236,3,30,2|0|2|0,0:0|0:0|0:0|0:0,0:1:0:0:
230,242,40917,1,14,0:0:0:0:
201,40,41067,1,10,0:0:0:0:
201,40,41142,1,10,0:0:0:0:
201,40,41217,1,14,1:2:0:0:
20,263,41367,1,10,0:0:0:0:
53,40,41517,5,14,0:0:0:0:
137,302,41667,1,10,0:0:0:0:
209,133,41817,1,14,1:2:0:0:
237,274,41967,2,0,L|229:210,1,60,10|10,0:0|0:0,0:0:0:0:
215,118,42117,1,14,0:0:0:0:
415,294,42267,2,2,L|409:323,7,30,10|0|0|0|0|0|0|0,1:2|0:0|0:0|0:0|1:0|0:0|0:0|0:0,0:1:0:0:
405,345,42567,5,10,0:0:0:0:
434,210,42717,2,0,B|446:134|446:134|441:91|441:91|453:19,1,180,14|0,0:0|0:0,0:0:0:0:
450,32,43017,2,0,L|295:56,1,120,2|0,0:0|0:0,0:0:0:0:
186,181,43317,2,0,L|291:158,1,60,10|2,1:2|1:2,0:0:0:0:
246,23,43467,2,0,L|141:45,1,60,10|10,0:0|0:0,0:0:0:0:
107,109,43617,1,10,1:2:0:0:
132,104,43692,1,10,1:2:0:0:
199,165,43767,2,0,L|304:142,1,60,10|10,1:2|1:2,0:0:0:0:
328,203,43917,5,14,0:0:0:0:
413,253,44067,1,2,0:0:0:0:
425,299,44142,1,2,0:0:0:0:
386,125,44292,1,2,0:0:0:0:
374,79,44367,1,2,0:0:0:0:
253,264,44517,5,10,0:0:0:0:
286,50,44667,1,2,0:0:0:0:
257,243,44817,1,2,1:2:0:0:
283,69,44967,1,2,0:0:0:0:
171,235,45117,5,10,0:0:0:0:
224,165,45267,5,2,0:0:0:0:
266,155,45342,1,2,0:0:0:0:
233,129,45417,5,2,1:2:0:0:
156,146,45492,1,0,0:0:0:0:
80,163,45567,2,0,B|54:169|54:169|10:202,1,60,2|2,0:0|0:0,0:0:0:0:
98,283,45717,5,10,0:0:0:0:
72,109,45867,1,2,0:0:0:0:
102,304,46017,1,2,1:2:0:0:
69,90,46167,1,2,0:0:0:0:
198,262,46317,5,10,0:0:0:0:
321,305,46467,1,2,0:0:0:0:
327,263,46542,1,2,0:0:0:0:
467,293,46692,1,2,0:0:0:0:
473,335,46767,1,2,0:0:0:0:
339,222,46917,5,10,0:0:0:0:
337,32,47067,1,2,0:0:0:0:
432,91,47217,2,0,L|442:150,1,60,2|2,1:2|0:0,0:0:0:0:
461,252,47367,2,0,L|475:174,1,60,2|2,0:0|0:0,0:0:0:0:
499,8,47517,5,10,0:0:0:0:
337,32,47667,1,2,0:0:0:0:
331,74,47742,1,2,0:0:0:0:
325,116,47817,1,2,1:2:0:0:
254,157,47892,1,0,0:0:0:0:
212,151,47967,2,0,L|135:139,1,60,2|0,0:0|0:0,0:0:0:0:
319,158,48117,6,0,L|307:235,1,60,10|10,0:0|0:0,0:0:0:0:
264,375,48267,2,0,L|251:293,1,60,10|10,0:0|0:0,0:0:0:0:
209,20,48417,1,14,1:2:0:0:
149,329,48717,5,14,0:0:0:0:
104,253,48867,1,2,0:0:0:0:
63,243,48942,1,2,0:0:0:0:
215,277,49092,1,2,0:0:0:0:
255,288,49167,1,2,0:0:0:0:
107,175,49317,5,10,0:0:0:0:
251,206,49467,1,2,0:0:0:0:
107,175,49617,1,2,1:2:0:0:
251,206,49767,1,10,0:0:0:0:
394,144,49917,5,14,0:0:0:0:
512,244,50067,5,2,0:0:0:0:
501,205,50142,1,2,0:0:0:0:
458,197,50217,5,2,1:2:0:0:
479,272,50292,1,2,0:0:0:0:
500,346,50367,2,0,B|411:274,1,60,10|10,0:0|0:0,0:0:0:0:
338,216,50517,5,14,0:0:0:0:
371,60,50667,1,10,0:0:0:0:
332,313,50817,1,6,1:2:0:0:
285,94,50967,1,2,0:0:0:0:
215,277,51117,5,14,0:0:0:0:
174,126,51267,1,2,0:0:0:0:
162,80,51342,1,6,0:0:0:0:
47,185,51492,1,2,0:0:0:0:
35,231,51567,1,6,0:0:0:0:
234,190,51717,5,14,0:0:0:0:
60,82,51867,1,10,0:0:0:0:
61,327,52017,2,0,P|116:289|129:203,1,150,10|0,1:2|0:0,0:0:0:0:
286,316,52317,5,14,0:0:0:0:
393,262,52467,2,0,L|474:278,2,60,2|2|2,0:0|0:0|0:0,0:0:0:0:
315,169,52767,1,2,0:0:0:0:
371,352,52917,1,10,0:0:0:0:
494,205,53067,1,10,0:0:0:0:
353,172,53217,2,2,L|345:121,7,30,10|0|0|0|0|0|0|0,0:0|0:0|0:0|0:0|0:0|0:0|0:0|0:0,0:1:0:0:
355,186,53517,5,14,0:0:0:0:
