osu file format v14

[General]
AudioFilename: audio.mp3
AudioLeadIn: 0
PreviewTime: 42717
Countdown: 0
SampleSet: Soft
StackLeniency: 0.4
Mode: 0
LetterboxInBreaks: 0
WidescreenStoryboard: 1

[Editor]
Bookmarks: 76,5517,10317,15117,19917,24717,29517,34317,39117,43917,48417,48717,52317,53517
DistanceSpacing: 0.9
BeatDivisor: 4
GridSize: 32
TimelineZoom: 4.299998

[Metadata]
Title:In the soil, daily life with a sardine
TitleUnicode:土屋的イワシがくる生活
Artist:SakiZ
ArtistUnicode:SakiZ
Creator:eiri-
Version:Normal
Source:
Tags:Ayyri Djulus Yooh At the Ryugu, Daily Life on Turtle Back ころんば イワシがつちからはえてくるんだ Iwashi ga Tsuchi kara Haete Kurunda Kasane Teto UTAU Japanese Electronic MAD
BeatmapID:2234021
BeatmapSetID:1067029

[Difficulty]
HPDrainRate:3
CircleSize:3.5
OverallDifficulty:5
ApproachRate:6
SliderMultiplier:1
SliderTickRate:1

[Events]
//Background and Video events
0,0,"Sardine.png",0,0
Video,0,"Fish.avi"
//Break Periods
//Storyboard Layer 0 (Background)
//Storyboard Layer 1 (Fail)
//Storyboard Layer 2 (Pass)
//Storyboard Layer 3 (Foreground)
//Storyboard Layer 4 (Overlay)
//Storyboard Sound Samples

[TimingPoints]
76,447.761194029851,4,2,1,60,1,0
972,396.694214876033,4,2,1,60,1,0
1755,358.208955223881,4,2,1,60,1,0
2475,326.086956521739,4,2,1,60,1,0
3117,300,4,2,1,60,1,0
5517,-100,4,2,1,70,0,0
10017,-100,4,2,1,70,0,0
10167,-100,4,2,1,60,0,0
10317,-100,4,2,1,70,0,0
23517,-100,4,2,1,70,0,0
24117,-100,4,2,1,70,0,0
24267,-100,4,2,1,65,0,0
24417,-100,4,2,1,70,0,0
39117,-100,4,2,1,70,0,0
43917,-100,4,2,1,70,0,1
48417,-100,4,2,1,70,0,0
48717,-100,4,2,1,70,0,1
52317,-100,4,2,1,60,0,0

[Colours]
Combo1 : 152,197,241
Combo2 : 245,154,245
Combo3 : 241,202,143
Combo4 : 181,238,147

[HitObjects]
256,192,4317,5,14,0:0:0:0:
367,51,4917,1,10,0:0:0:0:
367,51,5067,1,10,0:0:0:0:
367,51,5217,2,0,L|299:64,1,50,10|0,0:0|0:0,0:0:0:0:
278,38,5517,6,0,L|162:18,1,100,14|2,0:0|1:2,0:0:0:0:
115,83,6117,2,0,L|127:156,1,50,10|2,0:0|0:0,0:0:0:0:
101,171,6417,2,0,L|113:244,1,50,2|2,1:2|0:0,0:0:0:0:
120,263,6717,5,10,0:0:0:0:
199,220,7017,1,2,1:2:0:0:
248,295,7317,2,0,L|365:305,1,100,10|2,0:0|1:2,0:0:0:0:
388,283,7767,1,2,0:0:0:0:
388,283,7917,6,0,B|359:236|359:236|377:177,1,100,10|2,0:0|1:2,0:0:0:0:
403,108,8517,1,10,0:0:0:0:
383,20,8817,1,2,1:2:0:0:
296,44,9117,2,0,L|184:34,1,100,10|2,0:0|1:2,0:0:0:0:
215,76,9567,1,2,0:0:0:0:
215,76,9717,2,0,B|203:175|203:175|183:195|152:206,1,150,10|2,0:0|1:2,0:0:0:0:
117,189,10317,6,0,L|139:305,1,100,14|2,0:0|1:2,0:0:0:0:
159,373,10917,1,10,0:0:0:0:
228,316,11217,1,2,1:2:0:0:
316,333,11517,2,0,L|333:211,1,100,10|0,0:0|1:0,0:0:0:0:
359,199,11967,1,2,0:0:0:0:
359,199,12117,2,0,L|349:128,1,50,10|2,0:0|0:0,0:0:0:0:
365,106,12417,1,2,1:2:0:0:
434,48,12717,5,10,0:0:0:0:
460,133,13017,1,10,1:2:0:0:
432,218,13317,1,10,0:0:0:0:
458,303,13617,1,10,1:2:0:0:
373,334,13917,6,0,L|314:319,1,50,14|10,0:0|0:0,0:0:0:0:
283,340,14217,2,0,L|224:355,1,50,14|0,1:2|0:0,0:0:0:0:
194,331,14517,1,10,0:0:0:0:
194,331,15117,6,0,P|211:281|191:221,1,100,14|2,0:0|1:2,0:0:0:0:
174,199,15567,1,2,0:0:0:0:
174,199,15717,2,0,L|181:138,1,50,10|2,0:0|0:0,0:0:0:0:
163,107,16017,1,2,1:2:0:0:
233,50,16317,6,0,L|346:66,1,100,10|2,0:0|1:2,0:0:0:0:
370,39,16767,1,2,0:0:0:0:
370,39,16917,2,0,L|386:159,1,100,10|0,0:0|1:0,0:0:0:0:
399,226,17517,6,0,P|359:215|335:216,1,50,10|2,0:0|0:0,0:0:0:0:
312,237,17817,1,2,1:2:0:0:
353,316,18117,1,10,0:0:0:0:
353,316,18267,6,0,B|261:349|261:349|235:346|209:311,1,150,2|10,0:0|0:0,0:0:0:0:
188,236,19017,1,0,1:0:0:0:
212,149,19317,2,0,B|197:86|197:86|103:104,1,150,10|2,0:0|1:2,0:0:0:0:
69,111,19917,6,0,L|103:8,1,100,14|2,0:0|1:2,0:0:0:0:
145,11,20367,1,2,0:0:0:0:
145,11,20517,2,0,L|258:28,1,100,10|2,0:0|1:2,0:0:0:0:
305,91,21117,1,10,0:0:0:0:
387,55,21417,1,2,1:2:0:0:
447,121,21717,2,0,B|464:155|464:155|444:236,1,100,10|2,0:0|1:2,0:0:0:0:
436,258,22167,1,10,0:0:0:0:
436,258,22317,6,0,L|368:242,1,50,14|10,0:0|0:0,0:0:0:0:
347,267,22617,1,14,1:2:0:0:
275,213,22917,1,14,0:0:0:0:
275,213,23067,1,10,0:0:0:0:
275,213,23217,2,0,L|207:229,1,50,6|0,1:2|0:0,0:0:0:0:
206,265,23517,5,14,0:0:0:0:
206,265,24117,2,0,B|284:288|284:288|260:367,1,150,10|2,0:0|1:2,0:0:0:0:
225,377,24717,5,14,0:0:0:0:
225,377,24867,1,2,0:0:0:0:
107,310,25317,1,10,0:0:0:0:
107,310,25467,1,10,0:0:0:0:
187,201,25917,5,10,0:0:0:0:
174,111,26217,1,10,0:0:0:0:
161,21,26517,1,10,0:0:0:0:
250,32,26817,2,0,L|321:42,1,50,10|10,0:0|0:0,0:0:0:0:
342,24,27117,5,14,0:0:0:0:
365,110,27417,1,2,1:2:0:0:
327,191,27717,1,10,0:0:0:0:
350,277,28017,1,2,1:2:0:0:
439,265,28317,6,0,L|448:192,1,50,10|10,0:0|0:0,0:0:0:0:
471,178,28617,2,0,L|462:105,1,50,10|10,1:2|0:0,0:0:0:0:
458,83,28917,2,0,B|394:78|394:78|371:172,1,150,10|8,0:0|0:0,0:0:0:0:
371,206,29517,5,14,0:0:0:0:
432,271,29817,1,2,1:2:0:0:
355,318,30117,2,0,L|294:332,1,50,10|2,0:0|0:0,0:0:0:0:
267,306,30417,2,0,L|206:292,1,50,2|2,1:2|0:0,0:0:0:0:
184,324,30717,5,10,0:0:0:0:
160,237,31017,1,2,1:2:0:0:
205,159,31317,2,0,L|196:91,1,50,10|0,0:0|0:0,0:0:0:0:
191,64,31617,1,2,1:2:0:0:
104,90,31917,6,0,L|-16:73,1,100,10|2,0:0|1:2,0:0:0:0:
29,113,32367,2,0,L|48:230,1,100,2|2,0:0|0:0,0:0:0:0:
36,255,32817,1,2,1:2:0:0:
82,331,33117,6,0,P|123:323|139:323,1,50,10|10,0:0|0:0,0:0:0:0:
173,339,33417,1,10,1:2:0:0:
173,339,33567,1,14,0:0:0:0:
206,255,33867,1,14,0:0:0:0:
298,277,34167,1,14,0:0:0:0:
298,277,34317,6,0,L|307:164,1,100,10|2,0:0|1:2,0:0:0:0:
381,127,34917,2,0,L|372:14,1,100,10|2,0:0|1:2,0:0:0:0:
338,55,35367,1,2,0:0:0:0:
338,55,35517,2,0,L|219:40,1,100,10|2,0:0|1:2,0:0:0:0:
161,89,36117,2,0,P|187:122|216:195,1,100,10|2,0:0|1:2,0:0:0:0:
199,218,36567,1,2,0:0:0:0:
199,218,36717,5,10,0:0:0:0:
288,205,37017,1,10,1:2:0:0:
366,249,37317,1,10,0:0:0:0:
455,236,37617,2,0,L|448:307,1,50,2|2,1:2|0:0,0:0:0:0:
442,330,37917,6,0,P|405:352|341:348,1,100,10|2,0:0|1:2,0:0:0:0:
275,299,38517,2,0,B|225:268|182:264|182:264|147:274|119:293,1,150,10|2,0:0|1:2,0:0:0:0:
103,314,39117,5,14,0:0:0:0:
51,239,39417,1,2,1:2:0:0:
114,174,39717,2,0,L|104:67,1,100,10|2,0:0|1:2,0:0:0:0:
148,85,40167,1,8,0:0:0:0:
148,85,40317,6,0,L|218:69,1,50,14|2,0:0|0:0,0:0:0:0:
227,106,40617,1,2,1:2:0:0:
314,85,40917,2,0,L|305:157,1,50,14|10,0:0|0:0,0:0:0:0:
302,179,41217,1,14,1:2:0:0:
333,263,41517,5,14,0:0:0:0:
333,263,41667,1,10,0:0:0:0:
333,263,41817,2,0,L|270:273,1,50,14|10,1:2|0:0,0:0:0:0:
243,250,42117,2,0,L|180:240,1,50,14|8,0:0|0:0,0:0:0:0:
155,265,42417,1,10,1:2:0:0:
131,178,42717,5,14,0:0:0:0:
131,178,43317,2,0,B|182:152|182:152|153:52,1,150,10|10,0:0|1:2,0:0:0:0:
147,18,43917,6,0,L|266:38,1,100,14|0,0:0|1:0,0:0:0:0:
316,90,44517,1,10,0:0:0:0:
404,74,44817,1,2,1:2:0:0:
427,160,45117,2,0,L|407:277,1,100,10|0,0:0|1:0,0:0:0:0:
405,303,45567,1,2,0:0:0:0:
405,303,45717,1,10,0:0:0:0:
325,260,46017,1,2,1:2:0:0:
267,329,46317,6,0,L|158:338,1,100,10|0,0:0|1:0,0:0:0:0:
91,289,46917,1,10,0:0:0:0:
138,212,47217,1,2,1:2:0:0:
138,212,47367,1,2,0:0:0:0:
138,212,47517,2,0,L|129:99,1,100,10|0,0:0|1:0,0:0:0:0:
129,67,47967,1,2,0:0:0:0:
129,67,48117,2,0,L|240:82,1,100,10|14,0:0|1:2,0:0:0:0:
316,97,48717,6,0,P|338:130|350:201,1,100,14|0,0:0|1:0,0:0:0:0:
320,273,49317,1,10,0:0:0:0:
242,227,49617,1,2,1:2:0:0:
242,227,49767,1,10,0:0:0:0:
242,227,49917,6,0,L|132:252,1,100,14|2,0:0|1:2,0:0:0:0:
79,186,50517,2,0,P|89:137|122:76,1,100,14|6,0:0|1:2,0:0:0:0:
145,63,50967,1,2,0:0:0:0:
145,63,51117,2,0,L|255:88,1,100,14|0,0:0|1:0,0:0:0:0:
329,59,51717,1,14,0:0:0:0:
329,59,51867,1,10,0:0:0:0:
329,59,52017,6,0,B|349:96|349:96|333:168,1,100,10|14,1:2|0:0,0:0:0:0:
299,328,52917,1,10,0:0:0:0:
299,328,53067,1,10,0:0:0:0:
299,328,53217,2,0,L|284:261,1,50,10|0,0:0|0:0,0:0:0:0:
278,234,53517,5,14,0:0:0:0:
