osu file format v14

[General]
AudioFilename: audio.mp3
AudioLeadIn: 0
PreviewTime: 42717
Countdown: 0
SampleSet: Soft
StackLeniency: 0.4
Mode: 0
LetterboxInBreaks: 0
WidescreenStoryboard: 0

[Editor]
Bookmarks: 76,5517,10317,15117,19917,24717,29517,34317,39117,43917,48417,48717,52317,53517
DistanceSpacing: 0.9
BeatDivisor: 4
GridSize: 32
TimelineZoom: 2.3

[Metadata]
Title:In the soil, daily life with a sardine
TitleUnicode:土屋的イワシがくる生活
Artist:SakiZ
ArtistUnicode:SakiZ
Creator:eiri-
Version:Expert
Source:
Tags:Ayyri Djulus Yooh At the Ryugu, Daily Life on Turtle Back ころんば イワシがつちからはえてくるんだ Iwashi ga Tsuchi kara Haete Kurunda Kasane Teto UTAU Japanese Electronic MAD
BeatmapID:2233984
BeatmapSetID:1067029

[Difficulty]
HPDrainRate:5
CircleSize:3.7
OverallDifficulty:8.5
ApproachRate:9
SliderMultiplier:2.2
SliderTickRate:1

[Events]
//Background and Video events
0,0,"Sardine.png",0,0
Video,0,"Fish.avi"
//Break Periods
//Storyboard Layer 0 (Background)
//Storyboard Layer 1 (Fail)
//Storyboard Layer 2 (Pass)
//Storyboard Layer 3 (Foreground)
//Storyboard Layer 4 (Overlay)
//Storyboard Sound Samples

[TimingPoints]
76,447.761194029851,4,2,1,60,1,0
972,396.694214876033,4,2,1,60,1,0
1755,358.208955223881,4,2,1,60,1,0
2475,326.086956521739,4,2,1,60,1,0
3117,300,4,2,1,60,1,0
4317,-100,4,2,1,60,0,0
5517,-100,4,2,1,60,0,0
10017,-100,4,2,1,70,0,0
10092,-100,4,2,1,65,0,0
10167,-100,4,2,1,60,0,0
10242,-100,4,2,1,55,0,0
10317,-100,4,2,1,70,0,0
14667,-100,4,2,1,70,0,0
14817,-80,4,2,1,70,0,0
14967,-66.6666666666667,4,2,1,70,0,0
15117,-100,4,2,1,70,0,0
16017,-66.6666666666667,4,2,1,70,0,0
16317,-100,4,2,1,70,0,0
17029,-100,4,2,1,5,0,0
17142,-100,4,2,1,70,0,0
17179,-100,4,2,1,5,0,0
17292,-100,4,2,1,70,0,0
17329,-100,4,2,1,5,0,0
17442,-100,4,2,1,70,0,0
23517,-125,4,2,1,70,0,0
23667,-125,4,2,1,70,0,0
23817,-125,4,2,1,60,0,0
23967,-125,4,2,1,55,0,0
24117,-125,4,2,1,55,0,0
24192,-125,4,2,1,60,0,0
24267,-125,4,2,1,65,0,0
24342,-125,4,2,1,70,0,0
24417,-100,4,2,1,70,0,0
24717,-111.111111111111,4,2,1,70,0,0
28317,-100,4,2,1,70,0,0
33567,-111.111111111111,4,2,1,70,0,0
33867,-117.647058823529,4,2,1,70,0,0
34317,-125,4,2,1,70,0,0
36717,-100,4,2,1,70,0,0
39117,-100,4,2,1,70,0,0
42567,-100,4,2,1,70,0,0
42942,-100,4,2,1,5,0,0
43017,-100,4,2,1,70,0,0
43917,-100,4,2,1,70,0,1
48417,-100,4,2,1,70,0,0
48717,-100,4,2,1,70,0,1
52017,-66.6666666666667,4,2,1,70,0,1
52317,-100,4,2,1,60,0,0

[Colours]
Combo1 : 152,197,241
Combo2 : 245,154,245
Combo3 : 241,202,143
Combo4 : 181,238,147

[HitObjects]
256,192,4317,5,14,0:0:0:0:
256,224,4917,1,10,0:0:0:0:
256,128,5067,1,10,0:0:0:0:
256,32,5217,2,2,L|256:0,6,27.5,10|0|0|0|0|0|0,0:0|0:0|0:0|0:0|0:0|0:0|0:0,0:1:0:0:
278,81,5517,6,0,L|406:67,1,110,14|0,0:0|0:0,0:0:0:0:
334,186,5817,1,2,1:2:0:0:
334,186,5967,1,2,0:0:0:0:
474,239,6117,2,0,L|459:107,1,110,10|2,0:0|0:0,0:0:0:0:
366,339,6417,1,2,1:2:0:0:
495,270,6567,1,2,0:0:0:0:
296,208,6717,6,0,P|237:227|181:265,1,110,10|2,0:0|0:0,0:0:0:0:
173,280,6942,1,2,0:0:0:0:
145,328,7017,1,2,1:2:0:0:
91,204,7167,1,2,0:0:0:0:
227,126,7317,5,10,0:0:0:0:
258,201,7467,1,0,0:0:0:0:
62,100,7617,1,2,1:2:0:0:
0,250,7767,1,2,0:0:0:0:
196,51,7917,6,0,P|287:45|345:49,1,110,10|0,0:0|0:0,0:0:0:0:
427,70,8217,1,2,1:2:0:0:
427,70,8367,1,2,0:0:0:0:
374,206,8517,1,10,0:0:0:0:
289,18,8667,1,2,0:0:0:0:
235,229,8817,1,2,1:2:0:0:
449,196,8967,1,0,0:0:0:0:
209,115,9117,6,0,B|305:142|272:72|391:103,1,165,10|0,0:0|0:0,0:0:0:0:
415,116,9417,2,0,P|428:54|417:4,1,110,2|2,1:2|0:0,0:0:0:0:
189,142,9717,1,10,0:0:0:0:
176,195,9792,1,10,0:0:0:0:
189,248,9867,1,10,0:0:0:0:
176,301,9942,1,10,0:0:0:0:
189,354,10017,2,0,L|256:345,1,55,2|2,1:2|0:0,0:0:0:0:
99,272,10167,2,0,L|32:263,1,55,2|2,1:2|0:0,0:0:0:0:
188,178,10317,6,0,P|144:129|88:95,1,110,14|0,0:0|0:0,0:0:0:0:
12,55,10617,1,2,1:2:0:0:
12,55,10767,1,2,0:0:0:0:
189,4,10917,2,0,L|174:128,1,110,10|0,0:0|0:0,0:0:0:0:
323,4,11217,1,2,1:2:0:0:
336,113,11367,1,2,0:0:0:0:
354,257,11517,5,10,0:0:0:0:
354,257,11667,1,2,0:0:0:0:
447,180,11817,1,0,1:0:0:0:
251,156,11967,1,2,0:0:0:0:
431,23,12117,2,0,L|443:155,1,110,10|2,0:0|0:0,0:0:0:0:
447,180,12342,1,2,0:0:0:0:
454,228,12417,1,2,1:2:0:0:
469,362,12567,1,10,0:0:0:0:
500,246,12717,5,10,0:0:0:0:
337,217,12867,1,8,0:0:0:0:
442,345,13017,1,10,1:2:0:0:
488,142,13167,1,10,0:0:0:0:
488,142,13242,1,10,0:0:0:0:
488,142,13317,6,0,P|429:141|374:125,1,110,10|10,0:0|0:0,0:0:0:0:
276,4,13617,2,0,P|335:5|390:21,1,110,10|10,1:2|0:0,0:0:0:0:
206,150,13917,2,0,L|92:133,1,110,14|10,0:0|0:0,0:0:0:0:
297,50,14217,2,0,L|183:33,1,110,14|0,1:2|0:0,0:0:0:0:
318,200,14517,1,10,0:0:0:0:
318,200,14592,1,8,0:0:0:0:
318,200,14667,6,2,L|312:160,1,27.5,14|0,0:0|0:0,0:1:0:0:
419,267,14817,6,2,L|426:220,1,34.375,14|0,0:0|0:0,0:1:0:0:
247,337,14967,6,2,L|238:280,1,41.2500015735627,14|0,0:0|0:0,0:1:0:0:
206,134,15117,5,14,0:0:0:0:
113,363,15267,5,2,0:0:0:0:
71,327,15342,1,2,0:0:0:0:
55,275,15417,1,2,1:2:0:0:
69,223,15492,1,2,0:0:0:0:
82,170,15567,1,2,0:0:0:0:
66,118,15642,1,2,0:0:0:0:
25,83,15717,5,10,0:0:0:0:
77,42,15792,1,2,0:0:0:0:
140,23,15867,1,2,0:0:0:0:
205,30,15942,1,2,0:0:0:0:
263,61,16017,6,0,B|319:52|319:52|359:81|359:81|451:71,1,165.000006294251,2|0,1:2|0:0,0:0:0:0:
511,221,16317,5,10,0:0:0:0:
463,193,16392,1,2,0:0:0:0:
410,180,16467,1,2,0:0:0:0:
355,183,16542,1,2,0:0:0:0:
303,201,16617,2,0,L|292:137,1,55,2|0,1:2|0:0,0:0:0:0:
174,233,16767,1,2,0:0:0:0:
174,233,16842,2,0,L|185:168,1,55,2|8,0:0|0:0,0:0:0:0:
208,57,16992,6,0,L|65:45,2,110,2|2|2,0:0|0:0|0:0,0:0:0:0:
351,71,17442,1,2,0:0:0:0:
351,71,17517,2,0,L|345:6,2,55,10|2|2,0:0|0:0|0:0,0:0:0:0:
360,240,17817,1,2,1:2:0:0:
512,157,17967,1,2,0:0:0:0:
512,157,18043,2,0,L|506:211,1,55,2|8,0:0|0:0,0:0:0:0:
489,339,18192,5,2,0:0:0:0:
437,355,18267,1,2,0:0:0:0:
384,342,18342,1,2,0:0:0:0:
344,305,18417,2,0,L|272:296,1,55,2|2,1:2|0:0,0:0:0:0:
332,208,18567,2,0,L|270:168,1,55,2|2,0:0|0:0,0:0:0:0:
361,114,18717,6,0,L|321:52,1,55,10|0,0:0|0:0,0:0:0:0:
297,24,18867,1,2,0:0:0:0:
297,24,18942,2,0,L|257:86,1,55,2|0,0:0|1:0,0:0:0:0:
242,120,19092,1,2,0:0:0:0:
242,120,19167,2,0,L|315:130,1,55,2|0,0:0|0:0,0:0:0:0:
446,146,19317,5,10,0:0:0:0:
453,200,19392,1,10,0:0:0:0:
434,256,19467,1,10,0:0:0:0:
441,310,19542,1,10,0:0:0:0:
480,354,19617,6,0,L|541:345,1,55,2|2,1:2|0:0,0:0:0:0:
348,290,19767,2,0,L|287:281,1,55,2|2,1:2|0:0,0:0:0:0:
83,253,19917,6,0,P|139:209|190:182,1,110,14|0,0:0|0:0,0:0:0:0:
302,147,20217,1,2,1:2:0:0:
302,147,20367,1,2,0:0:0:0:
228,6,20517,2,0,L|202:132,1,110,10|2,0:0|0:0,0:0:0:0:
451,0,20817,1,2,1:2:0:0:
479,150,20967,1,2,0:0:0:0:
297,243,21117,5,10,0:0:0:0:
297,243,21267,1,2,0:0:0:0:
427,311,21417,2,0,P|402:235|372:178,1,110,2|0,1:2|0:0,0:0:0:0:
293,133,21717,2,0,P|369:108|426:78,1,110,10|2,0:0|0:0,0:0:0:0:
425,79,21942,1,2,0:0:0:0:
453,40,22017,1,2,1:2:0:0:
507,197,22167,1,10,0:0:0:0:
394,346,22317,6,0,L|275:338,1,110,14|10,0:0|0:0,0:0:0:0:
157,332,22617,1,14,1:2:0:0:
265,206,22767,1,10,0:0:0:0:
265,206,22842,1,10,0:0:0:0:
265,206,22917,1,14,0:0:0:0:
59,157,23067,1,10,0:0:0:0:
59,157,23142,1,10,0:0:0:0:
59,157,23217,2,2,L|48:113,6,27.5,6|0|0|0|0|0|0,1:2|0:0|0:0|0:0|0:0|0:0|0:0,0:1:0:0:
96,248,23517,6,0,P|152:213|184:184,2,88,14|2|2,0:0|0:0|0:0,0:0:0:0:
0,291,23967,1,2,0:0:0:0:
131,382,24117,5,10,0:0:0:0:
131,382,24192,1,10,0:0:0:0:
131,382,24267,1,10,0:0:0:0:
131,382,24342,1,10,0:0:0:0:
131,382,24417,6,0,P|174:365|201:362,1,55,2|2,1:2|0:0,0:0:0:0:
204,268,24567,2,0,P|244:290|264:308,1,55,2|2,1:2|0:0,0:0:0:0:
339,362,24717,6,0,P|351:301|347:230,2,98.9999969787599,14|2|2,0:0|0:0|0:0,0:0:0:0:
251,295,25167,1,0,0:0:0:0:
391,246,25317,1,10,0:0:0:0:
391,246,25467,1,10,0:0:0:0:
226,166,25617,1,0,0:0:0:0:
197,322,25767,1,0,0:0:0:0:
74,177,25917,6,0,L|214:169,1,98.9999969787599,10|2,0:0|0:0,0:0:0:0:
226,166,26142,1,10,0:0:0:0:
271,205,26217,2,0,L|411:197,1,98.9999969787599,10|10,0:0|0:0,0:0:0:0:
423,194,26442,1,10,0:0:0:0:
476,188,26517,1,10,0:0:0:0:
440,306,26667,1,8,0:0:0:0:
290,370,26817,2,0,P|218:357|155:324,1,98.9999969787599,10|10,0:0|0:0,0:0:0:0:
77,226,27117,5,14,0:0:0:0:
77,226,27417,1,2,1:2:0:0:
226,166,27717,1,10,0:0:0:0:
226,166,28017,1,2,1:2:0:0:
185,259,28167,1,2,0:0:0:0:
130,136,28317,6,0,P|139:61|161:6,1,110,10|10,0:0|0:0,0:0:0:0:
304,107,28617,2,0,P|295:32|273:-23,1,110,10|10,1:2|0:0,0:0:0:0:
226,166,28917,2,0,L|228:222,3,55,10|8|8|8,0:0|0:0|0:0|0:0,0:0:0:0:
203,262,29217,2,0,L|201:318,3,55,2|8|8|8,1:2|0:0|0:0|0:0,0:0:0:0:
228,359,29517,5,14,0:0:0:0:
384,331,29667,1,14,0:0:0:0:
294,290,29817,1,2,1:2:0:0:
294,290,29967,1,2,0:0:0:0:
416,352,30117,2,0,P|446:295|486:239,1,110,10|2,0:0|0:0,0:0:0:0:
509,352,30417,1,2,1:2:0:0:
384,241,30567,1,2,0:0:0:0:
278,375,30717,6,0,L|143:361,1,110,10|2,0:0|0:0,0:0:0:0:
168,363,30942,1,2,0:0:0:0:
168,363,31017,1,2,1:2:0:0:
247,275,31167,1,2,0:0:0:0:
85,227,31317,2,0,L|74:89,1,110,10|0,0:0|0:0,0:0:0:0:
67,26,31617,1,2,1:2:0:0:
173,48,31767,1,2,0:0:0:0:
279,70,31917,6,0,P|352:59|449:24,1,165,10|0,0:0|0:0,0:0:0:0:
422,61,32217,1,2,1:2:0:0:
266,97,32367,2,0,L|256:238,1,110,2|8,0:0|0:0,0:0:0:0:
115,48,32667,1,2,0:0:0:0:
118,97,32742,1,2,0:0:0:0:
121,146,32817,2,0,P|77:144|35:126,1,55,2|0,1:2|0:0,0:0:0:0:
188,253,32967,2,0,P|232:255|274:273,1,55,2|0,0:0|0:0,0:0:0:0:
368,330,33117,5,10,0:0:0:0:
440,183,33267,1,10,0:0:0:0:
465,292,33417,1,10,1:2:0:0:
319,214,33567,6,0,L|308:85,1,98.9999969787599,14|8,0:0|0:0,0:0:0:0:
265,281,33867,6,0,L|275:156,1,93.500001783371,14|8,0:0|0:0,0:0:0:0:
341,343,34167,1,14,0:0:0:0:
512,276,34317,5,10,0:0:0:0:
389,267,34467,2,0,L|318:262,2,44,2|2|2,0:0|0:0|1:2,0:0:0:0:
512,304,34767,1,2,0:0:0:0:
389,267,34917,5,10,0:0:0:0:
266,258,35067,2,0,L|195:253,2,44,2|2|2,0:0|0:0|1:2,0:0:0:0:
389,295,35367,1,2,0:0:0:0:
379,137,35517,6,0,L|375:66,1,44,10|0,0:0|0:0,0:0:0:0:
386,251,35667,2,0,L|390:322,1,44,2|2,0:0|0:0,0:0:0:0:
374,49,35817,6,0,L|376:92,1,44,2|0,1:2|0:0,0:0:0:0:
391,339,35967,2,0,L|388:295,1,44,2|2,0:0|0:0,0:0:0:0:
379,137,36117,5,10,0:0:0:0:
393,374,36267,1,2,0:0:0:0:
431,367,36342,2,0,P|475:339|496:312,2,44,2|2|2,0:0|1:2|0:0,0:0:0:0:
266,258,36567,2,0,P|222:286|201:313,1,44,2|0,0:0|0:0,0:0:0:0:
134,358,36717,5,10,0:0:0:0:
134,358,36867,1,10,0:0:0:0:
87,243,37017,1,10,1:2:0:0:
191,142,37167,2,0,L|259:141,1,55,10|10,0:0|0:0,0:0:0:0:
222,174,37317,1,10,0:0:0:0:
194,26,37467,1,2,0:0:0:0:
69,110,37617,1,2,1:2:0:0:
325,81,37767,5,2,0:0:0:0:
325,81,37817,5,2,0:0:0:0:
325,81,37867,5,0,0:0:0:0:
325,81,37917,6,0,L|459:69,1,110,10|2,0:0|0:0,0:0:0:0:
390,216,38142,1,2,0:0:0:0:
390,216,38217,2,0,L|256:204,1,110,2|2,1:2|0:0,0:0:0:0:
134,189,38517,5,10,0:0:0:0:
125,179,38592,1,10,0:0:0:0:
107,196,38667,1,10,0:0:0:0:
74,172,38742,1,10,0:0:0:0:
29,200,38817,2,0,L|13:109,1,55,2|2,1:2|0:0,0:0:0:0:
119,287,38967,2,0,L|135:378,1,55,2|2,1:2|0:0,0:0:0:0:
209,159,39117,5,14,0:0:0:0:
209,159,39267,1,2,0:0:0:0:
291,79,39417,2,0,P|346:44|405:27,1,110,2|2,1:2|0:0,0:0:0:0:
509,8,39717,1,10,0:0:0:0:
494,182,39867,5,2,0:0:0:0:
494,182,39917,5,2,0:0:0:0:
494,182,39967,5,0,0:0:0:0:
494,182,40017,6,0,L|506:326,1,110,2|8,1:2|0:0,0:0:0:0:
365,210,40317,6,0,P|283:187|238:186,1,110,14|2,0:0|0:0,0:0:0:0:
128,222,40617,1,2,1:2:0:0:
128,222,40767,2,0,L|69:217,1,55,2|2,0:0|0:0,0:0:0:0:
210,328,40917,2,0,L|231:197,1,110,14|10,0:0|0:0,0:0:0:0:
258,185,41142,1,10,0:0:0:0:
289,151,41217,2,0,L|268:20,1,110,14|10,1:2|0:0,0:0:0:0:
227,219,41517,5,14,0:0:0:0:
390,110,41667,1,10,0:0:0:0:
137,70,41817,2,0,P|82:61|14:36,1,110,14|10,1:2|0:0,0:0:0:0:
53,77,42042,1,10,0:0:0:0:
53,77,42117,2,0,P|97:125|132:187,1,110,14|8,0:0|0:0,0:0:0:0:
197,294,42417,1,10,1:2:0:0:
197,294,42492,1,10,0:0:0:0:
197,294,42567,2,0,P|256:280|289:279,1,55,10|10,0:0|0:0,0:0:0:0:
416,286,42717,5,14,0:0:0:0:
408,267,43017,5,2,0:0:0:0:
416,248,43317,6,0,L|496:235,1,55,10|10,0:0|0:0,0:0:0:0:
335,172,43467,2,0,L|255:159,1,55,10|0,0:0|0:0,0:0:0:0:
452,101,43617,2,0,L|532:88,1,55,10|10,1:2|1:2,0:0:0:0:
307,33,43767,2,0,L|227:20,1,55,10|10,1:2|1:2,0:0:0:0:
487,0,43917,6,0,P|424:57|393:99,1,110,14|0,0:0|0:0,0:0:0:0:
315,134,44142,2,0,P|310:218|318:270,1,110,2|0,0:0|0:0,0:0:0:0:
354,347,44367,1,2,0:0:0:0:
490,283,44517,5,10,0:0:0:0:
280,238,44667,1,2,0:0:0:0:
462,296,44817,5,2,1:2:0:0:
252,251,44967,1,2,0:0:0:0:
70,368,45117,6,0,L|47:215,1,110,10|2,0:0|0:0,0:0:0:0:
23,216,45342,1,2,0:0:0:0:
23,216,45417,2,0,L|28:138,1,55,2|0,1:2|0:0,0:0:0:0:
93,90,45567,2,0,L|88:12,1,55,2|2,0:0|0:0,0:0:0:0:
227,159,45717,2,0,P|176:193|156:251,1,110,10|2,0:0|0:0,0:0:0:0:
123,342,46017,1,2,1:2:0:0:
23,216,46167,1,2,0:0:0:0:
249,128,46317,6,0,P|312:123|377:111,1,110,10|0,0:0|0:0,0:0:0:0:
301,22,46542,2,0,P|364:26|429:39,1,110,2|0,0:0|0:0,0:0:0:0:
509,86,46767,1,2,0:0:0:0:
413,273,46917,5,10,0:0:0:0:
358,115,47067,1,2,0:0:0:0:
419,302,47217,6,0,L|347:291,1,55,2|2,1:2|0:0,0:0:0:0:
270,351,47367,2,0,L|198:362,1,55,2|2,0:0|0:0,0:0:0:0:
97,384,47517,6,0,P|70:319|28:265,1,110,10|2,0:0|0:0,0:0:0:0:
14,260,47742,1,2,0:0:0:0:
14,260,47817,2,0,P|74:232|80:227,1,55,2|0,1:2|0:0,0:0:0:0:
142,154,47967,1,2,0:0:0:0:
142,154,48042,1,2,0:0:0:0:
142,154,48117,6,0,L|71:145,1,55,10|10,0:0|0:0,0:0:0:0:
244,81,48267,2,0,L|315:72,1,55,10|10,0:0|0:0,0:0:0:0:
472,53,48417,1,14,1:2:0:0:
472,53,48717,6,0,L|464:185,1,110,14|0,0:0|0:0,0:0:0:0:
365,118,48942,2,0,L|373:250,1,110,2|0,0:0|0:0,0:0:0:0:
379,338,49167,1,2,0:0:0:0:
512,249,49317,5,10,0:0:0:0:
348,218,49467,1,2,0:0:0:0:
489,258,49617,5,2,1:2:0:0:
325,227,49767,1,10,0:0:0:0:
194,384,49917,6,0,P|184:324|181:245,1,110,14|2,0:0|0:0,0:0:0:0:
183,245,50142,1,2,0:0:0:0:
201,200,50217,2,0,L|193:121,1,55,2|2,1:2|0:0,0:0:0:0:
185,38,50367,1,10,0:0:0:0:
185,38,50442,1,10,0:0:0:0:
185,38,50517,6,0,P|244:19|325:18,1,110,14|10,0:0|0:0,0:0:0:0:
441,19,50817,1,6,1:2:0:0:
275,0,50967,1,2,0:0:0:0:
471,27,51117,6,0,P|485:90|493:146,1,110,14|0,0:0|0:0,0:0:0:0:
387,100,51342,2,0,P|373:163|365:219,1,110,6|0,0:0|0:0,0:0:0:0:
366,319,51567,2,0,P|320:309|290:311,1,55,6|0,0:0|0:0,0:0:0:0:
163,337,51717,5,14,0:0:0:0:
175,296,51792,1,10,0:0:0:0:
187,255,51867,1,10,0:0:0:0:
199,214,51942,1,10,0:0:0:0:
211,173,52017,6,2,B|287:159|287:159|294:227|294:227|414:296,1,247.500009441376,10|0,1:2|0:0,0:1:0:0:
493,346,52317,5,14,0:0:0:0:
485,316,52917,1,10,0:0:0:0:
485,316,53067,1,10,0:0:0:0:
485,316,53217,2,2,L|496:271,6,27.5,10|0|0|0|0|0|0,0:0|0:0|0:0|0:0|0:0|0:0|0:0,0:1:0:0:
450,354,53517,5,14,0:0:0:0:
