osu file format v14

[General]
AudioFilename: audio.mp3
AudioLeadIn: 0
PreviewTime: 42717
Countdown: 0
SampleSet: Soft
StackLeniency: 0.4
Mode: 0
LetterboxInBreaks: 0
WidescreenStoryboard: 0

[Editor]
DistanceSpacing: 1.5
BeatDivisor: 4
GridSize: 32
TimelineZoom: 5.499997

[Metadata]
Title:In the soil, daily life with a sardine
TitleUnicode:土屋的イワシがくる生活
Artist:SakiZ
ArtistUnicode:SakiZ
Creator:eiri-
Version:Djulus' Hard
Source:
Tags:Ayyri Djulus Yooh At the Ryugu, Daily Life on Turtle Back ころんば イワシがつちからはえてくるんだ Iwashi ga Tsuchi kara Haete Kurunda Kasane Teto UTAU Japanese Electronic MAD
BeatmapID:2233983
BeatmapSetID:1067029

[Difficulty]
HPDrainRate:5
CircleSize:3.5
OverallDifficulty:6
ApproachRate:8
SliderMultiplier:2
SliderTickRate:1

[Events]
//Background and Video events
0,0,"Sardine.png",0,0
Video,0,"Fish.avi"
//Break Periods
//Storyboard Layer 0 (Background)
//Storyboard Layer 1 (Fail)
//Storyboard Layer 2 (Pass)
//Storyboard Layer 3 (Foreground)
//Storyboard Layer 4 (Overlay)
//Storyboard Sound Samples

[TimingPoints]
76,447.761194029851,4,2,1,60,1,0
76,-133.333333333333,4,2,1,60,0,0
523,-200,4,2,1,60,0,0
972,396.694214876033,4,2,1,60,1,0
972,-200,4,2,1,60,0,0
1755,358.208955223881,4,2,1,60,1,0
1755,-133.333333333333,4,2,1,60,0,0
2475,326.086956521739,4,2,1,60,1,0
2475,-200,4,2,1,60,0,0
3117,300,4,2,1,60,1,0
3117,-181.818181818181,4,2,1,70,0,0
5517,-181.818181818181,4,2,1,70,0,0
10017,-181.818181818181,4,2,1,70,0,0
10092,-181.818181818181,4,2,1,65,0,0
10167,-181.818181818181,4,2,1,60,0,0
10242,-181.818181818181,4,2,1,55,0,0
10317,-181.818181818181,4,2,1,70,0,0
23517,-181.818181818181,4,2,1,70,0,0
23817,-181.818181818181,4,2,1,65,0,0
24117,-181.818181818181,4,2,1,70,0,0
24192,-181.818181818181,4,2,1,70,0,0
24267,-181.818181818181,4,2,1,65,0,0
24342,-181.818181818181,4,2,1,70,0,0
24417,-181.818181818181,4,2,1,70,0,0
36642,-100,4,2,1,5,0,0
36717,-181.818181818181,4,2,1,70,0,0
39117,-181.818181818181,4,2,1,70,0,0
43917,-153.846153846153,4,2,1,70,0,1
48417,-100,4,2,1,70,0,0
48717,-153.846153846153,4,2,1,70,0,1
52317,-181.818181818181,4,2,1,60,0,0

[Colours]
Combo1 : 152,197,241
Combo2 : 245,154,245
Combo3 : 241,202,143
Combo4 : 181,238,147

[HitObjects]
188,117,76,6,0,P|156:71|50:79,1,150.000005722046,10|8,0:0|0:0,0:0:0:0:
45,268,972,2,0,L|97:248,1,50,10|0,0:0|0:0,0:0:0:0:
170,293,1368,2,0,L|223:296,1,50,8|0,0:0|0:0,0:0:0:0:
300,335,1755,6,0,B|381:352|373:299|450:321,1,150.000005722046,10|8,0:0|0:0,0:0:0:0:
499,162,2475,2,0,L|515:91,1,50,10|0,0:0|0:0,0:0:0:0:
420,112,2801,2,0,L|410:56,1,50,8|0,0:0|0:0,0:0:0:0:
328,80,3117,6,0,P|296:72|212:88,1,110.000003356934,10|2,0:0|1:2,0:0:0:0:
179,155,3567,1,2,0:0:0:0:
232,217,3717,2,0,P|227:236|225:286,1,55.0000016784668,10|10,0:0|0:0,0:0:0:0:
297,310,4017,2,2,L|325:305,2,27.5000008392334,2|2|2,1:2|1:2|1:2,0:1:0:0:
229,359,4317,6,0,L|119:346,1,110.000003356934,14|0,0:0|0:0,0:0:0:0:
37,334,4767,1,0,0:0:0:0:
79,263,4917,2,0,P|84:231|81:197,1,55.0000016784668,10|10,0:0|0:0,0:0:0:0:
28,146,5217,2,2,L|16:133,4,13.7500004196167,10|0|0|0|0,0:0|0:0|0:0|0:0|0:0,0:1:0:0:
87,87,5517,6,0,P|124:79|151:70,1,55.0000016784668,14|0,0:0|0:0,0:0:0:0:
206,123,5817,2,0,B|239:182|239:182|212:234,1,110.000003356934,2|10,1:2|0:0,0:0:0:0:
162,287,6267,1,2,0:0:0:0:
240,328,6417,2,0,B|268:335|268:335|293:329,1,55.0000016784668,2|2,1:2|0:0,0:0:0:0:
368,293,6717,5,10,0:0:0:0:
445,320,6867,1,2,0:0:0:0:
445,320,7017,2,0,B|455:278|455:278|442:253|442:253|451:204,1,110.000003356934,2|10,1:2|0:0,0:0:0:0:
419,137,7467,1,0,0:0:0:0:
445,58,7617,2,0,P|410:45|372:35,1,55.0000016784668,2|2,1:2|0:0,0:0:0:0:
317,74,7917,6,0,B|250:98|250:98|219:83|217:56,1,110.000003356934,10|2,0:0|1:2,0:0:0:0:
148,34,8367,1,2,0:0:0:0:
79,79,8517,2,0,P|89:127|91:155,1,55.0000016784668,10|2,0:0|0:0,0:0:0:0:
166,176,8817,1,2,1:2:0:0:
100,234,8967,1,0,0:0:0:0:
95,321,9117,6,0,P|23:317|-5:272,2,110.000003356934,10|2|10,0:0|1:2|0:0,0:0:0:0:
179,342,9867,2,0,L|189:375,2,27.5000008392334,10|10|2,0:0|0:0|1:2,0:0:0:0:
252,299,10167,1,2,1:2:0:0:
215,218,10317,6,0,B|230:158|198:162|212:109,1,110.000003356934,14|2,0:0|1:2,0:0:0:0:
367,26,10917,1,10,0:0:0:0:
332,107,11067,1,0,0:0:0:0:
332,107,11217,2,0,L|349:168,1,55.0000016784668,2|2,1:2|0:0,0:0:0:0:
425,194,11517,6,0,P|488:222|489:280,1,110.000003356934,10|0,0:0|1:0,0:0:0:0:
454,333,11967,1,2,0:0:0:0:
372,320,12117,2,0,B|345:308|345:308|311:312,1,55.0000016784668,10|2,0:0|0:0,0:0:0:0:
248,353,12417,2,0,B|220:360|220:360|195:350,1,55.0000016784668,2|10,1:2|0:0,0:0:0:0:
110,327,12717,6,0,L|124:248,1,55.0000016784668,10|8,0:0|0:0,0:0:0:0:
86,189,13017,2,0,L|74:121,1,55.0000016784668,10|10,1:2|0:0,0:0:0:0:
116,62,13317,1,10,0:0:0:0:
191,32,13467,1,10,0:0:0:0:
250,95,13617,2,2,L|256:118,4,13.7500004196167,10|0|0|0|10,1:2|0:0|0:0|0:0|0:0,0:1:0:0:
310,39,13917,6,0,P|367:45|391:95,1,110.000003356934,14|14,0:0|1:2,0:0:0:0:
386,170,14367,1,0,0:0:0:0:
312,208,14517,1,10,0:0:0:0:
312,208,14667,2,0,L|291:142,2,55.0000016784668,14|14|14,0:0|0:0|0:0,0:0:0:0:
312,290,15117,1,14,0:0:0:0:
397,338,15267,5,2,0:0:0:0:
397,338,15342,1,2,0:0:0:0:
397,338,15417,2,0,L|382:378,2,27.5000008392334,2|2|2,1:2|0:0|0:0,0:0:0:0:
448,266,15717,2,0,L|479:284,2,27.5000008392334,10|2|2,0:0|0:0|0:0,0:0:0:0:
465,179,16017,2,0,L|453:121,1,55.0000016784668,2|0,1:2|0:0,0:0:0:0:
403,55,16317,6,0,L|409:17,2,27.5000008392334,10|2|2,0:0|0:0|0:0,0:0:0:0:
341,110,16617,1,2,1:2:0:0:
263,81,16767,1,2,0:0:0:0:
263,81,16842,1,2,0:0:0:0:
191,122,16992,1,2,0:0:0:0:
129,66,17142,1,2,0:0:0:0:
53,100,17292,1,2,0:0:0:0:
36,179,17442,5,2,0:0:0:0:
36,179,17517,2,0,L|44:221,2,27.5000008392334,10|2|2,0:0|0:0|0:0,0:0:0:0:
120,186,17817,2,0,L|133:248,1,55.0000016784668,2|0,1:2|0:0,0:0:0:0:
219,233,18117,1,10,0:0:0:0:
254,327,18267,1,2,0:0:0:0:
254,327,18342,1,2,0:0:0:0:
254,327,18417,2,0,L|250:361,2,27.5000008392334,2|2|2,1:2|0:0|0:0,0:0:0:0:
337,273,18717,6,0,P|355:218|319:160,1,110.000003356934,10|0,0:0|1:0,0:0:0:0:
248,152,19167,1,2,0:0:0:0:
235,64,19317,2,0,L|228:33,2,27.5000008392334,10|10|10,0:0|0:0|0:0,0:0:0:0:
323,66,19617,2,0,L|329:109,2,27.5000008392334,2|2|2,1:2|1:2|1:2,0:0:0:0:
408,41,19917,6,0,P|443:73|442:144,1,110.000003356934,14|2,0:0|1:2,0:0:0:0:
407,211,20367,1,2,0:0:0:0:
407,211,20442,1,2,0:0:0:0:
407,211,20517,2,0,L|405:278,1,55.0000016784668,10|2,0:0|0:0,0:0:0:0:
350,335,20817,2,0,L|281:321,1,55.0000016784668,2|2,1:2|0:0,0:0:0:0:
220,369,21117,5,10,0:0:0:0:
176,292,21267,1,2,0:0:0:0:
95,326,21417,2,0,L|32:305,1,55.0000016784668,2|0,1:2|0:0,0:0:0:0:
77,227,21717,1,10,0:0:0:0:
26,158,21867,1,2,0:0:0:0:
26,158,21942,1,2,0:0:0:0:
26,158,22017,2,0,L|39:84,1,55.0000016784668,2|10,1:2|0:0,0:0:0:0:
100,51,22317,6,0,P|151:24|206:44,1,110.000003356934,14|14,0:0|1:2,0:0:0:0:
262,89,22767,1,10,0:0:0:0:
215,157,22917,2,0,L|211:234,1,55.0000016784668,14|10,0:0|0:0,0:0:0:0:
211,300,23217,2,2,L|174:316,2,27.5000008392334,6|0|0,1:2|0:0|0:0,0:1:0:0:
299,325,23517,6,0,B|356:334|345:304|420:310,1,110.000003356934,14|2,0:0|0:0,0:0:0:0:
476,159,24117,2,0,L|484:127,2,27.5000008392334,10|10|10,0:0|0:0|0:0,0:0:0:0:
396,196,24417,2,0,L|408:220,2,27.5000008392334,2|2|2,1:2|1:2|1:2,0:0:0:0:
336,130,24717,6,0,P|250:155|225:88,1,165.000005035401,14|0,0:0|0:0,0:0:0:0:
165,33,25317,1,10,0:0:0:0:
101,92,25467,1,10,0:0:0:0:
101,92,25617,2,0,L|118:155,1,55.0000016784668,0|0,0:0|0:0,0:0:0:0:
68,212,25917,5,10,0:0:0:0:
138,269,26067,1,2,0:0:0:0:
138,269,26217,2,0,L|158:330,1,55.0000016784668,10|10,0:0|0:0,0:0:0:0:
233,347,26517,2,0,L|303:330,1,55.0000016784668,10|8,0:0|0:0,0:0:0:0:
339,269,26817,2,2,L|357:263,4,13.7500004196167,10|0|0|0|10,0:0|0:0|0:0|0:0|0:0,0:0:0:0:
279,211,27117,6,0,P|268:154|301:94,1,110.000003356934,14|2,0:0|1:2,0:0:0:0:
437,38,27717,2,0,L|468:104,1,55.0000016784668,10|0,0:0|0:0,0:0:0:0:
427,163,28017,2,0,L|415:223,1,55.0000016784668,2|2,1:2|0:0,0:0:0:0:
461,292,28317,5,10,0:0:0:0:
387,340,28467,1,10,0:0:0:0:
387,340,28617,2,0,L|318:334,1,55.0000016784668,10|10,1:2|0:0,0:0:0:0:
272,270,28917,2,0,L|264:227,2,27.5000008392334,10|8|8,0:0|0:0|0:0,0:0:0:0:
195,314,29217,2,0,L|185:350,2,27.5000008392334,2|8|8,1:2|0:0|0:0,0:0:0:0:
131,252,29517,5,14,0:0:0:0:
84,177,29667,1,14,0:0:0:0:
84,177,29817,2,0,L|95:105,1,55.0000016784668,2|2,1:2|0:0,0:0:0:0:
174,90,30117,2,0,P|233:123|285:120,1,110.000003356934,10|2,0:0|1:2,0:0:0:0:
351,80,30567,1,2,0:0:0:0:
414,141,30717,6,0,L|398:211,1,55.0000016784668,10|2,0:0|0:0,0:0:0:0:
455,265,31017,1,2,1:2:0:0:
378,308,31167,1,2,0:0:0:0:
378,308,31317,2,0,P|325:315|267:276,1,110.000003356934,10|2,0:0|1:2,0:0:0:0:
269,200,31767,1,2,0:0:0:0:
183,220,31917,6,0,L|57:197,1,110.000003356934,10|2,0:0|1:2,0:0:0:0:
3,252,32367,2,0,L|3:307,1,55.0000016784668,2|8,0:0|0:0,0:0:0:0:
90,317,32666,1,2,0:0:0:0:
169,358,32817,1,2,1:2:0:0:
245,315,32967,1,2,0:0:0:0:
245,315,33117,6,0,P|294:283|355:290,1,110.000003356934,10|10,0:0|1:2,0:0:0:0:
416,335,33567,2,0,L|485:353,1,55.0000016784668,14|8,0:0|0:0,0:0:0:0:
509,269,33867,2,0,L|489:190,1,55.0000016784668,14|0,0:0|0:0,0:0:0:0:
455,136,34167,1,14,0:0:0:0:
364,153,34317,6,0,L|360:280,2,110.000003356934,10|2|10,0:0|1:2|0:0,0:0:0:0:
439,312,35217,1,2,1:2:0:0:
264,335,35517,2,0,B|198:328|236:310|149:296,2,110.000003356934,10|2|10,0:0|1:2|0:0,0:0:0:0:
90,365,36417,1,2,1:2:0:0:
10,207,36717,5,10,0:0:0:0:
102,185,36867,1,10,0:0:0:0:
102,185,37017,2,0,L|177:168,1,55.0000016784668,10|10,1:2|0:0,0:0:0:0:
236,155,37317,2,0,P|265:95|237:44,1,110.000003356934,10|2,0:0|1:2,0:0:0:0:
175,23,37767,1,2,0:0:0:0:
175,23,37917,6,0,L|112:36,1,55.0000016784668,10|2,0:0|0:0,0:0:0:0:
57,88,38217,2,0,L|51:159,1,55.0000016784668,2|2,1:2|0:0,0:0:0:0:
105,206,38517,2,0,L|130:197,2,27.5000008392334,10|10|10,0:0|0:0|0:0,0:0:0:0:
34,258,38817,2,0,L|6:275,2,27.5000008392334,2|2|2,1:2|1:2|1:2,0:0:0:0:
98,316,39117,6,0,P|152:331|210:296,1,110.000003356934,14|2,0:0|1:2,0:0:0:0:
325,202,39717,2,0,L|318:132,1,55.0000016784668,10|2,0:0|0:0,0:0:0:0:
350,119,39942,1,2,0:0:0:0:
350,119,40017,1,2,1:2:0:0:
413,66,40167,1,8,0:0:0:0:
476,118,40317,6,0,B|472:180|506:164|490:235,1,110.000003356934,14|2,0:0|1:2,0:0:0:0:
388,345,40917,2,0,L|323:342,1,55.0000016784668,14|10,0:0|0:0,0:0:0:0:
301,368,41142,1,10,0:0:0:0:
301,368,41217,1,14,1:2:0:0:
220,326,41367,1,10,0:0:0:0:
145,290,41517,6,0,B|128:254|128:254|161:184,1,110.000003356934,14|14,0:0|1:2,0:0:0:0:
230,152,41967,1,10,0:0:0:0:
212,71,42117,2,0,P|152:20|109:41,1,110.000003356934,14|10,0:0|1:2,0:0:0:0:
55,61,42567,1,10,0:0:0:0:
55,61,42642,1,10,0:0:0:0:
55,61,42717,6,0,B|51:105|51:105|59:120|59:120|51:188,1,110.000003356934,14|2,0:0|0:0,0:0:0:0:
122,310,43317,2,0,L|102:332,2,27.5000008392334,10|10|10,0:0|0:0|0:0,0:0:0:0:
192,266,43617,2,0,L|199:218,2,27.5000008392334,10|10|10,1:2|1:2|1:2,0:0:0:0:
285,292,43917,6,0,P|299:337|285:384,2,97.4999955368044,14|2|2,0:0|0:0|0:0,0:0:0:0:
332,206,44517,2,0,L|253:186,1,64.9999970245363,10|2,0:0|0:0,0:0:0:0:
196,255,44817,2,0,L|107:265,1,64.9999970245363,2|2,1:2|0:0,0:0:0:0:
38,295,45117,5,10,0:0:0:0:
36,201,45267,1,2,0:0:0:0:
36,201,45417,2,0,P|24:146|79:88,1,129.999994049073,0|10,1:0|0:0,0:0:0:0:
139,35,45867,1,2,0:0:0:0:
202,100,46017,2,0,B|237:108|237:108|291:94,1,64.9999970245363,2|2,1:2|0:0,0:0:0:0:
360,124,46317,6,0,L|337:20,2,97.4999955368044,10|2|2,0:0|0:0|0:0,0:0:0:0:
443,174,46917,2,0,P|460:240|462:264,1,64.9999970245363,10|2,0:0|0:0,0:0:0:0:
409,319,47217,2,0,L|416:355,2,32.4999985122681,2|2|2,1:2|0:0|0:0,0:0:0:0:
319,291,47517,6,0,P|280:280|268:183,1,129.999994049073,10|0,0:0|1:0,0:0:0:0:
301,122,47967,1,2,0:0:0:0:
301,122,48042,1,2,0:0:0:0:
301,122,48117,2,0,L|339:112,2,32.4999985122681,10|10|10,0:0|0:0|0:0,0:0:0:0:
246,46,48417,1,14,1:2:0:0:
82,152,48717,6,0,L|88:51,2,97.4999955368044,14|2|2,0:0|0:0|0:0,0:0:0:0:
100,248,49317,2,0,L|115:322,1,64.9999970245363,10|2,0:0|0:0,0:0:0:0:
183,368,49617,2,0,P|223:361|256:336,1,64.9999970245363,2|10,1:2|0:0,0:0:0:0:
289,270,49917,6,0,B|254:245|254:245|268:147,1,129.999994049073,14|2,0:0|1:2,0:0:0:0:
337,100,50367,1,10,0:0:0:0:
337,100,50442,1,10,0:0:0:0:
337,100,50517,2,0,P|391:77|456:128,1,129.999994049073,14|6,0:0|1:2,0:0:0:0:
411,194,50967,1,2,0:0:0:0:
473,259,51117,6,0,B|501:297|501:297|473:367,2,97.4999955368044,14|6|6,0:0|0:0|0:0,0:0:0:0:
390,310,51717,2,0,L|315:312,1,64.9999970245363,14|10,0:0|0:0,0:0:0:0:
232,280,52017,2,0,L|246:198,1,64.9999970245363,10|0,1:2|0:0,0:0:0:0:
190,152,52317,6,0,P|180:118|225:54,2,110.000003356934,14|0|10,0:0|0:0|0:0,0:0:0:0:
271,137,53067,1,10,0:0:0:0:
343,181,53217,2,2,L|345:194,4,13.7500004196167,10|0|0|0|0,0:0|0:0|0:0|0:0|0:0,0:1:0:0:
379,107,53517,5,14,0:0:0:0:
