osu file format v14

[General]
AudioFilename: audio.mp3
AudioLeadIn: 0
PreviewTime: 42717
Countdown: 0
SampleSet: Soft
StackLeniency: 0.4
Mode: 0
LetterboxInBreaks: 0
WidescreenStoryboard: 1

[Editor]
DistanceSpacing: 0.75
BeatDivisor: 4
GridSize: 32
TimelineZoom: 3.999998

[Metadata]
Title:In the soil, daily life with a sardine
TitleUnicode:土屋的イワシがくる生活
Artist:SakiZ
ArtistUnicode:SakiZ
Creator:eiri-
Version:Alex's Insane
Source:
Tags:Ayyri Djulus Yooh At the Ryugu, Daily Life on Turtle Back ころんば イワシがつちからはえてくるんだ Iwashi ga Tsuchi kara Haete Kurunda Kasane Teto UTAU Japanese Electronic MAD
BeatmapID:2241293
BeatmapSetID:1067029

[Difficulty]
HPDrainRate:5
CircleSize:3.8
OverallDifficulty:8.2
ApproachRate:9
SliderMultiplier:2
SliderTickRate:1

[Events]
//Background and Video events
0,0,"Sardine.png",0,0
Video,0,"Fish.avi"
//Break Periods
//Storyboard Layer 0 (Background)
//Storyboard Layer 1 (Fail)
//Storyboard Layer 2 (Pass)
//Storyboard Layer 3 (Foreground)
//Storyboard Layer 4 (Overlay)
//Storyboard Sound Samples

[TimingPoints]
76,447.761194029851,4,2,1,60,1,0
972,396.694214876033,4,2,1,60,1,0
1755,358.208955223881,4,2,1,60,1,0
2475,326.086956521739,4,2,1,60,1,0
3117,300,4,2,1,60,1,0
5517,-100,4,2,1,60,0,0
5667,-100,4,2,1,70,0,0
5742,-100,4,2,1,60,0,0
8067,-100,4,2,1,70,0,0
8217,-100,4,2,1,60,0,0
10017,-100,4,2,1,70,0,0
10092,-100,4,2,1,65,0,0
10167,-100,4,2,1,60,0,0
10242,-100,4,2,1,55,0,0
10317,-100,4,2,1,70,0,0
19317,-100,4,2,1,70,0,1
19917,-100,4,2,1,70,0,0
23217,-100,4,2,1,70,0,0
23517,-100,4,2,1,70,0,0
23667,-100,4,2,1,70,0,0
23817,-100,4,2,1,60,0,0
23967,-100,4,2,1,55,0,0
24192,-100,4,2,1,60,0,0
24267,-100,4,2,1,65,0,0
24342,-100,4,2,1,70,0,0
24417,-100,4,2,1,70,0,0
24717,-117.647058823529,4,2,1,70,0,0
26817,-100,4,2,1,70,0,0
31317,-100,4,2,1,70,0,0
31617,-100,4,2,1,70,0,0
34317,-125,4,2,1,70,0,0
35517,-100,4,2,1,70,0,0
39117,-100,4,2,1,70,0,0
43917,-90.9090909090909,4,2,1,70,0,1
48417,-100,4,2,1,70,0,0
48717,-90.9090909090909,4,2,1,70,0,1
52317,-100,4,2,1,60,0,0

[Colours]
Combo1 : 152,197,241
Combo2 : 245,154,245
Combo3 : 241,202,143
Combo4 : 181,238,147

[HitObjects]
256,192,4317,5,14,0:0:0:0:
260,160,4917,2,0,L|253:101,1,50,10|0,0:0|0:0,0:0:0:0:
172,143,5067,2,0,L|166:93,1,50,10|0,0:0|0:0,0:0:0:0:
79,40,5217,6,2,L|59:0,6,25,10|0|0|0|0|0|0,0:0|0:0|0:0|0:0|0:0|0:0|0:0,0:1:0:0:
35,13,5517,6,0,L|19:146,1,100,14|0,0:0|0:0,0:0:0:0:
42,146,5742,1,0,0:0:0:0:
42,146,5817,2,0,L|33:265,1,100,2|2,1:2|0:0,0:0:0:0:
112,374,6117,1,10,0:0:0:0:
202,308,6267,1,2,0:0:0:0:
326,379,6417,2,0,P|360:335|361:279,1,100,2|2,1:2|0:0,0:0:0:0:
286,173,6717,5,10,0:0:0:0:
393,201,6867,1,2,0:0:0:0:
393,201,6942,1,2,0:0:0:0:
393,201,7017,1,2,1:2:0:0:
266,267,7167,1,2,0:0:0:0:
219,107,7317,2,0,P|274:82|327:91,1,100,10|0,0:0|0:0,0:0:0:0:
179,208,7617,1,2,1:2:0:0:
127,93,7767,1,2,0:0:0:0:
77,247,7917,6,0,L|96:366,1,100,10|0,0:0|0:0,0:0:0:0:
179,208,8217,2,0,P|229:189|291:207,1,100,2|2,1:2|0:0,0:0:0:0:
331,340,8517,1,10,0:0:0:0:
235,274,8667,1,2,0:0:0:0:
363,157,8817,2,0,L|351:272,1,100,2|0,1:2|0:0,0:0:0:0:
494,177,9117,6,0,B|391:171|427:82|294:87,1,200,10|2,0:0|1:2,0:0:0:0:
222,169,9567,1,2,0:0:0:0:
147,43,9717,2,0,L|130:102,1,50,10|10,0:0|0:0,0:0:0:0:
45,98,9867,2,0,L|68:154,1,50,10|10,0:0|0:0,0:0:0:0:
121,226,10017,1,2,1:2:0:0:
100,240,10092,1,2,1:2:0:0:
81,256,10167,1,2,1:2:0:0:
61,271,10242,1,2,1:2:0:0:
44,289,10317,6,0,P|92:290|137:318,1,100,14|0,0:0|0:0,0:0:0:0:
245,380,10617,2,0,P|293:379|338:351,1,100,2|2,1:2|0:0,0:0:0:0:
280,198,10917,2,0,L|272:306,1,100,10|0,0:0|0:0,0:0:0:0:
193,108,11217,2,0,L|185:216,1,100,2|2,1:2|0:0,0:0:0:0:
301,94,11517,6,0,P|350:113|378:161,1,100,10|2,0:0|0:0,0:0:0:0:
310,293,11817,2,0,L|272:175,1,100,0|2,1:0|0:0,0:0:0:0:
389,332,12117,1,10,0:0:0:0:
246,342,12267,1,2,0:0:0:0:
246,342,12342,1,2,0:0:0:0:
246,342,12417,1,2,1:2:0:0:
389,256,12567,1,10,0:0:0:0:
198,173,12717,6,0,L|90:162,1,100,10|8,0:0|0:0,0:0:0:0:
212,263,13017,1,10,1:2:0:0:
267,97,13167,1,10,0:0:0:0:
267,97,13242,1,10,0:0:0:0:
267,97,13317,2,0,L|159:86,1,100,10|10,0:0|0:0,0:0:0:0:
141,97,13542,1,2,0:0:0:0:
141,97,13617,1,10,1:2:0:0:
290,15,13767,1,10,0:0:0:0:
290,15,13842,1,2,0:0:0:0:
290,15,13917,6,0,P|339:44|356:100,1,100,14|10,0:0|0:0,0:0:0:0:
362,110,14142,1,2,0:0:0:0:
362,110,14217,2,0,P|370:165|410:206,1,100,14|0,1:2|0:0,0:0:0:0:
482,162,14517,1,10,0:0:0:0:
482,162,14592,1,10,0:0:0:0:
482,162,14667,1,14,0:0:0:0:
419,281,14817,1,14,0:0:0:0:
419,281,14967,1,14,0:0:0:0:
296,212,15117,5,14,0:0:0:0:
200,247,15267,1,2,0:0:0:0:
179,261,15342,1,2,0:0:0:0:
155,269,15417,2,0,L|107:251,1,50,2|2,1:2|0:0,0:0:0:0:
49,174,15567,2,0,L|97:156,1,50,2|2,0:0|0:0,0:0:0:0:
162,83,15717,2,0,L|114:65,3,50,10|2|2|2,0:0|0:0|0:0|0:0,0:0:0:0:
113,36,16017,2,0,L|234:25,1,100,2|0,1:2|0:0,0:0:0:0:
309,76,16317,6,0,L|323:134,1,50,10|2,0:0|0:0,0:0:0:0:
409,132,16467,2,0,L|395:190,1,50,2|2,0:0|0:0,0:0:0:0:
321,237,16617,1,2,1:2:0:0:
434,291,16767,1,2,0:0:0:0:
434,291,16842,2,0,P|382:291|341:322,2,100,2|2|2,0:0|0:0|0:0,0:0:0:0:
498,210,17292,2,0,L|476:89,1,100,2|2,0:0|0:0,0:0:0:0:
453,86,17517,6,0,P|422:108|382:117,2,50,10|2|2,0:0|0:0|0:0,0:0:0:0:
340,36,17817,1,2,1:2:0:0:
276,110,17967,1,2,0:0:0:0:
276,110,18042,1,2,0:0:0:0:
186,49,18192,1,2,0:0:0:0:
186,49,18267,2,0,P|160:68|134:82,1,50,2|2,0:0|0:0,0:0:0:0:
55,77,18417,2,0,L|77:145,3,50,2|2|2|2,1:2|0:0|0:0|0:0,0:0:0:0:
63,212,18717,6,0,P|93:207|115:200,1,50,10|2,0:0|0:0,0:0:0:0:
183,252,18867,1,2,0:0:0:0:
183,252,18942,2,0,P|193:223|198:200,1,50,2|0,0:0|1:0,0:0:0:0:
274,168,19092,1,2,0:0:0:0:
274,168,19167,2,0,P|253:144|236:129,1,50,2|2,0:0|0:0,0:0:0:0:
172,62,19317,6,0,L|155:137,1,50,10|10,0:0|0:0,0:0:0:0:
266,57,19467,2,0,L|249:132,1,50,10|10,0:0|0:0,0:0:0:0:
352,113,19617,1,2,1:2:0:0:
353,137,19692,1,2,0:0:0:0:
355,162,19767,1,2,1:2:0:0:
357,186,19842,1,2,0:0:0:0:
358,210,19917,6,0,L|335:323,1,100,14|0,0:0|0:0,0:0:0:0:
264,201,20217,1,2,1:2:0:0:
227,307,20367,1,2,0:0:0:0:
170,178,20517,2,0,L|148:73,1,100,10|2,0:0|0:0,0:0:0:0:
312,43,20817,2,0,L|211:27,1,100,2|2,1:2|0:0,0:0:0:0:
88,6,21117,5,10,0:0:0:0:
0,83,21267,1,2,0:0:0:0:
163,141,21417,2,0,P|130:101|78:91,1,100,2|0,1:2|0:0,0:0:0:0:
153,234,21717,2,0,P|204:225|238:185,1,100,10|0,0:0|0:0,0:0:0:0:
259,174,21942,1,2,0:0:0:0:
259,174,22017,2,0,L|277:286,1,100,2|10,1:2|0:0,0:0:0:0:
348,122,22317,5,14,0:0:0:0:
425,182,22467,2,0,P|404:205|384:216,2,50,10|2|14,0:0|0:0|1:2,0:0:0:0:
425,51,22767,2,0,P|404:28|384:17,2,50,10|10|14,0:0|0:0|0:0,0:0:0:0:
316,135,23067,1,10,0:0:0:0:
294,128,23142,1,10,0:0:0:0:
270,113,23217,2,2,L|257:75,6,25,6|0|0|0|0|0|0,1:2|0:0|0:0|0:0|0:0|0:0|0:0,0:1:0:0:
237,57,23517,6,0,P|204:80|143:81,1,100,14|2,0:0|0:0,0:0:0:0:
56,157,23817,2,0,P|105:155|147:181,1,100,2|2,0:0|0:0,0:0:0:0:
259,239,24117,6,0,L|195:253,1,50,10|10,0:0|0:0,0:0:0:0:
135,321,24267,2,0,L|199:335,1,50,10|10,0:0|0:0,0:0:0:0:
299,369,24417,6,0,P|327:360|353:344,1,50,2|2,1:2|1:2,0:0:0:0:
412,282,24567,2,0,P|431:259|445:232,1,50,2|2,1:2|1:2,0:0:0:0:
354,129,24717,6,0,L|367:219,1,85.0000016212464,14|2,0:0|0:0,0:0:0:0:
292,258,25017,2,0,P|249:261|202:245,1,85.0000016212464
148,144,25317,1,10,0:0:0:0:
148,144,25467,1,10,0:0:0:0:
74,228,25617,1,0,0:0:0:0:
27,146,25767,1,0,0:0:0:0:
144,62,25917,6,0,P|186:66|222:100,1,85.0000016212464,10|2,0:0|0:0,0:0:0:0:
234,121,26142,1,10,0:0:0:0:
234,121,26217,2,0,L|341:107,1,85.0000016212464,10|10,0:0|0:0,0:0:0:0:
405,190,26517,2,0,L|314:203,1,85.0000016212464,10|8,0:0|0:0,0:0:0:0:
267,286,26817,6,0,L|261:328,6,25,10|0|0|0|10|0|0,0:0|0:0|0:0|0:0|0:0|0:0|0:0,0:0:0:0:
276,355,27117,6,0,P|231:340|175:352,1,100,14|0,0:0|0:0,0:0:0:0:
96,265,27417,2,0,L|98:364,1,100,2|0,1:2|0:0,0:0:0:0:
168,201,27717,2,0,P|216:210|263:195,1,100,10|0,0:0|0:0,0:0:0:0:
321,40,28017,2,0,L|324:140,1,100,2|2,1:2|0:0,0:0:0:0:
406,270,28317,5,10,0:0:0:0:
406,270,28467,1,10,0:0:0:0:
461,168,28617,1,10,1:2:0:0:
461,168,28767,1,10,0:0:0:0:
489,318,28917,2,0,L|482:374,3,50,10|8|8|8,0:0|0:0|0:0|0:0,0:0:0:0:
399,319,29217,2,0,L|406:263,3,50,2|8|8|8,1:2|0:0|0:0|0:0,0:0:0:0:
395,232,29517,5,14,0:0:0:0:
295,287,29667,1,14,0:0:0:0:
177,200,29817,2,0,L|156:298,1,100,2|2,1:2|0:0,0:0:0:0:
0,248,30117,2,0,P|43:226|105:241,1,100,10|2,0:0|0:0,0:0:0:0:
236,141,30417,2,0,P|193:119|131:134,1,100,2|2,1:2|0:0,0:0:0:0:
287,233,30717,6,0,L|337:139,1,100,10|2,0:0|0:0,0:0:0:0:
342,118,30942,1,2,0:0:0:0:
342,118,31017,2,0,P|395:131|447:111,1,100,2|2,1:2|0:0,0:0:0:0:
511,247,31317,2,0,P|440:233|372:291,1,150,10|0,0:0|0:0,0:0:0:0:
370,309,31617,2,0,L|266:306,1,100,2|2,1:2|0:0,0:0:0:0:
179,157,31917,6,0,P|208:216|199:266,1,100,10|0,0:0|0:0,0:0:0:0:
80,136,32217,1,2,1:2:0:0:
19,254,32367,2,0,L|125:223,1,100,2|8,0:0|0:0,0:0:0:0:
177,340,32667,1,2,0:0:0:0:
177,340,32742,1,2,0:0:0:0:
177,340,32817,2,0,L|285:310,1,100,2|2,1:2|0:0,0:0:0:0:
344,222,33117,5,10,0:0:0:0:
248,176,33267,1,10,0:0:0:0:
370,131,33417,1,10,1:2:0:0:
243,67,33567,1,14,0:0:0:0:
260,48,33867,2,0,L|189:36,1,50,14|0,0:0|0:0,0:0:0:0:
112,68,34017,2,0,L|89:34,6,25,0|0|0|0|14|0|0,0:0|0:0|0:0|0:0|0:0|0:0|0:0,0:0:0:0:
62,33,34317,5,10,0:0:0:0:
18,138,34467,1,2,0:0:0:0:
18,138,34542,1,2,0:0:0:0:
18,138,34617,2,0,P|37:201|29:246,1,80,2|2,1:2|0:0,0:0:0:0:
0,311,34917,1,10,0:0:0:0:
123,383,35067,1,2,0:0:0:0:
123,383,35142,1,2,0:0:0:0:
123,383,35217,2,0,L|234:376,1,80,2|2,1:2|0:0,0:0:0:0:
294,283,35517,6,0,L|307:226,1,50,10|2,0:0|0:0,0:0:0:0:
227,195,35667,2,0,L|214:138,1,50,2|2,0:0|0:0,0:0:0:0:
303,128,35817,2,0,L|316:56,1,50,2|2,1:2|0:0,0:0:0:0:
225,60,35967,2,0,L|212:-12,1,50,2|2,0:2|0:0,0:0:0:0:
139,54,36117,1,10,0:0:0:0:
22,10,36267,1,0,0:0:0:0:
22,10,36342,1,2,0:0:0:0:
22,10,36417,2,0,L|18:109,1,100,2|2,1:2|0:0,0:0:0:0:
53,244,36717,5,10,0:0:0:0:
143,219,36867,1,10,0:0:0:0:
218,304,37017,2,0,L|336:288,1,100,10|10,1:2|0:0,0:0:0:0:
354,304,37242,1,10,0:0:0:0:
354,304,37317,1,10,0:0:0:0:
461,329,37467,1,2,0:0:0:0:
434,167,37617,2,0,P|414:220|426:270,1,100,2|2,1:2|0:0,0:0:0:0:
512,103,37917,6,0,L|407:68,1,100,10|2,0:0|0:0,0:0:0:0:
387,64,38142,1,2,0:0:0:0:
387,64,38217,2,0,L|347:156,1,100,2|2,1:2|0:0,0:0:0:0:
235,231,38517,5,10,0:0:0:0:
208,208,38592,1,10,0:0:0:0:
175,197,38667,1,10,0:0:0:0:
140,200,38742,1,10,0:0:0:0:
109,215,38817,5,2,1:2:0:0:
100,235,38892,1,2,1:2:0:0:
93,255,38967,1,2,1:2:0:0:
86,274,39042,1,2,1:2:0:0:
79,294,39117,6,0,P|128:291|187:326,1,100,14|2,0:0|0:0,0:0:0:0:
317,366,39417,2,0,P|361:344|411:347,1,100,2|2,1:2|0:0,0:0:0:0:
512,267,39717,1,10,0:0:0:0:
409,193,39867,1,2,0:0:0:0:
409,193,40017,1,2,1:2:0:0:
412,331,40167,1,8,0:0:0:0:
287,204,40317,6,0,P|246:174|173:170,1,100,14|2,0:0|0:0,0:0:0:0:
322,93,40617,2,0,P|370:84|410:54,1,100,2|2,1:2|0:0,0:0:0:0:
428,205,40917,2,0,L|424:326,1,100,14|10,0:0|0:0,0:0:0:0:
292,381,41217,2,0,L|297:271,1,100,14|10,1:2|0:0,0:0:0:0:
136,320,41517,5,14,0:0:0:0:
139,200,41667,2,0,L|116:145,2,50,10|2|14,0:0|0:0|1:2,0:0:0:0:
235,128,41967,2,0,L|258:73,2,50,10|10|14,0:0|0:0|0:0,0:0:0:0:
138,42,42267,1,8,0:0:0:0:
138,42,42342,1,8,0:0:0:0:
138,42,42417,2,0,P|113:31|96:26,6,25,10|0|10|0|10|0|10,1:2|0:0|0:0|0:0|0:0|0:0|0:0,0:0:0:0:
143,60,42717,6,0,B|151:138|151:138|122:176|122:176|126:263,1,200,14|2,0:0|0:0,0:0:0:0:
153,294,43317,1,10,0:0:0:0:
153,294,43392,1,10,0:0:0:0:
153,294,43467,1,10,0:0:0:0:
153,294,43542,1,10,0:0:0:0:
153,294,43617,2,0,L|165:328,6,25,10|0|10|0|10|0|10,1:2|0:0|1:2|0:0|1:2|0:0|1:2,0:0:0:0:
166,270,43917,6,0,L|279:254,1,110.000003356934,14|0,0:0|0:0,0:0:0:0:
308,280,44142,2,0,L|420:249,1,110.000003356934,2|0,0:0|0:0,0:0:0:0:
433,214,44367,1,2,0:0:0:0:
343,123,44517,1,10,0:0:0:0:
419,77,44667,1,2,0:0:0:0:
270,19,44817,1,2,1:2:0:0:
362,20,44967,1,2,0:0:0:0:
255,133,45117,6,0,P|198:148|143:121,1,110.000003356934,10|2,0:0|0:0,0:0:0:0:
137,91,45342,2,0,L|106:210,1,110.000003356934,2|2,0:0|0:0,0:0:0:0:
77,225,45567,2,0,L|95:282,1,55.0000016784668,2|2,0:0|0:0,0:0:0:0:
158,339,45717,2,0,P|209:303|262:295,1,110.000003356934,10|2,0:0|0:0,0:0:0:0:
384,379,46017,1,2,1:2:0:0:
260,378,46167,1,2,0:0:0:0:
367,246,46317,6,0,L|244:213,1,110.000003356934,10|0,0:0|0:0,0:0:0:0:
231,188,46542,2,0,L|103:215,1,110.000003356934,2|2,0:0|0:0,0:0:0:0:
101,246,46767,1,2,0:0:0:0:
15,159,46917,1,10,0:0:0:0:
55,78,47067,1,2,0:0:0:0:
162,117,47217,2,0,P|194:111|219:94,1,55.0000016784668,2|2,1:2|0:0,0:0:0:0:
299,45,47367,2,0,P|275:31|248:27,1,55.0000016784668,2|2,0:0|0:0,0:0:0:0:
304,135,47517,5,10,0:0:0:0:
408,102,47667,1,2,0:0:0:0:
408,102,47742,1,2,0:0:0:0:
408,102,47817,2,0,L|413:32,3,55.0000016784668,0|2|2|2,1:0|0:0|0:0|0:0,0:0:0:0:
440,25,48117,1,10,0:0:0:0:
510,119,48267,1,10,0:0:0:0:
415,214,48417,1,14,1:2:0:0:
396,230,48717,6,0,P|348:205|283:214,1,110.000003356934,14|0,0:0|0:0,0:0:0:0:
261,234,48942,2,0,P|201:242|149:209,1,110.000003356934,2|0,0:0|0:0,0:0:0:0:
137,185,49167,1,0,0:0:0:0:
178,35,49317,1,10,0:0:0:0:
220,124,49467,1,2,0:0:0:0:
96,47,49617,1,2,1:2:0:0:
54,127,49767,1,10,0:0:0:0:
220,124,49917,6,0,L|333:122,1,110.000003356934,14|2,0:0|0:0,0:0:0:0:
360,94,50142,2,0,L|475:93,1,110.000003356934,2|0,0:2|0:0,0:2:0:0:
501,121,50367,1,10,0:0:0:0:
501,121,50442,1,10,0:0:0:0:
501,121,50517,2,0,P|476:173|486:237,1,110.000003356934,14|10,0:0|0:0,0:0:0:0:
439,356,50817,1,6,1:2:0:0:
297,273,50967,1,2,0:0:0:0:
297,273,51042,1,2,0:0:0:0:
297,273,51117,6,0,L|182:252,1,110.000003356934,14|0,0:0|0:0,0:0:0:0:
148,261,51342,2,0,P|173:210|150:143,1,110.000003356934,2|2,0:0|0:0,0:0:0:0:
136,127,51567,1,2,0:0:0:0:
155,90,51642,1,2,0:0:0:0:
194,79,51717,1,14,0:0:0:0:
234,85,51792,1,10,0:0:0:0:
271,101,51867,1,10,0:0:0:0:
311,94,51942,1,10,0:0:0:0:
341,66,52017,6,0,B|316:149|391:136|350:251,1,165.000005035401,10|0,1:2|0:0,0:0:0:0:
332,253,52317,5,14,0:0:0:0:
