osu file format v14

[General]
AudioFilename: audio.mp3
AudioLeadIn: 0
PreviewTime: 42717
Countdown: 0
SampleSet: Soft
StackLeniency: 0.4
Mode: 0
LetterboxInBreaks: 0
WidescreenStoryboard: 0

[Editor]
Bookmarks: 76,5517,10317,15117,19917,24717,29517,34317,39117,43917,48417,48717,52317,53517
DistanceSpacing: 0.8
BeatDivisor: 4
GridSize: 32
TimelineZoom: 4.299998

[Metadata]
Title:In the soil, daily life with a sardine
TitleUnicode:土屋的イワシがくる生活
Artist:SakiZ
ArtistUnicode:SakiZ
Creator:eiri-
Version:Advanced
Source:
Tags:Ayyri Djulus Yooh At the Ryugu, Daily Life on Turtle Back ころんば イワシがつちからはえてくるんだ Iwashi ga Tsuchi kara Haete Kurunda Kasane Teto UTAU Japanese Electronic MAD
BeatmapID:2233985
BeatmapSetID:1067029

[Difficulty]
HPDrainRate:4
CircleSize:3.5
OverallDifficulty:6
ApproachRate:7
SliderMultiplier:1.4
SliderTickRate:1

[Events]
//Background and Video events
0,0,"Sardine.png",0,0
Video,0,"Fish.avi"
//Break Periods
//Storyboard Layer 0 (Background)
//Storyboard Layer 1 (Fail)
//Storyboard Layer 2 (Pass)
//Storyboard Layer 3 (Foreground)
//Storyboard Layer 4 (Overlay)
//Storyboard Sound Samples

[TimingPoints]
76,447.761194029851,4,2,1,60,1,0
972,396.694214876033,4,2,1,60,1,0
1755,358.208955223881,4,2,1,60,1,0
2475,326.086956521739,4,2,1,60,1,0
3117,300,4,2,1,60,1,0
5517,-100,4,2,1,70,0,0
10017,-100,4,2,1,70,0,0
10167,-100,4,2,1,60,0,0
10317,-100,4,2,1,70,0,0
23517,-100,4,2,1,70,0,0
24117,-100,4,2,1,70,0,0
24267,-100,4,2,1,65,0,0
24417,-100,4,2,1,70,0,0
39117,-100,4,2,1,70,0,0
43917,-100,4,2,1,70,0,1
48417,-100,4,2,1,70,0,0
48717,-100,4,2,1,70,0,1
52317,-100,4,2,1,60,0,0

[Colours]
Combo1 : 152,197,241
Combo2 : 245,154,245
Combo3 : 241,202,143
Combo4 : 181,238,147

[HitObjects]
256,192,4317,5,14,0:0:0:0:
445,308,4917,1,10,0:0:0:0:
445,308,5067,1,10,0:0:0:0:
445,308,5217,2,0,L|363:323,1,70,10|0,0:0|0:0,0:0:0:0:
325,297,5517,6,0,P|352:242|422:184,1,140,14|2,0:0|1:2,0:0:0:0:
462,210,5967,1,2,0:0:0:0:
462,210,6117,1,10,0:0:0:0:
498,104,6417,1,2,1:2:0:0:
392,65,6717,6,0,P|347:81|314:85,1,70,10|2,0:0|0:0,0:0:0:0:
272,64,7017,2,0,P|227:48|194:44,1,70,2|2,1:2|0:0,0:0:0:0:
153,65,7317,1,10,0:0:0:0:
186,171,7617,1,2,1:2:0:0:
105,248,7917,6,0,L|121:397,1,140,10|2,0:0|1:2,0:0:0:0:
155,343,8367,1,2,0:0:0:0:
155,343,8517,2,0,L|234:360,1,70,10|2,0:0|0:0,0:0:0:0:
264,319,8817,2,0,L|343:302,1,70,2|0,1:2|0:0,0:0:0:0:
386,318,9117,2,0,B|412:240|412:240|385:160,1,140,10|2,0:0|1:2,0:0:0:0:
350,81,9717,6,0,B|281:83|279:18|195:45,1,140,10|2,0:0|1:2,0:0:0:0:
179,80,10167,1,2,1:2:0:0:
179,80,10317,6,0,L|192:224,1,140,14|2,0:0|1:2,0:0:0:0:
132,314,10917,1,10,0:0:0:0:
37,253,11217,1,2,1:2:0:0:
108,166,11517,2,0,P|90:121|69:98,1,70,10|2,0:0|0:0,0:0:0:0:
31,71,11817,1,0,1:0:0:0:
31,71,11967,1,2,0:0:0:0:
31,71,12117,2,0,L|110:78,1,70,10|2,0:0|0:0,0:0:0:0:
142,40,12417,2,0,L|221:33,1,70,2|10,1:2|0:0,0:0:0:0:
254,69,12717,5,10,0:0:0:0:
244,180,13017,1,10,1:2:0:0:
244,180,13167,1,10,0:0:0:0:
244,180,13317,1,10,0:0:0:0:
354,196,13617,1,10,1:2:0:0:
364,85,13917,6,0,L|448:108,1,70,14|10,0:0|0:0,0:0:0:0:
482,125,14217,2,0,L|459:209,1,70,14|0,1:2|0:0,0:0:0:0:
476,246,14517,1,10,0:0:0:0:
476,246,15117,6,0,P|427:260|340:310,1,140,14|2,0:0|1:2,0:0:0:0:
310,343,15567,1,2,0:0:0:0:
310,343,15717,2,0,L|292:259,1,70,10|2,0:0|0:0,0:0:0:0:
311,220,16017,1,2,1:2:0:0:
205,256,16317,2,0,L|56:276,1,140,10|2,0:0|1:2,0:0:0:0:
28,199,16842,2,0,L|39:101,2,70,2|2|2,0:0|0:0|0:0,0:0:0:0:
28,199,17292,1,2,0:0:0:0:
108,176,17517,6,0,L|126:24,1,140,10|2,0:0|1:2,0:0:0:0:
158,81,17967,1,2,0:0:0:0:
158,81,18117,2,0,L|236:93,1,70,8|2,0:0|0:0,0:0:0:0:
270,56,18417,2,0,L|348:44,1,70,2|2,1:2|0:0,0:0:0:0:
387,74,18717,5,10,0:0:0:0:
342,145,18942,1,2,0:0:0:0:
396,213,19167,1,2,0:0:0:0:
396,213,19317,2,0,B|335:236|335:236|321:310|321:310|246:344,1,210,10|2,0:0|1:2,0:0:0:0:
207,364,19917,6,0,P|158:333|175:246,1,140,14|2,0:0|1:2,0:0:0:0:
204,221,20367,1,2,0:0:0:0:
204,221,20517,2,0,L|181:75,1,140,10|2,0:0|1:2,0:0:0:0:
283,129,21117,6,0,P|336:142|362:142,1,70,10|2,0:0|0:0,0:0:0:0:
402,118,21417,1,2,1:2:0:0:
474,203,21717,2,0,L|466:297,1,70,10|2,0:0|0:0,0:0:0:0:
484,326,22017,1,2,1:2:0:0:
484,326,22167,1,10,0:0:0:0:
484,326,22317,6,0,P|442:286|347:283,1,140,14|14,0:0|1:2,0:0:0:0:
317,309,22767,1,10,0:0:0:0:
317,309,22917,2,0,L|234:294,1,70,14|10,0:0|0:0,0:0:0:0:
202,328,23217,2,0,L|119:343,1,70,6|0,1:2|0:0,0:0:0:0:
83,314,23517,5,14,0:0:0:0:
83,314,24117,2,0,L|77:234,2,70,10|10|2,0:0|0:0|1:2,0:0:0:0:
188,352,24717,5,14,0:0:0:0:
141,132,25317,1,10,0:0:0:0:
141,132,25467,1,10,0:0:0:0:
297,192,25917,6,0,P|364:195|451:166,1,140,10|10,0:0|0:0,0:0:0:0:
468,130,26367,1,10,0:0:0:0:
468,130,26517,1,10,0:0:0:0:
386,52,26817,2,0,L|311:72,1,70,10|10,0:0|0:0,0:0:0:0:
266,89,27117,5,14,0:0:0:0:
167,35,27417,1,2,1:2:0:0:
107,129,27717,1,10,0:0:0:0:
206,183,28017,2,0,L|217:272,1,70,2|2,1:2|0:0,0:0:0:0:
247,297,28317,5,10,0:0:0:0:
247,297,28467,1,10,0:0:0:0:
247,297,28617,2,0,P|304:273|337:267,1,70,10|10,1:2|0:0,0:0:0:0:
360,299,28917,2,0,P|414:296|436:207,1,140,10|2,0:0|1:2,0:0:0:0:
363,144,29517,5,14,0:0:0:0:
363,144,29667,1,14,0:0:0:0:
363,144,29817,2,0,L|372:49,1,70,2|2,1:2|0:0,0:0:0:0:
377,18,30117,1,10,0:0:0:0:
273,61,30417,1,2,1:2:0:0:
165,30,30717,6,0,P|183:68|192:120,1,70,10|2,0:0|0:0,0:0:0:0:
219,142,31017,2,0,P|204:181|174:224,1,70,2|2,1:2|0:0,0:0:0:0:
143,236,31317,1,10,0:0:0:0:
34,207,31617,1,2,1:2:0:0:
34,207,31767,1,2,0:0:0:0:
34,207,31917,6,0,P|47:275|71:360,1,140,10|2,0:0|1:2,0:0:0:0:
109,378,32367,1,2,0:0:0:0:
204,319,32667,1,2,0:0:0:0:
204,319,32817,2,0,L|294:332,1,70,2|2,1:2|0:0,0:0:0:0:
318,362,33117,5,10,0:0:0:0:
402,289,33417,1,10,1:2:0:0:
402,289,33567,1,14,0:0:0:0:
324,207,33867,2,0,L|338:45,1,140,14|14,0:0|0:0,0:0:0:0:
315,15,34317,5,10,0:0:0:0:
206,41,34617,1,2,1:2:0:0:
130,123,34917,1,10,0:0:0:0:
21,97,35217,1,2,1:2:0:0:
49,205,35517,6,0,L|31:303,1,70,10|2,0:0|0:0,0:0:0:0:
57,326,35817,1,2,1:2:0:0:
165,299,36117,2,0,P|218:323|296:342,1,105,10|2,0:0|0:0,0:0:0:0:
280,253,36567,1,2,0:0:0:0:
280,253,36717,6,0,L|290:166,1,70,10|10,0:0|0:0,0:0:0:0:
327,143,37017,2,0,L|317:56,1,70,10|10,1:2|0:0,0:0:0:0:
309,17,37317,1,10,0:0:0:0:
416,47,37617,1,2,1:2:0:0:
376,151,37917,2,0,P|395:200|404:248,1,70,10|2,0:0|0:0,0:0:0:0:
372,266,38217,2,0,L|281:257,1,70,2|2,1:2|0:0,0:0:0:0:
254,229,38517,6,0,B|189:231|185:162|104:178,1,140,10|2,0:0|1:2,0:0:0:0:
90,216,38967,1,2,1:2:0:0:
90,216,39117,6,0,P|48:181|44:152,1,70,14|2,0:0|0:0,0:0:0:0:
62,114,39417,1,2,1:2:0:0:
152,48,39717,2,0,P|208:61|227:61,1,70,10|2,0:0|0:0,0:0:0:0:
273,45,40017,1,2,1:2:0:0:
273,45,40167,1,8,0:0:0:0:
273,45,40317,6,0,P|257:138|250:203,1,140,14|2,0:0|1:2,0:0:0:0:
322,270,40917,2,0,L|418:258,1,70,14|10,0:0|0:0,0:0:0:0:
447,251,41217,2,0,P|465:216|458:177,1,70,14|10,1:2|0:0,0:0:0:0:
431,138,41517,5,14,0:0:0:0:
431,138,41667,1,10,0:0:0:0:
431,138,41817,1,14,1:2:0:0:
351,216,42117,1,14,0:0:0:0:
351,216,42267,2,0,L|269:209,1,70,8|10,0:0|1:2,0:0:0:0:
240,248,42567,1,10,0:0:0:0:
240,248,42717,5,14,0:0:0:0:
240,248,43317,2,0,L|246:172,1,70,10|10,0:0|0:0,0:0:0:0:
248,122,43617,2,0,L|168:137,1,70,10|10,1:2|1:2,0:0:0:0:
139,174,43917,6,0,L|-11:146,1,140,14|0,0:0|1:0,0:0:0:0:
50,121,44367,1,2,0:0:0:0:
50,121,44517,1,10,0:0:0:0:
27,11,44817,1,2,1:2:0:0:
137,30,45117,6,0,B|233:15|233:15|246:37|229:65,1,140,10|2,0:0|1:2,0:0:0:0:
206,104,45567,1,2,0:0:0:0:
206,104,45717,1,10,0:0:0:0:
308,150,46017,2,0,L|299:242,1,70,2|2,1:2|0:0,0:0:0:0:
319,272,46317,6,0,P|382:254|476:238,1,140,10|0,0:0|1:0,0:0:0:0:
423,286,46767,1,2,0:0:0:0:
423,286,46917,1,10,0:0:0:0:
339,360,47217,2,0,L|248:352,1,70,2|2,1:2|0:0,0:0:0:0:
222,322,47517,6,0,L|74:335,1,140,10|2,0:0|1:2,0:0:0:0:
35,303,47967,1,2,0:0:0:0:
35,303,48117,2,0,P|55:258|59:210,1,70,10|10,0:0|0:0,0:0:0:0:
39,184,48417,1,14,1:2:0:0:
150,190,48717,6,0,L|127:35,1,140,14|0,0:0|1:0,0:0:0:0:
174,84,49167,1,2,0:0:0:0:
174,84,49317,2,0,L|265:93,1,70,10|2,0:0|0:0,0:0:0:0:
285,53,49617,2,0,L|376:44,1,70,2|10,1:2|0:0,0:0:0:0:
401,76,49917,5,14,0:0:0:0:
369,183,50217,2,0,L|383:280,1,70,2|10,1:2|0:0,0:0:0:0:
390,307,50517,2,0,P|330:280|232:276,1,140,14|6,0:0|1:2,0:0:0:0:
207,299,50967,1,2,0:0:0:0:
207,299,51117,6,0,B|230:238|230:238|209:134,1,140,14|0,0:0|1:0,0:0:0:0:
198,110,51567,1,6,0:0:0:0:
198,110,51717,1,14,0:0:0:0:
107,175,52017,2,0,L|20:169,1,70,10|0,1:2|0:0,0:0:0:0:
7,122,52317,5,14,0:0:0:0:
204,16,52917,1,10,0:0:0:0:
204,16,53067,1,10,0:0:0:0:
204,16,53217,2,0,L|193:107,1,70,10|0,0:0|0:0,0:0:0:0:
211,139,53517,5,14,0:0:0:0:
