osu file format v14

[General]
AudioFilename: audio.mp3
AudioLeadIn: 0
PreviewTime: 42754
Countdown: 0
SampleSet: Normal
StackLeniency: 0.7
Mode: 1
LetterboxInBreaks: 0
WidescreenStoryboard: 1

[Editor]
DistanceSpacing: 0.9
BeatDivisor: 4
GridSize: 32
TimelineZoom: 3.799999

[Metadata]
Title:In the soil, daily life with a sardine
TitleUnicode:土屋的イワシがくる生活
Artist:SakiZ
ArtistUnicode:SakiZ
Creator:Hivie
Version:Oni
Source:
Tags:Japanese Electronic At the Ryugu, Daily Life on Turtle Back イワシがつちからはえてくるんだ Iwashi ga Tsuchi kara Haete Kurunda Kasane Teto UTAU MAD
BeatmapID:3048917
BeatmapSetID:1487079

[Difficulty]
HPDrainRate:5.5
CircleSize:7
OverallDifficulty:5.5
ApproachRate:10
SliderMultiplier:1.4
SliderTickRate:1

[Events]
//Background and Video events
0,0,"Sardine.png",0,-80
Video,0,"fish.mp4"
//Break Periods
//Storyboard Layer 0 (Background)
//Storyboard Layer 1 (Fail)
//Storyboard Layer 2 (Pass)
//Storyboard Layer 3 (Foreground)
//Storyboard Layer 4 (Overlay)
//Storyboard Sound Samples

[TimingPoints]
113,447.761194029851,4,1,0,50,1,0
113,-100,4,1,0,50,0,0
560,-97.0873786407767,4,1,0,50,0,0
1009,396.694214876033,4,1,0,50,1,8
1009,-100,4,1,0,50,0,0
1405,-97.0873786407767,4,1,0,50,0,0
1792,358.208955223881,4,1,0,50,1,0
1792,-100,4,1,0,50,0,0
2150,-97.0873786407767,4,1,0,50,0,0
2512,326.086956521739,4,1,0,50,1,8
2512,-100,4,1,0,50,0,0
2838,-97.0873786407767,4,1,0,50,0,0
3154,300,4,1,0,50,1,0
3154,-100,4,1,0,50,0,0
4354,-100,4,1,0,60,0,0
5554,-100,4,1,0,70,0,0
43429,-99.3852031334167,4,1,0,70,0,0
43504,-98.7780171498393,4,1,0,70,0,0
43654,-97.5855386038632,4,1,0,70,0,0
43729,-97.1943868297718,4,1,0,70,0,0
43804,-96.4215085530699,4,1,0,70,0,0
43879,-95.8497995301443,4,1,0,70,0,0
43954,-95.2380952380952,4,1,0,70,0,1
48454,-95.2380952380952,4,1,0,70,0,0
48754,-95.2380952380952,4,1,0,70,0,1
52354,-95.2380952380952,4,1,0,70,0,0

[HitObjects]
256,512,113,5,0,0:0:0:0:
256,512,560,1,8,0:0:0:0:
256,512,1009,1,0,0:0:0:0:
256,512,1405,1,8,0:0:0:0:
256,512,1792,1,0,0:0:0:0:
256,512,2150,1,8,0:0:0:0:
256,512,2512,1,0,0:0:0:0:
256,512,2838,1,8,0:0:0:0:
256,512,3154,1,0,0:0:0:0:
256,512,3304,1,0,0:0:0:0:
256,512,3454,1,8,0:0:0:0:
256,512,3604,1,0,0:0:0:0:
256,512,3679,1,8,0:0:0:0:
256,512,3754,1,0,0:0:0:0:
256,512,3904,1,0,0:0:0:0:
256,512,4054,1,8,0:0:0:0:
256,512,4129,1,8,0:0:0:0:
256,512,4204,1,0,0:0:0:0:
256,512,4354,1,8,0:0:0:0:
256,512,4654,1,0,0:0:0:0:
256,512,4804,1,8,0:0:0:0:
256,512,4954,1,0,0:0:0:0:
256,512,5104,1,0,0:0:0:0:
256,512,5254,1,8,0:0:0:0:
256,512,5329,1,8,0:0:0:0:
256,512,5404,1,8,0:0:0:0:
256,480,5554,1,4,0:0:0:0:
256,512,5854,1,8,0:0:0:0:
256,512,6004,1,0,0:0:0:0:
256,512,6079,1,0,0:0:0:0:
256,512,6154,1,8,0:0:0:0:
256,512,6304,1,8,0:0:0:0:
256,512,6454,1,0,0:0:0:0:
256,512,6604,1,8,0:0:0:0:
256,512,6754,1,8,0:0:0:0:
256,512,6904,1,0,0:0:0:0:
256,512,6979,1,0,0:0:0:0:
256,512,7054,1,8,0:0:0:0:
256,512,7204,1,0,0:0:0:0:
256,512,7354,1,8,0:0:0:0:
256,512,7504,1,0,0:0:0:0:
256,512,7654,1,8,0:0:0:0:
256,512,7804,1,8,0:0:0:0:
256,512,7879,1,8,0:0:0:0:
256,512,7954,1,0,0:0:0:0:
256,512,8254,1,0,0:0:0:0:
256,512,8404,1,8,0:0:0:0:
256,512,8554,1,0,0:0:0:0:
256,512,8704,1,8,0:0:0:0:
256,512,8854,1,0,0:0:0:0:
256,512,9004,1,8,0:0:0:0:
256,512,9079,1,0,0:0:0:0:
256,512,9154,1,8,0:0:0:0:
256,512,9304,1,8,0:0:0:0:
256,512,9454,1,0,0:0:0:0:
256,512,9529,1,8,0:0:0:0:
256,512,9604,1,0,0:0:0:0:
256,512,9754,1,8,0:0:0:0:
256,512,9829,1,8,0:0:0:0:
256,512,9904,1,0,0:0:0:0:
256,512,9979,1,8,0:0:0:0:
256,512,10054,1,0,0:0:0:0:
256,512,10204,1,0,0:0:0:0:
256,512,10279,1,0,0:0:0:0:
256,512,10354,1,8,0:0:0:0:
256,512,10654,1,0,0:0:0:0:
256,512,10804,1,0,0:0:0:0:
256,512,10954,1,8,0:0:0:0:
256,512,11029,1,8,0:0:0:0:
256,512,11104,1,0,0:0:0:0:
256,512,11254,1,8,0:0:0:0:
256,512,11404,1,0,0:0:0:0:
256,512,11554,1,8,0:0:0:0:
256,512,11629,1,0,0:0:0:0:
256,512,11704,1,0,0:0:0:0:
256,512,11854,1,8,0:0:0:0:
256,512,12004,1,0,0:0:0:0:
256,512,12154,1,8,0:0:0:0:
256,512,12304,1,0,0:0:0:0:
256,512,12379,1,0,0:0:0:0:
256,512,12454,1,8,0:0:0:0:
256,512,12604,1,8,0:0:0:0:
256,512,12754,1,0,0:0:0:0:
256,512,12904,1,0,0:0:0:0:
256,512,13054,1,8,0:0:0:0:
256,512,13129,1,0,0:0:0:0:
256,512,13204,1,8,0:0:0:0:
256,512,13354,1,0,0:0:0:0:
256,512,13504,1,8,0:0:0:0:
256,512,13579,1,8,0:0:0:0:
256,512,13654,1,0,0:0:0:0:
256,512,13729,1,0,0:0:0:0:
256,512,13804,1,8,0:0:0:0:
256,512,13954,1,0,0:0:0:0:
256,512,14254,1,8,0:0:0:0:
256,512,14404,1,8,0:0:0:0:
256,512,14554,1,0,0:0:0:0:
256,512,14629,1,0,0:0:0:0:
256,512,14704,1,8,0:0:0:0:
256,512,14854,1,8,0:0:0:0:
256,512,15004,1,8,0:0:0:0:
256,480,15154,1,4,0:0:0:0:
256,512,15454,1,0,0:0:0:0:
256,512,15604,1,8,0:0:0:0:
256,512,15679,1,0,0:0:0:0:
256,512,15754,1,8,0:0:0:0:
256,512,15904,1,8,0:0:0:0:
256,512,15979,1,8,0:0:0:0:
256,512,16054,1,0,0:0:0:0:
256,512,16204,1,0,0:0:0:0:
256,512,16354,1,8,0:0:0:0:
256,512,16504,1,0,0:0:0:0:
256,512,16579,1,8,0:0:0:0:
256,512,16654,1,0,0:0:0:0:
256,512,16804,1,0,0:0:0:0:
256,512,16954,1,0,0:0:0:0:
256,512,17029,1,8,0:0:0:0:
256,512,17179,1,0,0:0:0:0:
256,512,17254,1,8,0:0:0:0:
256,512,17404,1,0,0:0:0:0:
256,512,17479,1,0,0:0:0:0:
256,512,17554,1,8,0:0:0:0:
256,512,17704,1,8,0:0:0:0:
256,512,17854,1,8,0:0:0:0:
256,512,18004,1,0,0:0:0:0:
256,512,18079,1,8,0:0:0:0:
256,512,18229,1,0,0:0:0:0:
256,512,18304,1,8,0:0:0:0:
256,512,18454,1,0,0:0:0:0:
256,512,18529,1,8,0:0:0:0:
256,512,18604,1,0,0:0:0:0:
256,512,18754,1,8,0:0:0:0:
256,512,18904,1,8,0:0:0:0:
256,512,18979,1,8,0:0:0:0:
256,512,19054,1,0,0:0:0:0:
256,512,19204,1,8,0:0:0:0:
256,512,19279,1,8,0:0:0:0:
256,512,19354,1,0,0:0:0:0:
256,512,19429,1,0,0:0:0:0:
256,512,19504,1,8,0:0:0:0:
256,512,19654,1,8,0:0:0:0:
256,512,19729,1,8,0:0:0:0:
256,512,19804,1,8,0:0:0:0:
256,512,19954,1,0,0:0:0:0:
256,512,20254,1,8,0:0:0:0:
256,512,20404,1,0,0:0:0:0:
256,512,20479,1,0,0:0:0:0:
256,512,20554,1,8,0:0:0:0:
256,512,20704,1,8,0:0:0:0:
256,512,20854,1,0,0:0:0:0:
256,512,20929,1,0,0:0:0:0:
256,512,21004,1,0,0:0:0:0:
256,512,21154,1,8,0:0:0:0:
256,512,21304,1,0,0:0:0:0:
256,512,21454,1,0,0:0:0:0:
256,512,21529,1,8,0:0:0:0:
256,512,21604,1,8,0:0:0:0:
256,512,21754,1,0,0:0:0:0:
256,512,21904,1,0,0:0:0:0:
256,512,21979,1,8,0:0:0:0:
256,512,22054,1,0,0:0:0:0:
256,512,22204,1,0,0:0:0:0:
256,512,22354,1,8,0:0:0:0:
256,512,22654,1,8,0:0:0:0:
256,512,22804,1,0,0:0:0:0:
256,512,22954,1,8,0:0:0:0:
256,512,23029,1,0,0:0:0:0:
256,512,23104,1,8,0:0:0:0:
256,512,23179,1,0,0:0:0:0:
256,512,23254,1,8,0:0:0:0:
256,512,23404,1,8,0:0:0:0:
256,512,23479,1,8,0:0:0:0:
256,512,23554,1,0,0:0:0:0:
256,512,24154,1,0,0:0:0:0:
256,512,24229,1,0,0:0:0:0:
256,512,24304,1,8,0:0:0:0:
256,512,24454,1,0,0:0:0:0:
256,512,24529,1,0,0:0:0:0:
256,512,24604,1,8,0:0:0:0:
256,512,24679,1,8,0:0:0:0:
256,512,24754,1,0,0:0:0:0:
256,512,24904,1,0,0:0:0:0:
256,512,25204,1,8,0:0:0:0:
256,512,25354,1,0,0:0:0:0:
256,512,25504,1,0,0:0:0:0:
256,512,25654,1,8,0:0:0:0:
256,512,25954,1,0,0:0:0:0:
256,512,26104,1,0,0:0:0:0:
256,512,26254,1,8,0:0:0:0:
256,512,26404,1,0,0:0:0:0:
256,512,26479,1,0,0:0:0:0:
256,512,26554,1,8,0:0:0:0:
256,512,26704,1,0,0:0:0:0:
256,512,26854,1,8,0:0:0:0:
256,512,26929,1,8,0:0:0:0:
256,512,27004,1,0,0:0:0:0:
256,512,27079,1,0,0:0:0:0:
256,512,27154,1,8,0:0:0:0:
256,512,27454,1,0,0:0:0:0:
256,512,27604,1,8,0:0:0:0:
256,512,27754,1,0,0:0:0:0:
256,512,27904,1,0,0:0:0:0:
256,512,27979,1,0,0:0:0:0:
256,512,28054,1,8,0:0:0:0:
256,512,28204,1,0,0:0:0:0:
256,512,28354,1,0,0:0:0:0:
256,512,28504,1,8,0:0:0:0:
256,512,28654,1,8,0:0:0:0:
256,512,28804,1,8,0:0:0:0:
256,512,28879,1,8,0:0:0:0:
256,512,28954,1,0,0:0:0:0:
256,512,29104,1,0,0:0:0:0:
256,512,29254,1,8,0:0:0:0:
256,512,29329,1,8,0:0:0:0:
256,512,29404,1,0,0:0:0:0:
256,512,29479,1,0,0:0:0:0:
256,512,29554,1,8,0:0:0:0:
256,512,29704,1,8,0:0:0:0:
256,512,29854,1,8,0:0:0:0:
256,512,30154,1,0,0:0:0:0:
256,512,30304,1,8,0:0:0:0:
256,512,30379,1,0,0:0:0:0:
256,512,30454,1,8,0:0:0:0:
256,512,30604,1,8,0:0:0:0:
256,512,30754,1,0,0:0:0:0:
256,512,30904,1,0,0:0:0:0:
256,512,30979,1,8,0:0:0:0:
256,512,31054,1,8,0:0:0:0:
256,512,31204,1,8,0:0:0:0:
256,512,31354,1,0,0:0:0:0:
256,512,31654,1,0,0:0:0:0:
256,512,31804,1,8,0:0:0:0:
256,512,31954,1,0,0:0:0:0:
256,512,32104,1,0,0:0:0:0:
256,512,32254,1,8,0:0:0:0:
256,512,32404,1,0,0:0:0:0:
256,512,32479,1,0,0:0:0:0:
256,512,32554,1,0,0:0:0:0:
256,512,32704,1,8,0:0:0:0:
256,512,32854,1,8,0:0:0:0:
256,512,33004,1,0,0:0:0:0:
256,512,33079,1,0,0:0:0:0:
256,512,33154,1,8,0:0:0:0:
256,512,33304,1,8,0:0:0:0:
256,512,33454,1,0,0:0:0:0:
256,512,33604,1,8,0:0:0:0:
256,512,33679,1,0,0:0:0:0:
256,512,33754,1,0,0:0:0:0:
256,512,33904,1,0,0:0:0:0:
256,512,34054,1,8,0:0:0:0:
256,512,34354,5,0,0:0:0:0:
256,512,34654,1,0,0:0:0:0:
256,512,34804,1,0,0:0:0:0:
256,512,34954,1,8,0:0:0:0:
256,512,35104,1,0,0:0:0:0:
256,512,35254,1,8,0:0:0:0:
256,512,35404,1,0,0:0:0:0:
256,512,35554,1,8,0:0:0:0:
256,512,35629,1,0,0:0:0:0:
256,512,35704,1,8,0:0:0:0:
256,512,35854,1,0,0:0:0:0:
256,512,36004,1,8,0:0:0:0:
256,512,36079,1,0,0:0:0:0:
256,512,36154,1,0,0:0:0:0:
256,512,36304,1,0,0:0:0:0:
256,512,36379,1,8,0:0:0:0:
256,512,36529,1,8,0:0:0:0:
256,512,36604,1,8,0:0:0:0:
256,512,36754,1,0,0:0:0:0:
256,512,37054,1,0,0:0:0:0:
256,512,37204,1,8,0:0:0:0:
256,512,37279,1,0,0:0:0:0:
256,512,37354,1,8,0:0:0:0:
256,512,37504,1,8,0:0:0:0:
256,512,37654,1,8,0:0:0:0:
256,512,37804,1,0,0:0:0:0:
256,512,37879,1,0,0:0:0:0:
256,512,37954,1,8,0:0:0:0:
256,512,38104,1,8,0:0:0:0:
256,512,38179,1,8,0:0:0:0:
256,512,38254,1,0,0:0:0:0:
256,512,38404,1,0,0:0:0:0:
256,512,38554,1,8,0:0:0:0:
256,512,38629,1,0,0:0:0:0:
256,512,38704,1,8,0:0:0:0:
256,512,38854,1,0,0:0:0:0:
256,512,38929,1,0,0:0:0:0:
256,512,39004,1,0,0:0:0:0:
256,512,39079,1,0,0:0:0:0:
256,512,39154,1,8,0:0:0:0:
256,512,39454,1,0,0:0:0:0:
256,512,39604,1,8,0:0:0:0:
256,512,39754,1,0,0:0:0:0:
256,512,39904,1,0,0:0:0:0:
256,512,39979,1,8,0:0:0:0:
256,512,40054,1,0,0:0:0:0:
256,512,40204,1,8,0:0:0:0:
256,512,40354,1,8,0:0:0:0:
256,512,40504,1,0,0:0:0:0:
256,512,40654,1,8,0:0:0:0:
256,512,40804,1,8,0:0:0:0:
256,512,40879,1,0,0:0:0:0:
256,512,40954,1,8,0:0:0:0:
256,512,41104,1,0,0:0:0:0:
256,512,41254,1,8,0:0:0:0:
256,512,41404,1,0,0:0:0:0:
256,512,41479,1,0,0:0:0:0:
256,512,41554,1,8,0:0:0:0:
256,512,41854,1,8,0:0:0:0:
256,512,42004,1,0,0:0:0:0:
256,512,42154,1,8,0:0:0:0:
256,512,42304,1,8,0:0:0:0:
256,512,42379,1,8,0:0:0:0:
256,512,42454,1,0,0:0:0:0:
256,512,42529,1,0,0:0:0:0:
256,512,42604,1,8,0:0:0:0:
256,512,42754,1,8,0:0:0:0:
256,512,43354,5,0,0:0:0:0:
256,512,43429,1,0,0:0:0:0:
256,512,43504,1,8,0:0:0:0:
256,512,43654,1,8,0:0:0:0:
256,512,43729,1,8,0:0:0:0:
256,512,43804,1,0,0:0:0:0:
256,512,43879,1,0,0:0:0:0:
256,512,43954,1,8,0:0:0:0:
256,512,44104,1,0,0:0:0:0:
256,512,44179,1,8,0:0:0:0:
256,512,44329,1,8,0:0:0:0:
256,512,44404,1,0,0:0:0:0:
256,512,44554,1,8,0:0:0:0:
256,512,44704,1,0,0:0:0:0:
256,512,44854,1,8,0:0:0:0:
256,512,45004,1,0,0:0:0:0:
256,512,45154,1,8,0:0:0:0:
256,512,45304,1,0,0:0:0:0:
256,512,45379,1,0,0:0:0:0:
256,512,45529,1,0,0:0:0:0:
256,512,45604,1,8,0:0:0:0:
256,512,45754,1,8,0:0:0:0:
256,512,45904,1,0,0:0:0:0:
256,512,46054,1,8,0:0:0:0:
256,512,46204,1,8,0:0:0:0:
256,512,46354,1,0,0:0:0:0:
256,512,46504,1,0,0:0:0:0:
256,512,46579,1,8,0:0:0:0:
256,512,46729,1,8,0:0:0:0:
256,512,46804,1,0,0:0:0:0:
256,512,46954,1,8,0:0:0:0:
256,512,47104,1,0,0:0:0:0:
256,512,47254,1,8,0:0:0:0:
256,512,47329,1,0,0:0:0:0:
256,512,47404,1,0,0:0:0:0:
256,512,47554,1,8,0:0:0:0:
256,512,47704,1,0,0:0:0:0:
256,512,47779,1,0,0:0:0:0:
256,512,47929,1,8,0:0:0:0:
256,512,48004,1,0,0:0:0:0:
256,512,48154,1,8,0:0:0:0:
256,512,48229,1,8,0:0:0:0:
256,512,48304,1,0,0:0:0:0:
256,512,48379,1,0,0:0:0:0:
256,512,48454,1,8,0:0:0:0:
256,512,48754,1,0,0:0:0:0:
256,512,48904,1,8,0:0:0:0:
256,512,48979,1,0,0:0:0:0:
256,512,49129,1,0,0:0:0:0:
256,512,49204,1,8,0:0:0:0:
256,512,49354,1,8,0:0:0:0:
256,512,49504,1,0,0:0:0:0:
256,512,49654,1,8,0:0:0:0:
256,512,49729,1,8,0:0:0:0:
256,512,49804,1,0,0:0:0:0:
256,512,49954,1,8,0:0:0:0:
256,512,50104,1,0,0:0:0:0:
256,512,50254,1,0,0:0:0:0:
256,512,50329,1,0,0:0:0:0:
256,512,50404,1,8,0:0:0:0:
256,512,50479,1,0,0:0:0:0:
256,512,50554,1,8,0:0:0:0:
256,512,50704,1,0,0:0:0:0:
256,512,50854,1,8,0:0:0:0:
256,512,50929,1,8,0:0:0:0:
256,512,51004,1,0,0:0:0:0:
256,512,51079,1,0,0:0:0:0:
256,512,51154,1,8,0:0:0:0:
256,512,51304,1,8,0:0:0:0:
256,512,51454,1,0,0:0:0:0:
256,512,51529,1,0,0:0:0:0:
256,512,51604,1,0,0:0:0:0:
256,512,51679,1,0,0:0:0:0:
256,512,51754,1,8,0:0:0:0:
256,512,51904,1,0,0:0:0:0:
256,512,52054,1,8,0:0:0:0:
256,512,52129,1,8,0:0:0:0:
256,512,52204,1,0,0:0:0:0:
256,512,52279,1,0,0:0:0:0:
256,512,52354,1,8,0:0:0:0:
256,192,52504,12,0,53404,0:0:0:0:
256,480,53554,5,4,0:0:0:0:
