osu file format v14

[General]
AudioFilename: audio.mp3
AudioLeadIn: 0
PreviewTime: 42754
Countdown: 0
SampleSet: Normal
StackLeniency: 0.7
Mode: 1
LetterboxInBreaks: 0
WidescreenStoryboard: 1

[Editor]
DistanceSpacing: 0.9
BeatDivisor: 4
GridSize: 32
TimelineZoom: 3.799999

[Metadata]
Title:In the soil, daily life with a sardine
TitleUnicode:土屋的イワシがくる生活
Artist:SakiZ
ArtistUnicode:SakiZ
Creator:Hivie
Version:Futsuu
Source:
Tags:Japanese Electronic At the Ryugu, Daily Life on Turtle Back イワシがつちからはえてくるんだ Iwashi ga Tsuchi kara Haete Kurunda Kasane Teto UTAU MAD
BeatmapID:3048914
BeatmapSetID:1487079

[Difficulty]
HPDrainRate:7
CircleSize:7
OverallDifficulty:4
ApproachRate:10
SliderMultiplier:1.4
SliderTickRate:1

[Events]
//Background and Video events
0,0,"Sardine.png",0,-80
Video,0,"fish.mp4"
//Break Periods
//Storyboard Layer 0 (Background)
//Storyboard Layer 1 (Fail)
//Storyboard Layer 2 (Pass)
//Storyboard Layer 3 (Foreground)
//Storyboard Layer 4 (Overlay)
//Storyboard Sound Samples

[TimingPoints]
113,447.761194029851,4,1,0,50,1,0
113,-100,4,1,0,50,0,0
560,-97.0873786407767,4,1,0,50,0,0
1009,396.694214876033,4,1,0,50,1,8
1009,-100,4,1,0,50,0,0
1405,-97.0873786407767,4,1,0,50,0,0
1792,358.208955223881,4,1,0,50,1,0
1792,-100,4,1,0,50,0,0
2150,-97.0873786407767,4,1,0,50,0,0
2512,326.086956521739,4,1,0,50,1,8
2512,-100,4,1,0,50,0,0
2838,-97.0873786407767,4,1,0,50,0,0
3154,300,4,1,0,50,1,0
3154,-100,4,1,0,50,0,0
4354,-100,4,1,0,60,0,0
5554,-100,4,1,0,70,0,0
43954,-100,4,1,0,70,0,1
48454,-100,4,1,0,70,0,0
48754,-100,4,1,0,70,0,1
52354,-100,4,1,0,70,0,0

[HitObjects]
256,512,113,5,0,0:0:0:0:
256,512,560,1,8,0:0:0:0:
256,512,1009,1,0,0:0:0:0:
256,512,1405,1,8,0:0:0:0:
256,512,1792,1,0,0:0:0:0:
256,512,2150,1,8,0:0:0:0:
256,512,2512,1,0,0:0:0:0:
256,512,2838,1,8,0:0:0:0:
256,512,3154,1,0,0:0:0:0:
256,512,3454,1,8,0:0:0:0:
256,512,3754,1,0,0:0:0:0:
256,512,3904,1,8,0:0:0:0:
256,512,4054,1,0,0:0:0:0:
256,512,4204,1,0,0:0:0:0:
256,512,4354,1,8,0:0:0:0:
256,512,4804,1,8,0:0:0:0:
256,512,4954,1,0,0:0:0:0:
256,512,5104,1,0,0:0:0:0:
256,512,5254,1,8,0:0:0:0:
256,480,5554,1,0,0:0:0:0:
256,512,6154,1,8,0:0:0:0:
256,512,6454,1,0,0:0:0:0:
256,512,6754,1,8,0:0:0:0:
256,512,6904,1,0,0:0:0:0:
256,512,7054,1,0,0:0:0:0:
256,512,7354,1,8,0:0:0:0:
256,512,7654,1,8,0:0:0:0:
256,512,7804,1,0,0:0:0:0:
256,512,7954,1,8,0:0:0:0:
256,512,8254,1,0,0:0:0:0:
256,512,8554,1,0,0:0:0:0:
256,512,8704,1,8,0:0:0:0:
256,512,8854,1,0,0:0:0:0:
256,512,9004,1,8,0:0:0:0:
256,512,9154,1,8,0:0:0:0:
256,512,9454,1,0,0:0:0:0:
256,512,9754,1,8,0:0:0:0:
256,512,9904,1,8,0:0:0:0:
256,512,10054,1,0,0:0:0:0:
256,512,10204,1,0,0:0:0:0:
256,512,10354,1,8,0:0:0:0:
256,512,10954,1,8,0:0:0:0:
256,512,11254,1,0,0:0:0:0:
256,512,11404,1,0,0:0:0:0:
256,512,11554,1,8,0:0:0:0:
256,512,11854,1,0,0:0:0:0:
256,512,12154,1,8,0:0:0:0:
256,512,12304,1,0,0:0:0:0:
256,512,12454,1,8,0:0:0:0:
256,512,12604,1,8,0:0:0:0:
256,512,12754,1,0,0:0:0:0:
256,512,13054,1,8,0:0:0:0:
256,512,13354,1,0,0:0:0:0:
256,512,13504,1,0,0:0:0:0:
256,512,13654,1,8,0:0:0:0:
256,512,13804,1,0,0:0:0:0:
256,512,13954,1,8,0:0:0:0:
256,512,14254,1,8,0:0:0:0:
256,512,14554,1,0,0:0:0:0:
256,512,14704,1,0,0:0:0:0:
256,512,14854,1,8,0:0:0:0:
256,512,15004,1,8,0:0:0:0:
256,480,15154,1,0,0:0:0:0:
256,512,15754,1,8,0:0:0:0:
256,512,15904,1,0,0:0:0:0:
256,512,16054,1,0,0:0:0:0:
256,512,16354,1,8,0:0:0:0:
256,512,16654,1,0,0:0:0:0:
256,512,16804,1,0,0:0:0:0:
256,512,16954,1,8,0:0:0:0:
256,512,17104,1,8,0:0:0:0:
256,512,17254,1,8,0:0:0:0:
256,512,17554,1,0,0:0:0:0:
256,512,17854,1,8,0:0:0:0:
256,512,18004,1,0,0:0:0:0:
256,512,18304,1,0,0:0:0:0:
256,512,18454,1,8,0:0:0:0:
256,512,18604,1,0,0:0:0:0:
256,512,18754,1,8,0:0:0:0:
256,512,19054,1,8,0:0:0:0:
256,512,19204,1,0,0:0:0:0:
256,512,19354,1,8,0:0:0:0:
256,512,19504,1,8,0:0:0:0:
256,512,19654,1,0,0:0:0:0:
256,512,19954,1,8,0:0:0:0:
256,512,20554,1,8,0:0:0:0:
256,512,20854,1,0,0:0:0:0:
256,512,21004,1,0,0:0:0:0:
256,512,21154,1,8,0:0:0:0:
256,512,21454,1,0,0:0:0:0:
256,512,21604,1,8,0:0:0:0:
256,512,21754,1,0,0:0:0:0:
256,512,21904,1,0,0:0:0:0:
256,512,22054,1,8,0:0:0:0:
256,512,22354,1,8,0:0:0:0:
256,512,22654,1,8,0:0:0:0:
256,512,22954,1,0,0:0:0:0:
256,512,23104,1,0,0:0:0:0:
256,512,23254,1,8,0:0:0:0:
256,512,23404,1,8,0:0:0:0:
256,512,23554,1,0,0:0:0:0:
256,512,24154,1,0,0:0:0:0:
256,512,24454,1,0,0:0:0:0:
256,512,24604,1,0,0:0:0:0:
256,512,24754,1,8,0:0:0:0:
256,512,25354,1,0,0:0:0:0:
256,512,25504,1,0,0:0:0:0:
256,512,25654,1,8,0:0:0:0:
256,512,25954,1,0,0:0:0:0:
256,512,26254,1,8,0:0:0:0:
256,512,26554,1,8,0:0:0:0:
256,512,26704,1,0,0:0:0:0:
256,512,26854,1,8,0:0:0:0:
256,512,27004,1,8,0:0:0:0:
256,512,27154,1,0,0:0:0:0:
256,512,27454,1,8,0:0:0:0:
256,512,27754,1,0,0:0:0:0:
256,512,27904,1,0,0:0:0:0:
256,512,28054,1,8,0:0:0:0:
256,512,28354,1,8,0:0:0:0:
256,512,28504,1,8,0:0:0:0:
256,512,28654,1,0,0:0:0:0:
256,512,28804,1,8,0:0:0:0:
256,512,28954,1,8,0:0:0:0:
256,512,29254,1,0,0:0:0:0:
256,512,29554,1,8,0:0:0:0:
256,512,29704,1,8,0:0:0:0:
256,512,29854,1,8,0:0:0:0:
256,512,30454,1,8,0:0:0:0:
256,512,30754,1,0,0:0:0:0:
256,512,30904,1,0,0:0:0:0:
256,512,31054,1,8,0:0:0:0:
256,512,31204,1,8,0:0:0:0:
256,512,31354,1,0,0:0:0:0:
256,512,31654,1,0,0:0:0:0:
256,512,31804,1,8,0:0:0:0:
256,512,31954,1,0,0:0:0:0:
256,512,32254,1,8,0:0:0:0:
256,512,32404,1,0,0:0:0:0:
256,512,32704,1,8,0:0:0:0:
256,512,32854,1,8,0:0:0:0:
256,512,33154,1,0,0:0:0:0:
256,512,33304,1,8,0:0:0:0:
256,512,33454,1,0,0:0:0:0:
256,512,33604,1,0,0:0:0:0:
256,512,33754,1,8,0:0:0:0:
256,512,34054,1,8,0:0:0:0:
256,512,34354,5,0,0:0:0:0:
256,512,34954,1,8,0:0:0:0:
256,512,35554,1,0,0:0:0:0:
256,512,35854,1,8,0:0:0:0:
256,512,36154,1,0,0:0:0:0:
256,512,36304,1,8,0:0:0:0:
256,512,36604,1,8,0:0:0:0:
256,512,36754,1,0,0:0:0:0:
256,512,37054,1,0,0:0:0:0:
256,512,37354,1,8,0:0:0:0:
256,512,37504,1,0,0:0:0:0:
256,512,37654,1,8,0:0:0:0:
256,512,37804,1,0,0:0:0:0:
256,512,37954,1,8,0:0:0:0:
256,512,38254,1,0,0:0:0:0:
256,512,38404,1,0,0:0:0:0:
256,512,38554,1,8,0:0:0:0:
256,512,38704,1,8,0:0:0:0:
256,512,38854,1,0,0:0:0:0:
256,512,39154,1,8,0:0:0:0:
256,512,39754,1,0,0:0:0:0:
256,512,40054,1,8,0:0:0:0:
256,512,40204,1,0,0:0:0:0:
256,512,40354,1,8,0:0:0:0:
256,512,40654,1,8,0:0:0:0:
256,512,40954,1,0,0:0:0:0:
256,512,41104,1,0,0:0:0:0:
256,512,41254,1,0,0:0:0:0:
256,512,41404,1,0,0:0:0:0:
256,512,41554,1,8,0:0:0:0:
256,512,41854,1,8,0:0:0:0:
256,512,42004,1,0,0:0:0:0:
256,512,42154,1,8,0:0:0:0:
256,512,42304,1,8,0:0:0:0:
256,512,42454,1,0,0:0:0:0:
256,512,42754,1,8,0:0:0:0:
256,512,43354,5,0,0:0:0:0:
256,512,43654,1,0,0:0:0:0:
256,512,43804,1,0,0:0:0:0:
256,512,43954,1,8,0:0:0:0:
256,512,44104,1,0,0:0:0:0:
256,512,44404,1,8,0:0:0:0:
256,512,44554,1,0,0:0:0:0:
256,512,44704,1,0,0:0:0:0:
256,512,44854,1,8,0:0:0:0:
256,512,45154,1,0,0:0:0:0:
256,512,45304,1,0,0:0:0:0:
256,512,45604,1,0,0:0:0:0:
256,512,45754,1,8,0:0:0:0:
256,512,45904,1,0,0:0:0:0:
256,512,46054,1,8,0:0:0:0:
256,512,46354,1,0,0:0:0:0:
256,512,46504,1,8,0:0:0:0:
256,512,46804,1,0,0:0:0:0:
256,512,46954,1,8,0:0:0:0:
256,512,47104,1,8,0:0:0:0:
256,512,47254,1,0,0:0:0:0:
256,512,47554,1,8,0:0:0:0:
256,512,47704,1,0,0:0:0:0:
256,512,48004,1,8,0:0:0:0:
256,512,48154,1,8,0:0:0:0:
256,512,48754,1,0,0:0:0:0:
256,512,48904,1,8,0:0:0:0:
256,512,49204,1,0,0:0:0:0:
256,512,49354,1,8,0:0:0:0:
256,512,49504,1,0,0:0:0:0:
256,512,49654,1,8,0:0:0:0:
256,512,49954,1,8,0:0:0:0:
256,512,50104,1,0,0:0:0:0:
256,512,50404,1,8,0:0:0:0:
256,512,50554,1,0,0:0:0:0:
256,512,50704,1,8,0:0:0:0:
256,512,50854,1,0,0:0:0:0:
256,512,51154,1,8,0:0:0:0:
256,512,51454,1,8,0:0:0:0:
256,512,51604,1,0,0:0:0:0:
256,512,51754,1,8,0:0:0:0:
256,512,51904,1,8,0:0:0:0:
256,512,52054,1,0,0:0:0:0:
256,512,52204,1,0,0:0:0:0:
256,512,52354,1,8,0:0:0:0:
256,192,52504,12,0,53254,0:0:0:0:
256,480,53554,5,4,0:0:0:0:
