osu file format v14

[General]
AudioFilename: audio.mp3
AudioLeadIn: 0
PreviewTime: 79535
Countdown: 1
SampleSet: None
StackLeniency: 0.7
Mode: 0
LetterboxInBreaks: 0
WidescreenStoryboard: 0

[Editor]
Bookmarks: 40268,41524,42781,44037,45294,46550,47807,49064,50320,51577,52833,54090,55346,56603,57859,59116,60372,61629,62886,64142,65399,66655,67912,69168,70425,71053,71681,72310,72938,74194,75451,76708,77964,79221,90546,98086
DistanceSpacing: 0.9
BeatDivisor: 4
GridSize: 4
TimelineZoom: 2.799999

[Metadata]
Title:Blue osu!
TitleUnicode:Blue osu!
Artist:SakiZ
ArtistUnicode:SakiZ
Creator:Epiclol
Version:BLUE DIMENSIONS
Source:Youtube
Tags:Blue Zenith Blue Dragon
BeatmapID:1178589
BeatmapSetID:556944

[Difficulty]
HPDrainRate:5
CircleSize:4
OverallDifficulty:5
ApproachRate:9.6
SliderMultiplier:1.6
SliderTickRate:1

[Events]
//Background and Video events
Video,-35,"Video.mp4"
0,0,"Work god dammit.png",0,0
//Break Periods
//Storyboard Layer 0 (Background)
//Storyboard Layer 1 (Fail)
//Storyboard Layer 2 (Pass)
//Storyboard Layer 3 (Foreground)
//Storyboard Sound Samples

[TimingPoints]
18907,314.13612565445,4,2,0,50,1,0
20163,-90.9090909090909,4,2,0,55,0,0
30215,-66.6666666666667,4,2,0,90,0,1
40268,-100,4,2,1,80,0,0
79535,-90.9090909090909,4,2,0,55,0,0
80477,-66.6666666666667,4,2,0,100,0,1
100660,-100,4,2,0,100,0,0
101838,-100,4,2,0,80,0,0
103095,-100,4,2,0,60,0,0
104351,-100,4,2,0,40,0,0
105608,-100,4,2,0,20,0,0
107493,-100,4,3,0,5,0,0

[Colours]
Combo1 : 0,0,160
Combo2 : 0,128,255
Combo3 : 4,173,255
Combo4 : 128,128,255

[HitObjects]
280,276,19221,5,0,0:0:0:0:
408,352,19535,1,0,0:0:0:0:
372,128,19849,1,0,0:0:0:0:
372,128,20163,6,0,P|324:136|280:128,1,88.000002685547
168,24,20477,1,0,0:0:0:0:
64,164,20634,1,0,0:0:0:0:
180,260,20791,6,0,P|223:266|266:258,1,88.000002685547
428,88,21105,1,0,0:0:0:0:
480,208,21263,1,0,0:0:0:0:
354,254,21420,6,0,L|250:258,1,88.000002685547
72,152,21734,2,0,L|159:148,1,88.000002685547
296,8,22048,1,0,0:0:0:0:
436,148,22205,1,0,0:0:0:0:
295,288,22362,1,0,0:0:0:0:
155,148,22519,1,0,0:0:0:0:
304,204,22676,6,0,P|360:212|396:200,1,88.000002685547
432,112,22990,1,0,0:0:0:0:
476,24,23147,1,0,0:0:0:0:
389,203,23304,6,0,L|341:287,1,88.000002685547
288,168,23619,2,0,L|330:90,1,88.000002685547
464,44,23933,5,0,0:0:0:0:
500,180,24090,1,0,0:0:0:0:
432,304,24247,1,0,0:0:0:0:
292,280,24404,1,0,0:0:0:0:
292,104,24561,2,0,P|236:92|192:100,1,88.000002685547
52,212,24875,2,0,P|96:224|148:216,1,88.000002685547
280,32,25189,5,0,0:0:0:0:
472,64,25346,1,0,0:0:0:0:
264,156,25503,1,0,0:0:0:0:
480,184,25660,1,0,0:0:0:0:
344,44,25817,5,0,0:0:0:0:
376,236,25975,1,0,0:0:0:0:
236,104,26132,1,0,0:0:0:0:
264,296,26289,1,0,0:0:0:0:
424,160,26446,6,0,L|516:152,1,88.000002685547
308,96,26760,2,0,L|220:103,1,88.000002685547
56,260,27074,5,0,0:0:0:0:
120,40,27231,1,0,0:0:0:0:
244,232,27388,1,0,0:0:0:0:
44,120,27545,1,0,0:0:0:0:
244,232,27702,6,0,L|340:244,1,88.000002685547
228,36,28016,2,0,L|140:46,1,88.000002685547
16,196,28331,1,0,0:0:0:0:
200,140,28488,1,0,0:0:0:0:
156,312,28645,1,0,0:0:0:0:
100,128,28802,1,0,0:0:0:0:
100,128,29273,5,0,0:0:0:0:
192,176,29587,1,0,0:0:0:0:
284,224,29901,1,0,0:0:0:0:
284,224,30215,6,0,P|352:212|408:224,1,120.000004577637
436,244,30451,1,0,0:0:0:0:
438,285,30530,1,0,0:0:0:0:
420,322,30608,1,0,0:0:0:0:
386,347,30687,1,0,0:0:0:0:
144,52,30844,1,0,0:0:0:0:
292,300,31001,1,0,0:0:0:0:
332,290,31079,1,0,0:0:0:0:
373,280,31158,1,0,0:0:0:0:
414,270,31236,1,0,0:0:0:0:
455,260,31315,1,0,0:0:0:0:
288,56,31472,5,0,0:0:0:0:
272,284,31629,1,0,0:0:0:0:
396,92,31786,1,0,0:0:0:0:
112,136,31943,1,0,0:0:0:0:
336,316,32100,1,0,0:0:0:0:
264,24,32257,1,0,0:0:0:0:
212,256,32414,1,0,0:0:0:0:
444,68,32571,1,0,0:0:0:0:
180,72,32728,6,0,B|120:92|120:92|76:136,1,120.000004577637
52,180,32964,1,0,0:0:0:0:
45,221,33043,1,0,0:0:0:0:
53,262,33121,1,0,0:0:0:0:
76,297,33200,1,0,0:0:0:0:
292,188,33357,1,0,0:0:0:0:
436,276,33514,1,0,0:0:0:0:
422,236,33592,1,0,0:0:0:0:
409,196,33671,1,0,0:0:0:0:
396,156,33749,1,0,0:0:0:0:
382,116,33828,1,0,0:0:0:0:
288,324,33985,5,0,0:0:0:0:
232,68,34142,1,0,0:0:0:0:
140,252,34299,1,0,0:0:0:0:
396,120,34456,1,0,0:0:0:0:
132,116,34613,2,0,L|0:104,1,120.000004577637
204,288,34927,1,0,0:0:0:0:
284,36,35085,1,0,0:0:0:0:
344,328,35242,6,0,L|368:208,1,120.000004577637
368,176,35477,1,0,0:0:0:0:
355,136,35555,1,0,0:0:0:0:
327,105,35634,1,0,0:0:0:0:
289,89,35712,1,0,0:0:0:0:
44,324,35870,1,0,0:0:0:0:
272,300,36027,1,0,0:0:0:0:
313,294,36105,1,0,0:0:0:0:
355,289,36184,1,0,0:0:0:0:
397,284,36263,1,0,0:0:0:0:
438,279,36341,1,0,0:0:0:0:
127,155,36498,5,0,0:0:0:0:
272,300,36655,1,0,0:0:0:0:
416,155,36812,1,0,0:0:0:0:
272,11,36969,1,0,0:0:0:0:
272,11,37126,5,0,0:0:0:0:
416,155,37283,1,0,0:0:0:0:
272,300,37441,1,0,0:0:0:0:
127,155,37598,1,0,0:0:0:0:
332,92,37755,6,0,L|452:60,1,120.000004577637
480,80,37990,1,0,0:0:0:0:
496,118,38069,1,0,0:0:0:0:
493,159,38147,1,0,0:0:0:0:
471,195,38226,1,0,0:0:0:0:
188,136,38383,1,0,0:0:0:0:
312,344,38540,1,0,0:0:0:0:
316,302,38619,1,0,0:0:0:0:
320,260,38697,1,0,0:0:0:0:
325,218,38776,1,0,0:0:0:0:
329,176,38854,1,0,0:0:0:0:
92,60,39011,5,0,0:0:0:0:
212,348,39168,1,0,0:0:0:0:
256,188,39325,1,0,0:0:0:0:
256,188,39482,1,0,0:0:0:0:
56,304,40268,5,0,0:0:0:0:
85,317,40346,1,0,0:0:0:0:
120,315,40425,1,0,0:0:0:0:
152,299,40503,1,0,0:0:0:0:
175,272,40582,1,0,0:0:0:0:
185,237,40660,1,0,0:0:0:0:
180,200,40739,1,0,0:0:0:0:
171,165,40817,1,0,0:0:0:0:
176,129,40896,1,0,0:0:0:0:
195,99,40975,1,0,0:0:0:0:
223,77,41053,1,0,0:0:0:0:
257,67,41132,1,0,0:0:0:0:
296,80,41210,2,0,P|284:108|280:144,3,40
168,176,41524,5,0,0:0:0:0:
203,173,41603,1,0,0:0:0:0:
239,180,41681,1,0,0:0:0:0:
271,195,41760,1,0,0:0:0:0:
298,219,41838,1,0,0:0:0:0:
318,249,41917,1,0,0:0:0:0:
329,283,41996,1,0,0:0:0:0:
344,320,42074,1,0,0:0:0:0:
346,284,42153,1,0,0:0:0:0:
362,252,42231,1,0,0:0:0:0:
389,228,42310,1,0,0:0:0:0:
423,216,42388,1,0,0:0:0:0:
460,208,42467,2,0,P|444:164|424:144,3,40
408,68,42781,5,0,0:0:0:0:
377,87,42859,1,0,0:0:0:0:
354,114,42938,1,0,0:0:0:0:
342,148,43016,1,0,0:0:0:0:
340,184,43095,1,0,0:0:0:0:
350,218,43174,1,0,0:0:0:0:
368,256,43252,1,0,0:0:0:0:
334,242,43331,1,0,0:0:0:0:
299,235,43409,1,0,0:0:0:0:
263,234,43488,1,0,0:0:0:0:
228,241,43566,1,0,0:0:0:0:
196,256,43645,1,0,0:0:0:0:
164,284,43723,2,0,P|184:320|184:344,3,40
64,196,44037,5,0,0:0:0:0:
66,160,44116,1,0,0:0:0:0:
78,126,44194,1,0,0:0:0:0:
98,96,44273,1,0,0:0:0:0:
125,72,44352,1,0,0:0:0:0:
157,56,44430,1,0,0:0:0:0:
192,48,44509,1,0,0:0:0:0:
228,50,44587,1,0,0:0:0:0:
262,60,44666,1,0,0:0:0:0:
293,79,44744,1,0,0:0:0:0:
318,105,44823,1,0,0:0:0:0:
336,140,44901,1,0,0:0:0:0:
344,180,44980,2,0,P|376:172|392:172,3,40
256,276,45294,5,0,0:0:0:0:
240,308,45372,1,0,0:0:0:0:
213,331,45451,1,0,0:0:0:0:
179,342,45529,1,0,0:0:0:0:
143,339,45608,1,0,0:0:0:0:
112,322,45686,1,0,0:0:0:0:
90,294,45765,1,0,0:0:0:0:
80,259,45843,1,0,0:0:0:0:
85,224,45922,1,0,0:0:0:0:
104,193,46000,1,0,0:0:0:0:
133,172,46079,1,0,0:0:0:0:
168,165,46157,1,0,0:0:0:0:
215,170,46236,2,0,P|216:144|212:128,3,40
232,320,46550,5,0,0:0:0:0:
259,303,46628,1,0,0:0:0:0:
289,294,46707,1,0,0:0:0:0:
321,291,46785,1,0,0:0:0:0:
353,296,46864,1,0,0:0:0:0:
382,308,46942,1,0,0:0:0:0:
412,324,47022,1,0,0:0:0:0:
436,303,47100,1,0,0:0:0:0:
454,277,47179,1,0,0:0:0:0:
462,246,47257,1,0,0:0:0:0:
460,214,47336,1,0,0:0:0:0:
448,184,47414,1,0,0:0:0:0:
428,160,47493,2,0,P|464:136|492:128,3,40
312,92,47807,5,0,0:0:0:0:
287,125,47886,1,0,0:0:0:0:
255,142,47964,1,0,0:0:0:0:
220,150,48043,1,0,0:0:0:0:
186,141,48121,1,0,0:0:0:0:
156,120,48200,1,0,0:0:0:0:
129,97,48278,1,0,0:0:0:0:
97,80,48357,1,0,0:0:0:0:
61,80,48435,1,0,0:0:0:0:
28,96,48514,1,0,0:0:0:0:
9,126,48592,1,0,0:0:0:0:
4,162,48671,1,0,0:0:0:0:
12,196,48749,2,0,P|45:187|65:175,3,40
136,312,49064,5,0,0:0:0:0:
165,291,49142,1,0,0:0:0:0:
200,284,49221,1,0,0:0:0:0:
235,289,49299,1,0,0:0:0:0:
270,300,49378,1,0,0:0:0:0:
304,310,49456,1,0,0:0:0:0:
340,314,49535,1,0,0:0:0:0:
374,303,49613,1,0,0:0:0:0:
396,268,49692,1,0,0:0:0:0:
400,228,49770,1,0,0:0:0:0:
389,193,49849,1,0,0:0:0:0:
365,166,49927,1,0,0:0:0:0:
333,151,50006,2,0,P|360:108|372:100,3,40
218,202,50320,5,0,0:0:0:0:
189,215,50398,1,0,0:0:0:0:
157,218,50477,1,0,0:0:0:0:
126,210,50555,1,0,0:0:0:0:
100,192,50634,1,0,0:0:0:0:
81,166,50712,1,0,0:0:0:0:
71,136,50791,1,0,0:0:0:0:
73,104,50869,1,0,0:0:0:0:
85,75,50948,1,0,0:0:0:0:
106,51,51026,1,0,0:0:0:0:
134,36,51105,1,0,0:0:0:0:
166,31,51183,1,0,0:0:0:0:
208,40,51263,2,0,P|216:8|218:-16,3,40
420,168,51577,5,0,0:0:0:0:
411,202,51655,1,0,0:0:0:0:
387,228,51734,1,0,0:0:0:0:
353,239,51812,1,0,0:0:0:0:
318,232,51891,1,0,0:0:0:0:
316,264,51969,1,0,0:0:0:0:
307,298,52048,1,0,0:0:0:0:
283,324,52126,1,0,0:0:0:0:
249,335,52205,1,0,0:0:0:0:
214,328,52283,1,0,0:0:0:0:
188,304,52362,1,0,0:0:0:0:
163,278,52441,1,0,0:0:0:0:
144,244,52519,2,0,P|124:256|92:260,3,40
160,124,52833,5,0,0:0:0:0:
194,134,52911,1,0,0:0:0:0:
223,155,52990,1,0,0:0:0:0:
245,183,53068,1,0,0:0:0:0:
259,216,53147,1,0,0:0:0:0:
262,252,53225,1,0,0:0:0:0:
254,287,53304,1,0,0:0:0:0:
220,308,53383,1,0,0:0:0:0:
184,306,53461,1,0,0:0:0:0:
157,283,53540,1,0,0:0:0:0:
150,248,53618,1,0,0:0:0:0:
164,216,53697,1,0,0:0:0:0:
200,200,53776,2,0,P|188:168|176:152,3,40
352,136,54090,5,0,0:0:0:0:
326,160,54168,1,0,0:0:0:0:
308,191,54247,1,0,0:0:0:0:
299,226,54325,1,0,0:0:0:0:
301,262,54404,1,0,0:0:0:0:
316,296,54482,1,0,0:0:0:0:
339,269,54561,1,0,0:0:0:0:
351,235,54639,1,0,0:0:0:0:
348,199,54718,1,0,0:0:0:0:
332,167,54797,1,0,0:0:0:0:
305,144,54875,1,0,0:0:0:0:
271,134,54954,1,0,0:0:0:0:
232,144,55032,2,0,P|220:104|220:88,3,40
148,244,55346,5,0,0:0:0:0:
131,275,55425,1,0,0:0:0:0:
101,294,55503,1,0,0:0:0:0:
65,295,55582,1,0,0:0:0:0:
34,278,55660,1,0,0:0:0:0:
15,248,55739,1,0,0:0:0:0:
15,212,55817,1,0,0:0:0:0:
28,180,55896,1,0,0:0:0:0:
50,152,55975,1,0,0:0:0:0:
81,134,56053,1,0,0:0:0:0:
117,130,56132,1,0,0:0:0:0:
151,141,56210,1,0,0:0:0:0:
172,164,56289,2,0,P|165:188|154:202,3,40
292,192,56603,5,0,0:0:0:0:
311,161,56681,1,0,0:0:0:0:
340,141,56760,1,0,0:0:0:0:
375,134,56838,1,0,0:0:0:0:
410,141,56917,1,0,0:0:0:0:
440,160,56996,1,0,0:0:0:0:
460,191,57074,1,0,0:0:0:0:
465,226,57153,1,0,0:0:0:0:
458,261,57231,1,0,0:0:0:0:
437,290,57310,1,0,0:0:0:0:
406,309,57388,1,0,0:0:0:0:
368,316,57467,1,0,0:0:0:0:
332,300,57545,2,0,P|337:271|349:243,3,40
204,288,57859,6,0,L|136:300,3,40
320,184,58174,2,0,L|359:177,3,40
176,152,58488,2,0,L|136:158,3,40
280,52,58802,2,0,L|319:45,3,40
452,108,59116,5,0,0:0:0:0:
421,127,59194,1,0,0:0:0:0:
398,154,59273,1,0,0:0:0:0:
384,187,59352,1,0,0:0:0:0:
381,223,59430,1,0,0:0:0:0:
388,258,59509,1,0,0:0:0:0:
406,289,59587,1,0,0:0:0:0:
428,320,59666,1,0,0:0:0:0:
396,302,59744,1,0,0:0:0:0:
362,290,59823,1,0,0:0:0:0:
327,286,59901,1,0,0:0:0:0:
291,289,59980,1,0,0:0:0:0:
256,299,60058,2,0,L|216:336,3,40
224,152,60372,5,0,0:0:0:0:
212,118,60451,1,0,0:0:0:0:
190,90,60530,1,0,0:0:0:0:
159,71,60608,1,0,0:0:0:0:
124,64,60687,1,0,0:0:0:0:
89,68,60765,1,0,0:0:0:0:
57,85,60844,1,0,0:0:0:0:
32,111,60922,1,0,0:0:0:0:
18,144,61001,1,0,0:0:0:0:
16,180,61079,1,0,0:0:0:0:
26,214,61158,1,0,0:0:0:0:
47,243,61236,1,0,0:0:0:0:
76,256,61315,2,0,P|98:233|105:221,3,40
204,144,61629,5,0,0:0:0:0:
224,168,61707,1,0,0:0:0:0:
251,185,61786,1,0,0:0:0:0:
282,194,61864,1,0,0:0:0:0:
314,193,61943,1,0,0:0:0:0:
344,183,62021,1,0,0:0:0:0:
370,165,62100,1,0,0:0:0:0:
390,140,62178,1,0,0:0:0:0:
401,110,62257,1,0,0:0:0:0:
404,78,62335,1,0,0:0:0:0:
397,47,62414,1,0,0:0:0:0:
380,16,62493,1,0,0:0:0:0:
348,4,62571,2,0,P|328:7|310:16,3,40
464,220,62886,5,0,0:0:0:0:
459,251,62964,1,0,0:0:0:0:
444,279,63043,1,0,0:0:0:0:
420,299,63121,1,0,0:0:0:0:
390,310,63200,1,0,0:0:0:0:
358,308,63278,1,0,0:0:0:0:
324,292,63357,1,0,0:0:0:0:
299,271,63435,1,0,0:0:0:0:
270,257,63514,1,0,0:0:0:0:
239,249,63592,1,0,0:0:0:0:
207,248,63671,1,0,0:0:0:0:
176,253,63749,1,0,0:0:0:0:
146,265,63828,1,0,0:0:0:0:
116,254,63906,1,0,0:0:0:0:
95,230,63985,1,0,0:0:0:0:
90,199,64063,1,0,0:0:0:0:
104,164,64142,6,0,L|92:116,3,40
224,320,64456,2,0,L|233:358,3,40
272,164,64770,2,0,L|283:125,3,40
400,320,65085,2,0,L|411:358,3,40
472,196,65399,5,0,0:0:0:0:
437,204,65477,1,0,0:0:0:0:
401,201,65556,1,0,0:0:0:0:
368,187,65634,1,0,0:0:0:0:
340,164,65713,1,0,0:0:0:0:
321,134,65791,1,0,0:0:0:0:
296,104,65870,1,0,0:0:0:0:
268,81,65949,1,0,0:0:0:0:
234,70,66027,1,0,0:0:0:0:
198,72,66106,1,0,0:0:0:0:
165,86,66184,1,0,0:0:0:0:
140,112,66263,1,0,0:0:0:0:
126,145,66341,2,0,P|84:140|68:148,3,40
128,336,66655,5,0,0:0:0:0:
160,320,66734,1,0,0:0:0:0:
187,297,66812,1,0,0:0:0:0:
207,267,66891,1,0,0:0:0:0:
219,233,66969,1,0,0:0:0:0:
221,197,67048,1,0,0:0:0:0:
213,162,67127,1,0,0:0:0:0:
197,130,67205,1,0,0:0:0:0:
168,108,67284,1,0,0:0:0:0:
132,100,67362,1,0,0:0:0:0:
96,112,67441,1,0,0:0:0:0:
76,144,67519,1,0,0:0:0:0:
72,180,67598,2,0,P|40:184|8:184,3,40
184,224,67912,5,0,0:0:0:0:
217,211,67990,1,0,0:0:0:0:
249,195,68069,1,0,0:0:0:0:
280,175,68147,1,0,0:0:0:0:
307,152,68226,1,0,0:0:0:0:
329,124,68305,1,0,0:0:0:0:
331,89,68383,1,0,0:0:0:0:
302,70,68462,1,0,0:0:0:0:
266,74,68540,1,0,0:0:0:0:
244,100,68619,1,0,0:0:0:0:
254,134,68697,1,0,0:0:0:0:
279,159,68776,1,0,0:0:0:0:
311,177,68854,2,0,P|304:200|304:232,3,40
360,48,69168,5,0,0:0:0:0:
391,64,69247,1,0,0:0:0:0:
417,89,69325,1,0,0:0:0:0:
435,120,69404,1,0,0:0:0:0:
444,155,69483,1,0,0:0:0:0:
442,190,69561,1,0,0:0:0:0:
431,224,69640,1,0,0:0:0:0:
400,204,69718,1,0,0:0:0:0:
366,190,69797,1,0,0:0:0:0:
331,183,69875,1,0,0:0:0:0:
295,182,69954,1,0,0:0:0:0:
259,187,70032,1,0,0:0:0:0:
225,198,70111,2,0,L|216:140,3,40
128,264,70425,5,0,0:0:0:0:
151,291,70503,1,0,0:0:0:0:
182,308,70582,1,0,0:0:0:0:
217,315,70661,1,0,0:0:0:0:
252,312,70739,2,0,P|276:300|300:296,3,40
392,328,71053,5,0,0:0:0:0:
396,292,71132,1,0,0:0:0:0:
390,257,71210,1,0,0:0:0:0:
372,226,71289,1,0,0:0:0:0:
345,202,71367,2,0,P|356:180|376:160,3,40
228,112,71682,5,0,0:0:0:0:
196,95,71760,1,0,0:0:0:0:
161,87,71839,1,0,0:0:0:0:
125,89,71917,1,0,0:0:0:0:
92,100,71996,2,0,P|84:62|88:34,3,40
144,196,72310,5,0,0:0:0:0:
164,225,72388,1,0,0:0:0:0:
175,259,72467,1,0,0:0:0:0:
174,295,72545,1,0,0:0:0:0:
161,328,72624,2,0,P|136:320|120:308,3,40
232,256,72938,5,0,0:0:0:0:
253,284,73017,1,0,0:0:0:0:
283,304,73095,1,0,0:0:0:0:
318,312,73174,1,0,0:0:0:0:
354,309,73252,1,0,0:0:0:0:
386,294,73331,1,0,0:0:0:0:
416,268,73409,1,0,0:0:0:0:
429,234,73488,1,0,0:0:0:0:
431,199,73566,1,0,0:0:0:0:
421,164,73645,1,0,0:0:0:0:
401,135,73723,1,0,0:0:0:0:
371,114,73802,1,0,0:0:0:0:
332,112,73880,2,0,P|332:72|344:52,3,40
280,272,74195,6,0,P|276:291|279:311,3,40
192,104,74509,2,0,P|192:64|204:44,3,40
112,272,74823,2,0,P|112:312|124:332,3,40
48,100,75137,2,0,P|44:80|48:60,3,40
52,160,75451,5,2,0:0:0:0:
90,149,75530,1,0,0:0:0:0:
130,151,75608,1,0,0:0:0:0:
167,165,75687,1,0,0:0:0:0:
197,191,75765,1,2,0:0:0:0:
218,225,75844,1,0,0:0:0:0:
227,264,75922,1,0,0:0:0:0:
224,303,76001,1,0,0:0:0:0:
207,340,76079,1,2,0:0:0:0:
184,308,76158,1,0,0:0:0:0:
173,269,76236,1,0,0:0:0:0:
175,229,76315,1,0,0:0:0:0:
189,192,76393,1,2,0:0:0:0:
215,162,76472,1,0,0:0:0:0:
249,141,76550,1,0,0:0:0:0:
288,132,76629,1,0,0:0:0:0:
324,144,76708,5,2,0:0:0:0:
363,143,76786,1,0,0:0:0:0:
395,120,76865,1,0,0:0:0:0:
407,82,76943,1,0,0:0:0:0:
395,45,77022,1,2,0:0:0:0:
363,21,77100,1,0,0:0:0:0:
324,20,77179,1,0,0:0:0:0:
288,32,77257,1,0,0:0:0:0:
264,63,77336,1,2,0:0:0:0:
254,102,77414,1,0,0:0:0:0:
258,141,77493,1,0,0:0:0:0:
277,176,77571,1,0,0:0:0:0:
307,202,77650,1,2,0:0:0:0:
345,215,77728,1,0,0:0:0:0:
384,216,77807,1,0,0:0:0:0:
417,195,77886,1,0,0:0:0:0:
433,159,77964,6,0,P|436:128|440:112,3,40,2|0|0|0,0:0|0:0|0:0|0:0,0:0:0:0:
320,92,78278,1,2,0:0:0:0:
281,113,78357,1,0,0:0:0:0:
239,123,78435,1,0,0:0:0:0:
195,120,78514,1,0,0:0:0:0:
156,96,78592,2,0,P|136:64|112:44,3,40,2|0|0|0,0:0|0:0|0:0|0:0,0:0:0:0:
52,232,78906,5,2,0:0:0:0:
79,266,78985,1,0,0:0:0:0:
117,287,79064,1,0,0:0:0:0:
160,293,79142,1,0,0:0:0:0:
203,283,79221,1,2,0:0:0:0:
238,257,79299,1,0,0:0:0:0:
262,221,79378,1,0,0:0:0:0:
262,221,79535,5,0,0:0:0:0:
432,76,79849,1,0,0:0:0:0:
416,356,80163,1,0,0:0:0:0:
416,356,80477,6,0,P|432:292|416:232,1,120.000004577637
408,204,80713,1,0,0:0:0:0:
383,169,80791,1,0,0:0:0:0:
350,144,80870,1,0,0:0:0:0:
310,130,80948,1,0,0:0:0:0:
200,344,81105,1,0,0:0:0:0:
48,128,81263,1,0,0:0:0:0:
53,169,81341,1,0,0:0:0:0:
58,211,81420,1,0,0:0:0:0:
64,252,81498,1,0,0:0:0:0:
69,294,81577,1,0,0:0:0:0:
196,60,81734,5,0,0:0:0:0:
232,320,81891,1,0,0:0:0:0:
80,164,82048,1,0,0:0:0:0:
339,128,82205,1,0,0:0:0:0:
200,312,82362,5,0,0:0:0:0:
164,52,82519,1,0,0:0:0:0:
368,220,82676,1,0,0:0:0:0:
109,256,82833,1,0,0:0:0:0:
36,88,82990,6,0,B|88:72|88:72|176:108,1,120.000004577637
192,120,83226,1,0,0:0:0:0:
232,128,83304,1,0,0:0:0:0:
273,120,83383,1,0,0:0:0:0:
308,96,83461,1,0,0:0:0:0:
372,352,83619,1,0,0:0:0:0:
64,252,83776,1,0,0:0:0:0:
100,231,83854,1,0,0:0:0:0:
137,211,83933,1,0,0:0:0:0:
174,191,84011,1,0,0:0:0:0:
211,171,84090,1,0,0:0:0:0:
368,300,84247,5,0,0:0:0:0:
428,104,84404,1,0,0:0:0:0:
240,180,84561,1,0,0:0:0:0:
440,220,84718,1,0,0:0:0:0:
280,92,84875,2,0,B|152:40,1,120.000004577637
64,224,85189,1,0,0:0:0:0:
16,24,85346,1,0,0:0:0:0:
300,184,85503,6,0,P|356:144|364:76,1,120.000004577637
360,60,85739,1,0,0:0:0:0:
323,40,85817,1,0,0:0:0:0:
281,41,85896,1,0,0:0:0:0:
245,62,85975,1,0,0:0:0:0:
192,356,86132,1,0,0:0:0:0:
136,224,86289,1,0,0:0:0:0:
122,184,86367,1,0,0:0:0:0:
109,144,86446,1,0,0:0:0:0:
96,104,86524,1,0,0:0:0:0:
83,64,86603,1,0,0:0:0:0:
267,40,86760,5,0,0:0:0:0:
411,184,86917,1,0,0:0:0:0:
266,328,87074,1,0,0:0:0:0:
122,184,87231,1,0,0:0:0:0:
122,184,87388,5,0,0:0:0:0:
266,328,87545,1,0,0:0:0:0:
411,184,87702,1,0,0:0:0:0:
267,40,87859,1,0,0:0:0:0:
144,228,88016,6,0,L|144:356,1,120.000004577637
188,324,88252,1,0,0:0:0:0:
222,300,88331,1,0,0:0:0:0:
244,264,88409,1,0,0:0:0:0:
249,223,88488,1,0,0:0:0:0:
196,12,88645,1,0,0:0:0:0:
432,132,88802,1,0,0:0:0:0:
403,162,88880,1,0,0:0:0:0:
374,193,88959,1,0,0:0:0:0:
345,223,89037,1,0,0:0:0:0:
316,254,89116,1,0,0:0:0:0:
196,104,89273,6,0,L|88:36,1,120.000004577637
192,260,89587,2,0,L|293:323,1,120.000004577637
324,84,89901,1,0,0:0:0:0:
128,224,90058,1,0,0:0:0:0:
360,292,90215,1,0,0:0:0:0:
360,292,90372,1,0,0:0:0:0:
276,108,90530,6,0,P|204:80|104:108,1,180.000006866455
16,120,90844,2,0,P|56:180|104:196,1,120.000004577637
372,320,91158,1,0,0:0:0:0:
452,56,91315,1,0,0:0:0:0:
452,56,91393,1,0,0:0:0:0:
452,56,91472,1,0,0:0:0:0:
372,320,91629,1,0,0:0:0:0:
244,76,91786,5,0,0:0:0:0:
372,320,91943,1,0,0:0:0:0:
372,320,92022,1,0,0:0:0:0:
372,320,92100,2,0,L|248:328,1,120.000004577637
28,108,92414,2,0,L|147:100,1,120.000004577637
208,56,92650,1,0,0:0:0:0:
272,100,92728,2,0,L|391:92,1,120.000004577637
452,140,92964,1,0,0:0:0:0:
416,56,93043,6,0,P|364:124|392:208,1,180.000006866455
468,268,93357,2,0,P|404:304|332:284,1,120.000004577637
232,40,93671,1,0,0:0:0:0:
144,312,93828,1,0,0:0:0:0:
144,312,93906,1,0,0:0:0:0:
144,312,93985,1,0,0:0:0:0:
420,224,94142,1,0,0:0:0:0:
152,64,94299,6,0,P|135:121|149:179,1,120.000004577637
224,232,94535,1,0,0:0:0:0:
296,180,94613,2,0,P|309:122|293:64,1,120.000004577637
149,179,94927,2,0,L|13:203,2,120.000004577637
340,32,95399,5,0,0:0:0:0:
456,244,95556,2,0,P|404:288|348:300,1,120.000004577637
288,260,95791,1,0,0:0:0:0:
212,284,95870,2,0,L|88:292,1,120.000004577637
236,40,96184,5,0,0:0:0:0:
236,40,96341,1,0,0:0:0:0:
368,296,96498,1,0,0:0:0:0:
372,296,96655,1,0,0:0:0:0:
12,139,96812,2,0,P|70:127|128:144,1,120.000004577637
196,212,97048,1,0,0:0:0:0:
284,232,97126,2,0,P|341:248|399:236,1,120.000004577637
180,52,97441,5,0,0:0:0:0:
96,328,97598,1,0,0:0:0:0:
384,348,97755,1,0,0:0:0:0:
428,64,97912,1,0,0:0:0:0:
468,188,98069,5,0,0:0:0:0:
420,192,98147,1,0,0:0:0:0:
374,179,98226,1,0,0:0:0:0:
335,151,98304,1,0,0:0:0:0:
309,112,98383,2,0,P|320:68|344:40,3,60.0000022888184
244,188,98697,5,0,0:0:0:0:
215,149,98776,1,0,0:0:0:0:
175,123,98854,1,0,0:0:0:0:
128,112,98933,1,0,0:0:0:0:
81,118,99011,2,0,P|76:68|88:32,3,60.0000022888184
68,244,99325,5,0,0:0:0:0:
126,235,99403,1,0,0:0:0:0:
174,200,99482,1,0,0:0:0:0:
201,146,99560,1,0,0:0:0:0:
223,97,99639,1,0,0:0:0:0:
275,69,99717,1,0,0:0:0:0:
335,65,99796,1,0,0:0:0:0:
390,87,99874,1,0,0:0:0:0:
431,130,99953,1,0,0:0:0:0:
451,186,100031,1,0,0:0:0:0:
445,245,100110,1,0,0:0:0:0:
415,297,100188,1,0,0:0:0:0:
368,328,100268,1,0,0:0:0:0:
308,329,100346,1,0,0:0:0:0:
255,303,100425,1,0,0:0:0:0:
220,255,100503,1,0,0:0:0:0:
216,196,100582,1,0,0:0:0:0:
256,192,100660,12,0,107493,0:0:0:0:
