osu file format v14

[General]
AudioFilename: 05 - Think of You.mp3
AudioLeadIn: 0
PreviewTime: 73664
Countdown: 0
SampleSet: None
StackLeniency: 0.5
Mode: 0
LetterboxInBreaks: 0
WidescreenStoryboard: 1

[Editor]
Bookmarks: 13664,23908,26835,38542,61956,97078,108786,143908,167322,179030,202444,227322,239030
DistanceSpacing: 0.6
BeatDivisor: 4
GridSize: 4
TimelineZoom: 2.1

[Metadata]
Title:Think of You
TitleUnicode:Think of You
Artist:Sakaue Nachi
ArtistUnicode:Sakaue Nachi
Creator:DT-sama
Version:eurobeat
Source:Touhou
Tags:doppie
BeatmapID:1213006
BeatmapSetID:572463

[Difficulty]
HPDrainRate:7
CircleSize:4
OverallDifficulty:9
ApproachRate:9
SliderMultiplier:1.8
SliderTickRate:1

[Events]
//Background and Video events
0,0,"thinkofyou.jpg",0,0
//Break Periods
//Storyboard Layer 0 (Background)
//Storyboard Layer 1 (Fail)
//Storyboard Layer 2 (Pass)
//Storyboard Layer 3 (Foreground)
//Storyboard Sound Samples

[TimingPoints]
1957,365.853658536585,4,1,0,30,1,0
38542,-66.6666666666667,4,1,0,30,0,0

[Colours]
Combo1 : 198,104,253
Combo2 : 255,94,199
Combo3 : 254,166,1
Combo4 : 168,188,27

[HitObjects]
260,140,13664,5,0,0:0:0:0:
248,182,13755,1,0,0:0:0:0:
217,215,13846,1,0,0:0:0:0:
175,228,13938,1,0,0:0:0:0:
80,216,14030,1,0,0:0:0:0:
83,260,14121,1,0,0:0:0:0:
107,297,14212,1,0,0:0:0:0:
146,319,14304,1,0,0:0:0:0:
220,336,14396,5,0,0:0:0:0:
264,336,14487,1,0,0:0:0:0:
308,336,14578,1,0,0:0:0:0:
352,336,14670,1,0,0:0:0:0:
428,328,14761,5,0,0:0:0:0:
419,284,14852,1,0,0:0:0:0:
432,241,14943,1,0,0:0:0:0:
464,211,15035,1,0,0:0:0:0:
504,128,15127,5,0,0:0:0:0:
460,118,15218,1,0,0:0:0:0:
417,130,15309,1,0,0:0:0:0:
386,161,15401,1,0,0:0:0:0:
352,251,15493,1,0,0:0:0:0:
314,227,15584,1,0,0:0:0:0:
293,188,15675,1,0,0:0:0:0:
292,144,15767,1,0,0:0:0:0:
260,56,15859,5,0,0:0:0:0:
228,88,15950,1,0,0:0:0:0:
196,120,16042,1,0,0:0:0:0:
168,156,16133,1,0,0:0:0:0:
96,220,16225,5,0,0:0:0:0:
56,184,16316,1,0,0:0:0:0:
55,132,16407,1,0,0:0:0:0:
93,96,16499,1,0,0:0:0:0:
168,156,16591,5,0,0:0:0:0:
207,178,16682,1,0,0:0:0:0:
231,217,16773,1,0,0:0:0:0:
232,260,16865,1,0,0:0:0:0:
196,349,16957,1,0,0:0:0:0:
240,358,17048,1,0,0:0:0:0:
282,343,17139,1,0,0:0:0:0:
312,312,17231,1,0,0:0:0:0:
300,216,17322,5,0,0:0:0:0:
342,220,17413,1,0,0:0:0:0:
379,248,17504,1,0,0:0:0:0:
395,287,17596,1,0,0:0:0:0:
412,381,17688,1,0,0:0:0:0:
367,376,17779,1,0,0:0:0:0:
331,349,17870,1,0,0:0:0:0:
312,312,17962,1,0,0:0:0:0:
300,216,18054,5,0,0:0:0:0:
254,218,18145,1,0,0:0:0:0:
215,242,18236,1,0,0:0:0:0:
195,280,18328,1,0,0:0:0:0:
189,376,18420,1,0,0:0:0:0:
145,364,18511,1,0,0:0:0:0:
114,333,18602,1,0,0:0:0:0:
100,292,18694,1,0,0:0:0:0:
117,198,18786,5,0,0:0:0:0:
99,145,18877,1,0,0:0:0:0:
54,122,18968,1,0,0:0:0:0:
5,141,19060,1,0,0:0:0:0:
37,216,19152,5,0,0:0:0:0:
54,269,19243,1,0,0:0:0:0:
100,292,19334,1,0,0:0:0:0:
148,272,19426,1,0,0:0:0:0:
156,176,19517,5,0,0:0:0:0:
198,185,19608,1,0,0:0:0:0:
232,215,19699,1,0,0:0:0:0:
246,257,19791,1,0,0:0:0:0:
238,351,19883,1,0,0:0:0:0:
281,348,19974,1,0,0:0:0:0:
318,322,20065,1,0,0:0:0:0:
339,282,20157,1,0,0:0:0:0:
312,212,20249,5,0,0:0:0:0:
336,168,20341,1,0,0:0:0:0:
360,124,20432,1,0,0:0:0:0:
388,84,20524,1,0,0:0:0:0:
392,0,20615,5,0,0:0:0:0:
350,9,20706,1,0,0:0:0:0:
316,39,20797,1,0,0:0:0:0:
302,81,20889,1,0,0:0:0:0:
272,176,20981,5,0,0:0:0:0:
230,167,21072,1,0,0:0:0:0:
196,137,21163,1,0,0:0:0:0:
182,95,21255,1,0,0:0:0:0:
190,1,21347,1,0,0:0:0:0:
147,4,21438,1,0,0:0:0:0:
110,30,21529,1,0,0:0:0:0:
89,70,21621,1,0,0:0:0:0:
80,160,21713,5,0,0:0:0:0:
105,202,21804,1,0,0:0:0:0:
133,242,21896,1,0,0:0:0:0:
162,281,21987,1,0,0:0:0:0:
228,340,22078,5,0,0:0:0:0:
195,368,22169,1,0,0:0:0:0:
151,377,22260,1,0,0:0:0:0:
109,363,22352,1,0,0:0:0:0:
162,281,22444,5,0,0:0:0:0:
204,272,22535,1,0,0:0:0:0:
238,242,22626,1,0,0:0:0:0:
252,200,22718,1,0,0:0:0:0:
244,106,22810,1,0,0:0:0:0:
287,109,22901,1,0,0:0:0:0:
324,135,22992,1,0,0:0:0:0:
345,175,23084,1,0,0:0:0:0:
333,271,23176,5,0,0:0:0:0:
375,267,23267,1,0,0:0:0:0:
412,239,23358,1,0,0:0:0:0:
428,200,23450,1,0,0:0:0:0:
445,106,23542,1,0,0:0:0:0:
400,111,23633,1,0,0:0:0:0:
364,138,23724,1,0,0:0:0:0:
345,175,23816,1,0,0:0:0:0:
320,260,23908,5,0,0:0:0:0:
278,251,23999,1,0,0:0:0:0:
244,221,24090,1,0,0:0:0:0:
230,179,24182,1,0,0:0:0:0:
238,85,24274,1,0,0:0:0:0:
195,88,24365,1,0,0:0:0:0:
158,114,24456,1,0,0:0:0:0:
137,154,24548,1,0,0:0:0:0:
148,240,24639,5,0,0:0:0:0:
340,336,24822,1,0,0:0:0:0:
484,44,25005,5,0,0:0:0:0:
256,192,25371,12,0,26743,0:0:0:0:
188,68,26835,5,0,0:0:0:0:
219,93,26926,1,0,0:0:0:0:
259,96,27017,1,0,0:0:0:0:
313,23,27109,5,0,0:0:0:0:
355,9,27200,1,0,0:0:0:0:
396,20,27291,1,0,0:0:0:0:
432,48,27383,1,0,0:0:0:0:
444,88,27475,1,0,0:0:0:0:
360,120,27566,5,0,0:0:0:0:
374,162,27658,1,0,0:0:0:0:
408,192,27749,1,0,0:0:0:0:
450,201,27840,1,0,0:0:0:0:
512,256,27932,5,0,0:0:0:0:
468,262,28023,1,0,0:0:0:0:
433,292,28114,1,0,0:0:0:0:
418,334,28206,1,0,0:0:0:0:
352,384,28298,5,0,0:0:0:0:
310,375,28389,1,0,0:0:0:0:
276,345,28480,1,0,0:0:0:0:
262,303,28572,1,0,0:0:0:0:
248,200,28664,5,0,0:0:0:0:
206,209,28755,1,0,0:0:0:0:
172,239,28846,1,0,0:0:0:0:
158,281,28938,1,0,0:0:0:0:
164,324,29030,1,0,0:0:0:0:
188,360,29121,1,0,0:0:0:0:
256,52,29304,1,0,0:0:0:0:
244,92,29396,1,0,0:0:0:0:
132,140,29578,5,0,0:0:0:0:
148,176,29670,1,0,0:0:0:0:
184,192,29761,5,0,0:0:0:0:
204,228,29853,1,0,0:0:0:0:
240,248,29944,1,0,0:0:0:0:
280,252,30036,1,0,0:0:0:0:
332,184,30127,5,0,0:0:0:0:
374,193,30218,1,0,0:0:0:0:
408,223,30309,1,0,0:0:0:0:
422,265,30401,1,0,0:0:0:0:
452,296,30493,5,0,0:0:0:0:
434,337,30585,1,0,0:0:0:0:
401,370,30676,1,0,0:0:0:0:
356,372,30767,1,0,0:0:0:0:
352,332,30859,5,0,0:0:0:0:
304,320,30950,1,0,0:0:0:0:
256,332,31042,1,0,0:0:0:0:
212,356,31133,1,0,0:0:0:0:
164,360,31225,5,0,0:0:0:0:
124,332,31316,1,0,0:0:0:0:
92,88,31499,1,0,0:0:0:0:
32,176,31682,1,0,0:0:0:0:
72,204,31774,1,0,0:0:0:0:
208,152,31956,5,0,0:0:0:0:
204,200,32048,1,0,0:0:0:0:
120,248,32231,1,0,0:0:0:0:
80,276,32322,1,0,0:0:0:0:
256,332,32505,1,0,0:0:0:0:
368,284,32688,5,0,0:0:0:0:
358,245,32779,1,0,0:0:0:0:
372,207,32870,1,0,0:0:0:0:
461,189,32962,5,0,0:0:0:0:
492,157,33053,1,0,0:0:0:0:
499,115,33144,1,0,0:0:0:0:
489,71,33236,1,0,0:0:0:0:
458,44,33328,1,0,0:0:0:0:
364,68,33419,5,0,0:0:0:0:
350,110,33511,1,0,0:0:0:0:
316,140,33602,1,0,0:0:0:0:
274,149,33693,1,0,0:0:0:0:
200,112,33785,5,0,0:0:0:0:
185,70,33877,1,0,0:0:0:0:
150,40,33968,1,0,0:0:0:0:
106,34,34059,1,0,0:0:0:0:
0,44,34151,5,0,0:0:0:0:
14,86,34243,1,0,0:0:0:0:
48,116,34334,1,0,0:0:0:0:
90,125,34425,1,0,0:0:0:0:
180,136,34517,5,0,0:0:0:0:
185,178,34608,1,0,0:0:0:0:
172,220,34700,1,0,0:0:0:0:
141,251,34792,1,0,0:0:0:0:
97,263,34883,1,0,0:0:0:0:
55,253,34974,1,0,0:0:0:0:
440,360,35157,1,0,0:0:0:0:
428,320,35249,1,0,0:0:0:0:
248,336,35432,5,0,0:0:0:0:
285,316,35524,1,0,0:0:0:0:
309,285,35615,5,0,0:0:0:0:
310,244,35707,1,0,0:0:0:0:
332,209,35798,1,0,0:0:0:0:
366,187,35890,1,0,0:0:0:0:
448,192,35981,5,0,0:0:0:0:
475,159,36072,1,0,0:0:0:0:
483,114,36163,1,0,0:0:0:0:
469,72,36255,1,0,0:0:0:0:
473,29,36347,5,0,0:0:0:0:
434,8,36439,1,0,0:0:0:0:
387,2,36530,1,0,0:0:0:0:
351,29,36621,1,0,0:0:0:0:
372,63,36713,5,0,0:0:0:0:
348,104,36804,1,0,0:0:0:0:
308,132,36896,1,0,0:0:0:0:
260,136,36987,1,0,0:0:0:0:
208,128,37079,5,0,0:0:0:0:
32,52,37353,1,0,0:0:0:0:
240,312,37627,1,0,0:0:0:0:
444,56,37810,1,0,0:0:0:0:
208,128,37993,5,0,0:0:0:0:
258,143,38085,1,0,0:0:0:0:
289,187,38176,5,0,0:0:0:0:
308,266,38267,1,0,0:0:0:0:
376,310,38359,1,0,0:0:0:0:
453,295,38450,1,0,0:0:0:0:
500,216,38542,5,0,0:0:0:0:
384,104,38725,1,0,0:0:0:0:
240,176,38908,1,0,0:0:0:0:
124,64,39091,1,0,0:0:0:0:
16,184,39274,2,0,P|40:256|144:312,1,135.000005149841
244,268,39639,5,0,0:0:0:0:
356,148,39822,1,0,0:0:0:0:
244,268,40005,6,0,P|148:220|124:176,1,135.000005149841
356,148,40371,2,0,P|419:167|465:216,1,135.000005149841
328,300,40737,5,0,0:0:0:0:
208,240,40920,1,0,0:0:0:0:
332,188,41103,1,0,0:0:0:0:
452,248,41286,1,0,0:0:0:0:
328,299,41469,6,0,P|282:348|218:369,1,135.000005149841
208,239,41835,2,0,P|253:191|317:170,1,135.000005149841
437,110,42200,6,0,P|391:61|327:40,1,135.000005149841
317,170,42566,2,0,P|362:218|426:239,1,135.000005149841
328,48,42932,5,0,0:0:0:0:
202,97,43115,1,0,0:0:0:0:
252,222,43298,1,0,0:0:0:0:
377,171,43481,1,0,0:0:0:0:
348,0,43664,6,0,L|264:36,1,67.5000025749207
159,75,43847,2,0,L|195:159,1,67.5000025749207
235,263,44030,2,0,L|297:236,1,67.5000025749207
423,186,44213,2,0,L|387:102,1,67.5000025749207
348,0,44396,5,0,0:0:0:0:
216,96,44578,1,0,0:0:0:0:
344,196,44761,1,0,0:0:0:0:
212,292,44943,1,0,0:0:0:0:
80,196,45127,2,0,P|48:120|84:40,1,135.000005149841
216,96,45493,5,0,0:0:0:0:
344,196,45676,1,0,0:0:0:0:
215,95,45859,6,0,P|151:115|106:164,1,135.000005149841
343,195,46225,2,0,P|407:175|453:127,1,135.000005149841
215,95,46591,5,0,0:0:0:0:
100,209,46774,1,0,0:0:0:0:
261,209,46956,1,0,0:0:0:0:
146,323,47139,1,0,0:0:0:0:
382,269,47322,6,0,P|336:317|272:338,1,135.000005149841
261,209,47688,2,0,P|306:160|370:139,1,135.000005149841
490,79,48053,6,0,P|444:30|380:9,1,135.000005149841
370,139,48419,2,0,P|415:187|479:208,1,135.000005149841
490,79,48786,6,0,P|444:30|380:9,1,135.000005149841
131,9,49152,6,0,P|67:30|21:79,1,135.000005149841
22,304,49517,6,0,P|67:353|131:374,1,135.000005149841
380,374,49883,6,0,P|444:353|490:305,1,135.000005149841
256,192,50249,5,0,0:0:0:0:
256,192,50341,12,0,51438,0:0:0:0:
256,128,51530,5,0,0:0:0:0:
256,256,51713,1,0,0:0:0:0:
256,192,51804,12,0,53085,0:0:0:0:
256,192,53176,5,0,0:0:0:0:
256,192,53267,12,0,54365,0:0:0:0:
256,128,54456,5,0,0:0:0:0:
256,256,54639,1,0,0:0:0:0:
256,192,54731,12,0,55280,0:0:0:0:
256,256,55371,5,0,0:0:0:0:
256,128,55737,1,0,0:0:0:0:
256,256,56103,1,0,0:0:0:0:
256,192,56194,12,0,57291,0:0:0:0:
256,128,57383,5,0,0:0:0:0:
256,256,57566,1,0,0:0:0:0:
256,192,57658,12,0,58939,0:0:0:0:
256,192,59030,5,0,0:0:0:0:
256,192,59121,12,0,60218,0:0:0:0:
256,128,60310,5,0,0:0:0:0:
256,256,60493,1,0,0:0:0:0:
256,192,60585,12,0,61133,0:0:0:0:
256,256,61225,5,0,0:0:0:0:
256,232,61316,1,0,0:0:0:0:
256,208,61408,1,0,0:0:0:0:
256,184,61499,1,0,0:0:0:0:
256,128,61591,5,0,0:0:0:0:
256,256,61956,6,0,L|256:112,1,135.000005149842
320,48,62322,2,0,P|256:24|172:72,1,135.000005149842
256,121,62688,1,0,0:0:0:0:
295,141,62779,1,0,0:0:0:0:
340,142,62870,1,0,0:0:0:0:
380,123,62962,1,0,0:0:0:0:
444,51,63054,2,0,P|382:27|320:48,1,135.000005149842
256,121,63420,5,0,0:0:0:0:
256,284,63603,2,0,L|256:180,1,67.5000025749208
256,121,63786,1,0,0:0:0:0:
212,128,63877,1,0,0:0:0:0:
176,155,63968,1,0,0:0:0:0:
157,196,64060,1,0,0:0:0:0:
157,241,64152,5,0,0:0:0:0:
113,248,64243,1,0,0:0:0:0:
77,275,64334,1,0,0:0:0:0:
58,316,64426,1,0,0:0:0:0:
58,360,64517,2,0,P|148:364|168:352,1,67.5000025749208
220,324,64700,1,0,0:0:0:0:
344,284,64883,6,0,P|296:220|192:208,1,135.000005149842
124,152,65249,2,0,P|172:88|276:76,1,135.000005149842
267,69,65524,1,0,0:0:0:0:
310,72,65616,5,0,0:0:0:0:
314,116,65707,1,0,0:0:0:0:
339,154,65798,1,0,0:0:0:0:
378,176,65890,1,0,0:0:0:0:
422,179,65981,2,0,P|444:140|444:104,1,67.5000025749208
368,16,66164,2,0,P|370:49|384:80,1,67.5000025749208
424,180,66347,6,0,P|436:264|388:340,1,135.000005149842
320,244,66713,2,0,P|252:241|196:206,1,135.000005149842
176,168,66987,1,0,0:0:0:0:
180,84,67078,5,0,0:0:0:0:
223,92,67170,1,0,0:0:0:0:
258,120,67261,1,0,0:0:0:0:
275,161,67352,1,0,0:0:0:0:
320,244,67444,2,0,P|372:288|440:308,1,135.000005149842
450,156,67810,6,0,P|398:112|330:92,1,135.000005149842
204,112,68176,6,0,P|255:155|288:163,1,67.5000025749208
354,215,68359,1,0,0:0:0:0:
320,244,68450,1,0,0:0:0:0:
258,279,68541,5,0,0:0:0:0:
215,268,68633,1,0,0:0:0:0:
184,236,68725,1,0,0:0:0:0:
151,206,68816,1,0,0:0:0:0:
107,195,68907,1,0,0:0:0:0:
63,206,68999,1,0,0:0:0:0:
29,234,69090,2,0,P|82:306|104:314,1,67.5000025749208
208,368,69274,6,0,B|344:368|344:368|424:356|452:284,1,270.000010299683
304,16,69822,2,0,B|168:16|168:16|88:28|60:100,1,270.000010299683
208,368,70371,2,0,L|344:368,1,135.000005149842
448,292,70737,6,0,B|424:230|344:218|344:218|208:218,1,270.000010299683
64,88,71286,2,0,B|88:150|168:162|168:162|304:162,1,270.000010299683
216,48,71835,2,0,P|176:88|168:200,1,135.000005149842
360,277,72200,6,0,P|347:211|302:162,1,135.000005149842
158,162,72566,2,0,P|170:227|216:277,1,135.000005149842
503,277,72932,6,0,P|490:211|445:162,1,135.000005149842
302,162,73298,2,0,P|314:227|359:276,1,135.000005149842
445,162,73664,6,0,P|432:96|387:47,1,135.000005149842
302,162,74030,1,0,0:0:0:0:
206,66,74213,1,0,0:0:0:0:
206,66,74396,1,0,0:0:0:0:
110,161,74578,1,0,0:0:0:0:
156,212,74670,1,0,0:0:0:0:
204,255,74760,1,0,0:0:0:0:
300,158,74944,1,0,0:0:0:0:
435,158,75127,6,0,P|400:240|332:280,1,135.000005149842
216,332,75493,1,0,0:0:0:0:
68,268,75676,1,0,0:0:0:0:
216,332,75859,5,0,0:0:0:0:
236,316,75950,1,0,0:0:0:0:
300,272,76042,1,0,0:0:0:0:
280,244,76133,1,0,0:0:0:0:
216,212,76225,1,0,0:0:0:0:
224,172,76316,1,0,0:0:0:0:
276,144,76408,1,0,0:0:0:0:
256,100,76499,1,0,0:0:0:0:
224,48,76591,5,0,0:0:0:0:
176,24,76682,1,0,0:0:0:0:
116,40,76774,6,0,P|56:100|52:140,1,67.5000025749208
85,207,76956,2,0,P|121:187|137:163,1,67.5000025749208
8,144,77139,6,0,P|80:172|184:140,1,135.000005149842
228,84,77414,1,0,0:0:0:0:
260,96,77505,2,0,P|256:176|240:200,1,67.5000025749208
213,283,77688,6,0,P|241:183|289:143,1,135.000005149842
400,152,77963,1,0,0:0:0:0:
420,180,78054,6,0,L|464:236,1,67.5000025749208
409,250,78237,2,0,L|425:319,1,67.5000025749208
370,309,78420,2,0,L|355:379,1,67.5000025749208
213,283,78603,6,0,L|169:227,1,67.5000025749208
224,192,78786,2,0,L|207:122,1,67.5000025749208
276,128,78969,2,0,L|290:58,1,67.5000025749208
356,0,79152,5,0,0:0:0:0:
385,32,79243,1,0,0:0:0:0:
395,75,79334,1,0,0:0:0:0:
381,118,79426,1,0,0:0:0:0:
336,180,79517,6,0,P|419:245|493:226,2,135.000005149842
238,37,80066,1,0,0:0:0:0:
189,61,80158,1,0,0:0:0:0:
142,85,80249,1,0,0:0:0:0:
184,240,80432,1,0,0:0:0:0:
184,240,80615,1,0,0:0:0:0:
336,180,80798,1,0,0:0:0:0:
481,108,80981,6,0,P|448:288|364:336,1,270.000010299683
336,180,81530,2,0,P|272:212|248:252,1,67.5000025749208
176,324,81713,2,0,P|256:324|280:308,1,67.5000025749208
384,328,81896,5,0,0:0:0:0:
372,288,81987,1,0,0:0:0:0:
364,220,82078,1,0,0:0:0:0:
336,180,82170,1,0,0:0:0:0:
275,208,82261,1,0,0:0:0:0:
227,180,82353,1,0,0:0:0:0:
152,176,82444,5,0,0:0:0:0:
144,116,82536,1,0,0:0:0:0:
176,56,82627,6,0,P|244:40|256:44,1,67.5000025749208
336,180,82810,2,0,P|268:196|256:192,1,67.5000025749208
152,176,82993,6,0,B|264:104|264:104|336:72|416:116,1,270.000010299683
394,235,83542,2,0,P|378:171|419:78,1,135.000005149842
478,10,83908,6,0,B|468:84|400:108|400:108|328:112|264:216,1,270.000010299683
348,288,84456,2,0,P|276:304|256:300,1,67.5000025749208
188,307,84639,6,0,P|132:345|66:349,1,135.000005149842
323,76,85005,2,0,P|379:38|445:34,1,135.000005149842
140,124,85371,6,0,P|102:68|96:8,1,67.5000025749208
216,16,85554,1,0,0:0:0:0:
393,182,85737,2,0,P|329:114|329:38,1,135.000005149842
393,182,86103,5,0,0:0:0:0:
374,222,86194,1,0,0:0:0:0:
342,254,86285,1,0,0:0:0:0:
301,271,86377,1,0,0:0:0:0:
204,284,86469,5,0,0:0:0:0:
208,231,86560,1,0,0:0:0:0:
243,190,86651,1,0,0:0:0:0:
295,178,86743,1,0,0:0:0:0:
393,182,86835,6,0,P|440:136|448:104,1,67.5000025749208
412,16,87017,2,0,P|365:62|357:94,1,67.5000025749208
295,178,87200,6,0,P|248:252|188:268,1,135.000005149842
201,58,87566,5,0,0:0:0:0:
150,76,87657,1,0,0:0:0:0:
120,121,87748,1,0,0:0:0:0:
122,174,87840,1,0,0:0:0:0:
185,230,87932,5,0,0:0:0:0:
180,290,88023,1,0,0:0:0:0:
144,337,88114,1,0,0:0:0:0:
88,355,88206,1,0,0:0:0:0:
77,258,88298,5,0,0:0:0:0:
143,247,88389,1,0,0:0:0:0:
206,267,88481,2,0,P|272:296|284:296,1,67.5000025749208
388,212,88664,2,0,P|322:183|310:183,1,67.5000025749208
350,304,88847,6,0,P|358:224|298:168,1,135.000005149842
236,88,89121,1,0,0:0:0:0:
203,100,89212,2,0,P|197:133|202:166,1,67.5000025749208
310,94,89395,6,0,P|247:116|201:165,1,135.000005149842
72,248,89670,1,0,0:0:0:0:
77,281,89761,6,0,L|85:348,1,67.5000025749208
134,323,89944,2,0,L|169:380,1,67.5000025749208
204,337,90127,2,0,L|260:373,1,67.5000025749208
327,182,90310,6,0,L|324:114,1,67.5000025749208
260,119,90493,2,0,L|230:58,1,67.5000025749208
179,103,90676,2,0,L|126:60,1,67.5000025749208
24,36,90859,5,0,0:0:0:0:
15,78,90950,1,0,0:0:0:0:
29,120,91041,1,0,0:0:0:0:
63,150,91133,1,0,0:0:0:0:
143,176,91224,6,0,P|127:243|84:280,1,67.5000025749208
0,348,91408,2,0,P|16:281|59:244,1,67.5000025749208
128,240,91591,2,0,P|200:248|236:276,1,67.5000025749208
228,360,91774,5,0,0:0:0:0:
219,318,91865,1,0,0:0:0:0:
233,276,91956,1,0,0:0:0:0:
267,246,92048,1,0,0:0:0:0:
347,220,92139,6,0,P|331:153|288:116,1,67.5000025749208
204,48,92323,2,0,P|220:115|263:152,1,67.5000025749208
332,156,92506,2,0,P|404:148|440:120,1,67.5000025749208
400,24,92688,6,0,P|292:72|280:216,1,270.000010299683
437,354,93237,2,0,P|373:322|349:282,1,67.5000025749208
277,210,93420,2,0,P|357:210|381:226,1,67.5000025749208
490,283,93603,5,0,0:0:0:0:
449,289,93694,1,0,0:0:0:0:
384,310,93785,1,0,0:0:0:0:
336,302,93877,1,0,0:0:0:0:
336,234,93968,1,0,0:0:0:0:
290,203,94060,1,0,0:0:0:0:
255,137,94151,5,0,0:0:0:0:
197,155,94243,1,0,0:0:0:0:
156,209,94334,6,0,P|170:277|178:286,1,67.5000025749208
336,302,94517,2,0,P|321:233|313:224,1,67.5000025749208
156,209,94700,6,0,B|268:281|268:281|340:313|420:269,1,270.000010299683
398,150,95249,2,0,P|382:214|423:307,1,135.000005149842
482,375,95615,6,0,B|472:301|404:277|404:277|332:273|268:169,1,270.000010299683
352,97,96163,2,0,P|280:81|260:85,1,67.5000025749208
192,78,96346,6,0,P|136:40|70:36,1,135.000005149842
327,309,96712,2,0,P|383:347|449:351,1,135.000005149842
140,260,97078,6,0,P|102:316|100:400,1,135.000005149842
