osu file format v14

[General]
AudioFilename: audio.mp3
AudioLeadIn: 0
PreviewTime: 61430
Countdown: 0
SampleSet: Normal
StackLeniency: 0.7
Mode: 1
LetterboxInBreaks: 0
WidescreenStoryboard: 0

[Editor]
Bookmarks: 168467
DistanceSpacing: 0.8
BeatDivisor: 4
GridSize: 32
TimelineZoom: 2.4

[Metadata]
Title:Crazy Hot
TitleUnicode:Crazy Hot
Artist:Sakaue Nachi
ArtistUnicode:坂上なち
Creator:Capu
Version:Crazy Oni
Source:妖精大戦争 ~ 東方三月精
Tags:Touhou 12.8, Marisa Kirisame, 東方project Yousei Daisensou ~ Touhou Sangetsusei video game, Great Fairy Wars, th12.8, toho, euroflash vol.2, eurobeat electronic english pop
BeatmapID:2128691
BeatmapSetID:1017039

[Difficulty]
HPDrainRate:5
CircleSize:2
OverallDifficulty:6.5
ApproachRate:9
SliderMultiplier:1.4
SliderTickRate:1

[Events]
//Background and Video events
0,0,"marisa kirisame.jpg",0,0
//Break Periods
//Storyboard Layer 0 (Background)
//Storyboard Layer 1 (Fail)
//Storyboard Layer 2 (Pass)
//Storyboard Layer 3 (Foreground)
//Storyboard Layer 4 (Overlay)
//Storyboard Sound Samples

[TimingPoints]
1068,370.37037037037,4,1,0,85,1,0
1068,-100,4,1,0,85,0,0
61808,-100,4,1,0,85,0,1
72919,-100,4,1,0,85,0,0
73660,-100,4,1,0,85,0,1
85512,-100,4,1,0,85,0,0
132919,-100,4,1,0,85,0,1
144030,-100,4,1,0,85,0,0
144771,-100,4,1,0,85,0,1
156623,-100,4,1,0,85,0,0
241067,-100,4,1,0,85,0,1
252179,-100,4,1,0,85,0,0
252919,-100,4,1,0,85,0,1
264030,-100,4,1,0,85,0,0
264215,-95.2848301786114,4,1,0,85,0,0
264308,-93.090194158218,4,1,0,85,0,0
264401,-90.9943774574169,4,1,0,85,0,0
264493,-88.9908526302581,4,1,0,85,0,0
264586,-87.0735789156553,4,1,0,85,0,0
264678,-85.2372493598683,4,1,0,85,0,0
264771,-83.4767742570985,4,1,0,85,0,1
275882,-83.4767742570985,4,1,0,85,0,0
276623,-83.4767742570985,4,1,0,85,0,1
288475,-83.3333333333333,4,1,0,85,0,0
288660,-85.1063829787234,4,1,0,85,0,0
288845,-86.9565217391304,4,1,0,85,0,0
288938,-87.9120879120879,4,1,0,85,0,0
289123,-89.8876404494382,4,1,0,85,0,0
289308,-91.9540229885058,4,1,0,85,0,0
289493,-94.1176470588235,4,1,0,85,0,0
289586,-95.2380952380952,4,1,0,85,0,0
289771,-97.5609756097561,4,1,0,85,0,0
289956,-100,4,1,0,85,0,0

[HitObjects]
256,192,1068,5,8,0:0:0:0:
256,192,1253,1,0,0:0:0:0:
256,192,1345,1,8,0:0:0:0:
256,192,1438,1,0,0:0:0:0:
256,192,1623,1,8,0:0:0:0:
256,192,1716,1,8,0:0:0:0:
256,192,1808,1,0,0:0:0:0:
256,192,1901,1,0,0:0:0:0:
256,192,1993,1,8,0:0:0:0:
256,192,2086,1,0,0:0:0:0:
256,192,2179,1,8,0:0:0:0:
256,192,2271,1,8,0:0:0:0:
256,192,2364,1,0,0:0:0:0:
256,192,2456,1,0,0:0:0:0:
256,192,2549,1,12,0:0:0:0:
256,192,2919,1,0,0:0:0:0:
256,192,3105,1,0,0:0:0:0:
256,192,3290,1,8,0:0:0:0:
256,192,3660,1,0,0:0:0:0:
256,192,3845,1,0,0:0:0:0:
256,192,4030,1,8,0:0:0:0:
256,192,4216,1,8,0:0:0:0:
256,192,4401,1,0,0:0:0:0:
256,192,4493,1,8,0:0:0:0:
256,192,4586,1,0,0:0:0:0:
256,192,4679,1,8,0:0:0:0:
256,192,4771,1,8,0:0:0:0:
256,192,4956,1,0,0:0:0:0:
256,192,5049,1,0,0:0:0:0:
256,192,5142,1,8,0:0:0:0:
256,192,5327,1,8,0:0:0:0:
256,192,5697,1,8,0:0:0:0:
256,192,5882,1,0,0:0:0:0:
256,192,6068,1,0,0:0:0:0:
256,192,6253,1,8,0:0:0:0:
256,192,6438,1,0,0:0:0:0:
256,192,6530,1,8,0:0:0:0:
256,192,6623,1,0,0:0:0:0:
256,192,6808,1,8,0:0:0:0:
256,192,6901,1,0,0:0:0:0:
256,192,6993,1,8,0:0:0:0:
256,192,7179,1,0,0:0:0:0:
256,192,7271,1,8,0:0:0:0:
256,192,7364,1,0,0:0:0:0:
256,192,7456,1,0,0:0:0:0:
256,192,7549,1,8,0:0:0:0:
256,192,7642,1,0,0:0:0:0:
256,192,7734,1,8,0:0:0:0:
256,192,7919,1,0,0:0:0:0:
256,192,8012,1,8,0:0:0:0:
256,192,8105,1,8,0:0:0:0:
256,192,8197,1,0,0:0:0:0:
256,192,8290,1,8,0:0:0:0:
256,192,8475,1,12,0:0:0:0:
256,192,8660,1,0,0:0:0:0:
256,192,8753,1,0,0:0:0:0:
256,192,8845,1,0,0:0:0:0:
256,192,9030,1,0,0:0:0:0:
256,192,9216,1,8,0:0:0:0:
256,192,9401,1,0,0:0:0:0:
256,192,9493,1,0,0:0:0:0:
256,192,9586,1,0,0:0:0:0:
256,192,9771,1,0,0:0:0:0:
256,192,9956,1,8,0:0:0:0:
256,192,10142,1,0,0:0:0:0:
256,192,10234,1,0,0:0:0:0:
256,192,10327,1,0,0:0:0:0:
256,192,10512,1,0,0:0:0:0:
256,192,10697,1,8,0:0:0:0:
256,192,10882,1,0,0:0:0:0:
256,192,10975,1,0,0:0:0:0:
256,192,11067,1,0,0:0:0:0:
256,192,11253,1,0,0:0:0:0:
256,192,11438,1,8,0:0:0:0:
256,192,11623,1,8,0:0:0:0:
256,192,11716,1,0,0:0:0:0:
256,192,11808,1,0,0:0:0:0:
256,192,11901,1,8,0:0:0:0:
256,192,11993,1,0,0:0:0:0:
256,192,12179,1,8,0:0:0:0:
256,192,12364,1,0,0:0:0:0:
256,192,12456,1,8,0:0:0:0:
256,192,12549,1,0,0:0:0:0:
256,192,12734,1,8,0:0:0:0:
256,192,12796,1,0,0:0:0:0:
256,192,12858,1,0,0:0:0:0:
256,192,12919,1,8,0:0:0:0:
256,192,13105,1,0,0:0:0:0:
256,192,13197,1,8,0:0:0:0:
256,192,13290,1,0,0:0:0:0:
256,192,13475,1,8,0:0:0:0:
256,192,13660,1,12,0:0:0:0:
256,192,14030,1,0,0:0:0:0:
256,192,14123,1,0,0:0:0:0:
256,192,14216,1,0,0:0:0:0:
256,192,14308,1,0,0:0:0:0:
256,192,14401,1,8,0:0:0:0:
256,192,14586,1,8,0:0:0:0:
256,192,14771,1,0,0:0:0:0:
256,192,14864,1,8,0:0:0:0:
256,192,14956,1,0,0:0:0:0:
256,192,15049,1,8,0:0:0:0:
256,192,15142,1,0,0:0:0:0:
256,192,15234,1,8,0:0:0:0:
256,192,15327,1,0,0:0:0:0:
256,192,15419,1,8,0:0:0:0:
256,192,15512,1,8,0:0:0:0:
256,192,15605,1,0,0:0:0:0:
256,192,15697,1,8,0:0:0:0:
256,192,15882,1,8,0:0:0:0:
256,192,16067,1,0,0:0:0:0:
256,192,16160,1,8,0:0:0:0:
256,192,16253,1,0,0:0:0:0:
256,192,16345,1,0,0:0:0:0:
256,192,16438,1,8,0:0:0:0:
256,192,16530,1,0,0:0:0:0:
256,192,16623,1,8,0:0:0:0:
256,192,16716,1,8,0:0:0:0:
256,192,16808,1,0,0:0:0:0:
256,192,16901,1,0,0:0:0:0:
256,192,16993,1,8,0:0:0:0:
256,192,17179,1,0,0:0:0:0:
256,192,17364,1,8,0:0:0:0:
256,192,17549,1,0,0:0:0:0:
256,192,17734,1,8,0:0:0:0:
256,192,17827,1,0,0:0:0:0:
256,192,17919,1,0,0:0:0:0:
256,192,18012,1,8,0:0:0:0:
256,192,18105,1,0,0:0:0:0:
256,192,18197,1,8,0:0:0:0:
256,192,18290,1,8,0:0:0:0:
256,192,18382,1,0,0:0:0:0:
256,192,18475,1,8,0:0:0:0:
256,192,18660,1,0,0:0:0:0:
256,192,18845,1,8,0:0:0:0:
256,192,19030,1,0,0:0:0:0:
256,192,19123,1,8,0:0:0:0:
256,192,19216,1,8,0:0:0:0:
256,192,19401,1,0,0:0:0:0:
256,192,19586,1,8,0:0:0:0:
256,192,19679,1,0,0:0:0:0:
256,192,19771,1,8,0:0:0:0:
256,192,19864,1,0,0:0:0:0:
256,192,19956,1,8,0:0:0:0:
256,192,20049,1,8,0:0:0:0:
256,192,20142,1,0,0:0:0:0:
256,192,20234,1,0,0:0:0:0:
256,192,20327,1,12,0:0:0:0:
256,192,20512,1,0,0:0:0:0:
256,192,20697,1,8,0:0:0:0:
256,192,20790,1,0,0:0:0:0:
256,192,20882,1,0,0:0:0:0:
256,192,20975,1,8,0:0:0:0:
256,192,21067,1,0,0:0:0:0:
256,192,21160,1,8,0:0:0:0:
256,192,21253,1,0,0:0:0:0:
256,192,21345,1,8,0:0:0:0:
256,192,21438,1,8,0:0:0:0:
256,192,21623,1,8,0:0:0:0:
256,192,21808,1,8,0:0:0:0:
256,192,21993,1,8,0:0:0:0:
256,192,22086,1,0,0:0:0:0:
256,192,22179,1,8,0:0:0:0:
256,192,22271,1,8,0:0:0:0:
256,192,22364,1,0,0:0:0:0:
256,192,22456,1,8,0:0:0:0:
256,192,22549,1,0,0:0:0:0:
256,192,22642,1,8,0:0:0:0:
256,192,22734,1,8,0:0:0:0:
256,192,22827,1,0,0:0:0:0:
256,192,22919,1,8,0:0:0:0:
256,192,23105,1,8,0:0:0:0:
256,192,23290,1,0,0:0:0:0:
256,192,23475,1,0,0:0:0:0:
256,192,23660,1,8,0:0:0:0:
256,192,23753,1,0,0:0:0:0:
256,192,23845,1,0,0:0:0:0:
256,192,23938,1,8,0:0:0:0:
256,192,24030,1,0,0:0:0:0:
256,192,24123,1,8,0:0:0:0:
256,192,24216,1,0,0:0:0:0:
256,192,24308,1,8,0:0:0:0:
256,192,24401,1,8,0:0:0:0:
256,192,24586,1,8,0:0:0:0:
256,192,24771,1,12,0:0:0:0:
256,192,24956,1,0,0:0:0:0:
256,192,25049,1,8,0:0:0:0:
256,192,25142,1,0,0:0:0:0:
256,192,25234,1,0,0:0:0:0:
256,192,25327,1,8,0:0:0:0:
256,192,25512,1,8,0:0:0:0:
256,192,25605,1,0,0:0:0:0:
256,192,25697,1,0,0:0:0:0:
256,192,25790,1,0,0:0:0:0:
256,192,25882,1,8,0:0:0:0:
256,192,25975,1,8,0:0:0:0:
256,192,26067,1,0,0:0:0:0:
256,192,26160,1,0,0:0:0:0:
256,192,26253,1,8,0:0:0:0:
256,192,26438,1,0,0:0:0:0:
256,192,26530,1,8,0:0:0:0:
256,192,26716,1,8,0:0:0:0:
256,192,26808,1,8,0:0:0:0:
256,192,26993,1,8,0:0:0:0:
256,192,27179,1,0,0:0:0:0:
256,192,27271,1,8,0:0:0:0:
256,192,27456,1,0,0:0:0:0:
256,192,27549,1,0,0:0:0:0:
256,192,27734,1,8,0:0:0:0:
256,192,27919,1,8,0:0:0:0:
256,192,28012,1,0,0:0:0:0:
256,192,28197,1,0,0:0:0:0:
256,192,28290,1,8,0:0:0:0:
256,192,28475,1,0,0:0:0:0:
256,192,28567,1,0,0:0:0:0:
256,192,28660,1,8,0:0:0:0:
256,192,28753,1,0,0:0:0:0:
256,192,28845,1,8,0:0:0:0:
256,192,29030,1,0,0:0:0:0:
256,192,29123,1,0,0:0:0:0:
256,192,29216,1,8,0:0:0:0:
256,192,29401,1,0,0:0:0:0:
256,192,29493,1,8,0:0:0:0:
256,192,29679,1,8,0:0:0:0:
256,192,29771,1,0,0:0:0:0:
256,192,29864,1,0,0:0:0:0:
256,192,29956,1,8,0:0:0:0:
256,192,30142,1,8,0:0:0:0:
256,192,30234,1,0,0:0:0:0:
256,192,30327,1,8,0:0:0:0:
256,192,30419,1,8,0:0:0:0:
256,192,30512,1,0,0:0:0:0:
256,192,30605,1,0,0:0:0:0:
256,192,30697,1,8,0:0:0:0:
256,192,30882,1,0,0:0:0:0:
256,192,30975,1,8,0:0:0:0:
256,192,31067,1,0,0:0:0:0:
256,192,31253,1,8,0:0:0:0:
256,192,31345,1,0,0:0:0:0:
256,192,31438,1,8,0:0:0:0:
256,192,31623,1,0,0:0:0:0:
256,192,31808,1,8,0:0:0:0:
256,192,31993,1,8,0:0:0:0:
256,192,32179,1,12,0:0:0:0:
256,192,32364,1,0,0:0:0:0:
256,192,32456,1,8,0:0:0:0:
256,192,32642,1,8,0:0:0:0:
256,192,32734,1,0,0:0:0:0:
256,192,32919,1,8,0:0:0:0:
256,192,33105,1,0,0:0:0:0:
256,192,33197,1,8,0:0:0:0:
256,192,33382,1,0,0:0:0:0:
256,192,33475,1,8,0:0:0:0:
256,192,33567,1,8,0:0:0:0:
256,192,33660,1,0,0:0:0:0:
256,192,33845,1,8,0:0:0:0:
256,192,33938,1,0,0:0:0:0:
256,192,34030,1,8,0:0:0:0:
256,192,34216,1,8,0:0:0:0:
256,192,34401,1,0,0:0:0:0:
256,192,34586,1,8,0:0:0:0:
256,192,34771,1,0,0:0:0:0:
256,192,34864,1,0,0:0:0:0:
256,192,34956,1,0,0:0:0:0:
256,192,35142,1,8,0:0:0:0:
256,192,35327,1,0,0:0:0:0:
256,192,35419,1,8,0:0:0:0:
256,192,35605,1,8,0:0:0:0:
256,192,35697,1,0,0:0:0:0:
256,192,35882,1,8,0:0:0:0:
256,192,36067,1,0,0:0:0:0:
256,192,36160,1,8,0:0:0:0:
256,192,36345,1,8,0:0:0:0:
256,192,36438,1,0,0:0:0:0:
256,192,36623,1,12,0:0:0:0:
256,192,36808,1,8,0:0:0:0:
256,192,36993,1,0,0:0:0:0:
256,192,37179,1,0,0:0:0:0:
256,192,37364,1,0,0:0:0:0:
256,192,37456,1,0,0:0:0:0:
256,192,37549,1,0,0:0:0:0:
256,192,37642,1,0,0:0:0:0:
256,192,37734,1,0,0:0:0:0:
256,192,37827,1,0,0:0:0:0:
256,192,37919,1,0,0:0:0:0:
256,192,38012,1,0,0:0:0:0:
256,192,38105,1,12,0:0:0:0:
256,192,38290,1,0,0:0:0:0:
256,192,38382,1,8,0:0:0:0:
256,192,38568,1,8,0:0:0:0:
256,192,38660,1,8,0:0:0:0:
256,192,38845,1,8,0:0:0:0:
256,192,39031,1,0,0:0:0:0:
256,192,39123,1,8,0:0:0:0:
256,192,39308,1,0,0:0:0:0:
256,192,39401,1,0,0:0:0:0:
256,192,39586,1,8,0:0:0:0:
256,192,39771,1,8,0:0:0:0:
256,192,39864,1,0,0:0:0:0:
256,192,40049,1,0,0:0:0:0:
256,192,40142,1,8,0:0:0:0:
256,192,40327,1,0,0:0:0:0:
256,192,40419,1,0,0:0:0:0:
256,192,40512,1,8,0:0:0:0:
256,192,40605,1,0,0:0:0:0:
256,192,40697,1,8,0:0:0:0:
256,192,40882,1,0,0:0:0:0:
256,192,40975,1,0,0:0:0:0:
256,192,41068,1,8,0:0:0:0:
256,192,41253,1,0,0:0:0:0:
256,192,41345,1,8,0:0:0:0:
256,192,41531,1,8,0:0:0:0:
256,192,41623,1,0,0:0:0:0:
256,192,41716,1,0,0:0:0:0:
256,192,41808,1,8,0:0:0:0:
256,192,41994,1,8,0:0:0:0:
256,192,42086,1,0,0:0:0:0:
256,192,42179,1,8,0:0:0:0:
256,192,42271,1,8,0:0:0:0:
256,192,42364,1,0,0:0:0:0:
256,192,42457,1,0,0:0:0:0:
256,192,42549,1,8,0:0:0:0:
256,192,42734,1,0,0:0:0:0:
256,192,42827,1,8,0:0:0:0:
256,192,42919,1,0,0:0:0:0:
256,192,43105,1,8,0:0:0:0:
256,192,43197,1,0,0:0:0:0:
256,192,43290,1,8,0:0:0:0:
256,192,43382,1,8,0:0:0:0:
256,192,43475,1,0,0:0:0:0:
256,192,43660,1,8,0:0:0:0:
256,192,43753,1,0,0:0:0:0:
256,192,43845,1,0,0:0:0:0:
256,192,43938,1,0,0:0:0:0:
256,192,44031,1,12,0:0:0:0:
256,192,44216,1,0,0:0:0:0:
256,192,44308,1,8,0:0:0:0:
256,192,44494,1,8,0:0:0:0:
256,192,44586,1,0,0:0:0:0:
256,192,44771,1,8,0:0:0:0:
256,192,44957,1,0,0:0:0:0:
256,192,45049,1,8,0:0:0:0:
256,192,45234,1,0,0:0:0:0:
256,192,45327,1,8,0:0:0:0:
256,192,45419,1,8,0:0:0:0:
256,192,45512,1,0,0:0:0:0:
256,192,45697,1,8,0:0:0:0:
256,192,45790,1,0,0:0:0:0:
256,192,45882,1,8,0:0:0:0:
256,192,46068,1,8,0:0:0:0:
256,192,46253,1,0,0:0:0:0:
256,192,46438,1,8,0:0:0:0:
256,192,46623,1,0,0:0:0:0:
256,192,46716,1,0,0:0:0:0:
256,192,46808,1,0,0:0:0:0:
256,192,46994,1,8,0:0:0:0:
256,192,47179,1,0,0:0:0:0:
256,192,47271,1,8,0:0:0:0:
256,192,47457,1,8,0:0:0:0:
256,192,47549,1,0,0:0:0:0:
256,192,47734,1,8,0:0:0:0:
256,192,47919,1,0,0:0:0:0:
256,192,48012,1,8,0:0:0:0:
256,192,48197,1,8,0:0:0:0:
256,192,48290,1,0,0:0:0:0:
256,192,48475,1,12,0:0:0:0:
256,192,48660,1,8,0:0:0:0:
256,192,48845,1,0,0:0:0:0:
256,192,49030,1,0,0:0:0:0:
256,192,49216,1,0,0:0:0:0:
256,192,49308,1,0,0:0:0:0:
256,192,49401,1,8,0:0:0:0:
256,192,49493,1,0,0:0:0:0:
256,192,49586,1,8,0:0:0:0:
256,192,49679,1,0,0:0:0:0:
256,192,49771,1,8,0:0:0:0:
256,192,49864,1,0,0:0:0:0:
256,192,49956,1,12,0:0:0:0:
256,192,50142,1,0,0:0:0:0:
256,192,50327,1,8,0:0:0:0:
256,192,50512,1,0,0:0:0:0:
256,192,50605,1,0,0:0:0:0:
256,192,50697,1,8,0:0:0:0:
256,192,50882,1,0,0:0:0:0:
256,192,51067,1,8,0:0:0:0:
256,192,51160,1,8,0:0:0:0:
256,192,51253,1,0,0:0:0:0:
256,192,51345,1,0,0:0:0:0:
256,192,51438,1,8,0:0:0:0:
256,192,51623,1,0,0:0:0:0:
256,192,51808,1,8,0:0:0:0:
256,192,51901,1,8,0:0:0:0:
256,192,51993,1,0,0:0:0:0:
256,192,52179,1,8,0:0:0:0:
256,192,52364,1,0,0:0:0:0:
256,192,52456,1,0,0:0:0:0:
256,192,52549,1,8,0:0:0:0:
256,192,52734,1,8,0:0:0:0:
256,192,52827,1,0,0:0:0:0:
256,192,52919,1,8,0:0:0:0:
256,192,53105,1,0,0:0:0:0:
256,192,53290,1,8,0:0:0:0:
256,192,53475,1,0,0:0:0:0:
256,192,53567,1,0,0:0:0:0:
256,192,53660,1,8,0:0:0:0:
256,192,53845,1,0,0:0:0:0:
256,192,54030,1,8,0:0:0:0:
256,192,54123,1,8,0:0:0:0:
256,192,54216,1,0,0:0:0:0:
256,192,54401,1,8,0:0:0:0:
256,192,54586,1,8,0:0:0:0:
256,192,54679,1,0,0:0:0:0:
256,192,54771,1,8,0:0:0:0:
256,192,54956,1,0,0:0:0:0:
256,192,55142,1,8,0:0:0:0:
256,192,55234,1,0,0:0:0:0:
256,192,55327,1,0,0:0:0:0:
256,192,55419,1,0,0:0:0:0:
256,192,55512,1,8,0:0:0:0:
256,192,55605,1,8,0:0:0:0:
256,192,55697,1,0,0:0:0:0:
256,192,55790,1,0,0:0:0:0:
256,192,55882,1,12,0:0:0:0:
256,192,56067,1,0,0:0:0:0:
256,192,56253,1,8,0:0:0:0:
256,192,56438,1,0,0:0:0:0:
256,192,56530,1,0,0:0:0:0:
256,192,56623,1,8,0:0:0:0:
256,192,56808,1,8,0:0:0:0:
256,192,56993,1,0,0:0:0:0:
256,192,57179,1,8,0:0:0:0:
256,192,57271,1,0,0:0:0:0:
256,192,57364,1,0,0:0:0:0:
256,192,57549,1,0,0:0:0:0:
256,192,57734,1,8,0:0:0:0:
256,192,57827,1,8,0:0:0:0:
256,192,57919,1,0,0:0:0:0:
256,192,58012,1,0,0:0:0:0:
256,192,58105,1,8,0:0:0:0:
256,192,58290,1,0,0:0:0:0:
256,192,58475,1,8,0:0:0:0:
256,192,58567,1,0,0:0:0:0:
256,192,58660,1,0,0:0:0:0:
256,192,58753,1,0,0:0:0:0:
256,192,58845,1,8,0:0:0:0:
256,192,59030,1,0,0:0:0:0:
256,192,59216,1,8,0:0:0:0:
256,192,59401,1,8,0:0:0:0:
256,192,59493,1,0,0:0:0:0:
256,192,59586,1,0,0:0:0:0:
256,192,59771,1,0,0:0:0:0:
256,192,59956,1,8,0:0:0:0:
256,192,60142,1,8,0:0:0:0:
256,192,60327,1,12,0:0:0:0:
256,192,60512,1,0,0:0:0:0:
256,192,60697,1,8,0:0:0:0:
256,192,60882,1,8,0:0:0:0:
256,192,61067,1,0,0:0:0:0:
256,192,61438,1,0,0:0:0:0:
256,192,61530,1,0,0:0:0:0:
256,192,61623,1,0,0:0:0:0:
256,192,61716,1,0,0:0:0:0:
256,192,61808,1,12,0:0:0:0:
256,192,61993,1,0,0:0:0:0:
256,192,62179,1,8,0:0:0:0:
256,192,62364,1,0,0:0:0:0:
256,192,62456,1,8,0:0:0:0:
256,192,62549,1,0,0:0:0:0:
256,192,62642,1,8,0:0:0:0:
256,192,62734,1,8,0:0:0:0:
256,192,62827,1,0,0:0:0:0:
256,192,62919,1,8,0:0:0:0:
256,192,63105,1,8,0:0:0:0:
256,192,63290,1,0,0:0:0:0:
256,192,63351,1,0,0:0:0:0:
256,192,63413,1,0,0:0:0:0:
256,192,63475,1,8,0:0:0:0:
256,192,63660,1,8,0:0:0:0:
256,192,63753,1,0,0:0:0:0:
256,192,63845,1,8,0:0:0:0:
256,192,63938,1,8,0:0:0:0:
256,192,64030,1,0,0:0:0:0:
256,192,64123,1,0,0:0:0:0:
256,192,64216,1,8,0:0:0:0:
256,192,64401,1,0,0:0:0:0:
256,192,64586,1,8,0:0:0:0:
256,192,64771,1,8,0:0:0:0:
256,192,64956,1,0,0:0:0:0:
256,192,65049,1,8,0:0:0:0:
256,192,65142,1,0,0:0:0:0:
256,192,65327,1,8,0:0:0:0:
256,192,65512,1,8,0:0:0:0:
256,192,65605,1,0,0:0:0:0:
256,192,65697,1,0,0:0:0:0:
256,192,65790,1,0,0:0:0:0:
256,192,65882,1,8,0:0:0:0:
256,192,66067,1,0,0:0:0:0:
256,192,66160,1,8,0:0:0:0:
256,192,66253,1,8,0:0:0:0:
256,192,66345,1,0,0:0:0:0:
256,192,66438,1,8,0:0:0:0:
256,192,66530,1,0,0:0:0:0:
256,192,66623,1,8,0:0:0:0:
256,192,66716,1,8,0:0:0:0:
256,192,66808,1,0,0:0:0:0:
256,192,66901,1,0,0:0:0:0:
256,192,66993,1,8,0:0:0:0:
256,192,67086,1,0,0:0:0:0:
256,192,67179,1,0,0:0:0:0:
256,192,67271,1,0,0:0:0:0:
256,192,67364,1,8,0:0:0:0:
256,192,67456,1,8,0:0:0:0:
256,192,67549,1,0,0:0:0:0:
256,192,67642,1,0,0:0:0:0:
256,192,67734,1,12,0:0:0:0:
256,192,67919,1,0,0:0:0:0:
256,192,68105,1,8,0:0:0:0:
256,192,68290,1,0,0:0:0:0:
256,192,68382,1,8,0:0:0:0:
256,192,68475,1,8,0:0:0:0:
256,192,68567,1,0,0:0:0:0:
256,192,68660,1,8,0:0:0:0:
256,192,68753,1,0,0:0:0:0:
256,192,68845,1,8,0:0:0:0:
256,192,69030,1,0,0:0:0:0:
256,192,69216,1,8,0:0:0:0:
256,192,69277,1,0,0:0:0:0:
256,192,69339,1,0,0:0:0:0:
256,192,69401,1,0,0:0:0:0:
256,192,69586,1,8,0:0:0:0:
256,192,69771,1,0,0:0:0:0:
256,192,69956,1,8,0:0:0:0:
256,192,70049,1,8,0:0:0:0:
256,192,70142,1,0,0:0:0:0:
256,192,70234,1,0,0:0:0:0:
256,192,70327,1,8,0:0:0:0:
256,192,70512,1,0,0:0:0:0:
256,192,70697,1,8,0:0:0:0:
256,192,70790,1,0,0:0:0:0:
256,192,70882,1,8,0:0:0:0:
256,192,70975,1,8,0:0:0:0:
256,192,71067,1,0,0:0:0:0:
256,192,71160,1,0,0:0:0:0:
256,192,71253,1,8,0:0:0:0:
256,192,71345,1,0,0:0:0:0:
256,192,71438,1,8,0:0:0:0:
256,192,71530,1,8,0:0:0:0:
256,192,71623,1,0,0:0:0:0:
256,192,71716,1,8,0:0:0:0:
256,192,71808,1,0,0:0:0:0:
256,192,71901,1,0,0:0:0:0:
256,192,71993,1,8,0:0:0:0:
256,192,72086,1,0,0:0:0:0:
256,192,72179,1,8,0:0:0:0:
256,192,72364,1,0,0:0:0:0:
256,192,72426,1,0,0:0:0:0:
256,192,72487,1,0,0:0:0:0:
256,192,72549,1,8,0:0:0:0:
256,192,72734,1,0,0:0:0:0:
256,192,72919,1,8,0:0:0:0:
256,192,73012,1,8,0:0:0:0:
256,192,73105,1,8,0:0:0:0:
256,192,73197,1,8,0:0:0:0:
256,192,73290,1,0,0:0:0:0:
256,192,73382,1,0,0:0:0:0:
256,192,73475,1,0,0:0:0:0:
256,192,73567,1,0,0:0:0:0:
256,192,73660,1,12,0:0:0:0:
256,192,73845,1,0,0:0:0:0:
256,192,73938,1,8,0:0:0:0:
256,192,74030,1,8,0:0:0:0:
256,192,74216,1,0,0:0:0:0:
256,192,74401,1,8,0:0:0:0:
256,192,74493,1,8,0:0:0:0:
256,192,74586,1,0,0:0:0:0:
256,192,74679,1,0,0:0:0:0:
256,192,74771,1,8,0:0:0:0:
256,192,74956,1,8,0:0:0:0:
256,192,75142,1,0,0:0:0:0:
256,192,75203,1,0,0:0:0:0:
256,192,75265,1,0,0:0:0:0:
256,192,75327,1,8,0:0:0:0:
256,192,75512,1,0,0:0:0:0:
256,192,75605,1,8,0:0:0:0:
256,192,75697,1,0,0:0:0:0:
256,192,75790,1,0,0:0:0:0:
256,192,75882,1,8,0:0:0:0:
256,192,75975,1,0,0:0:0:0:
256,192,76067,1,8,0:0:0:0:
256,192,76160,1,8,0:0:0:0:
256,192,76253,1,0,0:0:0:0:
256,192,76345,1,0,0:0:0:0:
256,192,76438,1,8,0:0:0:0:
256,192,76623,1,8,0:0:0:0:
256,192,76808,1,0,0:0:0:0:
256,192,76901,1,0,0:0:0:0:
256,192,76993,1,8,0:0:0:0:
256,192,77179,1,0,0:0:0:0:
256,192,77364,1,8,0:0:0:0:
256,192,77456,1,0,0:0:0:0:
256,192,77549,1,0,0:0:0:0:
256,192,77642,1,8,0:0:0:0:
256,192,77734,1,0,0:0:0:0:
256,192,77919,1,8,0:0:0:0:
256,192,78105,1,8,0:0:0:0:
256,192,78197,1,0,0:0:0:0:
256,192,78290,1,8,0:0:0:0:
256,192,78382,1,8,0:0:0:0:
256,192,78475,1,0,0:0:0:0:
256,192,78567,1,8,0:0:0:0:
256,192,78660,1,0,0:0:0:0:
256,192,78753,1,8,0:0:0:0:
256,192,78845,1,0,0:0:0:0:
256,192,78938,1,0,0:0:0:0:
256,192,79030,1,8,0:0:0:0:
256,192,79123,1,8,0:0:0:0:
256,192,79216,1,0,0:0:0:0:
256,192,79308,1,0,0:0:0:0:
256,192,79401,1,8,0:0:0:0:
256,192,79493,1,0,0:0:0:0:
256,192,79586,1,12,0:0:0:0:
256,192,79771,1,0,0:0:0:0:
256,192,79864,1,0,0:0:0:0:
256,192,79956,1,8,0:0:0:0:
256,192,80142,1,0,0:0:0:0:
256,192,80327,1,8,0:0:0:0:
256,192,80512,1,8,0:0:0:0:
256,192,80605,1,8,0:0:0:0:
256,192,80697,1,0,0:0:0:0:
256,192,80882,1,0,0:0:0:0:
256,192,81067,1,8,0:0:0:0:
256,192,81129,1,8,0:0:0:0:
256,192,81191,1,0,0:0:0:0:
256,192,81253,1,0,0:0:0:0:
256,192,81438,1,0,0:0:0:0:
256,192,81623,1,8,0:0:0:0:
256,192,81716,1,8,0:0:0:0:
256,192,81808,1,0,0:0:0:0:
256,192,81901,1,0,0:0:0:0:
256,192,81993,1,8,0:0:0:0:
256,192,82179,1,0,0:0:0:0:
256,192,82364,1,0,0:0:0:0:
256,192,82549,1,8,0:0:0:0:
256,192,82642,1,0,0:0:0:0:
256,192,82734,1,8,0:0:0:0:
256,192,82827,1,8,0:0:0:0:
256,192,82919,1,0,0:0:0:0:
256,192,83012,1,8,0:0:0:0:
256,192,83105,1,8,0:0:0:0:
256,192,83197,1,0,0:0:0:0:
256,192,83290,1,8,0:0:0:0:
256,192,83382,1,0,0:0:0:0:
256,192,83475,1,8,0:0:0:0:
256,192,83567,1,8,0:0:0:0:
256,192,83660,1,0,0:0:0:0:
256,192,83753,1,0,0:0:0:0:
256,192,83845,1,8,0:0:0:0:
256,192,83938,1,0,0:0:0:0:
256,192,84030,1,12,0:0:0:0:
256,192,84216,1,0,0:0:0:0:
256,192,84308,1,0,0:0:0:0:
256,192,84401,1,8,0:0:0:0:
256,192,84586,1,0,0:0:0:0:
256,192,84771,1,12,0:0:0:0:
256,192,84956,1,8,0:0:0:0:
256,192,85049,1,0,0:0:0:0:
256,192,85142,1,8,0:0:0:0:
256,192,85234,1,8,0:0:0:0:
256,192,85327,1,0,0:0:0:0:
256,192,85419,1,0,0:0:0:0:
256,192,85512,1,12,0:0:0:0:
256,192,85697,1,8,0:0:0:0:
256,192,85882,1,0,0:0:0:0:
256,192,85975,1,8,0:0:0:0:
256,192,86160,1,8,0:0:0:0:
256,192,86345,1,8,0:0:0:0:
256,192,86530,1,8,0:0:0:0:
256,192,86623,1,0,0:0:0:0:
256,192,86808,1,0,0:0:0:0:
256,192,86993,1,8,0:0:0:0:
256,192,87179,1,8,0:0:0:0:
256,192,87271,1,0,0:0:0:0:
256,192,87364,1,8,0:0:0:0:
256,192,87456,1,0,0:0:0:0:
256,192,87549,1,0,0:0:0:0:
256,192,87642,1,0,0:0:0:0:
256,192,87734,1,8,0:0:0:0:
256,192,87827,1,8,0:0:0:0:
256,192,87919,1,0,0:0:0:0:
256,192,88012,1,0,0:0:0:0:
256,192,88105,1,8,0:0:0:0:
256,192,88290,1,8,0:0:0:0:
256,192,88475,1,0,0:0:0:0:
256,192,88660,1,8,0:0:0:0:
256,192,88845,1,8,0:0:0:0:
256,192,88938,1,0,0:0:0:0:
256,192,89123,1,8,0:0:0:0:
256,192,89308,1,8,0:0:0:0:
256,192,89493,1,0,0:0:0:0:
256,192,89586,1,8,0:0:0:0:
256,192,89771,1,0,0:0:0:0:
256,192,89956,1,8,0:0:0:0:
256,192,90142,1,0,0:0:0:0:
256,192,90234,1,8,0:0:0:0:
256,192,90419,1,0,0:0:0:0:
256,192,90512,1,0,0:0:0:0:
256,192,90697,1,8,0:0:0:0:
256,192,90790,1,0,0:0:0:0:
256,192,90882,1,8,0:0:0:0:
256,192,90975,1,8,0:0:0:0:
256,192,91067,1,0,0:0:0:0:
256,192,91160,1,8,0:0:0:0:
256,192,91253,1,0,0:0:0:0:
256,192,91345,1,0,0:0:0:0:
256,192,91438,1,12,0:0:0:0:
256,192,91623,1,8,0:0:0:0:
256,192,91808,1,0,0:0:0:0:
256,192,91901,1,8,0:0:0:0:
256,192,92086,1,8,0:0:0:0:
256,192,92271,1,8,0:0:0:0:
256,192,92456,1,8,0:0:0:0:
256,192,92549,1,0,0:0:0:0:
256,192,92734,1,0,0:0:0:0:
256,192,92919,1,8,0:0:0:0:
256,192,93105,1,8,0:0:0:0:
256,192,93197,1,0,0:0:0:0:
256,192,93290,1,8,0:0:0:0:
256,192,93382,1,0,0:0:0:0:
256,192,93475,1,0,0:0:0:0:
256,192,93567,1,0,0:0:0:0:
256,192,93660,1,8,0:0:0:0:
256,192,93753,1,0,0:0:0:0:
256,192,93845,1,8,0:0:0:0:
256,192,93938,1,0,0:0:0:0:
256,192,94030,1,8,0:0:0:0:
256,192,94216,1,0,0:0:0:0:
256,192,94401,1,8,0:0:0:0:
256,192,94586,1,8,0:0:0:0:
256,192,94771,1,8,0:0:0:0:
256,192,94864,1,0,0:0:0:0:
256,192,95049,1,8,0:0:0:0:
256,192,95234,1,8,0:0:0:0:
256,192,95419,1,0,0:0:0:0:
256,192,95512,1,8,0:0:0:0:
256,192,95697,1,8,0:0:0:0:
256,192,95882,1,12,0:0:0:0:
256,192,96067,1,0,0:0:0:0:
256,192,96160,1,8,0:0:0:0:
256,192,96345,1,0,0:0:0:0:
256,192,96438,1,8,0:0:0:0:
256,192,96623,1,8,0:0:0:0:
256,192,96716,1,0,0:0:0:0:
256,192,96808,1,0,0:0:0:0:
256,192,96901,1,0,0:0:0:0:
256,192,96993,1,8,0:0:0:0:
256,192,97086,1,8,0:0:0:0:
256,192,97179,1,0,0:0:0:0:
256,192,97271,1,0,0:0:0:0:
256,192,97364,1,12,0:0:0:0:
256,192,97549,1,0,0:0:0:0:
256,192,97641,1,8,0:0:0:0:
256,192,97827,1,8,0:0:0:0:
256,192,97919,1,8,0:0:0:0:
256,192,98104,1,8,0:0:0:0:
256,192,98290,1,0,0:0:0:0:
256,192,98382,1,8,0:0:0:0:
256,192,98567,1,0,0:0:0:0:
256,192,98660,1,0,0:0:0:0:
256,192,98845,1,8,0:0:0:0:
256,192,99030,1,8,0:0:0:0:
256,192,99123,1,0,0:0:0:0:
256,192,99308,1,0,0:0:0:0:
256,192,99401,1,8,0:0:0:0:
256,192,99586,1,0,0:0:0:0:
256,192,99678,1,0,0:0:0:0:
256,192,99771,1,8,0:0:0:0:
256,192,99864,1,0,0:0:0:0:
256,192,99956,1,8,0:0:0:0:
256,192,100141,1,0,0:0:0:0:
256,192,100234,1,0,0:0:0:0:
256,192,100327,1,8,0:0:0:0:
256,192,100512,1,0,0:0:0:0:
256,192,100604,1,8,0:0:0:0:
256,192,100790,1,8,0:0:0:0:
256,192,100882,1,0,0:0:0:0:
256,192,100975,1,0,0:0:0:0:
256,192,101067,1,8,0:0:0:0:
256,192,101253,1,8,0:0:0:0:
256,192,101345,1,0,0:0:0:0:
256,192,101438,1,8,0:0:0:0:
256,192,101530,1,8,0:0:0:0:
256,192,101623,1,0,0:0:0:0:
256,192,101716,1,0,0:0:0:0:
256,192,101808,1,8,0:0:0:0:
256,192,101993,1,0,0:0:0:0:
256,192,102086,1,8,0:0:0:0:
256,192,102178,1,0,0:0:0:0:
256,192,102364,1,8,0:0:0:0:
256,192,102456,1,0,0:0:0:0:
256,192,102549,1,8,0:0:0:0:
256,192,102734,1,0,0:0:0:0:
256,192,102919,1,8,0:0:0:0:
256,192,103104,1,8,0:0:0:0:
256,192,103290,1,12,0:0:0:0:
256,192,103475,1,0,0:0:0:0:
256,192,103567,1,8,0:0:0:0:
256,192,103753,1,8,0:0:0:0:
256,192,103845,1,0,0:0:0:0:
256,192,104030,1,8,0:0:0:0:
256,192,104216,1,0,0:0:0:0:
256,192,104308,1,8,0:0:0:0:
256,192,104493,1,0,0:0:0:0:
256,192,104586,1,8,0:0:0:0:
256,192,104678,1,8,0:0:0:0:
256,192,104771,1,0,0:0:0:0:
256,192,104956,1,8,0:0:0:0:
256,192,105049,1,0,0:0:0:0:
256,192,105141,1,8,0:0:0:0:
256,192,105327,1,8,0:0:0:0:
256,192,105512,1,0,0:0:0:0:
256,192,105697,1,8,0:0:0:0:
256,192,105882,1,0,0:0:0:0:
256,192,105975,1,0,0:0:0:0:
256,192,106067,1,0,0:0:0:0:
256,192,106253,1,8,0:0:0:0:
256,192,106438,1,0,0:0:0:0:
256,192,106530,1,8,0:0:0:0:
256,192,106716,1,8,0:0:0:0:
256,192,106808,1,0,0:0:0:0:
256,192,106993,1,8,0:0:0:0:
256,192,107178,1,0,0:0:0:0:
256,192,107271,1,8,0:0:0:0:
256,192,107456,1,8,0:0:0:0:
256,192,107549,1,0,0:0:0:0:
256,192,107734,1,12,0:0:0:0:
256,192,107919,1,8,0:0:0:0:
256,192,108104,1,0,0:0:0:0:
256,192,108290,1,0,0:0:0:0:
256,192,108475,1,0,0:0:0:0:
256,192,108567,1,0,0:0:0:0:
256,192,108660,1,0,0:0:0:0:
256,192,108753,1,0,0:0:0:0:
256,192,108845,1,0,0:0:0:0:
256,192,108938,1,0,0:0:0:0:
256,192,109030,1,0,0:0:0:0:
256,192,109123,1,0,0:0:0:0:
256,192,109216,1,12,0:0:0:0:
256,192,109401,1,0,0:0:0:0:
256,192,109493,1,8,0:0:0:0:
256,192,109679,1,8,0:0:0:0:
256,192,109771,1,8,0:0:0:0:
256,192,109956,1,8,0:0:0:0:
256,192,110142,1,0,0:0:0:0:
256,192,110234,1,8,0:0:0:0:
256,192,110419,1,0,0:0:0:0:
256,192,110512,1,0,0:0:0:0:
256,192,110697,1,8,0:0:0:0:
256,192,110882,1,8,0:0:0:0:
256,192,110975,1,0,0:0:0:0:
256,192,111160,1,0,0:0:0:0:
256,192,111253,1,8,0:0:0:0:
256,192,111438,1,0,0:0:0:0:
256,192,111530,1,0,0:0:0:0:
256,192,111623,1,8,0:0:0:0:
256,192,111716,1,0,0:0:0:0:
256,192,111808,1,8,0:0:0:0:
256,192,111993,1,0,0:0:0:0:
256,192,112086,1,0,0:0:0:0:
256,192,112179,1,8,0:0:0:0:
256,192,112364,1,0,0:0:0:0:
256,192,112456,1,8,0:0:0:0:
256,192,112642,1,8,0:0:0:0:
256,192,112734,1,0,0:0:0:0:
256,192,112827,1,0,0:0:0:0:
256,192,112919,1,8,0:0:0:0:
256,192,113105,1,8,0:0:0:0:
256,192,113197,1,0,0:0:0:0:
256,192,113290,1,8,0:0:0:0:
256,192,113382,1,8,0:0:0:0:
256,192,113475,1,0,0:0:0:0:
256,192,113568,1,0,0:0:0:0:
256,192,113660,1,8,0:0:0:0:
256,192,113845,1,0,0:0:0:0:
256,192,113938,1,8,0:0:0:0:
256,192,114030,1,0,0:0:0:0:
256,192,114216,1,8,0:0:0:0:
256,192,114308,1,0,0:0:0:0:
256,192,114401,1,8,0:0:0:0:
256,192,114586,1,0,0:0:0:0:
256,192,114771,1,8,0:0:0:0:
256,192,114956,1,8,0:0:0:0:
256,192,115142,1,12,0:0:0:0:
256,192,115327,1,0,0:0:0:0:
256,192,115419,1,8,0:0:0:0:
256,192,115605,1,8,0:0:0:0:
256,192,115697,1,0,0:0:0:0:
256,192,115882,1,8,0:0:0:0:
256,192,116068,1,0,0:0:0:0:
256,192,116160,1,8,0:0:0:0:
256,192,116345,1,0,0:0:0:0:
256,192,116438,1,8,0:0:0:0:
256,192,116530,1,8,0:0:0:0:
256,192,116623,1,0,0:0:0:0:
256,192,116808,1,8,0:0:0:0:
256,192,116901,1,0,0:0:0:0:
256,192,116993,1,8,0:0:0:0:
256,192,117179,1,8,0:0:0:0:
256,192,117364,1,0,0:0:0:0:
256,192,117549,1,8,0:0:0:0:
256,192,117734,1,0,0:0:0:0:
256,192,117827,1,0,0:0:0:0:
256,192,117919,1,0,0:0:0:0:
256,192,118105,1,8,0:0:0:0:
256,192,118290,1,0,0:0:0:0:
256,192,118382,1,8,0:0:0:0:
256,192,118568,1,8,0:0:0:0:
256,192,118660,1,0,0:0:0:0:
256,192,118845,1,8,0:0:0:0:
256,192,119030,1,0,0:0:0:0:
256,192,119123,1,8,0:0:0:0:
256,192,119308,1,8,0:0:0:0:
256,192,119401,1,0,0:0:0:0:
256,192,119586,1,12,0:0:0:0:
256,192,119771,1,8,0:0:0:0:
256,192,119956,1,0,0:0:0:0:
256,192,120141,1,0,0:0:0:0:
256,192,120327,1,0,0:0:0:0:
256,192,120419,1,0,0:0:0:0:
256,192,120512,1,8,0:0:0:0:
256,192,120604,1,0,0:0:0:0:
256,192,120697,1,8,0:0:0:0:
256,192,120790,1,0,0:0:0:0:
256,192,120882,1,8,0:0:0:0:
256,192,120975,1,0,0:0:0:0:
256,192,121067,1,12,0:0:0:0:
256,192,121253,1,0,0:0:0:0:
256,192,121438,1,8,0:0:0:0:
256,192,121623,1,0,0:0:0:0:
256,192,121716,1,0,0:0:0:0:
256,192,121808,1,8,0:0:0:0:
256,192,121993,1,0,0:0:0:0:
256,192,122178,1,8,0:0:0:0:
256,192,122271,1,8,0:0:0:0:
256,192,122364,1,0,0:0:0:0:
256,192,122456,1,0,0:0:0:0:
256,192,122549,1,8,0:0:0:0:
256,192,122734,1,0,0:0:0:0:
256,192,122919,1,8,0:0:0:0:
256,192,123012,1,8,0:0:0:0:
256,192,123104,1,0,0:0:0:0:
256,192,123290,1,8,0:0:0:0:
256,192,123475,1,0,0:0:0:0:
256,192,123567,1,0,0:0:0:0:
256,192,123660,1,8,0:0:0:0:
256,192,123845,1,8,0:0:0:0:
256,192,123938,1,0,0:0:0:0:
256,192,124030,1,8,0:0:0:0:
256,192,124216,1,0,0:0:0:0:
256,192,124401,1,8,0:0:0:0:
256,192,124586,1,0,0:0:0:0:
256,192,124678,1,0,0:0:0:0:
256,192,124771,1,8,0:0:0:0:
256,192,124956,1,0,0:0:0:0:
256,192,125141,1,8,0:0:0:0:
256,192,125234,1,8,0:0:0:0:
256,192,125327,1,0,0:0:0:0:
256,192,125512,1,8,0:0:0:0:
256,192,125697,1,8,0:0:0:0:
256,192,125790,1,0,0:0:0:0:
256,192,125882,1,8,0:0:0:0:
256,192,126067,1,0,0:0:0:0:
256,192,126253,1,8,0:0:0:0:
256,192,126345,1,0,0:0:0:0:
256,192,126438,1,0,0:0:0:0:
256,192,126530,1,0,0:0:0:0:
256,192,126623,1,8,0:0:0:0:
256,192,126716,1,8,0:0:0:0:
256,192,126808,1,0,0:0:0:0:
256,192,126901,1,0,0:0:0:0:
256,192,126993,1,12,0:0:0:0:
256,192,127178,1,0,0:0:0:0:
256,192,127364,1,8,0:0:0:0:
256,192,127549,1,0,0:0:0:0:
256,192,127641,1,0,0:0:0:0:
256,192,127734,1,8,0:0:0:0:
256,192,127919,1,8,0:0:0:0:
256,192,128104,1,0,0:0:0:0:
256,192,128290,1,8,0:0:0:0:
256,192,128382,1,0,0:0:0:0:
256,192,128475,1,0,0:0:0:0:
256,192,128660,1,0,0:0:0:0:
256,192,128845,1,8,0:0:0:0:
256,192,128938,1,8,0:0:0:0:
256,192,129030,1,0,0:0:0:0:
256,192,129123,1,0,0:0:0:0:
256,192,129216,1,8,0:0:0:0:
256,192,129401,1,0,0:0:0:0:
256,192,129586,1,8,0:0:0:0:
256,192,129678,1,0,0:0:0:0:
256,192,129771,1,0,0:0:0:0:
256,192,129864,1,0,0:0:0:0:
256,192,129956,1,8,0:0:0:0:
256,192,130141,1,0,0:0:0:0:
256,192,130327,1,8,0:0:0:0:
256,192,130512,1,8,0:0:0:0:
256,192,130604,1,0,0:0:0:0:
256,192,130697,1,0,0:0:0:0:
256,192,130882,1,0,0:0:0:0:
256,192,131067,1,8,0:0:0:0:
256,192,131253,1,8,0:0:0:0:
256,192,131438,1,12,0:0:0:0:
256,192,131623,1,0,0:0:0:0:
256,192,131808,1,8,0:0:0:0:
256,192,131993,1,8,0:0:0:0:
256,192,132178,1,4,0:0:0:0:
256,192,132549,1,0,0:0:0:0:
256,192,132641,1,0,0:0:0:0:
256,192,132734,1,0,0:0:0:0:
256,192,132827,1,0,0:0:0:0:
256,192,132919,1,12,0:0:0:0:
256,192,133104,1,0,0:0:0:0:
256,192,133290,1,8,0:0:0:0:
256,192,133475,1,0,0:0:0:0:
256,192,133567,1,8,0:0:0:0:
256,192,133660,1,0,0:0:0:0:
256,192,133753,1,8,0:0:0:0:
256,192,133845,1,8,0:0:0:0:
256,192,133938,1,0,0:0:0:0:
256,192,134030,1,8,0:0:0:0:
256,192,134216,1,8,0:0:0:0:
256,192,134401,1,0,0:0:0:0:
256,192,134462,1,0,0:0:0:0:
256,192,134524,1,0,0:0:0:0:
256,192,134586,1,8,0:0:0:0:
256,192,134771,1,8,0:0:0:0:
256,192,134864,1,0,0:0:0:0:
256,192,134956,1,8,0:0:0:0:
256,192,135049,1,8,0:0:0:0:
256,192,135141,1,0,0:0:0:0:
256,192,135234,1,0,0:0:0:0:
256,192,135327,1,8,0:0:0:0:
256,192,135512,1,0,0:0:0:0:
256,192,135697,1,8,0:0:0:0:
256,192,135882,1,8,0:0:0:0:
256,192,136067,1,0,0:0:0:0:
256,192,136160,1,8,0:0:0:0:
256,192,136253,1,0,0:0:0:0:
256,192,136438,1,8,0:0:0:0:
256,192,136623,1,8,0:0:0:0:
256,192,136716,1,0,0:0:0:0:
256,192,136808,1,0,0:0:0:0:
256,192,136901,1,0,0:0:0:0:
256,192,136993,1,8,0:0:0:0:
256,192,137178,1,0,0:0:0:0:
256,192,137271,1,8,0:0:0:0:
256,192,137364,1,8,0:0:0:0:
256,192,137456,1,0,0:0:0:0:
256,192,137549,1,8,0:0:0:0:
256,192,137641,1,0,0:0:0:0:
256,192,137734,1,8,0:0:0:0:
256,192,137827,1,8,0:0:0:0:
256,192,137919,1,0,0:0:0:0:
256,192,138012,1,0,0:0:0:0:
256,192,138104,1,8,0:0:0:0:
256,192,138197,1,0,0:0:0:0:
256,192,138290,1,0,0:0:0:0:
256,192,138382,1,0,0:0:0:0:
256,192,138475,1,8,0:0:0:0:
256,192,138567,1,8,0:0:0:0:
256,192,138660,1,0,0:0:0:0:
256,192,138753,1,0,0:0:0:0:
256,192,138845,1,12,0:0:0:0:
256,192,139030,1,0,0:0:0:0:
256,192,139216,1,8,0:0:0:0:
256,192,139401,1,0,0:0:0:0:
256,192,139493,1,8,0:0:0:0:
256,192,139586,1,8,0:0:0:0:
256,192,139678,1,0,0:0:0:0:
256,192,139771,1,8,0:0:0:0:
256,192,139864,1,0,0:0:0:0:
256,192,139956,1,8,0:0:0:0:
256,192,140141,1,0,0:0:0:0:
256,192,140327,1,8,0:0:0:0:
256,192,140388,1,8,0:0:0:0:
256,192,140450,1,0,0:0:0:0:
256,192,140512,1,0,0:0:0:0:
256,192,140697,1,8,0:0:0:0:
256,192,140882,1,0,0:0:0:0:
256,192,141067,1,8,0:0:0:0:
256,192,141160,1,8,0:0:0:0:
256,192,141253,1,0,0:0:0:0:
256,192,141345,1,0,0:0:0:0:
256,192,141438,1,8,0:0:0:0:
256,192,141623,1,0,0:0:0:0:
256,192,141808,1,8,0:0:0:0:
256,192,141901,1,8,0:0:0:0:
256,192,141993,1,0,0:0:0:0:
256,192,142086,1,8,0:0:0:0:
256,192,142178,1,0,0:0:0:0:
256,192,142271,1,0,0:0:0:0:
256,192,142364,1,8,0:0:0:0:
256,192,142456,1,0,0:0:0:0:
256,192,142549,1,8,0:0:0:0:
256,192,142641,1,8,0:0:0:0:
256,192,142734,1,0,0:0:0:0:
256,192,142827,1,8,0:0:0:0:
256,192,142919,1,0,0:0:0:0:
256,192,143012,1,8,0:0:0:0:
256,192,143105,1,8,0:0:0:0:
256,192,143197,1,0,0:0:0:0:
256,192,143290,1,8,0:0:0:0:
256,192,143475,1,0,0:0:0:0:
256,192,143537,1,0,0:0:0:0:
256,192,143598,1,0,0:0:0:0:
256,192,143660,1,8,0:0:0:0:
256,192,143845,1,0,0:0:0:0:
256,192,144030,1,8,0:0:0:0:
256,192,144123,1,8,0:0:0:0:
256,192,144216,1,8,0:0:0:0:
256,192,144308,1,8,0:0:0:0:
256,192,144401,1,0,0:0:0:0:
256,192,144493,1,0,0:0:0:0:
256,192,144586,1,0,0:0:0:0:
256,192,144678,1,0,0:0:0:0:
256,192,144771,1,12,0:0:0:0:
256,192,144956,1,0,0:0:0:0:
256,192,145049,1,8,0:0:0:0:
256,192,145141,1,8,0:0:0:0:
256,192,145327,1,0,0:0:0:0:
256,192,145512,1,8,0:0:0:0:
256,192,145604,1,8,0:0:0:0:
256,192,145697,1,0,0:0:0:0:
256,192,145790,1,0,0:0:0:0:
256,192,145882,1,8,0:0:0:0:
256,192,146067,1,8,0:0:0:0:
256,192,146253,1,0,0:0:0:0:
256,192,146314,1,0,0:0:0:0:
256,192,146376,1,0,0:0:0:0:
256,192,146438,1,8,0:0:0:0:
256,192,146623,1,0,0:0:0:0:
256,192,146716,1,8,0:0:0:0:
256,192,146808,1,0,0:0:0:0:
256,192,146901,1,0,0:0:0:0:
256,192,146993,1,8,0:0:0:0:
256,192,147086,1,0,0:0:0:0:
256,192,147178,1,8,0:0:0:0:
256,192,147271,1,8,0:0:0:0:
256,192,147364,1,0,0:0:0:0:
256,192,147456,1,0,0:0:0:0:
256,192,147549,1,8,0:0:0:0:
256,192,147734,1,12,0:0:0:0:
256,192,147919,1,0,0:0:0:0:
256,192,148012,1,0,0:0:0:0:
256,192,148104,1,8,0:0:0:0:
256,192,148290,1,0,0:0:0:0:
256,192,148475,1,8,0:0:0:0:
256,192,148567,1,0,0:0:0:0:
256,192,148660,1,0,0:0:0:0:
256,192,148753,1,8,0:0:0:0:
256,192,148845,1,0,0:0:0:0:
256,192,149030,1,8,0:0:0:0:
256,192,149216,1,8,0:0:0:0:
256,192,149308,1,0,0:0:0:0:
256,192,149401,1,8,0:0:0:0:
256,192,149493,1,8,0:0:0:0:
256,192,149586,1,0,0:0:0:0:
256,192,149678,1,0,0:0:0:0:
256,192,149771,1,8,0:0:0:0:
256,192,149864,1,0,0:0:0:0:
256,192,149956,1,8,0:0:0:0:
256,192,150049,1,8,0:0:0:0:
256,192,150141,1,0,0:0:0:0:
256,192,150234,1,8,0:0:0:0:
256,192,150327,1,0,0:0:0:0:
256,192,150419,1,8,0:0:0:0:
256,192,150512,1,8,0:0:0:0:
256,192,150604,1,0,0:0:0:0:
256,192,150697,1,12,0:0:0:0:
256,192,150882,1,0,0:0:0:0:
256,192,150975,1,0,0:0:0:0:
256,192,151067,1,8,0:0:0:0:
256,192,151253,1,0,0:0:0:0:
256,192,151438,1,8,0:0:0:0:
256,192,151623,1,8,0:0:0:0:
256,192,151716,1,8,0:0:0:0:
256,192,151808,1,0,0:0:0:0:
256,192,151993,1,0,0:0:0:0:
256,192,152178,1,8,0:0:0:0:
256,192,152240,1,0,0:0:0:0:
256,192,152302,1,0,0:0:0:0:
256,192,152364,1,8,0:0:0:0:
256,192,152549,1,0,0:0:0:0:
256,192,152734,1,8,0:0:0:0:
256,192,152827,1,8,0:0:0:0:
256,192,152919,1,0,0:0:0:0:
256,192,153012,1,0,0:0:0:0:
256,192,153104,1,8,0:0:0:0:
256,192,153290,1,0,0:0:0:0:
256,192,153475,1,0,0:0:0:0:
256,192,153660,1,8,0:0:0:0:
256,192,153753,1,0,0:0:0:0:
256,192,153845,1,8,0:0:0:0:
256,192,153938,1,8,0:0:0:0:
256,192,154030,1,0,0:0:0:0:
256,192,154123,1,8,0:0:0:0:
256,192,154216,1,8,0:0:0:0:
256,192,154308,1,8,0:0:0:0:
256,192,154401,1,0,0:0:0:0:
256,192,154493,1,0,0:0:0:0:
256,192,154586,1,8,0:0:0:0:
256,192,154678,1,0,0:0:0:0:
256,192,154771,1,8,0:0:0:0:
256,192,154864,1,0,0:0:0:0:
256,192,154956,1,0,0:0:0:0:
256,192,155049,1,0,0:0:0:0:
256,192,155141,1,12,0:0:0:0:
256,192,155327,1,0,0:0:0:0:
256,192,155419,1,0,0:0:0:0:
256,192,155512,1,8,0:0:0:0:
256,192,155697,1,8,0:0:0:0:
256,192,155882,1,4,0:0:0:0:
256,192,156067,1,8,0:0:0:0:
256,192,156160,1,0,0:0:0:0:
256,192,156253,1,8,0:0:0:0:
256,192,156345,1,8,0:0:0:0:
256,192,156438,1,0,0:0:0:0:
256,192,156530,1,0,0:0:0:0:
256,192,156623,1,12,0:0:0:0:
256,192,156808,1,0,0:0:0:0:
256,192,156993,1,8,0:0:0:0:
256,192,157179,1,0,0:0:0:0:
256,192,157364,1,8,0:0:0:0:
256,192,157456,1,8,0:0:0:0:
256,192,157549,1,0,0:0:0:0:
256,192,157642,1,0,0:0:0:0:
256,192,157734,1,8,0:0:0:0:
256,192,157919,1,0,0:0:0:0:
256,192,158105,1,8,0:0:0:0:
256,192,158197,1,8,0:0:0:0:
256,192,158290,1,0,0:0:0:0:
256,192,158475,1,8,0:0:0:0:
256,192,158660,1,0,0:0:0:0:
256,192,158845,1,8,0:0:0:0:
256,192,158938,1,8,0:0:0:0:
256,192,159030,1,0,0:0:0:0:
256,192,159216,1,8,0:0:0:0:
256,192,159401,1,8,0:0:0:0:
256,192,159586,1,8,0:0:0:0:
256,192,159771,1,0,0:0:0:0:
256,192,159956,1,8,0:0:0:0:
256,192,160142,1,0,0:0:0:0:
256,192,160234,1,0,0:0:0:0:
256,192,160327,1,8,0:0:0:0:
256,192,160512,1,0,0:0:0:0:
256,192,160697,1,8,0:0:0:0:
256,192,160790,1,0,0:0:0:0:
256,192,160882,1,8,0:0:0:0:
256,192,161067,1,8,0:0:0:0:
256,192,161160,1,0,0:0:0:0:
256,192,161253,1,8,0:0:0:0:
256,192,161345,1,8,0:0:0:0:
256,192,161438,1,0,0:0:0:0:
256,192,161530,1,0,0:0:0:0:
256,192,161623,1,8,0:0:0:0:
256,192,161685,1,0,0:0:0:0:
256,192,161747,1,0,0:0:0:0:
256,192,161808,1,8,0:0:0:0:
256,192,161901,1,8,0:0:0:0:
256,192,161993,1,0,0:0:0:0:
256,192,162086,1,0,0:0:0:0:
256,192,162179,1,8,0:0:0:0:
256,192,162271,1,0,0:0:0:0:
256,192,162364,1,0,0:0:0:0:
256,192,162456,1,0,0:0:0:0:
256,192,162549,1,12,0:0:0:0:
256,192,162734,1,0,0:0:0:0:
256,192,162919,1,8,0:0:0:0:
256,192,163105,1,0,0:0:0:0:
256,192,163290,1,8,0:0:0:0:
256,192,163382,1,0,0:0:0:0:
256,192,163475,1,0,0:0:0:0:
256,192,163567,1,0,0:0:0:0:
256,192,163660,1,8,0:0:0:0:
256,192,163845,1,0,0:0:0:0:
256,192,164030,1,8,0:0:0:0:
256,192,164092,1,8,0:0:0:0:
256,192,164154,1,0,0:0:0:0:
256,192,164216,1,0,0:0:0:0:
256,192,164401,1,8,0:0:0:0:
256,192,164586,1,0,0:0:0:0:
256,192,164679,1,0,0:0:0:0:
256,192,164771,1,8,0:0:0:0:
256,192,164956,1,0,0:0:0:0:
256,192,165142,1,8,0:0:0:0:
256,192,165327,1,0,0:0:0:0:
256,192,165512,1,8,0:0:0:0:
256,192,165605,1,0,0:0:0:0:
256,192,165697,1,0,0:0:0:0:
256,192,165790,1,8,0:0:0:0:
256,192,165882,1,0,0:0:0:0:
256,192,165975,1,8,0:0:0:0:
256,192,166067,1,8,0:0:0:0:
256,192,166160,1,0,0:0:0:0:
256,192,166253,1,8,0:0:0:0:
256,192,166345,1,0,0:0:0:0:
256,192,166438,1,8,0:0:0:0:
256,192,166530,1,8,0:0:0:0:
256,192,166623,1,0,0:0:0:0:
256,192,166716,1,0,0:0:0:0:
256,192,166808,1,8,0:0:0:0:
256,192,166901,1,0,0:0:0:0:
256,192,166993,1,12,0:0:0:0:
256,192,167179,1,0,0:0:0:0:
256,192,167271,1,0,0:0:0:0:
256,192,167364,1,8,0:0:0:0:
256,192,167549,1,0,0:0:0:0:
256,192,167734,1,8,0:0:0:0:
256,192,167827,1,8,0:0:0:0:
256,192,167919,1,0,0:0:0:0:
256,192,168012,1,0,0:0:0:0:
256,192,168105,1,8,0:0:0:0:
256,192,168197,1,0,0:0:0:0:
256,192,168290,1,0,0:0:0:0:
256,192,168382,1,0,0:0:0:0:
256,192,168475,1,12,0:0:0:0:
256,192,168660,1,8,0:0:0:0:
256,192,168845,1,0,0:0:0:0:
256,192,168938,1,8,0:0:0:0:
256,192,169123,1,8,0:0:0:0:
256,192,169308,1,8,0:0:0:0:
256,192,169493,1,8,0:0:0:0:
256,192,169586,1,0,0:0:0:0:
256,192,169771,1,0,0:0:0:0:
256,192,169956,1,8,0:0:0:0:
256,192,170142,1,8,0:0:0:0:
256,192,170234,1,0,0:0:0:0:
256,192,170327,1,8,0:0:0:0:
256,192,170419,1,8,0:0:0:0:
256,192,170512,1,0,0:0:0:0:
256,192,170605,1,0,0:0:0:0:
256,192,170697,1,8,0:0:0:0:
256,192,170790,1,0,0:0:0:0:
256,192,170882,1,0,0:0:0:0:
256,192,170975,1,8,0:0:0:0:
256,192,171068,1,8,0:0:0:0:
256,192,171253,1,8,0:0:0:0:
256,192,171438,1,0,0:0:0:0:
256,192,171623,1,8,0:0:0:0:
256,192,171808,1,0,0:0:0:0:
256,192,171901,1,8,0:0:0:0:
256,192,172086,1,8,0:0:0:0:
256,192,172271,1,8,0:0:0:0:
256,192,172456,1,0,0:0:0:0:
256,192,172549,1,8,0:0:0:0:
256,192,172734,1,0,0:0:0:0:
256,192,172919,1,8,0:0:0:0:
256,192,173105,1,0,0:0:0:0:
256,192,173197,1,8,0:0:0:0:
256,192,173382,1,0,0:0:0:0:
256,192,173475,1,0,0:0:0:0:
256,192,173660,1,8,0:0:0:0:
256,192,173753,1,0,0:0:0:0:
256,192,173845,1,8,0:0:0:0:
256,192,173938,1,8,0:0:0:0:
256,192,174030,1,0,0:0:0:0:
256,192,174123,1,8,0:0:0:0:
256,192,174216,1,0,0:0:0:0:
256,192,174308,1,0,0:0:0:0:
256,192,174401,1,12,0:0:0:0:
256,192,174586,1,8,0:0:0:0:
256,192,174771,1,0,0:0:0:0:
256,192,174864,1,8,0:0:0:0:
256,192,175049,1,8,0:0:0:0:
256,192,175234,1,8,0:0:0:0:
256,192,175419,1,8,0:0:0:0:
256,192,175512,1,0,0:0:0:0:
256,192,175697,1,0,0:0:0:0:
256,192,175882,1,8,0:0:0:0:
256,192,176068,1,8,0:0:0:0:
256,192,176160,1,0,0:0:0:0:
256,192,176253,1,8,0:0:0:0:
256,192,176345,1,8,0:0:0:0:
256,192,176438,1,8,0:0:0:0:
256,192,176530,1,0,0:0:0:0:
256,192,176623,1,8,0:0:0:0:
256,192,176716,1,8,0:0:0:0:
256,192,176808,1,0,0:0:0:0:
256,192,176901,1,0,0:0:0:0:
256,192,176993,1,8,0:0:0:0:
256,192,177179,1,0,0:0:0:0:
256,192,177364,1,8,0:0:0:0:
256,192,177549,1,8,0:0:0:0:
256,192,177734,1,8,0:0:0:0:
256,192,177827,1,0,0:0:0:0:
256,192,178012,1,8,0:0:0:0:
256,192,178197,1,8,0:0:0:0:
256,192,178382,1,0,0:0:0:0:
256,192,178475,1,8,0:0:0:0:
256,192,178660,1,8,0:0:0:0:
256,192,178845,1,12,0:0:0:0:
256,192,179030,1,0,0:0:0:0:
256,192,179123,1,8,0:0:0:0:
256,192,179308,1,0,0:0:0:0:
256,192,179401,1,8,0:0:0:0:
256,192,179586,1,8,0:0:0:0:
256,192,179679,1,8,0:0:0:0:
256,192,179771,1,0,0:0:0:0:
256,192,179833,1,0,0:0:0:0:
256,192,179895,1,0,0:0:0:0:
256,192,179956,1,8,0:0:0:0:
256,192,180049,1,8,0:0:0:0:
256,192,180142,1,0,0:0:0:0:
256,192,180234,1,0,0:0:0:0:
256,192,180327,1,8,0:0:0:0:
256,192,180512,1,0,0:0:0:0:
256,192,180605,1,8,0:0:0:0:
256,192,180697,1,0,0:0:0:0:
256,192,180882,1,8,0:0:0:0:
256,192,180975,1,8,0:0:0:0:
256,192,181067,1,0,0:0:0:0:
256,192,181160,1,0,0:0:0:0:
256,192,181252,1,8,0:0:0:0:
256,192,181345,1,0,0:0:0:0:
256,192,181438,1,8,0:0:0:0:
256,192,181530,1,0,0:0:0:0:
256,192,181623,1,0,0:0:0:0:
256,192,181715,1,0,0:0:0:0:
256,192,181808,1,12,0:0:0:0:
256,192,182178,1,0,0:0:0:0:
256,192,182364,1,0,0:0:0:0:
256,192,182549,1,8,0:0:0:0:
256,192,182919,1,0,0:0:0:0:
256,192,183104,1,0,0:0:0:0:
256,192,183289,1,8,0:0:0:0:
256,192,183475,1,8,0:0:0:0:
256,192,183660,1,0,0:0:0:0:
256,192,183752,1,8,0:0:0:0:
256,192,183845,1,0,0:0:0:0:
256,192,183938,1,8,0:0:0:0:
256,192,184030,1,8,0:0:0:0:
256,192,184215,1,0,0:0:0:0:
256,192,184308,1,0,0:0:0:0:
256,192,184401,1,8,0:0:0:0:
256,192,184586,1,8,0:0:0:0:
256,192,184771,1,0,0:0:0:0:
256,192,184956,1,8,0:0:0:0:
256,192,185141,1,0,0:0:0:0:
256,192,185327,1,0,0:0:0:0:
256,192,185512,1,8,0:0:0:0:
256,192,185697,1,0,0:0:0:0:
256,192,185789,1,8,0:0:0:0:
256,192,185882,1,0,0:0:0:0:
256,192,186067,1,8,0:0:0:0:
256,192,186160,1,0,0:0:0:0:
256,192,186252,1,8,0:0:0:0:
256,192,186438,1,0,0:0:0:0:
256,192,186530,1,8,0:0:0:0:
256,192,186623,1,0,0:0:0:0:
256,192,186715,1,0,0:0:0:0:
256,192,186808,1,8,0:0:0:0:
256,192,186901,1,0,0:0:0:0:
256,192,186993,1,8,0:0:0:0:
256,192,187178,1,0,0:0:0:0:
256,192,187271,1,0,0:0:0:0:
256,192,187364,1,8,0:0:0:0:
256,192,187456,1,0,0:0:0:0:
256,192,187549,1,8,0:0:0:0:
256,192,187734,1,12,0:0:0:0:
256,192,187919,1,0,0:0:0:0:
256,192,188012,1,0,0:0:0:0:
256,192,188104,1,0,0:0:0:0:
256,192,188289,1,0,0:0:0:0:
256,192,188475,1,8,0:0:0:0:
256,192,188660,1,0,0:0:0:0:
256,192,188752,1,0,0:0:0:0:
256,192,188845,1,0,0:0:0:0:
256,192,189030,1,0,0:0:0:0:
256,192,189215,1,8,0:0:0:0:
256,192,189401,1,0,0:0:0:0:
256,192,189493,1,0,0:0:0:0:
256,192,189586,1,0,0:0:0:0:
256,192,189771,1,0,0:0:0:0:
256,192,189956,1,8,0:0:0:0:
256,192,190141,1,0,0:0:0:0:
256,192,190234,1,0,0:0:0:0:
256,192,190326,1,0,0:0:0:0:
256,192,190512,1,0,0:0:0:0:
256,192,190697,1,12,0:0:0:0:
256,192,190882,1,8,0:0:0:0:
256,192,190975,1,0,0:0:0:0:
256,192,191067,1,0,0:0:0:0:
256,192,191160,1,8,0:0:0:0:
256,192,191252,1,0,0:0:0:0:
256,192,191438,1,12,0:0:0:0:
256,192,191623,1,0,0:0:0:0:
256,192,191715,1,8,0:0:0:0:
256,192,191808,1,0,0:0:0:0:
256,192,191993,1,8,0:0:0:0:
256,192,192055,1,0,0:0:0:0:
256,192,192117,1,0,0:0:0:0:
256,192,192178,1,8,0:0:0:0:
256,192,192364,1,0,0:0:0:0:
256,192,192456,1,8,0:0:0:0:
256,192,192549,1,0,0:0:0:0:
256,192,192734,1,0,0:0:0:0:
256,192,192827,1,0,0:0:0:0:
256,192,192919,1,12,0:0:0:0:
256,192,193105,1,0,0:0:0:0:
256,192,193197,1,8,0:0:0:0:
256,192,193290,1,0,0:0:0:0:
256,192,193382,1,0,0:0:0:0:
256,192,193475,1,8,0:0:0:0:
256,192,193567,1,8,0:0:0:0:
256,192,193660,1,4,0:0:0:0:
256,192,193845,1,8,0:0:0:0:
256,192,194030,1,8,0:0:0:0:
256,192,194123,1,0,0:0:0:0:
256,192,194216,1,8,0:0:0:0:
256,192,194308,1,8,0:0:0:0:
256,192,194401,1,0,0:0:0:0:
256,192,194586,1,0,0:0:0:0:
256,192,194679,1,8,0:0:0:0:
256,192,194864,1,0,0:0:0:0:
256,192,194956,1,8,0:0:0:0:
256,192,195049,1,8,0:0:0:0:
256,192,195142,1,0,0:0:0:0:
256,192,195327,1,8,0:0:0:0:
256,192,195512,1,0,0:0:0:0:
256,192,195605,1,8,0:0:0:0:
256,192,195697,1,0,0:0:0:0:
256,192,195790,1,0,0:0:0:0:
256,192,195882,1,8,0:0:0:0:
256,192,196067,1,0,0:0:0:0:
256,192,196160,1,8,0:0:0:0:
256,192,196345,1,8,0:0:0:0:
256,192,196438,1,8,0:0:0:0:
256,192,196530,1,0,0:0:0:0:
256,192,196623,1,8,0:0:0:0:
256,192,196716,1,0,0:0:0:0:
256,192,196808,1,0,0:0:0:0:
256,192,196993,1,8,0:0:0:0:
256,192,197179,1,0,0:0:0:0:
256,192,197271,1,0,0:0:0:0:
256,192,197364,1,8,0:0:0:0:
256,192,197549,1,0,0:0:0:0:
256,192,197642,1,8,0:0:0:0:
256,192,197827,1,8,0:0:0:0:
256,192,197919,1,8,0:0:0:0:
256,192,198105,1,8,0:0:0:0:
256,192,198290,1,0,0:0:0:0:
256,192,198475,1,0,0:0:0:0:
256,192,198660,1,8,0:0:0:0:
256,192,198845,1,8,0:0:0:0:
256,192,199030,1,0,0:0:0:0:
256,192,199123,1,0,0:0:0:0:
256,192,199216,1,8,0:0:0:0:
256,192,199308,1,8,0:0:0:0:
256,192,199401,1,0,0:0:0:0:
256,192,199493,1,0,0:0:0:0:
256,192,199586,1,12,0:0:0:0:
256,192,199771,1,8,0:0:0:0:
256,192,199956,1,0,0:0:0:0:
256,192,200142,1,8,0:0:0:0:
256,192,200327,1,8,0:0:0:0:
256,192,200512,1,0,0:0:0:0:
256,192,200605,1,8,0:0:0:0:
256,192,200790,1,8,0:0:0:0:
256,192,200882,1,0,0:0:0:0:
256,192,200975,1,0,0:0:0:0:
256,192,201067,1,8,0:0:0:0:
256,192,201253,1,8,0:0:0:0:
256,192,201438,1,0,0:0:0:0:
256,192,201623,1,0,0:0:0:0:
256,192,201716,1,0,0:0:0:0:
256,192,201808,1,8,0:0:0:0:
256,192,201993,1,0,0:0:0:0:
256,192,202086,1,8,0:0:0:0:
256,192,202271,1,0,0:0:0:0:
256,192,202364,1,8,0:0:0:0:
256,192,202456,1,8,0:0:0:0:
256,192,202549,1,0,0:0:0:0:
256,192,202642,1,0,0:0:0:0:
256,192,202734,1,8,0:0:0:0:
256,192,202919,1,8,0:0:0:0:
256,192,203105,1,0,0:0:0:0:
256,192,203197,1,0,0:0:0:0:
256,192,203290,1,8,0:0:0:0:
256,192,203475,1,0,0:0:0:0:
256,192,203567,1,8,0:0:0:0:
256,192,203753,1,0,0:0:0:0:
256,192,203845,1,8,0:0:0:0:
256,192,203938,1,0,0:0:0:0:
256,192,204030,1,8,0:0:0:0:
256,192,204216,1,0,0:0:0:0:
256,192,204308,1,8,0:0:0:0:
256,192,204401,1,0,0:0:0:0:
256,192,204586,1,8,0:0:0:0:
256,192,204771,1,12,0:0:0:0:
256,192,205142,1,8,0:0:0:0:
256,192,205203,1,8,0:0:0:0:
256,192,205265,1,8,0:0:0:0:
256,192,205327,1,0,0:0:0:0:
256,192,205419,1,0,0:0:0:0:
256,192,205512,1,8,0:0:0:0:
256,192,205697,1,0,0:0:0:0:
256,192,205790,1,8,0:0:0:0:
256,192,205882,1,0,0:0:0:0:
256,192,205975,1,0,0:0:0:0:
256,192,206067,1,8,0:0:0:0:
256,192,206160,1,0,0:0:0:0:
256,192,206253,1,8,0:0:0:0:
256,192,206438,1,0,0:0:0:0:
256,192,206530,1,8,0:0:0:0:
256,192,206623,1,8,0:0:0:0:
256,192,206716,1,0,0:0:0:0:
256,192,206808,1,8,0:0:0:0:
256,192,206993,1,8,0:0:0:0:
256,192,207086,1,0,0:0:0:0:
256,192,207179,1,8,0:0:0:0:
256,192,207271,1,8,0:0:0:0:
256,192,207364,1,0,0:0:0:0:
256,192,207456,1,0,0:0:0:0:
256,192,207549,1,8,0:0:0:0:
256,192,207642,1,0,0:0:0:0:
256,192,207734,1,8,0:0:0:0:
256,192,207919,1,0,0:0:0:0:
256,192,208105,1,8,0:0:0:0:
256,192,208290,1,0,0:0:0:0:
256,192,208382,1,0,0:0:0:0:
256,192,208475,1,8,0:0:0:0:
256,192,208660,1,0,0:0:0:0:
256,192,208753,1,8,0:0:0:0:
256,192,208845,1,0,0:0:0:0:
256,192,208938,1,0,0:0:0:0:
256,192,209030,1,8,0:0:0:0:
256,192,209123,1,0,0:0:0:0:
256,192,209216,1,8,0:0:0:0:
256,192,209308,1,8,0:0:0:0:
256,192,209401,1,8,0:0:0:0:
256,192,209493,1,8,0:0:0:0:
256,192,209586,1,0,0:0:0:0:
256,192,209679,1,0,0:0:0:0:
256,192,209771,1,0,0:0:0:0:
256,192,209864,1,0,0:0:0:0:
256,192,209956,1,8,0:0:0:0:
256,192,210142,1,0,0:0:0:0:
256,192,210234,1,8,0:0:0:0:
256,192,210327,1,0,0:0:0:0:
256,192,210419,1,0,0:0:0:0:
256,192,210512,1,8,0:0:0:0:
256,192,210605,1,8,0:0:0:0:
256,192,210697,1,8,0:0:0:0:
256,192,210882,1,0,0:0:0:0:
256,192,211067,1,8,0:0:0:0:
256,192,211253,1,0,0:0:0:0:
256,192,211345,1,0,0:0:0:0:
256,192,211438,1,12,0:0:0:0:
256,192,211623,1,0,0:0:0:0:
256,192,211716,1,8,0:0:0:0:
256,192,211808,1,8,0:0:0:0:
256,192,211901,1,0,0:0:0:0:
256,192,211993,1,8,0:0:0:0:
256,192,212086,1,0,0:0:0:0:
256,192,212179,1,8,0:0:0:0:
256,192,212364,1,0,0:0:0:0:
256,192,212456,1,8,0:0:0:0:
256,192,212549,1,0,0:0:0:0:
256,192,212642,1,8,0:0:0:0:
256,192,212734,1,8,0:0:0:0:
256,192,212827,1,0,0:0:0:0:
256,192,212919,1,8,0:0:0:0:
256,192,213012,1,0,0:0:0:0:
256,192,213105,1,0,0:0:0:0:
256,192,213197,1,0,0:0:0:0:
256,192,213290,1,8,0:0:0:0:
256,192,213475,1,0,0:0:0:0:
256,192,213660,1,8,0:0:0:0:
256,192,213753,1,0,0:0:0:0:
256,192,213845,1,8,0:0:0:0:
256,192,213938,1,8,0:0:0:0:
256,192,214030,1,0,0:0:0:0:
256,192,214123,1,0,0:0:0:0:
256,192,214216,1,8,0:0:0:0:
256,192,214308,1,0,0:0:0:0:
256,192,214401,1,8,0:0:0:0:
256,192,214493,1,0,0:0:0:0:
256,192,214586,1,0,0:0:0:0:
256,192,214679,1,8,0:0:0:0:
256,192,214771,1,8,0:0:0:0:
256,192,214864,1,0,0:0:0:0:
256,192,214956,1,8,0:0:0:0:
256,192,215049,1,0,0:0:0:0:
256,192,215142,1,8,0:0:0:0:
256,192,215234,1,8,0:0:0:0:
256,192,215327,1,0,0:0:0:0:
256,192,215419,1,0,0:0:0:0:
256,192,215512,1,8,0:0:0:0:
256,192,215605,1,0,0:0:0:0:
256,192,215697,1,8,0:0:0:0:
256,192,215790,1,8,0:0:0:0:
256,192,215882,1,8,0:0:0:0:
256,192,216067,1,0,0:0:0:0:
256,192,216253,1,8,0:0:0:0:
256,192,216438,1,8,0:0:0:0:
256,192,216623,1,8,0:0:0:0:
256,192,216716,1,8,0:0:0:0:
256,192,216808,1,0,0:0:0:0:
256,192,216901,1,0,0:0:0:0:
256,192,216993,1,8,0:0:0:0:
256,192,217086,1,0,0:0:0:0:
256,192,217179,1,0,0:0:0:0:
256,192,217271,1,0,0:0:0:0:
256,192,217364,1,12,0:0:0:0:
256,192,217549,1,0,0:0:0:0:
256,192,217641,1,8,0:0:0:0:
256,192,217827,1,8,0:0:0:0:
256,192,217919,1,8,0:0:0:0:
256,192,218104,1,8,0:0:0:0:
256,192,218290,1,0,0:0:0:0:
256,192,218382,1,8,0:0:0:0:
256,192,218567,1,0,0:0:0:0:
256,192,218660,1,0,0:0:0:0:
256,192,218845,1,8,0:0:0:0:
256,192,219030,1,8,0:0:0:0:
256,192,219123,1,0,0:0:0:0:
256,192,219308,1,0,0:0:0:0:
256,192,219401,1,8,0:0:0:0:
256,192,219586,1,0,0:0:0:0:
256,192,219678,1,0,0:0:0:0:
256,192,219771,1,8,0:0:0:0:
256,192,219864,1,0,0:0:0:0:
256,192,219956,1,8,0:0:0:0:
256,192,220141,1,0,0:0:0:0:
256,192,220234,1,0,0:0:0:0:
256,192,220327,1,8,0:0:0:0:
256,192,220512,1,0,0:0:0:0:
256,192,220604,1,8,0:0:0:0:
256,192,220790,1,8,0:0:0:0:
256,192,220882,1,0,0:0:0:0:
256,192,220975,1,0,0:0:0:0:
256,192,221067,1,8,0:0:0:0:
256,192,221253,1,8,0:0:0:0:
256,192,221345,1,0,0:0:0:0:
256,192,221438,1,8,0:0:0:0:
256,192,221530,1,8,0:0:0:0:
256,192,221623,1,0,0:0:0:0:
256,192,221716,1,0,0:0:0:0:
256,192,221808,1,8,0:0:0:0:
256,192,221993,1,0,0:0:0:0:
256,192,222086,1,8,0:0:0:0:
256,192,222178,1,0,0:0:0:0:
256,192,222364,1,8,0:0:0:0:
256,192,222456,1,0,0:0:0:0:
256,192,222549,1,8,0:0:0:0:
256,192,222734,1,0,0:0:0:0:
256,192,222919,1,8,0:0:0:0:
256,192,223012,1,8,0:0:0:0:
256,192,223104,1,0,0:0:0:0:
256,192,223197,1,0,0:0:0:0:
256,192,223290,1,12,0:0:0:0:
256,192,223475,1,0,0:0:0:0:
256,192,223567,1,8,0:0:0:0:
256,192,223753,1,8,0:0:0:0:
256,192,223845,1,0,0:0:0:0:
256,192,224030,1,8,0:0:0:0:
256,192,224216,1,0,0:0:0:0:
256,192,224308,1,8,0:0:0:0:
256,192,224493,1,0,0:0:0:0:
256,192,224586,1,8,0:0:0:0:
256,192,224678,1,8,0:0:0:0:
256,192,224771,1,0,0:0:0:0:
256,192,224956,1,8,0:0:0:0:
256,192,225049,1,0,0:0:0:0:
256,192,225141,1,8,0:0:0:0:
256,192,225327,1,8,0:0:0:0:
256,192,225512,1,0,0:0:0:0:
256,192,225697,1,8,0:0:0:0:
256,192,225882,1,0,0:0:0:0:
256,192,225975,1,0,0:0:0:0:
256,192,226067,1,0,0:0:0:0:
256,192,226253,1,8,0:0:0:0:
256,192,226438,1,0,0:0:0:0:
256,192,226530,1,8,0:0:0:0:
256,192,226716,1,8,0:0:0:0:
256,192,226808,1,0,0:0:0:0:
256,192,226993,1,8,0:0:0:0:
256,192,227178,1,0,0:0:0:0:
256,192,227271,1,8,0:0:0:0:
256,192,227456,1,8,0:0:0:0:
256,192,227549,1,0,0:0:0:0:
256,192,227734,1,12,0:0:0:0:
256,192,227919,1,8,0:0:0:0:
256,192,228104,1,0,0:0:0:0:
256,192,228289,1,0,0:0:0:0:
256,192,228475,1,0,0:0:0:0:
256,192,228567,1,0,0:0:0:0:
256,192,228660,1,8,0:0:0:0:
256,192,228752,1,0,0:0:0:0:
256,192,228845,1,8,0:0:0:0:
256,192,228938,1,0,0:0:0:0:
256,192,229030,1,8,0:0:0:0:
256,192,229123,1,0,0:0:0:0:
256,192,229215,1,12,0:0:0:0:
256,192,229493,1,0,0:0:0:0:
256,192,229771,1,0,0:0:0:0:
256,192,230142,1,0,0:0:0:0:
256,192,230327,1,8,0:0:0:0:
256,192,230697,1,0,0:0:0:0:
256,192,231067,1,8,0:0:0:0:
256,192,231438,1,8,0:0:0:0:
256,192,231716,1,0,0:0:0:0:
256,192,231993,1,0,0:0:0:0:
256,192,232086,1,0,0:0:0:0:
256,192,232179,1,8,0:0:0:0:
256,192,232456,1,0,0:0:0:0:
256,192,232734,1,0,0:0:0:0:
256,192,232919,1,8,0:0:0:0:
256,192,233290,1,0,0:0:0:0:
256,192,233660,1,0,0:0:0:0:
256,192,234030,1,8,0:0:0:0:
256,192,234401,1,0,0:0:0:0:
256,192,234679,1,0,0:0:0:0:
256,192,234956,1,0,0:0:0:0:
256,192,235049,1,0,0:0:0:0:
256,192,235142,1,12,0:0:0:0:
256,192,235419,1,0,0:0:0:0:
256,192,235512,1,0,0:0:0:0:
256,192,235697,1,0,0:0:0:0:
256,192,235882,1,8,0:0:0:0:
256,192,236253,1,8,0:0:0:0:
256,192,236623,1,0,0:0:0:0:
256,192,236993,1,8,0:0:0:0:
256,192,237364,1,0,0:0:0:0:
256,192,237642,1,8,0:0:0:0:
256,192,237919,1,0,0:0:0:0:
256,192,238012,1,0,0:0:0:0:
256,192,238105,1,8,0:0:0:0:
256,192,238382,1,0,0:0:0:0:
256,192,238660,1,0,0:0:0:0:
256,192,238845,1,8,0:0:0:0:
256,192,239216,1,8,0:0:0:0:
256,192,239401,1,8,0:0:0:0:
256,192,239586,1,0,0:0:0:0:
256,192,239956,1,0,0:0:0:0:
256,192,240142,1,0,0:0:0:0:
256,192,240327,1,8,0:0:0:0:
256,192,240419,1,0,0:0:0:0:
256,192,240512,1,0,0:0:0:0:
256,192,240605,1,0,0:0:0:0:
256,192,240697,1,8,0:0:0:0:
256,192,240790,1,8,0:0:0:0:
256,192,240882,1,0,0:0:0:0:
256,192,240975,1,0,0:0:0:0:
256,192,241067,1,12,0:0:0:0:
256,192,241252,1,0,0:0:0:0:
256,192,241438,1,8,0:0:0:0:
256,192,241623,1,0,0:0:0:0:
256,192,241715,1,8,0:0:0:0:
256,192,241808,1,0,0:0:0:0:
256,192,241901,1,8,0:0:0:0:
256,192,241993,1,0,0:0:0:0:
256,192,242086,1,0,0:0:0:0:
256,192,242178,1,8,0:0:0:0:
256,192,242364,1,8,0:0:0:0:
256,192,242549,1,0,0:0:0:0:
256,192,242610,1,0,0:0:0:0:
256,192,242672,1,0,0:0:0:0:
256,192,242734,1,8,0:0:0:0:
256,192,242919,1,8,0:0:0:0:
256,192,243012,1,0,0:0:0:0:
256,192,243104,1,8,0:0:0:0:
256,192,243197,1,8,0:0:0:0:
256,192,243289,1,0,0:0:0:0:
256,192,243382,1,0,0:0:0:0:
256,192,243475,1,8,0:0:0:0:
256,192,243660,1,0,0:0:0:0:
256,192,243845,1,8,0:0:0:0:
256,192,244030,1,8,0:0:0:0:
256,192,244215,1,0,0:0:0:0:
256,192,244308,1,8,0:0:0:0:
256,192,244401,1,0,0:0:0:0:
256,192,244586,1,8,0:0:0:0:
256,192,244771,1,8,0:0:0:0:
256,192,244864,1,0,0:0:0:0:
256,192,244956,1,0,0:0:0:0:
256,192,245049,1,0,0:0:0:0:
256,192,245141,1,8,0:0:0:0:
256,192,245326,1,0,0:0:0:0:
256,192,245419,1,8,0:0:0:0:
256,192,245512,1,8,0:0:0:0:
256,192,245604,1,0,0:0:0:0:
256,192,245697,1,8,0:0:0:0:
256,192,245789,1,0,0:0:0:0:
256,192,245882,1,8,0:0:0:0:
256,192,245975,1,8,0:0:0:0:
256,192,246067,1,0,0:0:0:0:
256,192,246160,1,0,0:0:0:0:
256,192,246252,1,8,0:0:0:0:
256,192,246345,1,0,0:0:0:0:
256,192,246438,1,0,0:0:0:0:
256,192,246530,1,0,0:0:0:0:
256,192,246623,1,8,0:0:0:0:
256,192,246715,1,8,0:0:0:0:
256,192,246808,1,0,0:0:0:0:
256,192,246901,1,0,0:0:0:0:
256,192,246993,1,12,0:0:0:0:
256,192,247178,1,0,0:0:0:0:
256,192,247364,1,8,0:0:0:0:
256,192,247549,1,0,0:0:0:0:
256,192,247641,1,8,0:0:0:0:
256,192,247734,1,8,0:0:0:0:
256,192,247826,1,0,0:0:0:0:
256,192,247919,1,8,0:0:0:0:
256,192,248012,1,0,0:0:0:0:
256,192,248104,1,8,0:0:0:0:
256,192,248289,1,0,0:0:0:0:
256,192,248475,1,8,0:0:0:0:
256,192,248536,1,0,0:0:0:0:
256,192,248598,1,0,0:0:0:0:
256,192,248660,1,0,0:0:0:0:
256,192,248845,1,8,0:0:0:0:
256,192,249030,1,0,0:0:0:0:
256,192,249215,1,8,0:0:0:0:
256,192,249308,1,8,0:0:0:0:
256,192,249401,1,0,0:0:0:0:
256,192,249493,1,0,0:0:0:0:
256,192,249586,1,8,0:0:0:0:
256,192,249771,1,0,0:0:0:0:
256,192,249956,1,8,0:0:0:0:
256,192,250049,1,0,0:0:0:0:
256,192,250141,1,8,0:0:0:0:
256,192,250234,1,0,0:0:0:0:
256,192,250326,1,8,0:0:0:0:
256,192,250419,1,8,0:0:0:0:
256,192,250512,1,0,0:0:0:0:
256,192,250604,1,8,0:0:0:0:
256,192,250697,1,0,0:0:0:0:
256,192,250789,1,0,0:0:0:0:
256,192,250882,1,8,0:0:0:0:
256,192,250975,1,8,0:0:0:0:
256,192,251067,1,0,0:0:0:0:
256,192,251160,1,8,0:0:0:0:
256,192,251252,1,0,0:0:0:0:
256,192,251345,1,0,0:0:0:0:
256,192,251438,1,8,0:0:0:0:
256,192,251623,1,0,0:0:0:0:
256,192,251685,1,0,0:0:0:0:
256,192,251746,1,0,0:0:0:0:
256,192,251808,1,8,0:0:0:0:
256,192,251993,1,0,0:0:0:0:
256,192,252178,1,8,0:0:0:0:
256,192,252271,1,8,0:0:0:0:
256,192,252364,1,8,0:0:0:0:
256,192,252456,1,8,0:0:0:0:
256,192,252549,1,0,0:0:0:0:
256,192,252641,1,0,0:0:0:0:
256,192,252734,1,0,0:0:0:0:
256,192,252826,1,0,0:0:0:0:
256,192,252919,1,12,0:0:0:0:
256,192,253104,1,0,0:0:0:0:
256,192,253197,1,8,0:0:0:0:
256,192,253289,1,8,0:0:0:0:
256,192,253475,1,0,0:0:0:0:
256,192,253660,1,8,0:0:0:0:
256,192,253752,1,8,0:0:0:0:
256,192,253845,1,0,0:0:0:0:
256,192,253938,1,0,0:0:0:0:
256,192,254030,1,8,0:0:0:0:
256,192,254215,1,0,0:0:0:0:
256,192,254401,1,8,0:0:0:0:
256,192,254462,1,0,0:0:0:0:
256,192,254524,1,0,0:0:0:0:
256,192,254586,1,8,0:0:0:0:
256,192,254771,1,0,0:0:0:0:
256,192,254864,1,8,0:0:0:0:
256,192,254956,1,0,0:0:0:0:
256,192,255049,1,0,0:0:0:0:
256,192,255141,1,8,0:0:0:0:
256,192,255234,1,0,0:0:0:0:
256,192,255326,1,8,0:0:0:0:
256,192,255419,1,8,0:0:0:0:
256,192,255512,1,0,0:0:0:0:
256,192,255604,1,0,0:0:0:0:
256,192,255697,1,8,0:0:0:0:
256,192,255882,1,12,0:0:0:0:
256,192,256067,1,0,0:0:0:0:
256,192,256160,1,0,0:0:0:0:
256,192,256252,1,8,0:0:0:0:
256,192,256438,1,0,0:0:0:0:
256,192,256623,1,8,0:0:0:0:
256,192,256715,1,0,0:0:0:0:
256,192,256808,1,0,0:0:0:0:
256,192,256901,1,8,0:0:0:0:
256,192,256993,1,0,0:0:0:0:
256,192,257178,1,8,0:0:0:0:
256,192,257364,1,8,0:0:0:0:
256,192,257456,1,0,0:0:0:0:
256,192,257549,1,8,0:0:0:0:
256,192,257641,1,8,0:0:0:0:
256,192,257734,1,0,0:0:0:0:
256,192,257826,1,0,0:0:0:0:
256,192,257919,1,8,0:0:0:0:
256,192,258012,1,0,0:0:0:0:
256,192,258104,1,8,0:0:0:0:
256,192,258197,1,8,0:0:0:0:
256,192,258289,1,0,0:0:0:0:
256,192,258382,1,8,0:0:0:0:
256,192,258475,1,0,0:0:0:0:
256,192,258567,1,8,0:0:0:0:
256,192,258660,1,8,0:0:0:0:
256,192,258752,1,0,0:0:0:0:
256,192,258845,1,12,0:0:0:0:
256,192,259030,1,0,0:0:0:0:
256,192,259123,1,0,0:0:0:0:
256,192,259215,1,8,0:0:0:0:
256,192,259401,1,0,0:0:0:0:
256,192,259586,1,8,0:0:0:0:
256,192,259771,1,8,0:0:0:0:
256,192,259864,1,8,0:0:0:0:
256,192,259956,1,0,0:0:0:0:
256,192,260141,1,0,0:0:0:0:
256,192,260326,1,8,0:0:0:0:
256,192,260388,1,8,0:0:0:0:
256,192,260450,1,0,0:0:0:0:
256,192,260512,1,0,0:0:0:0:
256,192,260697,1,0,0:0:0:0:
256,192,260882,1,8,0:0:0:0:
256,192,260975,1,8,0:0:0:0:
256,192,261067,1,0,0:0:0:0:
256,192,261160,1,0,0:0:0:0:
256,192,261252,1,8,0:0:0:0:
256,192,261438,1,0,0:0:0:0:
256,192,261623,1,0,0:0:0:0:
256,192,261808,1,8,0:0:0:0:
256,192,261901,1,0,0:0:0:0:
256,192,261993,1,8,0:0:0:0:
256,192,262086,1,8,0:0:0:0:
256,192,262178,1,0,0:0:0:0:
256,192,262271,1,8,0:0:0:0:
256,192,262364,1,8,0:0:0:0:
256,192,262456,1,8,0:0:0:0:
256,192,262549,1,0,0:0:0:0:
256,192,262641,1,0,0:0:0:0:
256,192,262734,1,8,0:0:0:0:
256,192,262826,1,0,0:0:0:0:
256,192,262919,1,8,0:0:0:0:
256,192,263012,1,0,0:0:0:0:
256,192,263104,1,0,0:0:0:0:
256,192,263197,1,0,0:0:0:0:
256,192,263289,1,12,0:0:0:0:
256,192,263475,1,0,0:0:0:0:
256,192,263567,1,0,0:0:0:0:
256,192,263660,1,8,0:0:0:0:
256,192,263845,1,0,0:0:0:0:
256,192,264030,1,12,0:0:0:0:
256,192,264215,1,8,0:0:0:0:
256,192,264308,1,0,0:0:0:0:
256,192,264401,1,8,0:0:0:0:
256,192,264493,1,8,0:0:0:0:
256,192,264586,1,0,0:0:0:0:
256,192,264678,1,0,0:0:0:0:
256,192,264771,1,12,0:0:0:0:
256,192,264956,1,0,0:0:0:0:
256,192,265142,1,8,0:0:0:0:
256,192,265327,1,0,0:0:0:0:
256,192,265419,1,8,0:0:0:0:
256,192,265512,1,0,0:0:0:0:
256,192,265605,1,8,0:0:0:0:
256,192,265697,1,8,0:0:0:0:
256,192,265790,1,0,0:0:0:0:
256,192,265882,1,8,0:0:0:0:
256,192,265975,1,0,0:0:0:0:
256,192,266068,1,8,0:0:0:0:
256,192,266253,1,0,0:0:0:0:
256,192,266314,1,0,0:0:0:0:
256,192,266376,1,0,0:0:0:0:
256,192,266438,1,8,0:0:0:0:
256,192,266530,1,0,0:0:0:0:
256,192,266623,1,8,0:0:0:0:
256,192,266716,1,0,0:0:0:0:
256,192,266808,1,8,0:0:0:0:
256,192,266901,1,8,0:0:0:0:
256,192,266993,1,0,0:0:0:0:
256,192,267086,1,0,0:0:0:0:
256,192,267179,1,8,0:0:0:0:
256,192,267364,1,0,0:0:0:0:
256,192,267549,1,8,0:0:0:0:
256,192,267734,1,8,0:0:0:0:
256,192,267919,1,0,0:0:0:0:
256,192,268012,1,8,0:0:0:0:
256,192,268105,1,0,0:0:0:0:
256,192,268290,1,8,0:0:0:0:
256,192,268475,1,8,0:0:0:0:
256,192,268568,1,0,0:0:0:0:
256,192,268660,1,0,0:0:0:0:
256,192,268753,1,0,0:0:0:0:
256,192,268845,1,8,0:0:0:0:
256,192,269030,1,0,0:0:0:0:
256,192,269123,1,8,0:0:0:0:
256,192,269216,1,8,0:0:0:0:
256,192,269308,1,0,0:0:0:0:
256,192,269401,1,8,0:0:0:0:
256,192,269493,1,0,0:0:0:0:
256,192,269586,1,8,0:0:0:0:
256,192,269679,1,8,0:0:0:0:
256,192,269771,1,0,0:0:0:0:
256,192,269864,1,0,0:0:0:0:
256,192,269956,1,8,0:0:0:0:
256,192,270049,1,0,0:0:0:0:
256,192,270142,1,0,0:0:0:0:
256,192,270234,1,0,0:0:0:0:
256,192,270327,1,8,0:0:0:0:
256,192,270419,1,8,0:0:0:0:
256,192,270512,1,0,0:0:0:0:
256,192,270605,1,0,0:0:0:0:
256,192,270697,1,12,0:0:0:0:
256,192,270882,1,0,0:0:0:0:
256,192,271068,1,8,0:0:0:0:
256,192,271253,1,0,0:0:0:0:
256,192,271345,1,8,0:0:0:0:
256,192,271438,1,8,0:0:0:0:
256,192,271530,1,0,0:0:0:0:
256,192,271623,1,8,0:0:0:0:
256,192,271716,1,0,0:0:0:0:
256,192,271808,1,8,0:0:0:0:
256,192,271901,1,8,0:0:0:0:
256,192,271993,1,0,0:0:0:0:
256,192,272179,1,8,0:0:0:0:
256,192,272240,1,0,0:0:0:0:
256,192,272302,1,0,0:0:0:0:
256,192,272364,1,0,0:0:0:0:
256,192,272549,1,8,0:0:0:0:
256,192,272734,1,0,0:0:0:0:
256,192,272919,1,8,0:0:0:0:
256,192,273012,1,8,0:0:0:0:
256,192,273105,1,0,0:0:0:0:
256,192,273197,1,0,0:0:0:0:
256,192,273290,1,8,0:0:0:0:
256,192,273475,1,0,0:0:0:0:
256,192,273660,1,8,0:0:0:0:
256,192,273753,1,0,0:0:0:0:
256,192,273845,1,8,0:0:0:0:
256,192,273938,1,0,0:0:0:0:
256,192,274030,1,8,0:0:0:0:
256,192,274123,1,0,0:0:0:0:
256,192,274216,1,8,0:0:0:0:
256,192,274308,1,8,0:0:0:0:
256,192,274401,1,0,0:0:0:0:
256,192,274493,1,8,0:0:0:0:
256,192,274586,1,8,0:0:0:0:
256,192,274679,1,0,0:0:0:0:
256,192,274771,1,8,0:0:0:0:
256,192,274864,1,0,0:0:0:0:
256,192,274956,1,8,0:0:0:0:
256,192,275049,1,0,0:0:0:0:
256,192,275142,1,8,0:0:0:0:
256,192,275327,1,0,0:0:0:0:
256,192,275389,1,0,0:0:0:0:
256,192,275450,1,0,0:0:0:0:
256,192,275512,1,8,0:0:0:0:
256,192,275697,1,0,0:0:0:0:
256,192,275882,1,8,0:0:0:0:
256,192,275975,1,8,0:0:0:0:
256,192,276068,1,8,0:0:0:0:
256,192,276160,1,8,0:0:0:0:
256,192,276253,1,0,0:0:0:0:
256,192,276345,1,0,0:0:0:0:
256,192,276438,1,0,0:0:0:0:
256,192,276530,1,0,0:0:0:0:
256,192,276623,1,12,0:0:0:0:
256,192,276808,1,0,0:0:0:0:
256,192,276901,1,8,0:0:0:0:
256,192,276993,1,8,0:0:0:0:
256,192,277179,1,0,0:0:0:0:
256,192,277364,1,8,0:0:0:0:
256,192,277456,1,8,0:0:0:0:
256,192,277549,1,0,0:0:0:0:
256,192,277642,1,0,0:0:0:0:
256,192,277734,1,8,0:0:0:0:
256,192,277919,1,8,0:0:0:0:
256,192,278105,1,0,0:0:0:0:
256,192,278166,1,0,0:0:0:0:
256,192,278228,1,0,0:0:0:0:
256,192,278290,1,8,0:0:0:0:
256,192,278475,1,0,0:0:0:0:
256,192,278568,1,8,0:0:0:0:
256,192,278660,1,0,0:0:0:0:
256,192,278753,1,0,0:0:0:0:
256,192,278845,1,8,0:0:0:0:
256,192,278938,1,0,0:0:0:0:
256,192,279030,1,8,0:0:0:0:
256,192,279123,1,8,0:0:0:0:
256,192,279216,1,0,0:0:0:0:
256,192,279308,1,0,0:0:0:0:
256,192,279401,1,8,0:0:0:0:
256,192,279586,1,12,0:0:0:0:
256,192,279771,1,0,0:0:0:0:
256,192,279864,1,0,0:0:0:0:
256,192,279956,1,8,0:0:0:0:
256,192,280142,1,0,0:0:0:0:
256,192,280327,1,8,0:0:0:0:
256,192,280419,1,0,0:0:0:0:
256,192,280512,1,0,0:0:0:0:
256,192,280605,1,8,0:0:0:0:
256,192,280697,1,0,0:0:0:0:
256,192,280882,1,8,0:0:0:0:
256,192,281068,1,8,0:0:0:0:
256,192,281160,1,0,0:0:0:0:
256,192,281253,1,8,0:0:0:0:
256,192,281345,1,8,0:0:0:0:
256,192,281438,1,0,0:0:0:0:
256,192,281530,1,0,0:0:0:0:
256,192,281623,1,8,0:0:0:0:
256,192,281716,1,0,0:0:0:0:
256,192,281808,1,8,0:0:0:0:
256,192,281901,1,8,0:0:0:0:
256,192,281993,1,0,0:0:0:0:
256,192,282086,1,8,0:0:0:0:
256,192,282179,1,0,0:0:0:0:
256,192,282271,1,8,0:0:0:0:
256,192,282364,1,0,0:0:0:0:
256,192,282456,1,0,0:0:0:0:
256,192,282549,1,12,0:0:0:0:
256,192,282734,1,0,0:0:0:0:
256,192,282827,1,0,0:0:0:0:
256,192,282919,1,8,0:0:0:0:
256,192,283105,1,0,0:0:0:0:
256,192,283290,1,8,0:0:0:0:
256,192,283475,1,8,0:0:0:0:
256,192,283568,1,8,0:0:0:0:
256,192,283660,1,0,0:0:0:0:
256,192,283845,1,0,0:0:0:0:
256,192,284030,1,8,0:0:0:0:
256,192,284092,1,0,0:0:0:0:
256,192,284154,1,0,0:0:0:0:
256,192,284216,1,8,0:0:0:0:
256,192,284401,1,0,0:0:0:0:
256,192,284586,1,8,0:0:0:0:
256,192,284679,1,8,0:0:0:0:
256,192,284771,1,0,0:0:0:0:
256,192,284864,1,0,0:0:0:0:
256,192,284956,1,8,0:0:0:0:
256,192,285142,1,0,0:0:0:0:
256,192,285327,1,0,0:0:0:0:
256,192,285512,1,8,0:0:0:0:
256,192,285605,1,0,0:0:0:0:
256,192,285697,1,8,0:0:0:0:
256,192,285790,1,8,0:0:0:0:
256,192,285882,1,0,0:0:0:0:
256,192,285975,1,8,0:0:0:0:
256,192,286068,1,8,0:0:0:0:
256,192,286160,1,8,0:0:0:0:
256,192,286253,1,0,0:0:0:0:
256,192,286345,1,0,0:0:0:0:
256,192,286438,1,8,0:0:0:0:
256,192,286530,1,0,0:0:0:0:
256,192,286623,1,8,0:0:0:0:
256,192,286716,1,0,0:0:0:0:
256,192,286808,1,0,0:0:0:0:
256,192,286901,1,0,0:0:0:0:
256,192,286993,1,12,0:0:0:0:
256,192,287179,1,0,0:0:0:0:
256,192,287271,1,0,0:0:0:0:
256,192,287364,1,8,0:0:0:0:
256,192,287549,1,8,0:0:0:0:
256,192,287734,1,4,0:0:0:0:
256,192,287919,1,8,0:0:0:0:
256,192,288012,1,0,0:0:0:0:
256,192,288105,1,8,0:0:0:0:
256,192,288197,1,8,0:0:0:0:
256,192,288290,1,0,0:0:0:0:
256,192,288382,1,0,0:0:0:0:
256,192,288475,1,12,0:0:0:0:
256,192,288660,1,8,0:0:0:0:
256,192,288845,1,0,0:0:0:0:
256,192,288938,1,8,0:0:0:0:
256,192,289123,1,8,0:0:0:0:
256,192,289308,1,8,0:0:0:0:
256,192,289493,1,8,0:0:0:0:
256,192,289586,1,0,0:0:0:0:
256,192,289771,1,0,0:0:0:0:
256,192,289956,1,8,0:0:0:0:
256,192,290142,1,0,0:0:0:0:
256,192,290234,1,8,0:0:0:0:
256,192,290327,1,8,0:0:0:0:
256,192,290419,1,0,0:0:0:0:
256,192,290512,1,8,0:0:0:0:
256,192,290605,1,0,0:0:0:0:
256,192,290697,1,8,0:0:0:0:
256,192,290790,1,8,0:0:0:0:
256,192,290882,1,0,0:0:0:0:
256,192,290975,1,8,0:0:0:0:
256,192,291068,1,8,0:0:0:0:
256,192,291253,1,8,0:0:0:0:
256,192,291438,1,0,0:0:0:0:
256,192,291623,1,8,0:0:0:0:
256,192,291808,1,0,0:0:0:0:
256,192,291901,1,8,0:0:0:0:
256,192,292086,1,8,0:0:0:0:
256,192,292271,1,8,0:0:0:0:
256,192,292456,1,0,0:0:0:0:
256,192,292549,1,8,0:0:0:0:
256,192,292734,1,0,0:0:0:0:
256,192,292919,1,8,0:0:0:0:
256,192,293105,1,0,0:0:0:0:
256,192,293197,1,8,0:0:0:0:
256,192,293382,1,0,0:0:0:0:
256,192,293475,1,0,0:0:0:0:
256,192,293660,1,8,0:0:0:0:
256,192,293753,1,0,0:0:0:0:
256,192,293845,1,8,0:0:0:0:
256,192,293938,1,8,0:0:0:0:
256,192,294030,1,0,0:0:0:0:
256,192,294123,1,8,0:0:0:0:
256,192,294216,1,0,0:0:0:0:
256,192,294308,1,0,0:0:0:0:
256,192,294401,1,12,0:0:0:0:
256,192,294586,1,8,0:0:0:0:
256,192,294771,1,0,0:0:0:0:
256,192,294864,1,8,0:0:0:0:
256,192,295049,1,8,0:0:0:0:
256,192,295234,1,8,0:0:0:0:
256,192,295419,1,8,0:0:0:0:
256,192,295512,1,0,0:0:0:0:
256,192,295697,1,0,0:0:0:0:
256,192,295882,1,8,0:0:0:0:
256,192,296068,1,8,0:0:0:0:
256,192,296160,1,0,0:0:0:0:
256,192,296253,1,8,0:0:0:0:
256,192,296345,1,0,0:0:0:0:
256,192,296438,1,0,0:0:0:0:
256,192,296530,1,8,0:0:0:0:
256,192,296623,1,0,0:0:0:0:
256,192,296716,1,8,0:0:0:0:
256,192,296808,1,8,0:0:0:0:
256,192,296901,1,0,0:0:0:0:
256,192,296993,1,8,0:0:0:0:
256,192,297179,1,8,0:0:0:0:
256,192,297364,1,0,0:0:0:0:
256,192,297549,1,8,0:0:0:0:
256,192,297734,1,8,0:0:0:0:
256,192,297827,1,0,0:0:0:0:
256,192,298012,1,8,0:0:0:0:
256,192,298197,1,8,0:0:0:0:
256,192,298382,1,0,0:0:0:0:
256,192,298475,1,8,0:0:0:0:
256,192,298660,1,8,0:0:0:0:
256,192,298845,1,12,0:0:0:0:
256,192,299030,1,0,0:0:0:0:
256,192,299123,1,8,0:0:0:0:
256,192,299308,1,0,0:0:0:0:
256,192,299401,1,8,0:0:0:0:
256,192,299586,1,8,0:0:0:0:
256,192,299679,1,8,0:0:0:0:
256,192,299771,1,0,0:0:0:0:
256,192,299833,1,0,0:0:0:0:
256,192,299895,1,0,0:0:0:0:
256,192,299956,1,8,0:0:0:0:
256,192,300049,1,8,0:0:0:0:
256,192,300142,1,0,0:0:0:0:
256,192,300234,1,0,0:0:0:0:
256,192,300327,1,8,0:0:0:0:
256,192,300512,1,8,0:0:0:0:
256,192,300697,1,0,0:0:0:0:
256,192,300790,1,8,0:0:0:0:
256,192,300975,1,8,0:0:0:0:
256,192,301160,1,8,0:0:0:0:
256,192,301345,1,8,0:0:0:0:
256,192,301438,1,0,0:0:0:0:
256,192,301623,1,0,0:0:0:0:
256,192,301808,1,8,0:0:0:0:
256,192,301994,1,8,0:0:0:0:
256,192,302086,1,0,0:0:0:0:
256,192,302179,1,8,0:0:0:0:
256,192,302271,1,0,0:0:0:0:
256,192,302364,1,0,0:0:0:0:
256,192,302457,1,0,0:0:0:0:
256,192,302549,1,8,0:0:0:0:
256,192,302642,1,8,0:0:0:0:
256,192,302734,1,0,0:0:0:0:
256,192,302827,1,8,0:0:0:0:
256,192,302920,1,8,0:0:0:0:
256,192,303105,1,8,0:0:0:0:
256,192,303290,1,0,0:0:0:0:
256,192,303475,1,8,0:0:0:0:
256,192,303660,1,0,0:0:0:0:
256,192,303753,1,8,0:0:0:0:
256,192,303938,1,8,0:0:0:0:
256,192,304123,1,8,0:0:0:0:
256,192,304308,1,0,0:0:0:0:
256,192,304401,1,8,0:0:0:0:
256,192,304586,1,0,0:0:0:0:
256,192,304771,1,8,0:0:0:0:
256,192,304957,1,0,0:0:0:0:
256,192,305049,1,8,0:0:0:0:
256,192,305234,1,0,0:0:0:0:
256,192,305327,1,0,0:0:0:0:
256,192,305512,1,8,0:0:0:0:
256,192,305605,1,0,0:0:0:0:
256,192,305697,1,8,0:0:0:0:
256,192,305790,1,8,0:0:0:0:
256,192,305882,1,0,0:0:0:0:
256,192,305975,1,8,0:0:0:0:
256,192,306068,1,0,0:0:0:0:
256,192,306160,1,0,0:0:0:0:
256,192,306253,1,12,0:0:0:0:
256,192,306438,1,8,0:0:0:0:
256,192,306623,1,0,0:0:0:0:
256,192,306716,1,8,0:0:0:0:
256,192,306901,1,8,0:0:0:0:
256,192,307086,1,8,0:0:0:0:
256,192,307271,1,8,0:0:0:0:
256,192,307364,1,0,0:0:0:0:
256,192,307549,1,0,0:0:0:0:
256,192,307734,1,8,0:0:0:0:
256,192,307920,1,8,0:0:0:0:
256,192,308012,1,0,0:0:0:0:
256,192,308105,1,8,0:0:0:0:
256,192,308197,1,8,0:0:0:0:
256,192,308290,1,8,0:0:0:0:
256,192,308382,1,0,0:0:0:0:
256,192,308475,1,8,0:0:0:0:
256,192,308568,1,8,0:0:0:0:
256,192,308660,1,0,0:0:0:0:
256,192,308753,1,0,0:0:0:0:
256,192,308845,1,8,0:0:0:0:
256,192,309031,1,0,0:0:0:0:
256,192,309216,1,8,0:0:0:0:
256,192,309401,1,8,0:0:0:0:
256,192,309586,1,8,0:0:0:0:
256,192,309679,1,0,0:0:0:0:
256,192,309864,1,8,0:0:0:0:
256,192,310049,1,8,0:0:0:0:
256,192,310234,1,0,0:0:0:0:
256,192,310327,1,8,0:0:0:0:
256,192,310512,1,8,0:0:0:0:
256,192,310697,1,12,0:0:0:0:
256,192,310882,1,0,0:0:0:0:
256,192,310975,1,8,0:0:0:0:
256,192,311160,1,0,0:0:0:0:
256,192,311253,1,8,0:0:0:0:
256,192,311438,1,8,0:0:0:0:
256,192,311531,1,8,0:0:0:0:
256,192,311623,1,0,0:0:0:0:
256,192,311685,1,0,0:0:0:0:
256,192,311747,1,0,0:0:0:0:
256,192,311808,1,8,0:0:0:0:
256,192,311901,1,8,0:0:0:0:
256,192,311994,1,0,0:0:0:0:
256,192,312086,1,0,0:0:0:0:
256,192,312179,1,8,0:0:0:0:
256,192,312364,1,8,0:0:0:0:
256,192,312549,1,8,0:0:0:0:
256,192,312642,1,0,0:0:0:0:
256,192,312827,1,0,0:0:0:0:
256,192,312919,1,8,0:0:0:0:
256,192,313012,1,0,0:0:0:0:
256,192,313197,1,0,0:0:0:0:
256,192,313290,1,8,0:0:0:0:
256,192,313475,1,8,0:0:0:0:
256,192,313660,1,4,0:0:0:0:
