osu file format v14

[General]
AudioFilename: audio.mp3
AudioLeadIn: 0
PreviewTime: 241055
Countdown: 0
SampleSet: Normal
StackLeniency: 0.5
Mode: 0
LetterboxInBreaks: 0
WidescreenStoryboard: 1

[Editor]
Bookmarks: 26241,49944,61796,73648,85500,97352,109204,121055,132907,144759,156611,168463,181796,193648,205500,217352,229204,241055,252907,264759,276611,288463,288648,300315
DistanceSpacing: 0.2
BeatDivisor: 4
GridSize: 16
TimelineZoom: 2.799999

[Metadata]
Title:Crazy Hot
TitleUnicode:Crazy Hot
Artist:Sakaue Nachi
ArtistUnicode:坂上なち
Creator:-Syncro
Version:Collab Extra
Source:妖精大戦争 ~ 東方三月精
Tags:corsace 2022 co22 grandfinals gf dt2 english zun touhou electronic paradogi gygy satellite gfw TOHO EURO FLASH Vol. 2 magus night TH12.8 great fairy wars Marisa Kirisame dj command eurobeat NJK record 魔女達の舞踏会 Magus The Witches' Ball ~
BeatmapID:3805692
BeatmapSetID:1842375

[Difficulty]
HPDrainRate:5.5
CircleSize:4.7
OverallDifficulty:9
ApproachRate:9.2
SliderMultiplier:2.8
SliderTickRate:1

[Events]
//Background and Video events
0,0,"710197-min (1).png",0,0
//Break Periods
//Storyboard Layer 0 (Background)
//Storyboard Layer 1 (Fail)
//Storyboard Layer 2 (Pass)
//Storyboard Layer 3 (Foreground)
//Storyboard Layer 4 (Overlay)
//Storyboard Sound Samples

[TimingPoints]
1056,370.37037037037,4,1,2,60,1,0
2537,-133.333333333333,4,1,2,60,0,0
8463,-100,4,1,1,65,0,0
26241,-181.818181818181,4,1,1,60,0,0
32167,-133.333333333333,4,1,1,60,0,0
61796,-83.3333333333333,4,1,1,70,0,0
85500,-100,4,1,1,65,0,0
97352,-133.333333333333,4,1,1,60,0,0
132907,-83.3333333333333,4,1,1,70,0,0
156611,-83.3333333333333,4,1,1,65,0,0
171055,-100,4,1,1,65,0,0
180870,-100,4,1,2,65,0,0
181796,-133.333333333333,4,1,2,65,0,0
205500,-100,4,1,1,60,0,0
216611,-100,4,1,2,70,0,0
217352,-133.333333333333,4,1,1,60,0,0
223278,-100,4,1,1,60,0,0
226241,-133.333333333333,4,1,1,60,0,0
229204,-181.818181818181,4,1,2,80,0,0
241055,-66.6666666666667,4,1,1,70,0,0
252907,-83.3333333333333,4,1,1,70,0,0
264018,-83.3333333333333,4,1,1,85,0,0
264667,-58.8235294117647,4,1,1,85,0,0
264759,-66.6666666666667,4,1,1,75,0,0
276611,-66.6666666666667,4,1,1,75,0,0
288463,-66.6666666666667,4,1,1,65,0,0
312907,-83.3333333333333,4,1,1,65,0,0
313185,-100,4,1,1,65,0,0
313741,-100,4,1,2,25,0,0

[Colours]
Combo1 : 199,199,199
Combo2 : 243,216,120
Combo3 : 126,126,126
Combo4 : 231,152,46

[HitObjects]
26,110,1056,6,0,P|62:85|132:88,1,70
164,20,1241,1,2,0:0:0:0:
180,51,1333,1,2,0:0:0:0:
206,66,1426,1,10,0:0:0:0:
85,172,1611,1,2,0:0:0:0:
90,182,1704,1,2,0:0:0:0:
97,190,1796,5,10,0:0:0:0:
124,181,1889,1,2,0:0:0:0:
156,182,1981,1,2,0:0:0:0:
184,194,2074,1,2,0:0:0:0:
206,221,2167,5,10,0:0:0:0:
246,278,2259,1,2,0:0:0:0:
316,283,2352,1,2,0:0:0:0:
366,232,2444,1,2,0:0:0:0:
348,165,2537,6,0,B|304:169|304:169|375:339,1,210.000008010865,4|8,0:0|0:0,0:0:0:0:
438,184,3093,1,0,0:0:0:0:
207,72,3278,6,0,L|174:303,1,210.000008010865,8|8,0:0|0:0,0:0:0:0:
78,212,3833,1,2,0:0:0:0:
281,54,4018,6,0,P|328:38|367:26,1,52.5000020027161,8|0,0:0|0:0,0:0:0:0:
298,129,4204,2,0,P|345:113|384:101,1,52.5000020027161,8|0,0:0|0:0,0:0:0:0:
410,20,4389,1,0,0:0:0:0:
462,109,4574,1,2,0:0:0:0:
462,109,4667,1,0,0:0:0:0:
462,109,4759,1,8,0:0:0:0:
345,196,4944,1,0,0:0:0:0:
376,212,5037,1,0,0:0:0:0:
388,245,5130,1,8,0:0:0:0:
465,235,5315,1,2,0:0:0:0:
285,300,5500,6,0,P|234:275|184:275,1,105.000004005432,8|0,0:0|0:0,0:0:0:0:
18,352,5870,1,8,0:0:0:0:
85,245,6055,1,0,0:0:0:0:
168,380,6241,6,0,P|153:322|124:206,2,157.500006008148,8|2|2,0:0|0:0|0:0,0:0:0:0:
55,166,6981,6,0,P|-4:152|-32:150,1,52.5000020027161,8|0,0:0|0:0,0:0:0:0:
89,85,7167,1,0,0:0:0:0:
103,90,7259,2,0,P|182:67|227:54,1,105.000004005432,8|0,0:0|0:0,0:0:0:0:
225,66,7537,1,0,0:0:0:0:
266,87,7630,1,0,0:0:0:0:
269,134,7722,1,8,0:0:0:0:
388,24,7907,1,2,0:0:0:0:
343,56,8000,1,2,0:0:0:0:
348,96,8093,6,0,P|395:165|496:157,1,157.500006008148,10|0,0:0|0:0,0:0:0:0:
469,159,8463,6,0,P|432:185|427:250,1,70,6|0,0:0|0:0,0:0:0:0:
466,292,8648,1,0,0:0:0:0:
449,318,8741,1,0,0:0:0:0:
423,329,8833,1,8,0:0:0:0:
395,328,8926,1,0,0:0:0:0:
373,308,9018,1,0,0:0:0:0:
337,300,9111,1,0,0:0:0:0:
301,318,9204,6,0,P|331:394|348:434,1,70,2|0,0:0|0:0,0:0:0:0:
201,291,9389,1,0,0:0:0:0:
227,273,9482,1,0,0:0:0:0:
238,248,9574,1,8,0:0:0:0:
237,220,9667,1,0,0:0:0:0:
217,198,9759,1,0,0:0:0:0:
209,162,9852,1,0,0:0:0:0:
237,126,9944,6,0,P|255:82|230:31,1,70,2|0,0:0|0:0,0:0:0:0:
155,44,10130,2,0,P|137:88|162:139,1,70
306,170,10315,1,8,0:0:0:0:
341,138,10407,1,0,0:0:0:0:
393,140,10500,1,0,0:0:0:0:
420,179,10593,1,0,0:0:0:0:
421,226,10685,6,0,P|354:255|295:298,1,140,2|0,0:0|0:0,0:0:0:0:
190,285,10963,1,0,0:0:0:0:
171,260,11055,2,0,P|116:235|57:228,1,70,8|0,0:0|0:0,0:0:0:0:
47,172,11241,1,0,0:0:0:0:
65,150,11333,1,0,0:0:0:0:
67,126,11426,5,6,0:0:0:0:
46,298,11611,1,2,0:0:0:0:
166,125,11796,1,8,0:0:0:0:
1,29,11981,1,0,0:0:0:0:
238,36,12167,6,0,P|193:178|168:253,2,210,6|6|2,0:0|0:0|0:0,0:0:0:0:
310,20,12815,1,0,0:0:0:0:
310,20,12907,5,4,0:0:0:0:
129,117,13093,1,2,0:0:0:0:
377,78,13278,1,8,0:0:0:0:
154,12,13463,1,2,0:0:0:0:
310,159,13648,2,0,P|335:259|346:319,1,140,8|2,0:0|0:0,0:0:0:0:
34,384,14018,1,10,0:0:0:0:
1,346,14111,1,0,0:0:0:0:
25,304,14204,1,0,0:0:0:0:
74,314,14296,1,0,0:0:0:0:
78,363,14389,5,4,0:0:0:0:
66,218,14574,2,0,P|14:198|-29:184,1,70,2|0,0:0|0:0,0:0:0:0:
152,147,14759,1,8,0:0:0:0:
159,181,14852,2,0,P|243:162|284:149,1,70,0|2,0:0|0:3,0:0:0:0:
65,11,15037,1,0,0:0:0:0:
50,29,15130,1,2,0:0:0:0:
37,48,15222,2,0,P|25:109|12:181,1,70
135,60,15407,1,0,0:0:0:0:
156,49,15500,1,8,0:0:0:0:
258,81,15685,1,2,0:0:0:0:
385,46,15870,6,0,P|404:160|427:243,1,140,2|0,0:0|0:0,0:0:0:0:
430,250,16148,1,0,0:0:0:0:
452,253,16241,1,8,0:0:0:0:
488,273,16333,1,0,0:0:0:0:
496,313,16426,1,2,0:3:0:0:
479,351,16518,1,0,0:0:0:0:
434,350,16611,5,0,0:0:0:0:
386,312,16704,1,0,0:0:0:0:
326,317,16796,1,2,0:0:0:0:
282,361,16889,1,0,0:0:0:0:
219,382,16981,6,0,P|157:351|121:209,1,210,10|0,0:0|0:0,0:0:0:0:
170,156,17352,6,0,P|216:184|200:243,1,70,6|0,0:0|0:0,0:0:0:0:
301,178,17537,2,0,P|299:231|240:247,1,70,2|0,0:0|0:0,0:0:0:0:
394,169,17722,1,8,0:0:0:0:
406,150,17815,2,0,P|491:124|517:120,1,70,0|2,0:0|0:3,0:0:0:0:
354,48,18000,1,0,0:0:0:0:
349,61,18093,1,2,0:0:0:0:
343,73,18185,2,0,P|258:99|232:103,1,70,0|2,0:0|0:3,0:0:0:0:
171,31,18370,1,0,0:0:0:0:
141,36,18463,1,8,0:0:0:0:
40,93,18648,1,2,0:0:0:0:
99,232,18833,6,0,P|201:196|266:185,1,140,2|0,0:0|0:0,0:0:0:0:
258,260,19111,2,0,P|156:296|91:307,1,140,2|0,0:0|0:0,0:0:0:0:
48,287,19389,1,2,0:0:0:0:
0,36,19574,5,4,0:0:0:0:
57,5,19667,1,0,0:0:0:0:
121,12,19759,1,2,0:3:0:0:
160,51,19852,1,0,0:0:0:0:
186,89,19944,1,8,0:0:0:0:
228,101,20037,1,0,0:0:0:0:
254,88,20130,1,2,0:3:0:0:
263,75,20222,1,0,0:0:0:0:
262,60,20315,6,0,P|244:9|199:-6,1,70,6|0,0:0|0:0,0:0:0:0:
302,146,20500,2,0,P|337:104|327:58,1,70
414,15,20685,1,8,0:0:0:0:
434,13,20778,2,0,P|455:76|467:113,1,70,2|0,0:0|0:0,0:0:0:0:
402,146,20963,6,0,P|377:256|376:278,1,70,0|2,0:0|0:3,0:0:0:0:
479,178,21148,2,0,P|454:288|453:310,1,70,0|2,0:0|0:0,0:0:0:0:
331,281,21333,1,0,0:0:0:0:
314,282,21426,2,0,P|245:300|199:317,1,70,8|0,0:0|0:0,0:0:0:0:
383,348,21611,2,0,B|416:338|522:303|450:330,1,70,2|0,0:0|0:0,0:0:0:0:
289,202,21796,6,0,P|205:224|93:243,1,140,6|2,0:0|0:3,0:0:0:0:
81,229,22074,1,0,0:0:0:0:
71,222,22167,1,8,0:0:0:0:
72,185,22259,1,0,0:0:0:0:
115,156,22352,1,2,0:3:0:0:
171,153,22444,1,0,0:0:0:0:
220,130,22537,1,2,0:0:0:0:
240,96,22630,1,0,0:0:0:0:
234,65,22722,1,2,0:0:0:0:
217,47,22815,1,0,0:0:0:0:
204,45,22907,6,0,P|180:135|282:232,1,210,10|0,0:0|0:0,0:0:0:0:
314,190,23278,6,0,P|361:174|418:212,1,70,6|0,0:0|0:0,0:0:0:0:
409,95,23463,2,0,P|446:127|441:196,1,70,2|0,0:0|0:0,0:0:0:0:
320,89,23648,1,8,0:0:0:0:
308,74,23741,2,0,P|299:20|286:-24,1,70
175,125,23926,6,0,P|229:134|273:147,1,70,0|2,0:0|0:3,0:0:0:0:
178,39,24111,2,0,P|124:30|80:17,1,70,0|2,0:0|0:0,0:0:0:0:
148,204,24296,1,0,0:0:0:0:
169,227,24389,2,0,P|223:236|267:249,1,70,8|0,0:0|0:0,0:0:0:0:
71,100,24574,2,0,P|17:91|-27:78,1,70,2|0,0:0|0:0,0:0:0:0:
71,306,24759,6,0,P|201:330|265:350,1,140,6|0,0:0|0:0,0:0:0:0:
301,311,25037,2,0,P|431:287|495:267,1,140,2|0,0:0|0:0,0:0:0:0:
480,217,25315,1,2,0:0:0:0:
479,16,25500,5,2,0:0:0:0:
416,2,25593,1,0,0:0:0:0:
370,40,25685,1,0,0:0:0:0:
368,92,25778,1,0,0:0:0:0:
393,128,25870,1,0,0:0:0:0:
386,165,25963,1,2,0:0:0:0:
369,185,26055,1,0,0:0:0:0:
350,194,26148,1,0,0:0:0:0:
328,190,26241,6,0,P|294:166|242:225,1,115.50000352478,4|0,0:0|0:0,0:0:0:0:
238,222,26611,1,8,0:0:0:0:
263,353,26796,1,0,0:0:0:0:
190,381,26981,2,0,P|140:364|136:302,1,115.50000352478,2|0,0:3|0:0,0:0:0:0:
121,293,27352,1,8,0:0:0:0:
21,221,27537,1,0,0:0:0:0:
75,150,27722,6,0,B|63:96|63:96|61:93|61:93|46:28,1,115.50000352478
58,21,28093,1,8,0:0:0:0:
175,77,28278,1,0,0:0:0:0:
170,94,28370,1,0,0:0:0:0:
164,116,28463,1,2,0:3:0:0:
249,46,28648,1,0,0:0:0:0:
386,86,28833,2,0,P|321:84|305:121,1,77.0000023498536,8|0,0:0|0:0,0:0:0:0:
155,193,29204,6,0,B|177:222|176:246|161:254|153:278|184:311,1,115.50000352478
172,326,29574,1,8,0:0:0:0:
275,381,29759,1,0,0:0:0:0:
338,338,29944,2,0,P|337:294|295:270,1,77.0000023498536,2|0,0:3|0:0,0:0:0:0:
426,168,30315,1,8,0:0:0:0:
488,221,30500,1,2,0:3:0:0:
474,230,30593,1,0,0:0:0:0:
464,244,30685,6,0,P|472:295|507:306,1,77.0000023498536
336,189,31055,2,0,L|317:92,1,77.0000023498536,8|0,0:0|0:0,0:0:0:0:
358,47,31333,1,0,0:0:0:0:
365,37,31426,2,0,L|379:-2,2,38.5000011749268,2|0|0,0:3|0:0|0:0,0:0:0:0:
256,225,31796,1,8,0:0:0:0:
203,9,31981,1,0,0:0:0:0:
8,22,32167,6,0,P|-6:96|65:117,1,157.500006008148,4|0,0:0|0:0,0:0:0:0:
78,108,32537,1,8,0:0:0:0:
240,77,32722,1,0,0:0:0:0:
118,220,32907,2,0,P|173:167|161:135,1,105.000004005432,2|0,0:3|0:0,0:0:0:0:
24,248,33278,1,8,0:0:0:0:
88,316,33463,1,0,0:0:0:0:
299,284,33648,6,0,B|245:291|245:291|240:289|240:289|186:297,1,105.000004005432
360,176,34018,2,0,L|371:229,3,52.5000020027161,8|0|0|0,0:0|0:0|0:0|0:0,0:0:0:0:
372,253,34389,1,2,0:3:0:0:
412,116,34574,1,0,0:0:0:0:
312,2,34759,1,8,0:0:0:0:
231,30,34944,1,0,0:0:0:0:
217,24,35037,1,0,0:0:0:0:
201,26,35130,6,0,P|158:61|177:100,1,105.000004005432
383,42,35500,2,0,L|399:-22,1,52.5000020027161,8|0,0:0|0:0,0:0:0:0:
252,106,35685,1,0,0:0:0:0:
136,161,35870,2,0,B|122:208|137:237|165:228|188:255|172:316,1,157.500006008148,2|0,0:3|0:0,0:0:0:0:
168,329,36241,1,8,0:0:0:0:
212,177,36426,1,0,0:0:0:0:
92,103,36611,6,0,P|38:70|-4:99,1,105.000004005432,4|0,0:0|0:0,0:0:0:0:
222,7,36981,1,8,0:0:0:0:
324,50,37167,1,0,0:0:0:0:
488,8,37352,5,2,0:3:0:0:
486,18,37444,1,0,0:0:0:0:
484,28,37537,1,2,0:3:0:0:
482,38,37630,1,0,0:0:0:0:
456,66,37722,5,10,0:3:0:0:
469,101,37815,1,0,0:0:0:0:
470,142,37907,1,2,0:3:0:0:
458,178,38000,1,0,0:0:0:0:
427,206,38093,6,0,P|362:215|338:164,1,105.000004005432,4|0,0:0|0:0,0:0:0:0:
335,168,38370,1,0,0:0:0:0:
341,156,38463,1,8,0:0:0:0:
425,298,38648,1,0,0:0:0:0:
379,375,38833,2,0,P|316:365|309:313,1,105.000004005432,2|0,0:3|0:0,0:0:0:0:
247,171,39204,1,8,0:0:0:0:
175,208,39389,1,0,0:0:0:0:
31,194,39574,6,0,B|14:121|14:121|19:113|19:113|2:24,1,157.500006008148
5,20,39944,1,8,0:0:0:0:
114,117,40130,1,0,0:0:0:0:
12,268,40315,2,0,L|22:322,1,52.5000020027161,2|0,0:3|0:0,0:0:0:0:
101,239,40500,2,0,L|89:295,1,52.5000020027161
239,377,40685,2,0,P|200:318|161:329,1,105.000004005432,8|0,0:0|0:0,0:0:0:0:
156,324,40963,1,0,0:0:0:0:
158,340,41055,5,0,0:0:0:0:
325,365,41241,1,0,0:0:0:0:
429,310,41426,2,0,P|450:259|410:212,1,105.000004005432,8|0,0:0|0:0,0:0:0:0:
292,64,41796,1,2,0:3:0:0:
237,149,41981,1,0,0:0:0:0:
388,125,42167,2,0,L|455:113,1,52.5000020027161,8|0,0:0|0:0,0:0:0:0:
186,63,42352,2,0,L|125:53,1,52.5000020027161,2|0,0:3|0:0,0:0:0:0:
75,0,42537,6,0,P|3:47|59:115,1,157.500006008148
34,113,42907,1,8,0:0:0:0:
134,219,43093,1,0,0:0:0:0:
82,305,43278,2,0,P|29:292|19:245,1,105.000004005432,2|0,0:3|0:0,0:0:0:0:
206,176,43648,1,8,0:0:0:0:
250,175,43741,1,0,0:0:0:0:
281,208,43833,1,0,0:0:0:0:
282,254,43926,1,0,0:0:0:0:
253,287,44018,6,0,P|241:350|319:370,1,157.500006008148,4|0,0:0|0:0,0:0:0:0:
334,366,44389,1,8,0:0:0:0:
166,288,44574,1,0,0:0:0:0:
111,219,44759,2,0,L|132:112,1,105.000004005432,2|0,0:3|0:0,0:0:0:0:
122,103,45037,1,0,0:0:0:0:
113,90,45130,1,8,0:0:0:0:
263,2,45315,1,0,0:0:0:0:
311,144,45500,6,0,P|344:101|315:55,1,105.000004005432
216,166,45870,1,8,0:0:0:0:
247,317,46055,1,0,0:0:0:0:
395,247,46241,1,2,0:3:0:0:
417,175,46426,1,0,0:0:0:0:
174,249,46611,2,0,P|126:288|140:334,1,105.000004005432,8|0,0:0|0:0,0:0:0:0:
132,340,46889,1,0,0:0:0:0:
130,356,46981,5,0,0:0:0:0:
38,225,47167,1,0,0:0:0:0:
8,132,47352,2,0,P|52:70|82:72,1,105.000004005432,8|0,0:0|0:0,0:0:0:0:
208,9,47722,2,0,P|267:24|271:114,1,157.500006008148,2|0,0:3|0:0,0:0:0:0:
265,128,48093,1,8,0:0:0:0:
388,4,48278,1,0,0:0:0:0:
402,7,48370,1,0,0:0:0:0:
413,16,48463,2,0,P|465:60|505:47,1,105.000004005432,4|0,0:0|0:0,0:0:0:0:
382,133,48833,2,0,P|397:183|393:199,1,52.5000020027161,8|0,0:0|0:0,0:0:0:0:
375,253,49018,1,0,0:0:0:0:
232,369,49204,5,2,0:3:0:0:
203,346,49296,1,0,0:0:0:0:
196,309,49389,1,2,0:3:0:0:
216,272,49481,1,0,0:0:0:0:
251,247,49574,1,10,0:3:0:0:
274,210,49667,1,0,0:0:0:0:
283,167,49759,1,2,0:3:0:0:
265,128,49852,1,0,0:0:0:0:
231,110,49944,5,4,0:0:0:0:
157,161,50130,1,0,0:0:0:0:
80,90,50315,2,0,P|151:38|182:51,1,105.000004005432,8|0,0:0|0:0,0:0:0:0:
327,72,50685,1,2,0:3:0:0:
286,1,50870,1,0,0:0:0:0:
435,39,51055,2,0,P|409:117|395:164,1,105.000004005432,8|0,0:0|0:0,0:0:0:0:
157,161,51426,6,0,P|244:125|341:184,1,210.000008010865,0|8,0:0|0:0,0:0:0:0:
470,209,51981,1,0,0:0:0:0:
400,292,52167,1,2,0:3:0:0:
385,303,52259,1,0,0:0:0:0:
370,303,52352,1,0,0:0:0:0:
295,261,52537,1,8,0:0:0:0:
307,364,52722,1,0,0:0:0:0:
307,364,52815,1,0,0:0:0:0:
307,364,52907,5,0,0:0:0:0:
359,205,53093,1,0,0:0:0:0:
212,322,53278,5,8,0:0:0:0:
171,226,53463,1,0,0:0:0:0:
92,328,53648,2,0,P|44:352|6:378,1,52.5000020027161,2|0,0:3|0:0,0:0:0:0:
89,251,53833,1,0,0:0:0:0:
166,377,54018,5,8,0:0:0:0:
243,212,54204,2,0,P|251:132|254:119,1,52.5000020027161
61,25,54389,6,0,B|70:69|122:62|125:150,1,105.000004005432
370,222,54759,6,0,B|327:207|307:256|229:214,1,105.000004005432,8|0,0:0|0:0,0:0:0:0:
51,384,55130,6,0,B|84:354|52:312|127:266,1,105.000004005432,10|2,0:3|0:3,0:0:0:0:
201,88,55500,1,10,0:3:0:0:
218,82,55593,1,0,0:0:0:0:
235,78,55685,1,2,0:3:0:0:
252,74,55778,1,0,0:0:0:0:
267,72,55870,5,4,0:0:0:0:
363,97,56055,1,0,0:0:0:0:
230,169,56241,1,8,0:0:0:0:
409,154,56426,1,0,0:0:0:0:
286,268,56611,2,0,P|271:331|269:362,1,52.5000020027161,2|0,0:3|0:0,0:0:0:0:
329,192,56796,1,0,0:0:0:0:
380,314,56981,5,8,0:0:0:0:
202,371,57167,2,0,P|179:278|171:226,1,105.000004005432
275,102,57537,1,0,0:0:0:0:
383,297,57722,6,0,P|447:270|490:256,1,105.000004005432,8|0,0:0|0:0,0:0:0:0:
489,194,58000,1,0,0:0:0:0:
493,175,58093,1,2,0:3:0:0:
428,96,58278,1,0,0:0:0:0:
402,120,58370,1,0,0:0:0:0:
367,117,58463,1,8,0:0:0:0:
501,51,58648,1,0,0:0:0:0:
352,205,58833,6,0,P|252:177|172:175,1,157.500006008148
136,202,59204,1,8,0:0:0:0:
165,68,59389,2,0,P|207:122|198:186,1,105.000004005432,0|2,0:0|0:3,0:0:0:0:
58,151,59759,1,0,0:0:0:0:
96,318,59944,2,0,P|122:239|146:217,1,105.000004005432,8|0,0:0|0:0,0:0:0:0:
270,299,60315,5,2,0:3:0:0:
159,370,60500,1,2,0:3:0:0:
330,358,60685,5,2,0:3:0:0:
228,210,60870,1,2,0:3:0:0:
445,162,61055,5,12,0:0:0:0:
445,162,61426,1,2,0:3:0:0:
418,137,61518,1,0,0:0:0:0:
381,126,61611,1,2,0:3:0:0:
332,133,61704,1,0,0:0:0:0:
281,188,61796,6,0,P|292:285|362:295,1,167.999994873047,6|0,0:0|0:0,0:0:0:0:
418,274,62074,1,0,0:0:0:0:
411,256,62167,1,8,0:0:0:0:
273,360,62352,1,2,0:3:0:0:
113,384,62537,2,0,P|181:298|228:331,1,167.999994873047,2|0,0:0|0:0,0:0:0:0:
273,360,62815,1,0,0:0:0:0:
270,371,62907,1,8,0:0:0:0:
53,266,63093,2,0,L|33:178,1,83.9999974365235
111,12,63278,6,0,L|102:60,2,41.9999987182618,2|0|0,0:0|0:0|0:0,0:0:0:0:
97,82,63463,1,0,0:0:0:0:
176,105,63648,1,8,0:0:0:0:
5,5,63833,1,2,0:3:0:0:
220,39,64018,1,0,0:0:0:0:
258,199,64204,1,2,0:0:0:0:
310,7,64389,6,0,L|285:100,1,83.9999974365235,8|0,0:0|0:0,0:0:0:0:
214,114,64574,2,0,L|239:220,1,83.9999974365235,2|0,0:0|0:0,0:0:0:0:
199,376,64759,6,0,P|245:285|302:288,1,167.999994873047,6|2,0:0|0:3,0:0:0:0:
334,349,65037,1,0,0:0:0:0:
331,360,65130,1,10,0:0:0:0:
472,248,65315,1,2,0:3:0:0:
342,75,65500,2,0,L|381:259,1,167.999994873047,2|0,0:0|0:0,0:0:0:0:
415,309,65778,1,0,0:0:0:0:
413,319,65870,1,10,0:0:0:0:
458,176,66055,2,0,B|483:170|501:179|501:179|485:162|448:172,1,83.9999974365235
258,199,66241,5,2,0:3:0:0:
190,227,66333,1,0,0:0:0:0:
136,226,66426,1,2,0:3:0:0:
99,199,66518,1,0,0:0:0:0:
78,144,66611,5,10,0:3:0:0:
88,98,66704,1,0,0:0:0:0:
112,72,66796,1,2,0:3:0:0:
144,61,66889,1,0,0:0:0:0:
197,55,66981,5,2,0:3:0:0:
208,60,67074,1,0,0:0:0:0:
234,54,67167,5,2,0:0:0:0:
245,49,67260,1,0,0:0:0:0:
278,61,67352,6,0,L|261:153,1,83.9999974365235,10|0,0:3|0:0,0:0:0:0:
291,207,67537,2,0,L|310:316,1,83.9999974365235,2|0,0:0|0:0,0:0:0:0:
162,380,67722,6,0,B|147:355|103:352|103:352|152:290|259:291|277:414,1,251.999992309571,6|0,0:0|0:0,0:0:0:0:
330,357,68093,1,8,0:0:0:0:
205,228,68278,1,2,0:3:0:0:
285,23,68463,2,0,L|265:135,1,83.9999974365235
66,249,68648,1,2,0:0:0:0:
58,227,68741,1,0,0:0:0:0:
52,205,68833,2,0,B|56:176|56:176|201:143,1,167.999994873047,8|0,0:0|0:0,0:0:0:0:
362,83,69204,6,0,L|429:109,2,41.9999987182618,2|0|0,0:0|0:0|0:0,0:0:0:0:
429,108,69389,1,0,0:0:0:0:
296,171,69574,1,8,0:0:0:0:
206,47,69759,2,0,L|99:70,1,83.9999974365235,2|0,0:0|0:0,0:0:0:0:
14,106,69944,2,0,P|-9:70|92:27,1,167.999994873047
270,105,70315,2,0,P|278:195|280:227,1,83.9999974365235,8|0,0:0|0:0,0:0:0:0:
318,243,70500,2,0,P|299:359|299:375,1,83.9999974365235,2|0,0:0|0:0,0:0:0:0:
321,45,70685,5,2,0:0:0:0:
307,28,70778,1,0,0:0:0:0:
280,14,70870,1,2,0:3:0:0:
240,14,70963,1,0,0:0:0:0:
192,44,71055,5,10,0:0:0:0:
176,66,71148,1,0,0:0:0:0:
176,102,71241,1,2,0:3:0:0:
197,137,71333,1,0,0:0:0:0:
247,163,71426,5,2,0:0:0:0:
284,165,71518,1,0,0:0:0:0:
324,140,71611,1,2,0:3:0:0:
344,90,71704,1,0,0:0:0:0:
393,60,71796,1,10,0:0:0:0:
459,66,71889,1,0,0:0:0:0:
504,126,71981,1,2,0:3:0:0:
490,199,72074,1,0,0:0:0:0:
419,225,72167,6,0,L|406:134,1,83.9999974365235,6|0,0:0|0:0,0:0:0:0:
371,76,72352,2,0,L|385:29,2,41.9999987182618
373,2,72537,1,8,0:0:0:0:
333,230,72722,1,2,0:3:0:0:
214,5,72907,5,6,0:0:0:0:
207,40,73000,1,0,0:0:0:0:
199,74,73093,2,0,L|182:175,1,83.9999974365235
129,212,73278,2,0,L|144:318,1,83.9999974365235,10|0,0:3|0:0,0:0:0:0:
177,384,73463,5,2,0:3:0:0:
182,368,73555,1,0,0:0:0:0:
190,354,73648,6,0,B|223:353|253:369|253:369|310:325|274:231,1,167.999994873047,6|0,0:0|0:0,0:0:0:0:
226,228,73926,1,0,0:0:0:0:
204,245,74018,1,8,0:0:0:0:
371,312,74204,2,0,P|444:289|499:277,1,83.9999974365235,2|0,0:3|0:0,0:0:0:0:
303,188,74389,5,2,0:0:0:0:
370,86,74574,1,0,0:0:0:0:
423,103,74667,1,0,0:0:0:0:
431,158,74759,1,8,0:0:0:0:
383,232,74944,1,0,0:0:0:0:
287,9,75130,6,0,L|237:-3,2,41.9999987182618,2|0|0,0:0|0:0|0:0,0:0:0:0:
390,4,75315,2,0,P|373:67|364:119,1,83.9999974365235
303,188,75500,5,8,0:0:0:0:
203,80,75685,1,2,0:3:0:0:
156,92,75778,1,0,0:0:0:0:
132,130,75870,1,0,0:0:0:0:
69,307,76055,5,0,0:0:0:0:
135,297,76148,1,0,0:0:0:0:
171,353,76241,1,8,0:0:0:0:
188,349,76333,1,0,0:0:0:0:
200,331,76426,1,0,0:0:0:0:
7,224,76611,6,0,B|43:201|43:201|219:243,1,167.999994873047,6|2,0:0|0:3,0:0:0:0:
245,248,76889,1,0,0:0:0:0:
268,253,76981,2,0,B|389:282|389:282|425:259,1,167.999994873047,10|2,0:0|0:3,0:0:0:0:
482,194,77259,1,0,0:0:0:0:
451,182,77352,1,2,0:0:0:0:
488,325,77537,1,2,0:3:0:0:
333,108,77722,6,0,P|356:170|403:178,1,83.9999974365235,10|0,0:0|0:0,0:0:0:0:
456,105,77907,1,2,0:3:0:0:
346,13,78093,5,2,0:0:0:0:
285,7,78185,1,0,0:0:0:0:
245,36,78278,1,0,0:0:0:0:
239,78,78370,1,0,0:0:0:0:
233,146,78463,5,10,0:0:0:0:
170,169,78555,1,0,0:0:0:0:
118,151,78648,1,2,0:0:0:0:
96,112,78741,1,0,0:0:0:0:
112,79,78833,5,2,0:3:0:0:
123,66,78926,1,0,0:0:0:0:
56,40,79018,5,2,0:3:0:0:
59,23,79111,1,0,0:0:0:0:
5,47,79204,6,0,P|29:143|40:198,1,83.9999974365235,10|0,0:3|0:3,0:3:0:0:
40,205,79389,2,0,P|64:301|75:356,1,83.9999974365235,2|0,0:3|0:3,0:3:0:0:
274,304,79574,6,0,B|279:265|244:221|244:221|211:261|125:273,1,167.999994873047,6|0,0:0|0:0,0:0:0:0:
157,363,79852,1,0,0:0:0:0:
183,355,79944,1,8,0:0:0:0:
124,199,80130,1,2,0:3:0:0:
279,152,80315,6,0,P|317:137|406:120,1,83.9999974365235
451,78,80500,1,2,0:0:0:0:
477,95,80593,1,0,0:0:0:0:
481,127,80685,1,8,0:0:0:0:
411,209,80870,1,0,0:0:0:0:
487,272,81055,6,0,P|504:315|511:326,2,41.9999987182618,2|0|0,0:0|0:0|0:0,0:0:0:0:
389,288,81241,2,0,P|410:235|402:177,1,83.9999974365235
474,378,81426,1,8,0:0:0:0:
309,384,81611,6,0,P|247:319|261:217,1,167.999994873047,2|0,0:0|0:0,0:0:0:0:
298,187,81889,1,0,0:0:0:0:
318,177,81981,1,0,0:0:0:0:
266,87,82167,5,8,0:0:0:0:
410,208,82352,1,0,0:0:0:0:
223,157,82537,5,6,0:0:0:0:
181,173,82630,1,0,0:0:0:0:
135,157,82722,1,2,0:3:0:0:
120,103,82815,1,0,0:0:0:0:
123,34,82907,5,10,0:0:0:0:
59,6,83000,1,0,0:0:0:0:
0,39,83093,1,2,0:3:0:0:
6,108,83185,1,0,0:0:0:0:
67,145,83278,5,2,0:0:0:0:
91,186,83370,1,0,0:0:0:0:
90,230,83463,1,0,0:0:0:0:
67,267,83555,1,0,0:0:0:0:
10,312,83648,5,10,0:0:0:0:
88,298,83741,1,0,0:0:0:0:
164,277,83833,1,0,0:0:0:0:
238,257,83926,1,0,0:0:0:0:
312,231,84018,6,0,P|400:198|439:187,1,83.9999974365235,4|0,0:0|0:0,0:0:0:0:
179,176,84204,2,0,P|91:209|52:220,1,83.9999974365235,2|0,0:0|0:0,0:0:0:0:
281,72,84389,1,8,0:0:0:0:
119,29,84574,1,2,0:0:0:0:
363,41,84759,6,0,P|360:121|331:140,1,83.9999974365235,2|0,0:3|0:0,0:0:0:0:
210,52,84944,1,2,0:3:0:0:
214,38,85037,2,0,P|284:0|315:16,1,83.9999974365235,0|10,0:0|0:3,0:0:0:0:
297,168,85222,1,0,0:0:0:0:
283,181,85315,2,0,P|215:138|213:103,1,83.9999974365235,2|0,0:3|0:0,0:0:0:0:
43,67,85500,5,4,0:0:0:0:
86,224,85685,1,2,0:0:0:0:
27,373,85870,1,8,0:0:0:0:
20,360,85963,2,0,P|70:298|120:322,2,140,2|0|0,0:0|0:0|0:0,0:0:0:0:
199,382,86518,1,0,0:0:0:0:
222,362,86611,2,0,L|209:277,1,70,8|0,0:0|0:0,0:0:0:0:
262,240,86796,2,0,L|269:155,1,70,2|0,0:0|0:0,0:0:0:0:
288,30,86981,6,0,P|218:56|218:117,1,140,2|0,0:0|0:0,0:0:0:0:
350,208,87352,1,8,0:0:0:0:
364,226,87444,1,0,0:0:0:0:
388,236,87537,1,2,0:3:0:0:
414,239,87630,1,0,0:0:0:0:
438,232,87722,1,2,0:0:0:0:
454,217,87815,1,0,0:0:0:0:
461,196,87907,1,2,0:0:0:0:
458,175,88000,1,0,0:0:0:0:
446,154,88093,2,0,P|391:208|396:280,1,140,10|0,0:0|0:0,0:0:0:0:
275,372,88463,5,6,0:0:0:0:
242,245,88648,1,2,0:0:0:0:
318,40,88833,1,8,0:0:0:0:
305,46,88926,2,0,P|265:113|277:133,1,70,2|0,0:0|0:0,0:0:0:0:
157,131,89111,2,0,P|210:199|205:208,1,70
147,213,89296,2,0,B|122:229|122:229|6:184,1,140
0,123,89574,1,8,0:0:0:0:
38,187,89759,1,2,0:0:0:0:
7,356,89944,6,0,P|85:364|99:303,1,140,2|0,0:0|0:0,0:0:0:0:
175,289,90222,1,2,0:0:0:0:
190,280,90315,2,0,P|248:327|236:387,1,140,0|2,0:0|0:0,0:0:0:0:
366,288,90685,1,4,0:0:0:0:
345,253,90778,1,0,0:0:0:0:
356,212,90870,1,2,0:3:0:0:
374,186,90963,1,0,0:0:0:0:
365,160,91055,1,8,0:0:0:0:
372,147,91148,1,0,0:0:0:0:
368,138,91241,2,0,L|360:52,1,70,2|0,0:3|0:0,0:0:0:0:
217,2,91426,5,4,0:0:0:0:
132,108,91611,1,0,0:0:0:0:
197,264,91796,1,8,0:0:0:0:
214,249,91889,2,0,P|173:192|150:203,1,70,2|0,0:0|0:0,0:0:0:0:
113,185,92074,1,0,0:0:0:0:
115,196,92167,1,2,0:3:0:0:
82,370,92352,1,2,0:0:0:0:
74,356,92444,1,0,0:0:0:0:
74,339,92537,2,0,P|120:284|144:295,1,70,8|0,0:0|0:0,0:0:0:0:
171,336,92722,2,0,L|254:353,1,70,2|0,0:0|0:0,0:0:0:0:
392,375,92907,6,0,P|326:345|335:264,1,140,6|0,0:0|0:0,0:0:0:0:
447,231,93278,1,8,0:0:0:0:
459,221,93370,1,0,0:0:0:0:
469,200,93463,1,2,0:3:0:0:
469,168,93555,1,0,0:0:0:0:
437,140,93648,1,2,0:0:0:0:
399,133,93741,1,0,0:0:0:0:
364,152,93833,1,2,0:0:0:0:
345,193,93926,1,0,0:0:0:0:
310,220,94018,2,0,P|236:197|247:139,1,140,10|0,0:0|0:0,0:0:0:0:
126,10,94389,6,0,L|139:93,1,70,6|0,0:0|0:0,0:0:0:0:
81,123,94574,2,0,L|65:212,1,70,2|0,0:0|0:0,0:0:0:0:
12,242,94759,1,8,0:0:0:0:
17,256,94852,1,2,0:0:0:0:
112,370,95037,1,0,0:0:0:0:
125,376,95130,2,0,P|151:302|127:286,1,70
235,306,95315,2,0,P|178:248|155:261,1,70,2|0,0:0|0:0,0:0:0:0:
37,328,95500,1,8,0:0:0:0:
158,185,95685,1,2,0:0:0:0:
299,370,95870,6,0,B|344:386|367:361|365:341|375:308|454:329,1,140,6|0,0:0|0:0,0:0:0:0:
487,294,96148,2,0,P|501:210|442:197,1,140,2|0,0:0|0:0,0:0:0:0:
414,248,96426,1,2,0:0:0:0:
512,60,96611,2,0,L|498:146,1,70,2|0,0:0|0:0,0:0:0:0:
432,89,96796,2,0,L|422:48,2,35
388,158,96981,5,0,0:0:0:0:
361,175,97074,1,2,0:0:0:0:
323,177,97167,1,0,0:0:0:0:
294,154,97259,1,0,0:0:0:0:
279,113,97352,6,0,B|242:96|242:96|232:96|232:96|155:67,1,105.000004005432,4|0,0:0|0:0,0:0:0:0:
173,69,97630,1,0,0:0:0:0:
165,59,97722,1,8,0:0:0:0:
70,42,97907,1,0,0:0:0:0:
94,135,98093,6,0,P|119:228|135:299,2,157.500006008148,2|0|0,0:3|0:0|0:0,0:0:0:0:
34,348,98833,2,0,P|88:296|150:316,1,105.000004005432
188,332,99111,2,0,P|242:384|304:364,1,105.000004005432
277,378,99389,1,0,0:0:0:0:
286,369,99481,1,0,0:0:0:0:
291,356,99574,1,2,0:3:0:0:
262,278,99759,1,0,0:0:0:0:
342,207,99944,1,8,0:0:0:0:
295,116,100130,1,0,0:0:0:0:
295,116,100222,1,0,0:0:0:0:
295,116,100315,6,0,P|340:79|398:86,1,105.000004005432
394,88,100593,1,0,0:0:0:0:
403,94,100685,1,0,0:0:0:0:
489,68,100870,1,0,0:0:0:0:
474,187,101055,6,0,B|456:240|456:240|459:244|459:244|437:308,2,105.000004005432,2|0|8,0:3|0:0|0:0,0:0:0:0:
377,190,101611,1,0,0:0:0:0:
366,343,101796,6,0,P|335:288|229:287,1,157.500006008148
236,295,102167,1,8,0:0:0:0:
148,339,102352,1,0,0:0:0:0:
128,333,102444,1,0,0:0:0:0:
119,318,102537,1,2,0:3:0:0:
156,243,102722,1,2,0:3:0:0:
28,152,102907,6,0,P|64:205|74:266,1,105.000004005432,10|10,0:3|0:3,0:0:0:0:
116,43,103278,6,0,P|205:61|213:183,1,210.000008010865,4|0,0:0|0:0,0:0:0:0:
346,27,103833,2,0,P|301:63|290:87,1,52.5000020027161
309,187,104018,6,0,P|447:144|457:152,2,157.500006008148,2|0|0,0:3|0:0|0:0,0:0:0:0:
331,251,104667,1,0,0:0:0:0:
341,270,104759,1,0,0:0:0:0:
270,343,104944,1,0,0:0:0:0:
260,340,105037,1,0,0:0:0:0:
250,338,105130,1,8,0:0:0:0:
465,307,105315,6,0,P|416:234|410:194,1,105.000004005432,0|2,0:0|0:3,0:0:0:0:
180,199,105685,1,0,0:0:0:0:
194,175,105778,1,0,0:0:0:0:
223,167,105870,1,8,0:0:0:0:
375,83,106055,1,0,0:0:0:0:
259,0,106241,6,0,P|282:70|303:167,2,157.500006008148
168,211,106981,6,0,P|134:158|64:162,1,105.000004005432,2|0,0:3|0:0,0:0:0:0:
72,225,107259,2,0,P|38:278|-32:274,1,105.000004005432
3,204,107537,1,0,0:0:0:0:
128,290,107722,5,4,0:0:0:0:
240,188,107907,1,0,0:0:0:0:
333,276,108093,1,8,0:0:0:0:
404,219,108278,1,0,0:0:0:0:
487,246,108463,5,2,0:3:0:0:
482,230,108555,1,0,0:0:0:0:
477,211,108648,1,2,0:3:0:0:
475,193,108741,1,0,0:0:0:0:
492,128,108833,5,10,0:3:0:0:
497,112,108925,1,0,0:0:0:0:
502,93,109018,1,2,0:3:0:0:
504,75,109111,1,0,0:0:0:0:
459,18,109204,6,0,P|402:17|390:110,1,157.500006008148,4|0,0:0|0:0,0:0:0:0:
388,125,109574,1,8,0:0:0:0:
285,55,109759,1,0,0:0:0:0:
231,114,109944,2,0,P|178:108|163:62,1,105.000004005432,2|0,0:3|0:0,0:0:0:0:
16,15,110315,2,0,P|75:24|81:79,1,105.000004005432,8|0,0:0|0:0,0:0:0:0:
59,247,110685,6,0,L|10:98,1,157.500006008148
10,90,111055,1,8,0:0:0:0:
126,175,111241,1,0,0:0:0:0:
25,318,111426,1,2,0:3:0:0:
52,381,111611,1,0,0:0:0:0:
172,372,111796,2,0,P|170:316|124:297,1,105.000004005432,8|0,0:0|0:0,0:0:0:0:
318,372,112167,6,0,P|258:338|281:261,1,157.500006008148
288,248,112537,1,8,0:0:0:0:
374,296,112722,1,0,0:0:0:0:
510,169,112907,2,0,L|489:306,1,105.000004005432,2|0,0:3|0:0,0:0:0:0:
367,163,113278,1,8,0:0:0:0:
342,88,113463,1,2,0:3:0:0:
336,75,113555,1,0,0:0:0:0:
337,61,113648,6,0,P|387:20|425:42,1,105.000004005432
179,134,114018,2,0,P|239:109|229:40,1,105.000004005432,8|0,0:0|0:0,0:0:0:0:
235,60,114296,1,0,0:0:0:0:
224,50,114389,1,2,0:3:0:0:
123,11,114574,1,0,0:0:0:0:
26,88,114759,1,8,0:0:0:0:
6,125,114852,1,0,0:0:0:0:
20,167,114944,1,0,0:0:0:0:
7,209,115037,1,0,0:0:0:0:
22,248,115130,6,0,P|87:276|121:253,1,105.000004005432,4|0,0:0|0:0,0:0:0:0:
140,230,115407,1,0,0:0:0:0:
147,218,115500,2,0,P|193:183|241:194,1,105.000004005432,8|0,0:0|0:0,0:0:0:0:
338,260,115870,2,0,L|320:372,1,105.000004005432,2|0,0:3|0:0,0:0:0:0:
293,378,116148,1,0,0:0:0:0:
290,363,116241,1,8,0:0:0:0:
410,245,116426,1,0,0:0:0:0:
373,159,116611,6,0,P|386:82|418:72,1,105.000004005432
269,97,116981,2,0,P|250:41|204:29,1,105.000004005432,8|0,0:0|0:0,0:0:0:0:
79,8,117352,1,2,0:3:0:0:
38,66,117537,1,0,0:0:0:0:
122,207,117722,2,0,L|140:103,1,105.000004005432,8|0,0:0|0:0,0:0:0:0:
7,276,118093,6,0,B|55:264|72:301|61:335|81:372|148:347,1,157.500006008148
148,343,118463,1,8,0:0:0:0:
249,280,118648,1,0,0:0:0:0:
315,314,118833,2,0,P|359:358|405:338,1,105.000004005432,2|0,0:3|0:0,0:0:0:0:
489,255,119204,1,8,0:0:0:0:
458,184,119389,1,0,0:0:0:0:
453,175,119481,1,0,0:0:0:0:
452,163,119574,6,0,P|487:111|526:121,1,105.000004005432,4|0,0:0|0:0,0:0:0:0:
382,221,119944,1,8,0:0:0:0:
345,106,120130,1,0,0:0:0:0:
294,259,120315,1,2,0:3:0:0:
279,231,120407,1,0,0:0:0:0:
246,210,120500,1,2,0:3:0:0:
208,213,120593,1,0,0:0:0:0:
175,236,120685,1,10,0:3:0:0:
154,283,120778,1,0,0:0:0:0:
104,315,120870,1,2,0:3:0:0:
47,301,120963,1,0,0:0:0:0:
12,251,121055,6,0,P|45:208|107:213,1,105.000004005432,4|0,0:0|0:0,0:0:0:0:
208,126,121426,1,8,0:0:0:0:
146,82,121611,1,0,0:0:0:0:
203,215,121796,6,0,P|172:305|159:358,1,105.000004005432,2|0,0:3|0:0,0:0:0:0:
298,105,122167,2,0,P|329:15|342:-38,1,105.000004005432,8|0,0:0|0:0,0:0:0:0:
325,341,122537,2,0,P|435:291|425:188,1,210.000008010865,0|8,0:0|0:0,0:0:0:0:
271,235,123093,1,0,0:0:0:0:
271,235,123185,1,0,0:0:0:0:
271,235,123278,2,0,P|310:256|339:287,3,52.5000020027161,2|0|0|0,0:3|0:0|0:0|0:0,0:0:0:0:
206,202,123648,1,8,0:0:0:0:
331,153,123833,1,0,0:0:0:0:
345,146,123926,1,0,0:0:0:0:
357,141,124018,5,0,0:0:0:0:
355,65,124204,1,0,0:0:0:0:
254,128,124389,1,8,0:0:0:0:
287,27,124574,1,0,0:0:0:0:
445,135,124759,6,0,P|420:209|383:225,1,105.000004005432,2|0,0:3|0:0,0:0:0:0:
262,242,125130,1,8,0:0:0:0:
360,336,125315,2,0,P|335:278|326:256,1,52.5000020027161
166,76,125500,6,0,B|233:83|211:142|282:124,1,105.000004005432,4|0,0:0|0:0,0:0:0:0:
96,371,125870,6,0,B|163:364|141:305|212:323,1,105.000004005432,8|0,0:0|0:0,0:0:0:0:
0,106,126241,6,0,B|67:113|45:172|116:154,1,105.000004005432,2|0,0:3|0:0,0:0:0:0:
243,237,126611,1,8,0:0:0:0:
269,227,126704,1,0,0:0:0:0:
293,219,126796,1,0,0:0:0:0:
312,215,126889,1,0,0:0:0:0:
326,211,126981,6,0,P|393:202|460:182,1,105.000004005432,4|0,0:0|0:0,0:0:0:0:
211,175,127352,1,8,0:0:0:0:
274,128,127537,1,0,0:0:0:0:
320,299,127722,6,0,P|247:331|221:376,1,105.000004005432,2|0,0:3|0:0,0:0:0:0:
124,269,128093,1,8,0:0:0:0:
72,352,128278,6,0,P|23:296|81:198,1,157.500006008148
63,208,128648,1,0,0:0:0:0:
166,160,128833,2,0,P|172:96|120:59,1,105.000004005432,8|0,0:0|0:0,0:0:0:0:
275,222,129204,2,0,P|269:158|321:121,1,105.000004005432,2|0,0:3|0:0,0:0:0:0:
32,103,129574,2,0,P|38:39|-14:2,1,105.000004005432,8|0,0:0|0:0,0:0:0:0:
251,45,129944,6,0,P|347:32|416:66,1,157.500006008148
415,80,130315,1,8,0:0:0:0:
333,155,130500,2,0,P|292:118|307:93,1,52.5000020027161
400,233,130685,2,0,P|385:304|366:381,1,105.000004005432,2|0,0:3|0:0,0:0:0:0:
468,138,131055,6,0,P|494:232|517:308,1,157.500006008148,8|0,0:0|0:0,0:0:0:0:
511,318,131426,5,6,0:3:0:0:
377,338,131611,1,10,0:3:0:0:
507,216,131796,1,10,0:3:0:0:
358,149,131981,1,10,0:3:0:0:
264,315,132167,5,8,0:0:0:0:
264,315,132537,5,8,0:0:0:0:
209,308,132630,1,0,0:0:0:0:
175,271,132722,1,0,0:0:0:0:
174,233,132815,1,0,0:0:0:0:
224,172,132907,6,0,P|249:72|139:35,1,167.999994873047,6|0,0:0|0:0,0:0:0:0:
136,3,133185,1,0,0:0:0:0:
141,19,133278,1,8,0:0:0:0:
265,238,133463,1,2,0:3:0:0:
89,382,133648,2,0,P|5:345|13:277,1,167.999994873047,2|0,0:0|0:0,0:0:0:0:
90,285,133926,1,0,0:0:0:0:
86,297,134018,1,8,0:0:0:0:
245,384,134204,2,0,P|170:338|161:352,1,83.9999974365235
377,265,134389,6,0,L|315:280,2,41.9999987182618,2|0|0,0:0|0:0|0:0,0:0:0:0:
400,261,134574,1,0,0:0:0:0:
228,81,134759,2,0,B|209:135|231:168|255:167|286:199|252:283,1,167.999994873047,8|2,0:0|0:3,0:0:0:0:
189,235,135037,1,0,0:0:0:0:
192,221,135130,1,0,0:0:0:0:
290,28,135315,2,0,P|364:75|360:96,1,83.9999974365235
441,29,135500,2,0,P|435:116|416:119,1,83.9999974365235,8|0,0:0|0:0,0:0:0:0:
311,306,135685,1,0,0:0:0:0:
71,43,135870,6,0,P|104:147|165:141,1,167.999994873047,6|2,0:0|0:3,0:0:0:0:
176,88,136148,1,0,0:0:0:0:
172,74,136241,1,10,0:0:0:0:
55,207,136426,2,0,B|33:217|7:197|7:197|30:205|45:199,1,83.9999974365235,2|0,0:3|0:0,0:0:0:0:
268,126,136611,2,0,L|234:312,1,167.999994873047,2|0,0:0|0:0,0:0:0:0:
435,377,136981,1,8,0:0:0:0:
415,245,137167,1,2,0:0:0:0:
289,257,137352,5,0,0:0:0:0:
233,271,137444,1,0,0:0:0:0:
188,267,137537,1,2,0:0:0:0:
155,242,137630,1,0,0:0:0:0:
137,187,137722,5,8,0:0:0:0:
142,143,137815,1,0,0:0:0:0:
163,114,137907,1,2,0:0:0:0:
197,100,138000,1,0,0:0:0:0:
251,95,138093,5,2,0:3:0:0:
244,105,138185,1,0,0:0:0:0:
251,115,138278,1,2,0:3:0:0:
245,125,138370,1,0,0:0:0:0:
213,152,138463,6,0,L|232:243,1,83.9999974365235,10|0,0:3|0:0,0:0:0:0:
285,280,138648,2,0,L|272:369,1,83.9999974365235,2|0,0:3|0:0,0:0:0:0:
455,176,138833,6,0,P|442:64|363:61,1,167.999994873047,6|0,0:0|0:0,0:0:0:0:
348,109,139111,1,0,0:0:0:0:
362,115,139204,1,8,0:0:0:0:
189,2,139389,1,2,0:3:0:0:
74,146,139574,2,0,P|0:71|42:18,1,167.999994873047,0|2,0:0|0:0,0:0:0:0:
107,8,139852,1,0,0:0:0:0:
104,23,139944,1,8,0:0:0:0:
10,227,140130,1,0,0:0:0:0:
135,370,140315,6,0,L|79:362,2,41.9999987182618,2|0|0,0:0|0:0|0:0,0:0:0:0:
155,376,140500,1,0,0:0:0:0:
492,365,140685,2,0,P|517:296|380:264,1,251.999992309571,8|0,0:0|0:0,0:0:0:0:
386,332,141055,1,0,0:0:0:0:
446,158,141241,1,0,0:0:0:0:
249,2,141426,2,0,L|258:95,1,83.9999974365235,2|0,0:3|0:0,0:0:0:0:
292,146,141611,2,0,L|278:256,1,83.9999974365235,2|0,0:3|0:0,0:0:0:0:
135,373,141796,5,6,0:0:0:0:
191,372,141889,1,0,0:0:0:0:
224,341,141981,1,2,0:3:0:0:
230,312,142074,1,0,0:0:0:0:
208,265,142167,5,10,0:0:0:0:
166,246,142259,1,0,0:0:0:0:
128,250,142352,1,2,0:3:0:0:
111,265,142444,1,0,0:0:0:0:
60,284,142537,5,2,0:0:0:0:
16,259,142630,1,0,0:0:0:0:
19,221,142722,1,0,0:0:0:0:
43,200,142815,1,0,0:0:0:0:
87,163,142907,5,10,0:0:0:0:
80,135,143000,1,0,0:0:0:0:
119,138,143093,1,0,0:0:0:0:
130,117,143185,1,0,0:0:0:0:
167,132,143278,6,0,L|257:107,1,83.9999974365235,6|0,0:0|0:0,0:0:0:0:
422,12,143463,2,0,L|408:64,2,41.9999987182618
439,2,143648,1,8,0:0:0:0:
262,189,143833,1,0,0:0:0:0:
325,64,144018,5,6,0:0:0:0:
331,94,144111,1,0,0:0:0:0:
337,126,144204,2,0,L|431:142,1,83.9999974365235,2|0,0:3|0:0,0:0:0:0:
293,272,144389,1,10,0:3:0:0:
251,269,144481,1,0,0:0:0:0:
200,289,144574,1,2,0:3:0:0:
174,356,144667,1,0,0:0:0:0:
108,378,144759,6,0,P|31:333|74:211,1,167.999994873047,6|0,0:0|0:0,0:0:0:0:
84,205,145037,1,0,0:0:0:0:
90,218,145130,1,8,0:0:0:0:
6,87,145315,1,2,0:3:0:0:
185,167,145500,6,0,B|205:211|271:213|271:213|272:266|299:274,1,167.999994873047,2|0,0:0|0:0,0:0:0:0:
349,220,145778,1,0,0:0:0:0:
352,200,145870,2,0,P|334:113|330:64,1,83.9999974365235,8|0,0:0|0:0,0:0:0:0:
377,305,146055,1,0,0:0:0:0:
455,106,146241,6,0,P|426:129|427:151,2,41.9999987182618,2|0|0,0:0|0:0|0:0,0:0:0:0:
481,96,146426,1,0,0:0:0:0:
337,26,146611,1,8,0:0:0:0:
451,223,146796,1,2,0:3:0:0:
474,248,146889,1,0,0:0:0:0:
482,284,146981,1,0,0:0:0:0:
370,383,147167,5,0,0:0:0:0:
305,329,147259,1,0,0:0:0:0:
222,352,147352,2,0,P|142:373|83:389,1,83.9999974365235,8|0,0:0|0:0,0:0:0:0:
400,305,147537,2,0,P|480:284|539:268,1,83.9999974365235
178,284,147722,6,0,P|73:264|42:169,1,167.999994873047,6|2,0:0|0:3,0:0:0:0:
98,148,148000,1,0,0:0:0:0:
117,136,148093,2,0,P|142:167|96:229,2,83.9999974365235,10|0|2,0:0|0:0|0:3,0:0:0:0:
232,207,148463,6,0,P|238:115|278:22,1,167.999994873047,2|0,0:0|0:0,0:0:0:0:
171,26,148741,1,0,0:0:0:0:
160,13,148833,2,0,B|132:10|122:41|122:41|150:29|188:48,1,83.9999974365235,8|0,0:0|0:0,0:0:0:0:
363,93,149018,2,0,P|337:148|324:236,1,83.9999974365235,2|0,0:0|0:0,0:0:0:0:
333,273,149204,5,0,0:0:0:0:
389,287,149296,1,0,0:0:0:0:
434,283,149389,1,2,0:0:0:0:
467,258,149482,1,0,0:0:0:0:
485,203,149574,5,8,0:0:0:0:
480,159,149667,1,0,0:0:0:0:
459,130,149759,1,2,0:0:0:0:
425,116,149852,1,0,0:0:0:0:
371,111,149945,5,2,0:3:0:0:
378,121,150037,1,0,0:0:0:0:
371,131,150130,1,2,0:3:0:0:
377,141,150222,1,0,0:0:0:0:
409,168,150315,6,0,L|390:259,1,83.9999974365235,10|0,0:0|0:0,0:0:0:0:
337,296,150500,2,0,L|350:385,1,83.9999974365235
184,273,150685,6,0,P|173:175|294:117,1,167.999994873047,6|0,0:0|0:0,0:0:0:0:
291,88,150963,1,0,0:0:0:0:
300,72,151055,1,8,0:0:0:0:
106,77,151241,1,2,0:3:0:0:
305,206,151426,6,0,P|157:249|59:325,1,251.999992309571
16,269,151796,1,8,0:0:0:0:
11,235,151889,1,0,0:0:0:0:
5,201,151981,1,0,0:0:0:0:
90,63,152167,6,0,P|63:40|54:18,2,41.9999987182618,2|0|0,0:0|0:0|0:0,0:0:0:0:
106,77,152352,2,0,P|84:162|74:191,1,83.9999974365235
202,42,152537,1,8,0:0:0:0:
184,157,152722,6,0,P|224:274|273:324,1,167.999994873047,2|0,0:0|0:0,0:0:0:0:
338,324,153000,1,0,0:0:0:0:
356,305,153093,1,0,0:0:0:0:
196,384,153278,5,8,0:0:0:0:
309,237,153463,1,0,0:0:0:0:
488,364,153648,5,2,0:0:0:0:
504,323,153741,1,0,0:0:0:0:
494,275,153833,1,2,0:3:0:0:
456,246,153926,1,0,0:0:0:0:
408,226,154018,5,10,0:0:0:0:
390,210,154111,1,0,0:0:0:0:
385,187,154204,1,2,0:3:0:0:
392,166,154296,1,0,0:0:0:0:
415,142,154389,5,2,0:0:0:0:
446,98,154481,1,0,0:0:0:0:
415,48,154574,1,2,0:3:0:0:
359,44,154667,1,0,0:0:0:0:
335,94,154759,5,10,0:0:0:0:
292,142,154852,1,0,0:0:0:0:
226,133,154944,1,2,0:3:0:0:
187,77,155037,1,0,0:0:0:0:
131,23,155130,6,0,P|68:50|37:177,1,167.999994873047,6|0,0:0|0:0,0:0:0:0:
133,217,155407,1,0,0:0:0:0:
162,204,155500,2,0,P|154:189|72:184,1,83.9999974365235,8|0,0:0|0:0,0:0:0:0:
13,354,155685,2,0,P|21:339|-14:266,1,83.9999974365235
267,256,155870,6,0,B|287:220|287:220|350:247,1,83.9999974365235,6|0,0:0|0:0,0:0:0:0:
184,321,156055,1,2,0:3:0:0:
184,321,156148,2,0,B|204:357|204:357|267:330,1,83.9999974365235,0|10,0:0|0:3,0:0:0:0:
419,364,156333,1,0,0:0:0:0:
419,364,156426,2,0,B|399:328|399:328|336:355,1,83.9999974365235,2|0,0:3|0:0,0:0:0:0:
89,384,156611,6,0,L|123:193,1,167.999994873047,6|0,0:0|0:0,0:0:0:0:
12,12,156981,1,8,0:0:0:0:
31,88,157167,1,2,3:0:0:0:
190,180,157352,2,0,P|274:130|259:69,1,167.999994873047,2|2,0:0|0:3,0:0:0:0:
230,8,157630,1,0,0:0:0:0:
219,16,157722,1,8,0:0:0:0:
340,178,157907,2,0,L|445:203,1,83.9999974365235
186,86,158093,6,0,L|139:95,2,41.9999987182618,2|0|0,0:0|0:0|0:0,0:0:0:0:
193,85,158278,1,2,0:3:0:0:
471,0,158463,2,0,L|491:176,1,167.999994873047,8|2,0:0|0:3,0:0:0:0:
379,382,158833,1,0,0:0:0:0:
396,316,159018,1,2,0:3:0:0:
266,207,159204,1,2,0:3:0:0:
230,8,159389,1,2,0:3:0:0:
389,105,159574,6,0,P|305:123|293:59,1,167.999994873047,2|2,0:0|3:0,0:0:0:0:
351,8,159852,1,0,0:0:0:0:
354,18,159944,1,10,0:0:0:0:
266,207,160130,1,2,3:0:0:0:
224,384,160315,2,0,L|193:214,1,167.999994873047,2|0,0:0|0:0,0:0:0:0:
78,111,160685,1,10,0:0:0:0:
112,244,160870,2,0,L|130:152,1,83.9999974365235,2|0,0:0|0:0,0:0:0:0:
27,61,161055,5,2,0:0:0:0:
66,17,161148,1,0,0:0:0:0:
127,16,161241,1,2,0:3:0:0:
180,44,161333,1,0,0:0:0:0:
196,103,161425,1,0,0:0:0:0:
212,143,161518,1,0,0:0:0:0:
243,166,161611,1,2,0:0:0:0:
282,171,161704,1,0,0:0:0:0:
314,160,161796,1,2,0:0:0:0:
335,138,161889,1,0,0:0:0:0:
344,114,161981,1,2,0:3:0:0:
343,98,162074,1,0,0:0:0:0:
339,85,162167,6,0,P|317:54|264:69,1,83.9999974365235,10|0,0:0|0:0,0:0:0:0:
259,138,162352,2,0,P|221:141|207:194,1,83.9999974365235,10|0,0:0|0:0,0:0:0:0:
436,101,162537,2,0,P|435:25|510:28,1,167.999994873047,6|0,0:0|0:0,0:0:0:0:
512,102,162815,1,10,0:0:0:0:
507,113,162907,1,0,0:0:0:0:
206,30,163093,1,2,0:0:0:0:
28,115,163278,2,0,P|73:45|148:72,1,167.999994873047,2|2,0:0|0:0,0:0:0:0:
164,134,163555,1,2,0:3:0:0:
160,144,163648,1,8,0:0:0:0:
202,381,163833,2,0,L|183:289,1,83.9999974365235,2|0,0:3|0:0,0:0:0:0:
133,213,164018,6,0,L|129:257,2,41.9999987182618,2|0|2,0:0|0:0|0:3,0:0:0:0:
128,209,164204,1,0,0:0:0:0:
275,361,164389,1,8,0:0:0:0:
354,299,164574,1,2,0:0:0:0:
365,302,164667,1,0,0:0:0:0:
376,306,164759,2,0,B|426:283|453:322|447:352|473:384|553:353,1,167.999994873047,2|2,0:0|0:3,0:0:0:0:
319,151,165130,2,0,P|236:178|242:253,1,167.999994873047,10|2,0:0|0:3,0:0:0:0:
47,378,165500,5,2,0:0:0:0:
33,372,165593,1,0,0:0:0:0:
21,359,165685,1,0,0:0:0:0:
13,340,165778,1,0,0:0:0:0:
10,311,165870,1,10,0:0:0:0:
26,274,165963,1,0,0:0:0:0:
59,245,166055,1,0,0:0:0:0:
107,230,166148,1,0,0:0:0:0:
155,200,166240,1,2,0:0:0:0:
188,155,166333,1,0,0:0:0:0:
201,98,166426,1,2,0:3:0:0:
176,39,166518,1,0,0:0:0:0:
104,13,166611,1,10,0:0:0:0:
33,38,166704,1,0,0:0:0:0:
11,111,166796,2,0,L|101:127,1,83.9999974365235,2|0,0:3|0:0,0:0:0:0:
274,35,166981,5,6,0:0:0:0:
167,164,167167,6,0,L|175:210,2,41.9999987182618,2|0|0,0:3|0:0|0:0,0:0:0:0:
169,151,167352,1,0,0:0:0:0:
342,5,167537,1,2,0:3:0:0:
232,246,167722,2,0,L|201:405,1,83.9999974365235,2|0,0:0|0:0,0:0:0:0:
279,375,167907,1,2,0:3:0:0:
278,368,168000,1,0,0:0:0:0:
275,186,168185,1,0,0:0:0:0:
278,178,168278,2,0,L|267:80,1,83.9999974365235
78,21,168463,5,6,0:0:0:0:
169,82,168648,2,0,P|117:102|74:116,1,83.9999974365235,4|0,0:0|0:0,0:0:0:0:
0,198,168833,1,2,0:0:0:0:
7,164,168926,2,0,P|91:183|132:196,1,83.9999974365235,2|2,0:0|0:3,0:0:0:0:
68,384,169111,1,0,0:0:0:0:
40,347,169204,2,0,P|28:286|15:214,1,83.9999974365235,2|0,0:0|0:0,0:0:0:0:
126,303,169389,1,2,0:3:0:0:
135,324,169481,1,0,0:0:0:0:
156,335,169574,1,10,0:0:0:0:
258,303,169759,1,0,0:0:0:0:
362,353,169944,6,0,B|386:271|399:134,1,167.999994873047,2|0,0:0|0:0,0:0:0:0:
434,128,170222,1,0,0:0:0:0:
452,131,170315,1,2,0:0:0:0:
488,111,170407,1,0,0:0:0:0:
496,71,170500,1,2,0:3:0:0:
479,33,170592,1,0,0:0:0:0:
434,34,170685,5,2,0:0:0:0:
386,72,170778,1,0,0:0:0:0:
326,67,170870,1,2,0:3:0:0:
282,23,170963,1,0,0:0:0:0:
219,2,171055,6,0,P|157:33|121:175,1,210,2|0,0:0|0:0,0:0:0:0:
170,228,171426,6,0,P|216:200|200:141,1,70,2|0,0:0|0:0,0:0:0:0:
289,141,171611,2,0,P|307:171|301:205,1,70,2|0,0:0|0:0,0:0:0:0:
394,215,171796,1,10,0:0:0:0:
406,234,171889,2,0,P|491:260|517:264,1,70,2|2,0:0|0:3,0:0:0:0:
354,336,172074,1,2,0:0:0:0:
343,311,172167,2,0,P|258:285|232:281,1,70,2|0,0:0|0:0,0:0:0:0:
195,332,172352,1,2,0:3:0:0:
171,353,172444,1,2,0:0:0:0:
141,348,172537,1,10,0:0:0:0:
40,291,172722,1,2,0:3:0:0:
99,152,172907,6,0,P|201:188|266:199,1,140,2|0,0:0|0:0,0:0:0:0:
272,120,173185,2,0,P|204:103|139:77,1,140,2|0,0:0|0:0,0:0:0:0:
58,79,173463,1,2,0:0:0:0:
0,348,173648,5,0,0:0:0:0:
57,379,173741,1,0,0:0:0:0:
121,372,173833,1,2,0:3:0:0:
160,333,173926,1,0,0:0:0:0:
186,295,174018,1,2,0:0:0:0:
228,283,174111,1,0,0:0:0:0:
254,296,174204,1,2,0:0:0:0:
263,309,174296,1,0,0:0:0:0:
262,324,174389,6,0,P|244:375|199:390,1,70,6|0,0:0|0:0,0:0:0:0:
302,238,174574,2,0,P|337:280|327:326,1,70,2|0,0:0|0:0,0:0:0:0:
414,369,174759,1,10,0:0:0:0:
434,371,174852,2,0,P|455:308|467:271,1,70,2|0,0:0|0:0,0:0:0:0:
382,170,175037,6,0,P|390:204|402:238,1,70,2|2,0:0|0:0,0:0:0:0:
459,138,175222,2,0,P|467:172|479:206,1,70,2|2,0:0|0:3,0:0:0:0:
331,103,175407,1,2,0:0:0:0:
314,102,175500,2,0,P|245:84|199:67,1,70,10|0,0:0|2:0,0:0:0:0:
489,7,175685,2,0,P|420:25|374:42,1,70,2|0,0:3|0:0,0:0:0:0:
289,182,175870,6,0,P|205:160|93:141,1,140,2|2,0:0|0:0,0:0:0:0:
81,155,176148,1,0,0:0:0:0:
71,162,176241,1,2,0:0:0:0:
72,199,176333,1,0,0:0:0:0:
115,228,176426,1,2,0:3:0:0:
171,231,176518,1,0,0:0:0:0:
220,254,176611,1,2,0:0:0:0:
240,288,176704,1,0,0:0:0:0:
234,319,176796,1,2,0:0:0:0:
217,337,176889,1,0,0:0:0:0:
204,339,176981,6,0,P|180:249|282:152,1,210,2|0,0:0|0:0,0:0:0:0:
314,194,177352,6,0,P|361:210|418:172,1,70,2|0,0:0|0:0,0:0:0:0:
409,289,177537,2,0,P|446:257|441:188,1,70,2|0,0:0|0:0,0:0:0:0:
320,295,177722,1,2,0:0:0:0:
308,310,177815,2,0,P|299:364|286:408,1,70,2|0,0:0|0:0,0:0:0:0:
175,259,178000,6,0,P|229:250|273:237,1,70,2|0,0:0|0:0,0:0:0:0:
109,357,178185,2,0,P|143:349|178:345,1,70,2|2,0:0|2:3,0:0:0:0:
148,180,178370,1,2,0:0:0:0:
169,157,178463,2,0,P|223:148|267:135,1,70,2|0,0:0|0:0,0:0:0:0:
71,284,178648,2,0,P|17:293|-27:306,1,70,2|0,0:3|0:0,0:0:0:0:
71,78,178833,6,0,P|201:54|265:34,1,140,2|2,0:0|0:3,0:0:0:0:
237,144,179111,2,0,P|367:168|431:188,1,140,2|2,0:0|0:3,0:0:0:0:
384,72,179389,1,2,0:0:0:0:
446,228,179574,5,0,0:0:0:0:
466,248,179667,1,0,0:0:0:0:
461,288,179759,1,2,0:3:0:0:
426,314,179852,1,0,0:0:0:0:
372,278,179944,5,2,0:0:0:0:
306,273,180037,1,0,0:0:0:0:
267,298,180130,1,0,0:0:0:0:
261,333,180222,1,0,0:0:0:0:
242,361,180315,5,0,0:0:0:0:
132,336,180500,5,0,0:0:0:0:
117,341,180593,1,0,0:0:0:0:
106,356,180686,1,0,0:0:0:0:
105,199,180870,5,8,0:0:0:0:
120,204,180963,1,8,0:0:0:0:
131,219,181055,5,8,0:0:0:0:
179,187,181148,1,8,0:0:0:0:
233,169,181241,1,8,0:0:0:0:
282,173,181333,1,8,0:0:0:0:
330,186,181426,5,8,0:0:0:0:
373,181,181518,1,8,0:0:0:0:
411,139,181611,1,8,0:0:0:0:
400,70,181704,1,8,0:0:0:0:
320,55,181796,6,0,P|353:157|380:299,1,210.000008010865,12|8,0:0|0:0,0:0:0:0:
217,378,182352,1,0,0:0:0:0:
146,307,182537,2,0,P|207:294|260:274,1,105.000004005432,8|0,0:0|0:0,0:0:0:0:
133,174,182907,1,0,0:0:0:0:
95,241,183093,1,8,0:0:0:0:
54,126,183278,6,0,P|29:75|-19:91,1,105.000004005432,12|8,0:0|0:0,0:0:0:0:
107,33,183648,2,0,L|161:24,3,52.5000020027161,0|0|8|8,0:0|0:0|0:0|0:0,0:0:0:0:
182,37,184018,2,0,L|310:65,1,105.000004005432,2|2,0:0|0:0,0:0:0:0:
403,4,184389,1,8,0:0:0:0:
403,4,184574,1,8,0:0:0:0:
326,171,184759,6,0,P|380:133|370:93,1,105.000004005432,8|2,0:0|0:0,0:0:0:0:
237,164,185130,2,0,P|250:232|255:282,1,105.000004005432,2|2,0:0|0:0,0:0:0:0:
388,375,185500,2,0,P|405:317|429:264,1,105.000004005432,8|0,0:0|0:0,0:0:0:0:
456,249,185778,2,0,P|505:267|499:313,1,105.000004005432,8|0,0:0|0:0,0:0:0:0:
488,328,186055,1,0,0:0:0:0:
320,340,186241,2,0,P|225:358|184:374,1,105.000004005432,8|0,0:0|0:0,0:0:0:0:
191,380,186518,2,0,P|133:363|79:352,1,105.000004005432,8|0,0:0|0:0,0:0:0:0:
64,333,186796,1,2,0:0:0:0:
60,344,186889,1,0,0:0:0:0:
63,355,186981,1,2,0:1:0:0:
196,273,187167,1,0,0:2:0:0:
200,263,187259,1,2,0:0:0:0:
197,252,187352,2,0,P|179:189|164:137,1,105.000004005432,6|0,3:2|0:0,0:0:0:0:
257,15,187722,6,0,P|202:46|216:94,1,105.000004005432,8|0,0:0|0:0,0:0:0:0:
302,152,188093,2,0,L|237:145,3,52.5000020027161,8|0|0|0,0:0|0:0|0:0|0:0,0:0:0:0:
245,168,188463,2,0,L|274:283,1,105.000004005432,8|0,0:0|0:0,0:0:0:0:
384,370,188833,2,0,L|392:310,3,52.5000020027161,8|0|0|0,0:0|0:0|0:0|0:0,0:0:0:0:
426,301,189204,6,0,P|414:227|400:185,1,105.000004005432,10|0,0:0|0:0,0:0:0:0:
466,85,189574,1,8,0:0:0:0:
457,66,189667,1,0,0:0:0:0:
442,56,189759,1,0,0:0:0:0:
427,50,189852,1,0,0:0:0:0:
409,48,189944,2,0,P|361:84|311:68,1,105.000004005432,10|0,0:0|0:0,0:0:0:0:
208,4,190315,2,0,P|198:61|194:74,3,52.5000020027161,8|0|0|0,0:0|0:0|0:0|0:0,0:0:0:0:
183,71,190685,5,14,0:0:0:0:
225,191,190870,1,0,0:0:0:0:
171,264,191055,2,0,P|99:262|94:225,1,105.000004005432,10|2,0:0|0:0,0:0:0:0:
8,146,191426,2,0,B|55:107|55:107|149:149,1,157.500006008148,10|10,0:0|0:0,0:0:0:0:
152,159,191796,1,0,0:0:0:0:
18,259,191981,2,0,L|32:306,2,26.2500010013581,2|0|0,0:0|0:0|0:0,0:0:0:0:
3,244,192167,6,0,L|-9:365,1,105.000004005432,14|0,0:0|0:0,0:0:0:0:
8,369,192444,1,10,0:0:0:0:
25,383,192537,1,0,0:0:0:0:
171,326,192722,1,10,0:0:0:0:
182,329,192815,1,0,0:0:0:0:
194,333,192907,2,0,P|262:360|256:401,1,105.000004005432,4|10,0:0|0:0,0:0:0:0:
373,289,193278,2,0,L|385:238,1,52.5000020027161,8|2,0:0|0:0,0:0:0:0:
373,207,193463,2,0,L|363:152,1,52.5000020027161,0|2,0:0|0:0,0:0:0:0:
474,81,193648,6,0,P|444:84|398:51,1,52.5000020027161,12|0,0:0|0:0,0:0:0:0:
360,18,193833,1,2,0:0:0:0:
478,204,194018,6,0,P|450:191|427:140,1,52.5000020027161,8|0,0:0|0:0,0:0:0:0:
410,92,194203,1,2,0:0:0:0:
472,285,194389,6,0,P|396:277|347:317,1,105.000004005432,10|2,0:0|0:0,0:0:0:0:
317,348,194667,1,0,0:0:0:0:
289,345,194759,2,0,P|281:308|266:258,1,52.5000020027161,8|0,0:0|0:0,0:0:0:0:
309,216,194944,1,10,0:0:0:0:
295,203,195037,1,0,0:0:0:0:
270,204,195130,6,0,P|240:201|194:234,1,52.5000020027161,8|0,0:0|0:0,0:0:0:0:
156,267,195315,1,2,0:0:0:0:
274,81,195500,6,0,P|246:93|223:144,1,52.5000020027161,8|0,0:0|0:0,0:0:0:0:
206,193,195685,1,2,0:0:0:0:
109,26,195870,6,0,P|144:72|141:126,1,105.000004005432,8|2,0:0|0:0,0:0:0:0:
87,175,196148,1,0,0:0:0:0:
73,174,196241,2,0,P|43:163|11:155,1,52.5000020027161,8|0,0:0|0:0,0:0:0:0:
48,250,196426,1,2,0:0:0:0:
69,273,196518,1,0,0:0:0:0:
68,308,196611,5,12,0:0:0:0:
116,330,196704,1,0,0:0:0:0:
166,347,196796,1,2,0:0:0:0:
206,193,196981,5,8,0:0:0:0:
156,252,197167,1,2,0:0:0:0:
245,383,197352,6,0,B|257:349|305:336|308:352|353:344|363:294,2,157.500006008148,12|8|10,0:0|0:0|0:0,0:0:0:0:
220,302,198000,1,0,0:0:0:0:
225,292,198093,5,8,0:0:0:0:
156,252,198278,1,8,0:0:0:0:
302,242,198463,5,8,0:0:0:0:
232,140,198648,1,8,0:0:0:0:
324,10,198833,6,0,P|308:52|298:86,1,52.5000020027161,8|0,0:0|0:0,0:0:0:0:
372,109,199018,2,0,P|356:151|346:185,1,52.5000020027161,2|2,0:0|0:0,0:0:0:0:
232,140,199204,1,8,0:0:0:0:
209,144,199296,1,0,0:0:0:0:
184,152,199389,1,2,0:0:0:0:
147,161,199481,1,2,0:0:0:0:
101,177,199574,6,0,P|57:155|51:122,1,52.5000020027161,12|0,0:0|0:0,0:0:0:0:
74,46,199759,1,2,0:0:0:0:
71,318,199944,6,0,P|43:276|55:245,1,52.5000020027161,8|0,0:0|0:0,0:0:0:0:
113,191,200129,1,2,0:0:0:0:
143,384,200315,6,0,P|204:334|263:329,1,105.000004005432,8|2,0:0|0:0,0:0:0:0:
312,334,200593,1,0,0:0:0:0:
329,330,200685,2,0,P|369:344|402:348,1,52.5000020027161,8|0,0:0|0:0,0:0:0:0:
489,299,200870,1,2,0:0:0:0:
503,280,200963,1,0,0:0:0:0:
487,253,201055,6,0,P|443:275|437:308,1,52.5000020027161,8|0,0:0|0:0,0:0:0:0:
460,384,201240,1,2,0:0:0:0:
457,112,201425,6,0,P|429:153|441:184,1,52.5000020027161,8|0,0:0|0:0,0:0:0:0:
499,239,201610,1,2,0:0:0:0:
319,248,201796,6,0,P|279:185|284:122,1,105.000004005432,8|2,0:0|0:0,0:0:0:0:
320,84,202074,1,8,0:0:0:0:
337,73,202167,2,0,P|384:56|421:47,1,52.5000020027161,0|2,0:0|0:0,0:0:0:0:
258,45,202352,1,2,0:0:0:0:
229,66,202444,1,0,0:0:0:0:
192,68,202537,5,12,0:0:0:0:
175,112,202630,1,0,0:0:0:0:
162,155,202722,1,2,0:0:0:0:
206,271,202907,5,2,0:0:0:0:
136,307,203093,1,2,0:0:0:0:
122,308,203185,1,0,0:0:0:0:
110,309,203278,6,0,B|72:306|56:304|56:304|15:243|44:167,2,157.500006008148,12|8|10,0:0|0:0|0:0,0:0:0:0:
119,228,203926,1,0,0:0:0:0:
127,222,204018,5,8,0:0:0:0:
79,125,204204,5,0,0:0:0:0:
85,93,204296,1,8,0:0:0:0:
105,69,204389,1,0,0:0:0:0:
232,106,204574,2,0,P|197:120|151:140,1,52.5000020027161,2|0,0:0|0:0,0:0:0:0:
213,28,204759,6,0,P|270:31|297:145,1,157.500006008148,8|0,0:0|0:0,0:0:0:0:
266,172,205130,5,10,0:0:0:0:
260,189,205222,1,0,0:0:0:0:
285,233,205315,1,0,0:0:0:0:
268,280,205407,1,0,0:0:0:0:
196,307,205500,6,0,P|123:271|134:221,1,140,6|0,0:0|0:0,0:0:0:0:
74,174,205778,1,2,0:0:0:0:
62,163,205870,2,0,P|114:105|127:110,1,70
189,11,206055,2,0,L|169:91,1,70,2|0,0:0|0:0,0:0:0:0:
231,138,206241,2,0,P|295:190|346:156,1,140,6|0,0:0|0:0,0:0:0:0:
404,131,206518,1,2,0:0:0:0:
399,118,206611,1,0,0:0:0:0:
309,281,206796,1,2,0:0:0:0:
503,377,206981,5,2,0:0:0:0:
503,340,207074,1,0,0:0:0:0:
477,309,207167,1,2,0:0:0:0:
435,302,207259,1,0,0:0:0:0:
398,319,207352,2,0,L|412:389,1,70,2|0,0:0|0:0,0:0:0:0:
221,266,207537,1,2,0:0:0:0:
232,232,207630,1,0,0:0:0:0:
244,201,207722,1,2,0:0:0:0:
184,36,207907,1,2,0:0:0:0:
29,107,208093,2,0,L|185:135,1,140,2|0,0:0|0:0,0:0:0:0:
282,18,208463,6,0,L|427:-1,1,140,2|2,0:0|0:3,0:0:0:0:
488,39,208741,1,2,0:0:0:0:
485,49,208833,1,8,0:0:0:0:
350,141,209018,1,2,0:0:0:0:
321,150,209111,1,2,0:3:0:0:
293,180,209204,1,2,0:0:0:0:
287,227,209296,1,0,0:0:0:0:
314,268,209389,1,2,0:0:0:0:
367,279,209481,1,0,0:0:0:0:
411,273,209574,1,2,0:0:0:0:
448,291,209667,1,0,0:0:0:0:
462,320,209759,1,2,0:0:0:0:
463,343,209852,1,0,0:0:0:0:
455,360,209944,6,0,P|376:368|373:308,1,140,2|0,0:0|0:0,0:0:0:0:
405,260,210222,1,2,0:0:0:0:
401,252,210315,1,0,0:0:0:0:
242,350,210500,1,2,0:0:0:0:
239,358,210593,1,0,0:0:0:0:
238,366,210685,1,2,0:3:0:0:
133,237,210870,1,2,0:0:0:0:
244,136,211055,2,0,L|205:290,1,140,2|2,0:3|0:0,0:0:0:0:
147,317,211333,1,0,0:0:0:0:
141,324,211426,6,0,P|85:325|76:234,1,140,6|0,0:0|0:0,0:0:0:0:
129,226,211704,1,2,0:0:0:0:
133,237,211796,1,0,0:0:0:0:
219,356,211981,2,0,L|294:343,1,70,2|0,0:0|0:0,0:0:0:0:
509,297,212167,2,0,P|440:363|403:298,1,140,2|0,0:0|0:0,0:0:0:0:
359,304,212444,1,2,0:0:0:0:
362,288,212537,2,0,L|380:210,1,70,0|2,0:0|0:0,0:0:0:0:
508,123,212722,1,2,0:0:0:0:
512,134,212815,1,0,0:0:0:0:
501,166,212907,5,2,0:0:0:0:
448,183,213000,1,0,0:0:0:0:
406,142,213093,1,2,0:0:0:0:
409,101,213185,1,0,0:0:0:0:
435,81,213278,1,2,0:3:0:0:
296,184,213463,1,2,0:0:0:0:
224,8,213648,1,2,0:0:0:0:
194,17,213741,1,0,0:0:0:0:
175,37,213833,1,2,0:0:0:0:
171,63,213926,1,0,0:0:0:0:
176,88,214018,2,0,L|247:101,1,70,2|0,0:0|0:0,0:0:0:0:
23,157,214204,2,0,L|115:136,1,70,2|0,0:0|0:0,0:0:0:0:
352,139,214389,5,2,0:0:0:0:
375,141,214481,1,0,0:0:0:0:
406,152,214574,1,2,0:0:0:0:
427,182,214667,1,0,0:0:0:0:
439,225,214759,1,2,0:0:0:0:
426,269,214852,1,0,0:0:0:0:
384,304,214944,1,2,0:0:0:0:
327,311,215037,1,0,0:0:0:0:
276,288,215130,1,2,0:0:0:0:
253,230,215222,1,0,0:0:0:0:
215,176,215315,1,2,0:0:0:0:
143,169,215407,1,0,0:0:0:0:
74,211,215500,1,2,0:0:0:0:
56,287,215593,1,0,0:0:0:0:
98,354,215685,1,2,0:0:0:0:
179,365,215778,1,0,0:0:0:0:
249,315,215870,5,2,0:0:0:0:
205,69,216055,1,0,0:0:0:0:
154,268,216241,1,2,0:3:0:0:
285,45,216426,1,0,0:0:0:0:
30,5,216611,1,2,0:0:0:0:
85,14,216704,1,2,0:0:0:0:
115,56,216796,1,2,0:0:0:0:
113,95,216889,1,2,0:0:0:0:
91,120,216981,1,2,0:0:0:0:
71,129,217074,1,2,0:0:0:0:
52,128,217167,1,2,0:0:0:0:
40,122,217259,1,2,0:0:0:0:
35,113,217352,6,0,P|131:93|194:159,2,157.500006008148,4|0|0,0:0|0:0|0:0,0:0:0:0:
171,206,218093,6,0,P|239:182|248:129,1,105.000004005432,2|0,0:3|0:0,0:0:0:0:
255,78,218370,2,0,P|283:35|333:28,1,105.000004005432
398,64,218648,1,0,0:0:0:0:
399,69,218741,1,0,0:0:0:0:
398,74,218833,1,0,0:0:0:0:
345,156,219018,1,0,0:0:0:0:
431,267,219204,6,0,P|471:317|478:374,1,105.000004005432,8|0,0:0|0:0,0:0:0:0:
411,381,219481,1,0,0:0:0:0:
400,378,219574,1,2,0:3:0:0:
286,301,219759,1,0,0:0:0:0:
262,324,219852,1,0,0:0:0:0:
227,328,219944,1,8,0:0:0:0:
359,309,220130,1,0,0:0:0:0:
158,378,220315,6,0,P|151:306|102:225,2,157.500006008148
210,222,221055,1,2,0:3:0:0:
79,156,221241,1,0,0:0:0:0:
205,114,221426,1,8,0:0:0:0:
166,48,221611,1,0,0:0:0:0:
56,319,221796,6,0,P|125:224|211:222,1,210.000008010865,0|8,0:0|0:0,0:0:0:0:
349,67,222352,1,0,0:0:0:0:
327,99,222444,1,0,0:0:0:0:
293,105,222537,5,2,0:3:0:0:
354,187,222722,1,0,0:0:0:0:
170,373,222907,5,8,0:3:0:0:
180,336,223000,1,0,0:0:0:0:
194,283,223093,1,0,0:3:0:0:
209,221,223185,1,0,0:3:0:0:
225,156,223278,6,0,B|262:157|262:157|341:263|341:263|398:263,2,210,4|0|0,0:0|0:0|0:0,0:0:0:0:
177,103,223926,1,0,0:0:0:0:
156,87,224018,2,0,B|119:88|119:88|40:194|40:194|-17:194,2,210,2|0|0,0:3|0:0|0:0,0:0:0:0:
215,34,224667,1,0,0:0:0:0:
233,28,224759,5,0,0:0:0:0:
304,66,224944,1,0,0:0:0:0:
441,183,225130,5,8,0:0:0:0:
483,114,225315,1,0,0:0:0:0:
272,192,225500,5,2,0:3:0:0:
340,238,225685,1,0,0:0:0:0:
330,318,225870,1,8,0:0:0:0:
318,335,225963,1,0,0:0:0:0:
300,344,226055,1,0,0:0:0:0:
287,347,226148,1,0,0:0:0:0:
274,345,226241,6,0,P|238:292|130:306,1,157.500006008148,2|0,0:3|0:0,0:0:0:0:
105,349,226611,1,8,0:0:0:0:
41,262,226796,1,0,0:0:0:0:
49,252,226889,1,0,0:0:0:0:
56,242,226981,6,0,P|117:150|130:88,1,157.500006008148,2|0,0:3|0:0,0:0:0:0:
91,44,227352,1,8,0:0:0:0:
181,13,227537,1,0,0:0:0:0:
3,139,227722,6,0,P|20:108|66:116,1,52.5000020027161,4|0,0:0|0:0,0:0:0:0:
91,44,227907,1,0,0:0:0:0:
123,202,228093,6,0,P|158:201|174:245,1,52.5000020027161,8|0,0:0|0:0,0:0:0:0:
147,295,228278,6,0,P|165:325|135:361,1,52.5000020027161
290,381,228463,5,2,0:3:0:0:
279,346,228555,1,0,0:0:0:0:
287,316,228648,1,2,0:3:0:0:
309,296,228741,1,0,0:0:0:0:
372,284,228833,5,10,0:3:0:0:
378,272,228926,1,0,0:0:0:0:
438,313,229018,5,2,0:3:0:0:
441,295,229111,1,0,0:0:0:0:
507,258,229204,6,0,L|533:143,2,115.50000352478,6|2|2,0:0|0:0|0:0,0:0:0:0:
453,155,229944,2,0,L|444:108,3,38.5000011749268
442,98,230315,1,0,0:0:0:0:
290,99,230685,6,0,P|325:104|357:8,1,154.000004699707,2|0,0:0|0:0,0:0:0:0:
266,9,231241,1,0,0:0:0:0:
265,16,231333,1,0,0:0:0:0:
263,23,231426,2,0,L|247:197,1,154.000004699707,8|0,0:0|0:0,0:0:0:0:
213,296,231981,1,0,0:0:0:0:
211,288,232074,1,2,0:0:0:0:
209,280,232167,6,0,P|195:232|133:252,2,115.50000352478,2|2|2,0:0|0:0|0:0,0:0:0:0:
157,380,232907,2,0,L|64:365,1,77.0000023498536
256,347,233278,2,0,P|303:327|373:311,1,115.50000352478
382,321,233648,5,2,0:0:0:0:
472,263,233833,1,0,0:0:0:0:
432,198,234018,2,0,P|420:159|414:149,3,38.5000011749268
413,210,234389,1,8,0:0:0:0:
455,93,234574,1,0,0:0:0:0:
456,85,234667,1,0,0:0:0:0:
452,75,234759,1,0,0:0:0:0:
361,44,234944,1,0,0:0:0:0:
367,68,235037,1,8,0:0:0:0:
371,93,235130,6,0,L|246:59,2,115.50000352478,12|8|8,0:0|0:0|0:0,0:0:0:0:
213,2,235870,2,0,L|169:13,3,38.5000011749268,8|0|0|0,0:0|0:0|0:0|0:0,0:0:0:0:
158,18,236241,1,2,0:0:0:0:
57,2,236426,1,0,0:0:0:0:
8,62,236611,6,0,L|30:152,1,77.0000023498536,2|0,0:0|0:0,0:0:0:0:
40,278,236981,2,0,P|47:222|117:214,1,115.50000352478,2|0,0:0|0:0,0:0:0:0:
126,210,237352,2,0,L|146:303,1,77.0000023498536,8|0,0:0|0:0,0:0:0:0:
134,310,237630,1,2,0:0:0:0:
231,372,237907,1,0,0:0:0:0:
241,369,238000,1,0,0:0:0:0:
250,363,238093,6,0,L|369:379,1,115.50000352478,2|2,0:0|0:0,0:0:0:0:
376,375,238463,1,0,0:0:0:0:
440,296,238648,1,2,0:0:0:0:
393,218,238833,1,10,0:0:0:0:
457,66,239204,2,0,L|439:141,1,77.0000023498536,2|0,0:0|0:0,0:0:0:0:
289,214,239574,6,0,P|242:198|228:130,1,115.50000352478,2|0,0:0|0:0,0:0:0:0:
234,126,239944,1,2,0:0:0:0:
169,31,240130,1,2,0:0:0:0:
44,141,240315,5,2,0:0:0:0:
27,154,240407,1,2,0:0:0:0:
21,187,240500,1,2,0:0:0:0:
41,222,240593,1,2,0:0:0:0:
90,239,240685,1,2,0:0:0:0:
146,219,240778,1,2,0:0:0:0:
179,164,240870,1,2,0:0:0:0:
234,126,240963,1,2,0:0:0:0:
314,130,241055,6,0,B|381:212|328:293|438:307|438:307|372:306|362:191,1,315.000012016297,6|0,0:0|0:0,0:0:0:0:
449,226,241426,1,8,0:0:0:0:
383,375,241611,1,2,0:3:0:0:
508,277,241796,2,0,P|525:237|489:166,1,105.000004005432,2|0,0:0|0:0,0:0:0:0:
382,55,241981,1,0,0:0:0:0:
372,76,242074,2,0,P|398:110|477:115,1,105.000004005432,0|8,0:0|0:0,0:0:0:0:
512,15,242259,1,0,0:0:0:0:
479,33,242352,1,0,0:0:0:0:
314,130,242537,2,0,P|266:154|241:173,2,52.5000020027161,2|0|0,0:0|0:0|0:0,0:0:0:0:
264,54,242722,6,0,P|158:35|87:25,1,105.000004005432
156,119,242907,2,0,P|50:100|-21:90,1,105.000004005432,8|0,0:0|0:0,0:0:0:0:
233,254,243093,2,0,P|127:235|56:225,1,105.000004005432,2|0,0:3|0:0,0:0:0:0:
106,337,243278,2,0,P|0:318|-71:308,1,105.000004005432
313,229,243463,5,0,0:0:0:0:
156,119,243648,1,10,0:3:0:0:
221,364,243833,1,2,0:3:0:0:
318,317,244018,6,0,P|386:258|337:149,1,210.000008010865,6|2,0:0|0:3,0:0:0:0:
256,118,244296,1,0,0:0:0:0:
227,126,244389,2,0,P|159:185|208:294,1,210.000008010865,10|2,0:0|0:3,0:0:0:0:
0,0,244759,6,0,P|61:116|72:279,1,210.000008010865,2|0,0:0|0:0,0:0:0:0:
41,301,245037,1,0,0:0:0:0:
78,283,245130,1,10,0:0:0:0:
192,143,245315,2,0,P|148:206|138:283,1,105.000004005432,2|0,0:0|0:0,0:0:0:0:
207,363,245500,5,0,0:0:0:0:
241,328,245593,1,0,0:0:0:0:
296,320,245685,1,2,0:0:0:0:
347,344,245778,1,0,0:0:0:0:
423,370,245870,5,8,0:0:0:0:
476,352,245963,1,0,0:0:0:0:
500,313,246055,1,2,0:0:0:0:
490,273,246148,1,0,0:0:0:0:
433,240,246241,5,2,0:3:0:0:
423,224,246333,1,0,0:0:0:0:
381,166,246426,5,2,0:3:0:0:
386,147,246518,1,0,0:0:0:0:
420,88,246611,6,0,P|492:61|527:27,1,105.000004005432,10|0,0:3|0:0,0:0:0:0:
352,185,246796,2,0,P|280:212|245:246,1,105.000004005432,2|0,0:3|0:0,0:0:0:0:
512,181,246981,6,0,P|364:118|188:104,1,315.000012016297,6|0,0:0|0:0,0:0:0:0:
150,47,247352,1,8,0:0:0:0:
321,12,247537,1,2,0:3:0:0:
258,210,247722,6,0,P|149:257|61:333,1,210.000008010865,0|2,0:0|0:0,0:0:0:0:
20,257,248000,1,0,0:0:0:0:
0,233,248093,2,0,P|29:168|87:178,1,105.000004005432,10|0,0:3|0:0,0:0:0:0:
1,348,248278,1,2,0:3:0:0:
153,169,248463,2,0,P|128:114|126:96,2,52.5000020027161,2|0|0,0:0|0:0|0:0,0:0:0:0:
86,239,248648,6,0,P|181:297|245:386,1,210.000008010865,0|8,0:0|0:0,0:0:0:0:
230,123,249018,6,0,P|356:155|426:4,1,315.000012016297,2|0,0:0|0:0,0:0:0:0:
398,6,249389,1,0,0:0:0:0:
505,142,249574,5,8,0:0:0:0:
328,57,249759,1,0,0:0:0:0:
204,207,249944,5,2,0:0:0:0:
163,191,250037,1,0,0:0:0:0:
115,201,250129,1,2,0:3:0:0:
86,239,250222,1,0,0:0:0:0:
102,271,250314,5,10,0:0:0:0:
120,287,250407,1,0,0:0:0:0:
125,310,250500,1,2,0:3:0:0:
118,331,250592,1,0,0:0:0:0:
107,353,250685,5,2,0:0:0:0:
63,384,250777,1,0,0:0:0:0:
13,353,250870,1,2,0:3:0:0:
9,297,250963,1,0,0:0:0:0:
39,246,251055,5,10,0:0:0:0:
109,281,251148,1,0,0:0:0:0:
182,270,251240,1,2,0:3:0:0:
240,324,251333,1,0,0:0:0:0:
319,317,251426,6,0,P|294:175|304:58,1,210.000008010865,6|0,0:0|0:0,0:0:0:0:
314,22,251704,1,0,0:0:0:0:
352,0,251796,1,8,0:0:0:0:
126,152,251981,1,2,0:3:0:0:
379,111,252167,5,6,0:0:0:0:
417,164,252259,1,0,0:0:0:0:
379,219,252352,1,2,0:3:0:0:
314,214,252444,1,0,0:0:0:0:
270,155,252537,2,0,P|319:160|355:244,1,105.000004005432,10|0,0:3|0:0,0:0:0:0:
417,377,252722,1,2,0:3:0:0:
452,314,252815,1,0,0:0:0:0:
374,295,252907,6,0,P|309:348|222:308,1,167.999994873047,6|0,0:0|0:0,0:0:0:0:
171,369,253185,1,0,0:0:0:0:
161,363,253278,2,0,L|144:274,1,83.9999974365235,8|0,0:0|0:0,0:0:0:0:
180,219,253463,2,0,L|194:128,1,83.9999974365235,2|0,0:3|0:0,0:0:0:0:
80,11,253648,2,0,P|0:81|46:126,1,167.999994873047,2|0,0:0|0:0,0:0:0:0:
79,157,253926,1,0,0:0:0:0:
84,165,254018,2,0,P|123:75|132:64,1,83.9999974365235,8|0,0:0|0:0,0:0:0:0:
219,3,254204,2,0,P|255:87|259:116,1,83.9999974365235
345,216,254389,6,0,P|357:170|362:159,2,41.9999987182618,2|0|0,0:0|0:0|0:0,0:0:0:0:
346,240,254574,1,0,0:0:0:0:
472,91,254759,1,8,0:0:0:0:
245,166,254944,1,2,0:3:0:0:
223,176,255037,1,0,0:0:0:0:
213,196,255130,2,0,P|242:288|256:290,1,83.9999974365235
429,384,255315,1,2,0:3:0:0:
456,382,255407,1,0,0:0:0:0:
493,365,255500,1,10,0:3:0:0:
512,322,255593,1,0,0:0:0:0:
500,262,255685,1,2,0:3:0:0:
444,241,255778,1,0,0:0:0:0:
382,270,255870,6,0,B|344:270|327:300|339:348|307:393|235:374,1,167.999994873047,6|2,0:0|0:3,0:0:0:0:
201,349,256148,1,0,0:0:0:0:
189,344,256241,2,0,P|94:375|86:394,1,83.9999974365235,10|0,0:0|0:0,0:0:0:0:
294,189,256426,2,0,P|330:91|313:70,1,83.9999974365235,2|0,0:3|0:0,0:0:0:0:
109,36,256611,2,0,P|154:179|168:240,1,167.999994873047,2|0,0:0|0:0,0:0:0:0:
101,262,256889,1,0,0:0:0:0:
103,247,256981,1,8,0:0:0:0:
207,56,257167,1,2,0:0:0:0:
455,3,257352,5,0,0:0:0:0:
503,62,257444,1,0,0:0:0:0:
499,120,257537,1,2,0:0:0:0:
457,156,257630,1,0,0:0:0:0:
409,158,257722,1,8,0:0:0:0:
367,173,257815,1,0,0:0:0:0:
348,210,257907,1,2,0:0:0:0:
347,258,258000,1,0,0:0:0:0:
378,291,258093,1,2,0:3:0:0:
416,304,258185,1,0,0:0:0:0:
446,303,258278,1,2,0:3:0:0:
473,295,258370,1,0,0:0:0:0:
488,283,258463,2,0,P|464:198|456:184,3,83.9999974365235,10|0|2|0,0:3|0:0|0:3|0:0,0:0:0:0:
364,8,258833,6,0,P|267:32|263:183,1,251.999992309571,6|0,0:0|0:0,0:0:0:0:
294,226,259204,2,0,P|356:159|310:100,1,167.999994873047,8|2,0:0|0:3,0:0:0:0:
189,6,259574,1,0,0:0:0:0:
30,130,259759,1,2,0:0:0:0:
22,116,259852,1,0,0:0:0:0:
25,101,259944,1,8,0:0:0:0:
243,65,260130,2,0,P|202:161|188:196,1,83.9999974365235,2|0,0:0|0:0,0:0:0:0:
109,314,260315,6,0,L|97:262,2,41.9999987182618,2|0|0,0:0|0:0|0:0,0:0:0:0:
113,336,260500,1,0,0:0:0:0:
124,132,260685,1,8,0:0:0:0:
22,359,260870,1,2,0:0:0:0:
295,307,261055,2,0,P|211:300|191:216,1,167.999994873047
308,6,261426,2,0,L|280:98,1,83.9999974365235,8|0,0:0|0:0,0:0:0:0:
320,147,261611,2,0,L|347:261,1,83.9999974365235
422,366,261796,5,2,0:0:0:0:
459,378,261889,1,0,0:0:0:0:
497,355,261981,1,2,0:3:0:0:
498,313,262074,1,0,0:0:0:0:
465,284,262167,1,10,0:0:0:0:
426,289,262259,1,0,0:0:0:0:
408,328,262352,1,2,0:3:0:0:
368,356,262444,1,0,0:0:0:0:
311,363,262537,1,2,0:0:0:0:
257,329,262630,1,0,0:0:0:0:
231,273,262722,1,2,0:3:0:0:
251,214,262815,1,0,0:0:0:0:
299,173,262907,1,10,0:0:0:0:
326,111,263000,1,0,0:0:0:0:
298,46,263093,1,2,0:3:0:0:
227,23,263185,1,0,0:0:0:0:
164,64,263278,6,0,P|75:35|-27:3,1,167.999994873047,6|0,0:0|0:0,0:0:0:0:
154,189,263648,2,0,P|58:232|-29:279,1,167.999994873047,8|0,0:0|0:0,0:0:0:0:
213,303,264018,2,0,P|175:385|162:407,1,83.9999974365235,6|0,0:0|0:0,0:0:0:0:
381,249,264204,1,8,0:0:0:0:
394,233,264296,2,0,P|365:136|356:106,1,83.9999974365235,0|8,0:0|0:0,0:0:0:0:
298,8,264481,5,0,0:0:0:0:
287,75,264574,1,8,0:0:0:0:
274,146,264667,1,0,0:0:0:0:
269,156,264759,6,0,B|224:97|145:87|145:87|190:-28|366:28,1,315.000012016297,6|0,0:0|0:0,0:0:0:0:
352,51,265130,1,8,0:0:0:0:
226,245,265315,1,2,0:3:0:0:
451,84,265500,6,0,P|378:57|301:42,1,105.000004005432,2|0,0:0|0:0,0:0:0:0:
463,178,265685,1,2,0:3:0:0:
447,165,265778,2,0,P|370:178|296:203,1,105.000004005432,0|8,0:0|0:0,0:0:0:0:
498,270,265963,1,0,0:0:0:0:
477,266,266056,2,0,P|417:315|365:374,1,105.000004005432,2|0,0:3|0:0,0:0:0:0:
179,341,266241,6,0,P|177:331|180:342,2,52.5000020027161,2|0|0,0:0|0:0|0:0,0:0:0:0:
87,268,266426,2,0,B|119:225|119:225|102:303,1,105.000004005432,2|0,0:3|0:0,0:0:0:0:
284,319,266611,2,0,B|316:362|316:362|299:284,1,105.000004005432,8|0,0:0|0:0,0:0:0:0:
154,136,266796,2,0,B|122:93|122:93|139:171,1,105.000004005432,2|0,0:3|0:0,0:0:0:0:
365,192,266981,2,0,B|333:235|333:235|350:157,1,105.000004005432
143,0,267167,5,2,0:0:0:0:
306,83,267352,1,10,0:0:0:0:
87,268,267537,1,2,0:0:0:0:
284,319,267722,6,0,P|359:193|264:134,1,210.000008010865,6|2,0:0|0:3,0:0:0:0:
306,83,268000,1,0,0:0:0:0:
252,141,268093,2,0,P|177:267|272:326,1,210.000008010865,10|2,0:0|0:3,0:0:0:0:
459,335,268463,6,0,P|261:338|94:433,1,315.000012016297,2|0,0:0|0:0,0:0:0:0:
82,373,268833,1,10,0:0:0:0:
161,78,269018,2,0,P|219:103|196:181,1,105.000004005432,2|0,0:3|0:0,0:0:0:0:
9,222,269204,5,0,0:0:0:0:
74,187,269296,1,0,0:0:0:0:
134,207,269389,1,2,0:0:0:0:
163,257,269481,1,0,0:0:0:0:
181,306,269574,1,8,0:0:0:0:
221,322,269667,1,0,0:0:0:0:
261,317,269759,1,2,0:0:0:0:
284,302,269852,1,0,0:0:0:0:
296,280,269944,5,2,0:3:0:0:
289,265,270037,1,0,0:0:0:0:
336,215,270130,5,2,0:3:0:0:
337,206,270222,1,0,0:0:0:0:
429,186,270315,5,10,0:3:0:0:
387,131,270407,1,0,0:0:0:0:
410,63,270500,1,2,0:3:0:0:
368,8,270592,1,0,0:0:0:0:
472,43,270685,6,0,B|378:15|316:103|230:72|230:72|216:37|255:20,1,315.000012016297,6|0,0:0|0:0,0:0:0:0:
285,0,271055,1,8,0:0:0:0:
405,176,271241,1,2,0:3:0:0:
88,85,271426,6,0,P|145:113|203:193,1,105.000004005432,2|0,0:0|0:0,0:0:0:0:
338,195,271611,1,2,0:0:0:0:
310,182,271704,2,0,P|253:210|195:290,1,105.000004005432,0|8,0:0|0:0,0:0:0:0:
94,341,271889,1,0,0:0:0:0:
119,323,271982,2,0,P|123:259|82:169,1,105.000004005432
278,47,272167,6,0,P|284:60|273:46,2,52.5000020027161,2|0|0,0:0|0:0|0:0,0:0:0:0:
194,4,272352,1,0,0:0:0:0:
287,165,272537,1,8,0:0:0:0:
244,337,272722,2,0,P|192:227|171:105,1,210.000008010865,2|0,0:0|0:0,0:0:0:0:
278,47,273093,1,2,0:3:0:0:
507,235,273278,6,0,P|454:254|415:330,1,105.000004005432,8|0,0:0|0:0,0:0:0:0:
287,165,273463,2,0,P|340:184|379:260,1,105.000004005432,2|0,0:3|0:0,0:0:0:0:
76,358,273648,5,2,0:0:0:0:
39,370,273741,1,0,0:0:0:0:
1,347,273833,1,2,0:3:0:0:
0,305,273926,1,0,0:0:0:0:
33,276,274019,1,10,0:0:0:0:
72,281,274111,1,0,0:0:0:0:
90,320,274204,1,2,0:3:0:0:
130,348,274296,1,0,0:0:0:0:
187,355,274389,1,2,0:0:0:0:
241,321,274482,1,0,0:0:0:0:
267,265,274574,1,2,0:3:0:0:
247,206,274667,1,0,0:0:0:0:
199,165,274759,1,10,0:0:0:0:
172,103,274852,1,0,0:0:0:0:
200,38,274945,1,2,0:3:0:0:
271,15,275037,1,0,0:0:0:0:
342,60,275130,6,0,B|426:100|371:178|525:201,1,210.000008010865,6|0,0:0|0:0,0:0:0:0:
385,295,275407,1,0,0:0:0:0:
353,221,275500,2,0,B|335:225|315:257|315:257|330:225|391:219,1,105.000004005432,8|0,0:0|0:0,0:0:0:0:
482,57,275685,1,2,0:3:0:0:
276,158,275870,5,6,0:0:0:0:
196,147,275963,1,0,0:0:0:0:
131,202,276055,1,2,0:3:0:0:
48,182,276148,1,0,0:0:0:0:
99,110,276241,2,0,B|150:130|139:162|202:178,1,105.000004005432,10|0,0:3|0:0,0:0:0:0:
269,379,276426,1,10,0:3:0:0:
215,314,276518,1,0,0:0:0:0:
267,236,276611,6,0,B|332:207|378:243|355:340|389:387|464:333,1,210.000008010865,6|0,0:0|0:0,0:0:0:0:
488,295,276889,1,0,0:0:0:0:
486,284,276981,2,0,B|490:247|490:247|405:312,1,105.000004005432,8|0,0:0|0:0,0:0:0:0:
269,320,277167,2,0,B|272:354|272:354|181:290,1,105.000004005432,2|0,0:3|0:0,0:0:0:0:
92,172,277352,2,0,P|124:265|150:391,1,210.000008010865,2|2,0:0|0:3,0:0:0:0:
93,336,277630,1,0,0:0:0:0:
97,319,277722,1,8,0:0:0:0:
143,109,277907,2,0,P|181:-9|188:-16,1,105.000004005432,2|0,0:3|0:0,0:0:0:0:
50,46,278093,6,0,P|30:0|17:-14,2,52.5000020027161,2|0|0,0:0|0:0|0:0,0:0:0:0:
55,67,278278,1,2,0:3:0:0:
175,187,278463,2,0,P|292:227|317:242,1,105.000004005432,8|0,0:0|0:0,0:0:0:0:
506,164,278648,1,2,0:3:0:0:
499,131,278741,1,0,0:0:0:0:
490,95,278833,2,0,P|393:131|394:157,1,105.000004005432
341,381,279018,1,2,0:0:0:0:
357,308,279111,1,0,0:0:0:0:
372,234,279204,1,10,0:0:0:0:
252,9,279389,2,0,P|291:129|293:142,1,105.000004005432,2|0,0:0|0:0,0:0:0:0:
473,285,279574,6,0,P|307:324|232:353,1,210.000008010865,6|2,0:0|0:3,0:0:0:0:
200,382,279852,1,0,0:0:0:0:
181,380,279944,2,0,B|157:358|157:358|206:122,1,210.000008010865,10|2,0:0|0:3,0:0:0:0:
69,17,280315,1,2,0:0:0:0:
231,252,280500,1,2,0:0:0:0:
242,245,280593,1,0,0:0:0:0:
306,202,280685,6,0,L|330:86,1,105.000004005432,10|0,0:0|0:0,0:0:0:0:
151,24,280870,2,0,B|141:30|141:30|174:139,1,105.000004005432,2|0,0:0|0:0,0:0:0:0:
349,272,281055,1,0,0:0:0:0:
341,315,281148,1,0,0:0:0:0:
332,359,281241,1,2,0:0:0:0:
506,143,281426,5,8,0:0:0:0:
492,77,281518,1,0,0:0:0:0:
437,50,281611,1,2,0:0:0:0:
384,68,281704,1,0,0:0:0:0:
359,118,281796,1,0,0:0:0:0:
326,148,281889,1,0,0:0:0:0:
287,148,281981,1,2,0:3:0:0:
260,124,282074,1,0,0:0:0:0:
257,97,282167,1,10,0:3:0:0:
261,79,282259,1,0,0:0:0:0:
218,73,282352,1,2,0:3:0:0:
209,57,282444,1,0,0:0:0:0:
139,0,282537,6,0,B|116:-3|116:-3|161:320,1,315.000012016297,6|0,0:0|0:0,0:0:0:0:
251,332,282907,2,0,B|262:336|262:336|305:166,1,105.000004005432,8|0,0:0|0:0,0:0:0:0:
251,174,283093,2,0,B|215:181|221:216|221:216|232:188|284:168,1,105.000004005432,2|0,0:3|0:0,0:0:0:0:
345,343,283278,2,0,L|485:311,1,105.000004005432
361,158,283463,1,2,0:0:0:0:
364,140,283555,1,0,0:0:0:0:
337,69,283648,2,0,B|313:79|313:79|375:299,1,210.000008010865,10|2,0:0|0:0,0:0:0:0:
480,93,284018,6,0,L|495:29,2,52.5000020027161,2|0|0,0:0|0:0|0:0,0:0:0:0:
474,117,284204,1,2,0:3:0:0:
512,326,284389,6,0,B|494:313|494:313|118:213,1,315.000012016297,8|0,0:0|0:0,0:0:0:0:
151,283,284759,2,0,B|148:295|148:295|26:340,1,105.000004005432
296,185,284944,1,2,0:3:0:0:
135,1,285130,1,10,0:0:0:0:
83,103,285315,1,2,0:0:0:0:
215,366,285500,5,2,0:0:0:0:
291,377,285593,1,0,0:0:0:0:
350,336,285685,1,2,0:3:0:0:
365,272,285778,1,0,0:0:0:0:
340,214,285870,1,10,0:0:0:0:
287,182,285963,1,0,0:0:0:0:
234,159,286055,1,2,0:3:0:0:
215,103,286148,1,0,0:0:0:0:
233,52,286241,1,2,0:0:0:0:
277,24,286333,1,0,0:0:0:0:
324,20,286426,1,2,0:3:0:0:
359,45,286518,1,0,0:0:0:0:
369,79,286611,1,10,0:0:0:0:
368,107,286704,1,0,0:0:0:0:
355,131,286796,1,2,0:3:0:0:
335,141,286889,1,0,0:0:0:0:
275,187,286981,6,0,B|264:173|264:173|26:140,1,210.000008010865,6|0,0:0|0:3,0:0:0:0:
451,322,287352,2,0,B|440:336|440:336|203:369,1,210.000008010865,10|0,0:0|0:3,0:0:0:0:
511,44,287722,2,0,B|510:35|510:35|377:15,1,105.000004005432,6|0,0:0|0:0,0:0:0:0:
198,5,287907,1,2,0:3:0:0:
186,15,288000,2,0,B|181:24|181:24|209:132,1,105.000004005432,2|10,0:3|0:3,0:0:0:0:
277,159,288185,1,2,0:3:0:0:
288,173,288278,2,0,B|292:182|292:182|263:291,1,105.000004005432,2|2,0:3|0:3,0:0:0:0:
162,287,288463,6,0,P|107:296|41:381,1,105.000004005432,6|0,0:0|0:0,0:0:0:0:
267,273,288648,2,0,P|313:310|371:320,1,105.000004005432,2|0,0:0|0:0,0:0:0:0:
174,213,288833,1,8,0:0:0:0:
159,190,288926,2,0,P|106:171|7:211,1,105.000004005432,0|2,0:0|0:0,0:0:0:0:
280,150,289111,1,0,0:0:0:0:
297,162,289204,2,0,P|354:153|420:68,1,105.000004005432,2|0,0:3|0:0,0:0:0:0:
174,103,289389,1,2,0:0:0:0:
138,45,289481,1,0,0:0:0:0:
68,38,289574,1,8,0:0:0:0:
267,17,289759,1,2,0:0:0:0:
228,212,289944,6,0,B|249:307|248:377|248:377|261:332|331:363,1,210.000008010865,2|2,0:0|0:3,0:0:0:0:
338,313,290222,1,0,0:0:0:0:
357,303,290315,1,8,0:0:0:0:
390,304,290407,1,0,0:0:0:0:
433,339,290500,1,2,0:3:0:0:
486,319,290593,1,0,0:0:0:0:
498,270,290685,1,2,0:0:0:0:
446,220,290778,1,0,0:0:0:0:
418,154,290870,1,2,0:3:0:0:
431,103,290963,1,0,0:0:0:0:
471,64,291055,2,0,B|505:54|530:97|477:155|418:117|414:114|409:110|354:77|272:188,1,210.000008010865,10|2,0:0|0:3,0:0:0:0:
221,57,291333,1,0,0:0:0:0:
242,27,291426,6,0,P|286:57|295:161,1,105.000004005432,2|0,0:0|0:0,0:0:0:0:
123,65,291611,2,0,P|152:114|104:205,1,105.000004005432,2|0,0:0|0:0,0:0:0:0:
244,256,291796,1,8,0:0:0:0:
247,227,291889,2,0,P|265:173|314:142,1,105.000004005432
109,314,292074,2,0,P|89:258|40:227,1,105.000004005432,0|2,0:0|0:0,0:0:0:0:
250,356,292259,2,0,P|302:337|333:288,1,105.000004005432,0|2,0:0|0:0,0:0:0:0:
388,194,292444,1,0,0:0:0:0:
435,182,292537,1,8,0:0:0:0:
407,366,292722,1,2,0:0:0:0:
512,358,292907,6,0,P|476:270|330:310,1,210.000008010865,2|0,0:0|0:0,0:0:0:0:
228,232,293185,2,0,P|192:321|48:306,1,210.000008010865,2|0,0:0|0:0,0:0:0:0:
124,235,293463,1,2,0:3:0:0:
134,37,293648,5,2,0:0:0:0:
148,112,293741,1,0,0:0:0:0:
201,137,293833,1,2,0:3:0:0:
248,118,293926,1,2,0:0:0:0:
276,87,294018,1,8,0:0:0:0:
316,75,294111,1,2,0:0:0:0:
353,84,294204,1,2,0:3:0:0:
368,117,294296,1,0,0:0:0:0:
312,160,294389,6,0,P|271:120|296:43,1,105.000004005432,6|0,0:0|0:0,0:0:0:0:
438,196,294574,2,0,P|450:143|529:127,1,105.000004005432,2|0,0:0|0:0,0:0:0:0:
323,280,294759,1,8,0:0:0:0:
289,277,294852,2,0,P|250:318|275:395,1,105.000004005432,2|0,0:0|0:0,0:0:0:0:
423,299,295037,2,0,P|436:353|516:370,1,105.000004005432,2|0,0:0|0:0,0:0:0:0:
215,211,295222,2,0,P|163:199|108:259,1,105.000004005432,2|2,0:0|0:3,0:0:0:0:
368,117,295407,1,0,0:0:0:0:
406,73,295500,1,8,0:0:0:0:
277,10,295685,1,2,0:0:0:0:
119,73,295870,6,0,B|87:111|30:133|30:133|63:265|159:170|176:351,1,315.000012016297,2|0,0:0|0:0,0:0:0:0:
124,360,296241,1,8,0:0:0:0:
96,356,296333,1,0,0:0:0:0:
65,338,296426,1,2,0:3:0:0:
46,295,296518,1,0,0:0:0:0:
58,229,296611,1,2,0:0:0:0:
120,181,296704,1,0,0:0:0:0:
191,185,296796,1,2,0:0:0:0:
226,170,296889,1,0,0:0:0:0:
235,144,296981,2,0,B|225:113|203:86|203:86|259:8|355:30|355:30|299:40|303:137,1,315.000012016297,10|0,0:0|0:0,0:0:0:0:
336,161,297352,6,0,P|283:257|304:322,1,105.000004005432,2|0,0:0|0:0,0:0:0:0:
406,358,297537,2,0,P|298:357|252:408,1,105.000004005432,2|0,0:0|0:0,0:0:0:0:
90,178,297722,1,8,0:0:0:0:
126,184,297815,2,0,P|177:277|156:342,1,105.000004005432,2|0,0:0|0:0,0:0:0:0:
64,371,298000,2,0,P|174:369|220:420,1,105.000004005432,2|0,0:0|0:0,0:0:0:0:
336,161,298185,2,0,P|281:176|224:160,1,105.000004005432,2|2,0:0|0:3,0:0:0:0:
59,53,298370,1,0,0:0:0:0:
85,24,298463,2,0,P|142:8|199:24,1,105.000004005432,8|0,0:0|0:0,0:0:0:0:
176,278,298648,1,2,0:0:0:0:
473,2,298833,6,0,B|476:73|418:148|418:148|409:81|301:88,1,210.000008010865,6|0,0:0|0:0,0:0:0:0:
391,307,299111,2,0,B|396:237|338:162|338:162|329:229|221:222,1,210.000008010865,2|0,0:0|0:0,0:0:0:0:
206,157,299389,1,2,0:0:0:0:
124,347,299574,5,0,0:0:0:0:
195,339,299667,1,0,0:0:0:0:
269,364,299759,2,0,P|304:370|344:372,2,52.5000020027161,2|0|0,0:3|0:0|0:0,0:0:0:0:
192,243,299944,5,2,0:0:0:0:
121,235,300037,1,0,0:0:0:0:
59,264,300129,2,0,P|25:270|-15:272,2,52.5000020027161
223,160,300315,6,0,P|256:45|258:18,1,105.000004005432,6|0,0:0|0:0,0:0:0:0:
335,2,300500,2,0,P|372:120|385:154,1,105.000004005432,2|0,0:0|0:0,0:0:0:0:
475,197,300685,1,8,0:0:0:0:
485,210,300778,2,0,P|393:302|384:296,1,105.000004005432,0|2,0:0|0:0,0:0:0:0:
364,380,300963,2,0,P|258:318|234:328,1,105.000004005432,0|2,0:0|0:3,0:0:0:0:
44,344,301148,2,0,P|172:322|157:221,1,210.000008010865
103,222,301426,1,8,0:0:0:0:
266,1,301611,2,0,P|234:139|225:168,1,105.000004005432,2|0,0:0|0:0,0:0:0:0:
272,176,301796,2,0,P|300:314|391:326,1,210.000008010865,2|2,0:0|0:3,0:0:0:0:
508,132,302167,5,8,0:0:0:0:
490,111,302259,1,0,0:0:0:0:
459,96,302352,1,2,0:3:0:0:
413,98,302444,1,0,0:0:0:0:
378,137,302537,1,2,0:0:0:0:
372,188,302630,1,0,0:0:0:0:
418,231,302722,1,2,0:3:0:0:
464,280,302815,1,0,0:0:0:0:
453,351,302907,2,0,B|440:362|440:362|170:375,1,210.000008010865,10|2,0:0|0:3,0:0:0:0:
38,272,303278,6,0,B|30:266|30:266|0:146,1,105.000004005432,2|0,0:0|0:0,0:0:0:0:
130,70,303463,2,0,B|119:77|119:77|89:197,1,105.000004005432,2|0,0:0|0:0,0:0:0:0:
147,266,303648,1,8,0:0:0:0:
162,262,303741,2,0,B|176:261|176:261|269:128,1,105.000004005432
270,0,303926,2,0,P|362:114|301:176,2,210.000008010865
210,49,304389,1,8,0:0:0:0:
448,198,304574,1,2,0:0:0:0:
338,334,304759,6,0,B|286:325|262:264|262:264|298:328|437:339,1,210.000008010865,2|0,0:0|0:0,0:0:0:0:
365,234,305037,2,0,B|287:233|278:281|303:348|263:401|145:369,1,210.000008010865,2|0,0:0|0:0,0:0:0:0:
163,339,305315,1,2,0:3:0:0:
8,22,305500,5,2,0:0:0:0:
84,56,305593,1,0,0:0:0:0:
128,116,305685,1,2,0:3:0:0:
142,163,305778,1,2,0:0:0:0:
143,205,305870,1,0,0:0:0:0:
132,232,305963,1,2,0:0:0:0:
108,246,306055,1,2,0:3:0:0:
87,246,306148,1,0,0:0:0:0:
46,209,306241,6,0,P|201:154|223:136,1,105.000004005432,6|0,0:0|0:0,0:0:0:0:
216,39,306426,2,0,P|330:84|343:95,1,105.000004005432,2|0,0:0|0:0,0:0:0:0:
464,168,306611,1,8,0:0:0:0:
455,194,306704,2,0,P|429:63|428:41,1,105.000004005432,2|0,0:0|0:0,0:0:0:0:
291,288,306889,2,0,P|328:174|333:153,1,105.000004005432,2|0,0:0|0:0,0:0:0:0:
207,371,307074,2,0,P|147:238|90:153,1,210.000008010865,2|0,0:0|0:0,0:0:0:0:
51,149,307352,1,8,0:0:0:0:
46,364,307537,1,2,0:0:0:0:
212,189,307722,6,0,P|140:74|85:95,1,210.000008010865,2|2,0:0|0:3,0:0:0:0:
6,252,308093,5,8,0:0:0:0:
80,248,308185,1,0,0:0:0:0:
134,274,308278,1,2,0:3:0:0:
156,317,308370,1,0,0:0:0:0:
183,351,308463,1,2,0:0:0:0:
216,369,308555,1,0,0:0:0:0:
248,377,308648,1,0,0:0:0:0:
273,371,308741,1,0,0:0:0:0:
288,358,308833,2,0,B|310:343|310:343|325:93,1,210.000008010865,10|0,0:0|0:0,0:0:0:0:
118,9,309204,6,0,B|112:24|112:24|154:151,1,105.000004005432,2|0,0:0|0:0,0:0:0:0:
235,81,309389,2,0,B|244:98|244:98|202:225,1,105.000004005432,2|0,0:0|0:0,0:0:0:0:
79,254,309574,1,8,0:0:0:0:
60,237,309667,2,0,B|67:221|67:221|25:94,1,105.000004005432,2|0,0:0|0:0,0:0:0:0:
214,0,309852,6,0,P|330:34|316:131,2,210.000008010865,2|2|0,0:0|0:0|0:0,0:0:0:0:
235,81,310315,1,8,0:0:0:0:
415,13,310500,1,2,0:0:0:0:
374,269,310685,6,0,B|388:264|388:264|423:124,1,105.000004005432,2|0,0:0|0:0,0:0:0:0:
211,195,310870,1,0,0:0:0:0:
221,202,310963,2,0,B|236:209|236:209|271:349,1,105.000004005432,2|0,0:0|0:0,0:0:0:0:
428,357,311148,1,0,0:0:0:0:
442,349,311241,2,0,B|453:343|453:343|488:203,1,105.000004005432,2|0,0:0|0:0,0:0:0:0:
282,103,311426,5,0,0:0:0:0:
266,82,311518,2,0,B|168:125|168:125|154:123|154:123|1:192,2,210.000008010865
339,37,311981,1,0,0:0:0:0:
343,22,312074,1,0,0:0:0:0:
349,6,312167,5,2,0:0:0:0:
462,195,312352,1,2,0:0:0:0:
156,42,312537,1,2,0:3:0:0:
150,30,312630,1,2,0:0:0:0:
347,166,312815,1,2,0:3:0:0:
334,174,312907,2,0,B|347:187|347:187|360:322,1,83.9999974365235,2|0,0:0|0:0,0:0:0:0:
244,367,313093,1,0,0:0:0:0:
221,370,313185,2,0,B|214:358|214:358|247:238,1,70,2|0,0:3|0:0,0:0:0:0:
96,185,313463,2,0,B|106:189|106:189|128:265,1,70,2|0,0:0|2:0,0:0:0:0:
112,370,313648,6,0,B|16:349|2:238|14:180|79:123|178:136|189:214|189:214|185:219|185:219|179:223|179:223|195:267|213:303|270:316|371:269|378:101|298:40|178:77,1,840,4|0,0:0|0:0,0:0:0:0:
