osu file format v14

[General]
AudioFilename: audio.mp3
AudioLeadIn: 1000
PreviewTime: 62027
Countdown: 0
SampleSet: Normal
StackLeniency: 0.7
Mode: 0
LetterboxInBreaks: 0
WidescreenStoryboard: 1

[Editor]
Bookmarks: 43972,68138,108509,123879,131657,143509,147953
DistanceSpacing: 2
BeatDivisor: 4
GridSize: 4
TimelineZoom: 2.4

[Metadata]
Title:Crazy Hot
TitleUnicode:Crazy Hot
Artist:Sakaue Nachi
ArtistUnicode:Sakaue Nachi
Creator:-Sakurasaki
Version:Magic Night
Source:Touhou
Tags:magus night TH12.8 great fairy wars Marisa Kirisame LunarSakuya
BeatmapID:1512972
BeatmapSetID:716077

[Difficulty]
HPDrainRate:6
CircleSize:3.8
OverallDifficulty:8
ApproachRate:9.2
SliderMultiplier:2.2
SliderTickRate:1

[Events]
//Background and Video events
0,0,"BG.jpg",0,0
//Break Periods
2,14819,24390
//Storyboard Layer 0 (Background)
//Storyboard Layer 1 (Fail)
//Storyboard Layer 2 (Pass)
//Storyboard Layer 3 (Foreground)
//Storyboard Sound Samples

[TimingPoints]
1287,370.37037037037,4,1,1,70,1,0
7953,-83.3333333333333,4,1,1,70,0,0
8694,-100,4,1,1,70,0,0
24990,-100,4,1,1,60,0,0
60546,-90.9090909090909,4,1,1,60,0,0
62027,-90.9090909090909,4,1,1,70,0,1
73786,-90.9090909090909,4,1,1,70,0,0
73879,-90.9090909090909,4,1,1,70,0,1
85731,-100,4,1,1,70,0,0
97583,-100,4,1,1,60,0,0
131657,-90.9090909090909,4,1,1,60,0,0
133138,-90.9090909090909,4,1,1,70,0,1
144898,-90.9090909090909,4,1,1,70,0,0
144990,-90.9090909090909,4,1,1,70,0,1
156842,-90.9090909090909,4,1,1,70,0,0

[Colours]
Combo1 : 46,199,184
Combo2 : 128,128,255

[HitObjects]
56,60,1287,5,0,0:0:0:0:
88,160,1472,1,0,0:0:0:0:
96,189,1564,1,0,0:0:0:0:
105,219,1657,1,0,0:0:0:0:
168,336,1842,1,0,0:0:0:0:
308,288,2027,5,0,0:0:0:0:
280,268,2120,1,0,0:0:0:0:
240,284,2212,1,0,0:0:0:0:
232,320,2305,1,0,0:0:0:0:
248,360,2398,1,0,0:0:0:0:
288,372,2490,1,0,0:0:0:0:
320,360,2583,1,0,0:0:0:0:
344,328,2675,1,0,0:0:0:0:
360,296,2768,6,0,P|408:280|472:296,1,110
88,216,3509,6,0,B|64:276|84:344,1,110
440,156,4249,6,0,B|464:104|448:48,1,110
56,56,4990,2,0,B|100:80|168:68,1,110
332,72,5361,2,0,L|424:36,2,55
192,152,5731,5,0,0:0:0:0:
204,312,5916,2,0,B|208:376,2,55
332,240,6286,1,0,0:0:0:0:
450,300,6472,1,0,0:0:0:0:
465,280,6564,1,0,0:0:0:0:
474,257,6657,1,0,0:0:0:0:
488,224,6749,2,0,P|500:192|492:156,1,55
436,52,7027,1,0,0:0:0:0:
320,96,7212,2,0,P|272:108|200:84,1,110
80,56,7583,1,0,0:0:0:0:
64,88,7675,1,0,0:0:0:0:
64,124,7768,1,0,0:0:0:0:
88,164,7861,1,0,0:0:0:0:
120,188,7953,1,0,0:0:0:0:
168,204,8046,1,0,0:0:0:0:
212,204,8138,1,0,0:0:0:0:
256,188,8231,1,0,0:0:0:0:
288,160,8324,1,8,0:0:0:0:
408,32,8509,1,0,0:0:0:0:
484,248,8694,6,0,B|439:267|368:240,1,110,6|0,0:0|0:0,0:0:0:0:
252,224,9064,1,8,0:0:0:0:
108,72,9249,1,0,0:0:0:0:
64,196,9435,2,0,B|48:252|72:312,1,110,2|0,0:0|0:0,0:0:0:0:
260,336,9805,1,8,0:0:0:0:
328,100,9990,1,0,0:0:0:0:
456,204,10175,6,0,B|476:256|448:320,1,110,2|0,0:0|0:0,0:0:0:0:
280,364,10546,1,8,0:0:0:0:
152,216,10731,1,0,0:0:0:0:
196,52,10916,2,0,B|256:32|324:56,1,110,2|0,0:0|0:0,0:0:0:0:
468,148,11286,1,8,0:0:0:0:
368,324,11472,1,0,0:0:0:0:
368,324,11564,1,0,0:0:0:0:
368,324,11657,1,0,0:0:0:0:
244,136,11842,5,0,0:0:0:0:
112,72,12027,1,8,0:0:0:0:
112,220,12212,1,0,0:0:0:0:
268,300,12398,2,0,L|240:364,2,55
340,164,12768,1,8,0:0:0:0:
128,120,12953,5,0,0:0:0:0:
128,120,13046,1,0,0:0:0:0:
128,120,13138,1,0,0:0:0:0:
64,276,13416,1,0,0:0:0:0:
308,84,13694,1,0,0:0:0:0:
256,212,13879,1,2,0:0:0:0:
424,264,14064,5,0,0:0:0:0:
407,286,14156,1,0,0:0:0:0:
387,305,14249,1,0,0:0:0:0:
364,319,14341,1,0,0:0:0:0:
339,330,14434,1,0,0:0:0:0:
312,335,14526,1,0,0:0:0:0:
285,336,14619,1,0,0:0:0:0:
256,192,24990,12,6,26101,0:0:0:0:
452,60,26472,6,0,P|340:28|212:80,1,220
172,136,27027,1,0,0:0:0:0:
136,224,27212,2,0,P|100:300|28:344,2,165
100,44,27953,1,0,0:0:0:0:
260,216,28138,1,0,0:0:0:0:
64,196,28324,1,8,0:0:0:0:
240,68,28509,1,0,0:0:0:0:
240,68,28694,2,0,B|312:48|360:80,1,110
480,140,29064,1,8,0:0:0:0:
288,244,29249,5,0,0:0:0:0:
288,244,29342,1,0,0:0:0:0:
288,244,29435,2,0,P|392:272|460:188,1,220
344,48,29990,1,0,0:0:0:0:
456,189,30175,1,0,0:0:0:0:
257,156,30361,1,0,0:0:0:0:
399,15,30546,1,8,0:0:0:0:
144,152,30731,1,0,0:0:0:0:
144,152,30916,6,0,B|96:168|32:144,1,110
40,40,31286,1,8,0:0:0:0:
92,256,31472,1,0,0:0:0:0:
204,68,31657,2,0,B|256:88|316:60,1,110
476,20,32027,1,8,0:0:0:0:
400,204,32212,1,0,0:0:0:0:
400,204,32305,1,0,0:0:0:0:
400,204,32398,6,0,B|332:223|264:192,2,110,4|0|0,0:0|0:0|0:0,0:0:0:0:
212,136,32953,1,0,0:0:0:0:
212,136,33046,1,0,0:0:0:0:
212,136,33138,2,0,B|188:70|216:0,2,110
264,332,33694,1,0,0:0:0:0:
144,216,33879,1,0,0:0:0:0:
360,208,34064,1,0,0:0:0:0:
192,352,34249,1,8,0:0:0:0:
248,140,34435,1,0,0:0:0:0:
336,344,34620,5,0,0:0:0:0:
120,212,34805,2,0,B|56:204|16:240,2,110,0|8|0,0:0|0:0|0:0,0:0:0:0:
316,252,35361,6,0,P|324:192|304:136,1,110
296,128,35638,1,0,0:0:0:0:
280,112,35731,1,0,0:0:0:0:
136,44,35916,1,0,0:0:0:0:
28,212,36101,2,0,B|80:240|136:200,1,110
152,192,36379,1,8,0:0:0:0:
176,180,36472,1,0,0:0:0:0:
280,62,36657,1,0,0:0:0:0:
295,53,36749,1,0,0:0:0:0:
316,48,36842,2,0,P|460:106|368:200,1,330,0|8,0:0|0:0,0:0:0:0:
248,208,37583,6,0,L|208:152,1,55
232,296,37768,2,0,L|272:368,1,55
152,244,37953,2,0,L|112:180,1,55
88,312,38138,2,0,L|136:380,1,55
20,244,38324,6,0,P|17:195|40:128,1,110
176,172,38694,1,8,0:0:0:0:
56,64,38879,1,0,0:0:0:0:
305,86,39064,2,0,B|322:131|296:212,1,110
137,310,39435,1,0,0:0:0:0:
323,382,39620,1,0,0:0:0:0:
313,182,39805,2,0,P|396:197|440:172,1,110
505,18,40175,5,0,0:0:0:0:
306,48,40361,1,0,0:0:0:0:
233,234,40546,1,0,0:0:0:0:
70,96,40731,1,0,0:0:0:0:
70,96,40824,1,0,0:0:0:0:
70,96,40916,1,8,0:0:0:0:
266,129,41101,1,8,0:0:0:0:
116,220,41286,6,0,P|57:241|4:208,1,110
52,72,41657,1,0,0:0:0:0:
200,44,41842,1,0,0:0:0:0:
244,204,42027,2,0,B|298:240|365:201,1,110
458,40,42398,1,8,0:0:0:0:
472,195,42583,1,0,0:0:0:0:
474,206,42675,1,0,0:0:0:0:
476,212,42768,6,0,P|477:264|440:316,1,110
256,261,43138,1,8,0:0:0:0:
274,60,43324,1,0,0:0:0:0:
472,79,43509,2,0,P|416:102|344:72,1,110
190,27,43879,1,8,0:0:0:0:
268,210,44064,5,0,0:0:0:0:
268,210,44157,1,0,0:0:0:0:
268,210,44249,2,0,P|320:249|392:252,2,110
136,58,44805,1,0,0:0:0:0:
136,58,44898,1,0,0:0:0:0:
136,58,44990,2,0,P|76:96|56:152,2,110
301,171,45546,1,0,0:0:0:0:
105,213,45731,1,2,0:0:0:0:
251,66,45916,1,0,0:0:0:0:
217,278,46101,1,10,0:0:0:0:
139,78,46286,1,2,0:0:0:0:
309,184,46472,5,0,0:0:0:0:
309,184,46657,2,0,B|371:167|436:184,2,110,0|8|0,0:0|0:0|0:0,0:0:0:0:
241,256,47212,2,0,B|192:279|128:256,1,110
28,96,47583,2,0,P|85:74|144:96,1,110
298,174,47953,2,0,P|361:190|424:160,1,110
493,4,48324,1,8,0:0:0:0:
311,87,48509,1,0,0:0:0:0:
311,87,48601,1,0,0:0:0:0:
311,87,48694,2,0,P|221:102|176:84,1,110
32,20,49064,5,0,0:0:0:0:
177,157,49249,1,0,0:0:0:0:
48,222,49435,1,0,0:0:0:0:
56,264,49527,1,0,0:0:0:0:
80,304,49620,1,0,0:0:0:0:
120,332,49712,1,0,0:0:0:0:
168,328,49805,2,0,L|220:264,1,55
296,152,49990,2,0,B|259:202,1,55
192,212,50175,6,0,P|146:229|76:200,1,110,4|0,0:0|0:0,0:0:0:0:
283,42,50546,2,0,P|328:28|388:40,1,110,8|0,0:0|0:0,0:0:0:0:
460,228,50916,1,0,0:0:0:0:
460,96,51101,1,0,0:0:0:0:
461,238,51286,2,0,B|479:293|448:348,1,110,8|0,0:0|0:0,0:0:0:0:
262,299,51657,2,0,P|196:172|318:229,1,330
420,244,52398,2,0,L|480:248,6,55
53,53,53138,6,0,P|39:108|48:172,1,110
243,183,53509,2,0,P|250:239|236:296,1,110,8|0,0:0|0:0,0:0:0:0:
44,160,53879,2,0,P|92:176|157:157,1,110
320,72,54249,5,8,0:0:0:0:
212,248,54435,1,8,0:0:0:0:
220,64,54805,1,10,0:0:0:0:
320,240,54990,1,10,0:0:0:0:
267,15,55361,2,0,B|244:65|264:128,1,110,2|0,0:0|0:0,0:0:0:0:
428,232,55731,2,0,B|450:186|424:120,1,110,2|0,0:0|0:0,0:0:0:0:
240,188,56101,6,0,L|120:188,1,110
232,304,56472,2,0,B|356:304,1,110,8|0,0:0|0:0,0:0:0:0:
412,220,56842,1,0,0:0:0:0:
344,76,57027,1,0,0:0:0:0:
210,195,57212,1,0,0:0:0:0:
420,224,57398,2,0,P|442:305|427:349,2,110
224,144,57953,6,0,B|206:89|220:36,1,100,8|0,0:0|0:0,0:0:0:0:
412,148,58324,2,0,B|431:102|403:32,1,100
217,45,58694,2,0,B|270:62|327:36,1,100,8|0,0:0|0:0,0:0:0:0:
459,48,59064,5,0,0:0:0:0:
459,48,59157,1,0,0:0:0:0:
459,48,59249,1,0,0:0:0:0:
388,236,59435,1,8,0:0:0:0:
369,149,59620,2,0,B|351:92|372:44,1,100
462,123,59990,1,0,0:0:0:0:
462,123,60175,2,0,B|479:176|462:229,1,100
366,308,60546,5,0,0:0:0:0:
325,344,60638,1,0,0:0:0:0:
273,361,60731,1,0,0:0:0:0:
219,360,60823,1,0,0:0:0:0:
167,340,60916,1,0,0:0:0:0:
128,303,61008,1,0,0:0:0:0:
111,251,61101,1,0,0:0:0:0:
109,194,61194,1,0,0:0:0:0:
136,138,61286,5,0,0:0:0:0:
182,105,61379,1,0,0:0:0:0:
232,104,61472,1,0,0:0:0:0:
280,112,61564,1,0,0:0:0:0:
316,136,61657,1,0,0:0:0:0:
344,156,61749,2,0,L|400:200,1,60.5000018463135
456,228,62027,5,0,0:0:0:0:
240,352,62212,1,0,0:0:0:0:
232,176,62398,1,0,0:0:0:0:
392,324,62583,1,0,0:0:0:0:
320,104,62768,1,0,0:0:0:0:
472,200,62953,1,0,0:0:0:0:
472,200,63046,1,0,0:0:0:0:
472,200,63138,1,8,0:0:0:0:
300,309,63324,5,0,0:0:0:0:
88,272,63509,2,0,P|152:296|236:244,1,121.000003692627
400,232,63879,2,0,L|400:160,1,60.5000018463135
392,40,64064,2,0,L|332:104,1,60.5000018463135
244,100,64249,2,0,L|168:52,1,60.5000018463135
144,184,64435,1,0,0:0:0:0:
268,324,64620,1,0,0:0:0:0:
416,144,64805,1,8,0:0:0:0:
226,58,64990,5,0,0:0:0:0:
315,258,65175,1,0,0:0:0:0:
357,41,65361,1,0,0:0:0:0:
217,210,65546,1,0,0:0:0:0:
419,124,65731,1,0,0:0:0:0:
201,93,65916,1,0,0:0:0:0:
399,188,66101,1,8,0:0:0:0:
468,43,66286,6,0,B|497:101|460:160,1,121.000003692627
310,184,66657,2,0,P|308:251|340:312,1,121.000003692627
352,324,66935,1,0,0:0:0:0:
383,348,67027,1,0,0:0:0:0:
422,355,67120,1,0,0:0:0:0:
460,343,67212,1,0,0:0:0:0:
486,314,67305,1,0,0:0:0:0:
493,275,67398,1,0,0:0:0:0:
478,239,67490,1,0,0:0:0:0:
447,216,67583,6,0,B|360:188,1,60.5000018463135,8|0,0:0|0:0,0:0:0:0:
288,188,67768,2,0,B|244:128,1,60.5000018463135
150,43,67953,6,0,B|114:85|136:160,1,121.000003692627,4|0,0:0|0:0,0:0:0:0:
370,36,68324,1,8,0:0:0:0:
355,255,68509,1,0,0:0:0:0:
355,255,68601,1,0,0:0:0:0:
355,255,68694,1,0,0:0:0:0:
159,154,68879,5,0,0:0:0:0:
378,170,69064,1,8,0:0:0:0:
197,44,69249,1,0,0:0:0:0:
56,184,69435,2,0,P|120:196|184:180,1,121.000003692627
272,72,69805,1,0,0:0:0:0:
356,256,69990,2,0,B|376:196|364:136,1,121.000003692627
224,57,70361,1,0,0:0:0:0:
224,57,70453,1,0,0:0:0:0:
224,57,70546,5,8,0:0:0:0:
465,119,70731,1,0,0:0:0:0:
313,277,70916,1,0,0:0:0:0:
97,231,71101,1,0,0:0:0:0:
315,208,71286,1,0,0:0:0:0:
114,115,71472,1,0,0:0:0:0:
340,144,71657,1,0,0:0:0:0:
168,6,71842,1,0,0:0:0:0:
384,40,72027,2,0,B|412:108|392:164,1,121.000003692627,8|0,0:0|0:0,0:0:0:0:
213,276,72398,5,0,0:0:0:0:
66,111,72583,1,0,0:0:0:0:
285,94,72768,1,0,0:0:0:0:
107,224,72953,1,0,0:0:0:0:
295,169,73138,5,0,0:0:0:0:
338,201,73230,1,0,0:0:0:0:
392,209,73323,1,0,0:0:0:0:
442,188,73415,1,0,0:0:0:0:
467,140,73508,1,0,0:0:0:0:
460,87,73600,1,0,0:0:0:0:
422,48,73693,1,0,0:0:0:0:
369,34,73786,1,0,0:0:0:0:
322,34,73879,6,0,P|267:30|200:48,1,121.000003692627
50,190,74249,1,0,0:0:0:0:
156,112,74435,1,0,0:0:0:0:
250,220,74620,2,0,P|260:280|232:336,1,121.000003692627
56,280,74990,1,0,0:0:0:0:
112,124,75175,1,0,0:0:0:0:
288,160,75361,1,0,0:0:0:0:
228,311,75546,1,0,0:0:0:0:
95,253,75731,5,0,0:0:0:0:
59,211,75823,1,0,0:0:0:0:
48,158,75916,1,0,0:0:0:0:
63,106,76008,1,0,0:0:0:0:
102,68,76101,1,0,0:0:0:0:
144,57,76194,1,0,0:0:0:0:
190,48,76286,2,0,L|252:64,1,55.0000016784668
315,42,76472,2,0,L|338:102,1,55.0000016784668
415,126,76657,2,0,L|415:204,1,55.0000016784668
432,288,76842,6,0,B|368:320|304:288,1,121.000003692627,2|0,0:0|0:0,0:0:0:0:
256,228,77212,2,0,B|320:196|372:222,1,121.000003692627,2|0,0:0|0:0,0:0:0:0:
320,296,77583,6,0,B|256:328|192:296,1,121.000003692627,2|0,0:0|0:0,0:0:0:0:
152,172,77953,1,8,0:0:0:0:
60,280,78138,2,0,P|24:221|36:157,1,121.000003692627
46,134,78416,5,0,0:0:0:0:
74,87,78508,1,0,0:0:0:0:
120,59,78601,1,0,0:0:0:0:
175,57,78693,1,0,0:0:0:0:
223,82,78786,1,0,0:0:0:0:
250,129,78878,1,0,0:0:0:0:
245,183,78971,1,0,0:0:0:0:
213,226,79064,1,0,0:0:0:0:
163,240,79157,1,0,0:0:0:0:
118,241,79249,1,0,0:0:0:0:
74,212,79342,1,0,0:0:0:0:
30,168,79435,6,0,L|42:114,1,55.0000016784668
40,44,79620,2,0,P|88:24|152:40,1,121.000003692627
284,104,79990,1,0,0:0:0:0:
168,96,80175,1,8,0:0:0:0:
280,232,80361,1,0,0:0:0:0:
370,75,80546,1,0,0:0:0:0:
370,75,80638,1,0,0:0:0:0:
370,75,80731,1,0,0:0:0:0:
204,176,80916,5,8,0:0:0:0:
396,208,81101,1,0,0:0:0:0:
232,341,81286,1,0,0:0:0:0:
232,341,81379,1,0,0:0:0:0:
232,341,81472,1,0,0:0:0:0:
220,189,81657,2,0,P|223:118|199:67,1,121.000003692627
45,38,82027,1,0,0:0:0:0:
219,189,82212,1,0,0:0:0:0:
320,152,82398,6,0,B|320:224,1,60.5000018463135,8|0,0:0|0:0,0:0:0:0:
402,84,82583,2,0,B|404:4,1,60.5000018463135
440,236,82768,1,0,0:0:0:0:
248,108,82953,1,0,0:0:0:0:
304,268,83138,1,0,0:0:0:0:
156,96,83324,1,0,0:0:0:0:
80,300,83509,1,0,0:0:0:0:
224,328,83694,1,0,0:0:0:0:
296,160,83879,1,0,0:0:0:0:
48,184,84064,1,0,0:0:0:0:
220,40,84249,6,0,L|223:291,1,242.000007385254
222,281,84805,1,0,0:0:0:0:
340,336,84990,5,0,0:0:0:0:
382,313,85082,1,0,0:0:0:0:
413,276,85175,1,0,0:0:0:0:
430,231,85267,1,0,0:0:0:0:
430,183,85360,1,0,0:0:0:0:
413,138,85452,1,0,0:0:0:0:
382,102,85545,1,0,0:0:0:0:
260,32,85731,6,0,P|202:22|144:44,1,110
200,112,86101,1,0,0:0:0:0:
200,112,86194,2,0,P|140:131|88:100,1,110
36,68,86472,2,0,L|-12:24,1,55
8,148,86657,2,0,L|64:204,1,55
104,248,86842,2,0,B|164:272|220:244,1,110,10|2,0:0|0:0,0:0:0:0:
164,152,87212,2,0,P|248:128|304:196,1,165
303,213,87583,5,0,0:0:0:0:
345,238,87675,1,0,0:0:0:0:
394,242,87768,1,0,0:0:0:0:
435,215,87860,1,0,0:0:0:0:
453,169,87953,1,0,0:0:0:0:
442,121,88045,1,0,0:0:0:0:
404,90,88138,1,0,0:0:0:0:
355,81,88231,1,0,0:0:0:0:
310,84,88324,2,0,L|224:80,2,55
88,124,88694,6,0,L|48:80,2,55
88,168,88972,1,0,0:0:0:0:
104,212,89064,1,0,0:0:0:0:
132,244,89157,1,0,0:0:0:0:
160,267,89249,1,0,0:0:0:0:
208,279,89342,1,0,0:0:0:0:
238,271,89435,1,0,0:0:0:0:
280,247,89527,1,0,0:0:0:0:
309,206,89620,1,0,0:0:0:0:
305,157,89712,1,0,0:0:0:0:
273,120,89805,1,0,0:0:0:0:
237,98,89898,2,0,L|172:104,1,55
36,92,90175,5,0,0:0:0:0:
245,337,90453,1,0,0:0:0:0:
320,36,90731,1,0,0:0:0:0:
432,60,90916,5,0,0:0:0:0:
445,77,91008,1,0,0:0:0:0:
456,96,91101,1,0,0:0:0:0:
464,116,91193,1,0,0:0:0:0:
468,138,91286,1,0,0:0:0:0:
468,160,91378,1,0,0:0:0:0:
456,184,91472,2,0,L|419:246,1,50
394,318,91657,6,0,P|347:291|320:220,1,110
324,149,92027,2,0,L|356:88,1,55
251,81,92212,2,0,L|220:4,1,55
154,26,92398,1,0,0:0:0:0:
134,66,92490,1,0,0:0:0:0:
137,110,92583,1,2,0:0:0:0:
162,146,92675,1,0,0:0:0:0:
193,178,92768,2,0,B|230:232|198:282,1,100,10|2,0:0|0:0,0:0:0:0:
42,319,93138,6,0,B|88:350|137:324,1,100,2|0,0:0|0:0,0:0:0:0:
161,306,93416,1,0,0:0:0:0:
199,274,93508,1,0,0:0:0:0:
246,259,93601,1,0,0:0:0:0:
295,268,93693,1,0,0:0:0:0:
340,290,93786,1,0,0:0:0:0:
385,312,93878,1,0,0:0:0:0:
434,317,93971,1,0,0:0:0:0:
473,288,94064,1,0,0:0:0:0:
474,239,94156,1,0,0:0:0:0:
453,194,94249,6,0,L|426:144,1,50
368,67,94435,1,2,0:0:0:0:
362,60,94620,2,0,B|305:42|258:60,1,100,2|2,0:0|0:0,0:0:0:0:
202,126,94990,1,0,0:0:0:0:
172,164,95082,1,0,0:0:0:0:
124,176,95175,1,0,0:0:0:0:
79,156,95267,1,0,0:0:0:0:
57,112,95360,1,0,0:0:0:0:
67,64,95452,1,0,0:0:0:0:
104,33,95545,1,0,0:0:0:0:
153,32,95638,1,0,0:0:0:0:
194,44,95731,6,0,B|252:60|303:37,1,100,10|2,0:0|0:0,0:0:0:0:
482,33,96101,1,0,0:0:0:0:
154,232,96379,1,0,0:0:0:0:
443,308,96657,1,0,0:0:0:0:
199,46,96842,1,0,0:0:0:0:
96,152,97027,2,0,L|72:212,1,55
148,216,97212,2,0,L|160:276,1,55
240,240,97398,2,0,L|280:308,1,55
348,268,97583,5,0,0:0:0:0:
452,56,97861,1,0,0:0:0:0:
236,156,98138,1,0,0:0:0:0:
228,32,98324,1,0,0:0:0:0:
37,225,98601,1,0,0:0:0:0:
104,60,98879,1,0,0:0:0:0:
274,158,99064,2,0,P|294:96|276:36,1,100
104,60,99435,1,0,0:0:0:0:
78,240,99620,1,0,0:0:0:0:
256,128,99805,5,0,0:0:0:0:
220,308,99990,1,0,0:0:0:0:
220,308,100083,1,0,0:0:0:0:
220,308,100175,1,8,0:0:0:0:
228,80,100361,1,0,0:0:0:0:
342,166,100546,6,0,B|360:112|338:55,1,100
173,29,100916,1,8,0:0:0:0:
69,180,101101,1,0,0:0:0:0:
268,149,101287,1,0,0:0:0:0:
158,298,101472,1,0,0:0:0:0:
295,241,101657,2,0,B|346:255|395:236,1,100,8|0,0:0|0:0,0:0:0:0:
445,86,102027,5,0,0:0:0:0:
445,86,102120,1,0,0:0:0:0:
445,86,102212,1,0,0:0:0:0:
213,15,102398,1,0,0:0:0:0:
65,128,102583,5,0,0:0:0:0:
65,128,102675,1,0,0:0:0:0:
65,128,102768,2,0,P|81:177|72:230,1,100
54,344,103138,1,8,0:0:0:0:
234,49,103324,5,0,0:0:0:0:
207,55,103416,1,0,0:0:0:0:
189,71,103509,2,0,P|164:117|177:182,1,100
193,195,103786,1,0,0:0:0:0:
241,189,103879,6,0,P|300:163|348:186,1,100
364,198,104157,1,0,0:0:0:0:
398,215,104249,2,0,P|454:202|464:139,1,100
467,124,104527,1,0,0:0:0:0:
443,82,104620,1,0,0:0:0:0:
126,107,104805,5,0,0:0:0:0:
321,63,104990,1,0,0:0:0:0:
202,244,105175,1,8,0:0:0:0:
197,31,105361,1,0,0:0:0:0:
333,198,105546,1,0,0:0:0:0:
60,320,105916,5,0,0:0:0:0:
88,152,106101,1,0,0:0:0:0:
220,236,106286,1,0,0:0:0:0:
325,68,106472,2,0,B|393:43|474:71,2,150
337,153,107212,2,0,B|269:178|189:141,2,150
170,129,107953,5,4,0:0:0:0:
352,247,108138,1,0,0:0:0:0:
179,267,108324,1,8,0:0:0:0:
338,88,108509,1,0,0:0:0:0:
484,100,108694,5,0,0:0:0:0:
492,156,108786,1,0,0:0:0:0:
455,183,108879,1,0,0:0:0:0:
408,167,108971,1,0,0:0:0:0:
362,148,109064,1,0,0:0:0:0:
313,144,109156,1,0,0:0:0:0:
273,172,109249,1,0,0:0:0:0:
269,221,109342,1,0,0:0:0:0:
296,260,109435,6,0,P|360:283|448:244,2,165
192,109,110175,2,0,P|110:83|36:120,2,165
393,207,110916,2,0,P|432:264|312:320,1,220
144,188,111472,2,0,L|80:144,1,55
144,64,111657,2,0,L|104:20,1,55
254,46,111842,1,0,0:0:0:0:
254,46,111935,1,0,0:0:0:0:
254,46,112027,2,0,L|255:157,1,100,0|8,0:0|0:0,0:0:0:0:
256,354,112398,5,0,0:0:0:0:
492,180,112675,1,0,0:0:0:0:
285,38,112953,1,0,0:0:0:0:
416,155,113138,1,0,0:0:0:0:
224,147,113324,1,0,0:0:0:0:
339,272,113509,1,8,0:0:0:0:
323,52,113694,1,0,0:0:0:0:
224,147,113879,2,0,B|166:126|112:149,1,100
35,299,114249,1,8,0:0:0:0:
224,47,114435,1,0,0:0:0:0:
224,47,114527,1,0,0:0:0:0:
224,47,114620,2,0,B|235:98|222:152,1,100,0|0,0:0|0:0,0:0:0:0:
120,246,114990,6,0,L|75:292,1,50
190,282,115175,2,0,L|198:348,1,50
286,285,115361,2,0,B|368:314|436:278,2,150,6|8|0,0:0|0:0|0:0,0:0:0:0:
281,134,116101,2,0,P|206:104|128:135,2,150,0|8|8,0:0|0:0|0:0,0:0:0:0:
395,239,116842,2,0,P|445:205|439:147,1,100
373,125,117212,2,0,P|355:75|301:48,1,100
262,40,117490,1,0,0:0:0:0:
215,21,117582,1,0,0:0:0:0:
166,26,117675,1,0,0:0:0:0:
126,48,117768,2,0,P|77:87|49:144,2,100
226,167,118324,5,0,0:0:0:0:
474,35,118601,1,0,0:0:0:0:
461,224,118879,1,0,0:0:0:0:
301,185,119064,1,0,0:0:0:0:
239,42,119249,1,0,0:0:0:0:
239,42,119435,2,0,P|186:62|126:50,1,100
77,35,119712,1,0,0:0:0:0:
77,35,119805,2,0,P|41:106|99:244,1,200
228,302,120361,6,0,L|290:371,1,50
218,147,120546,2,0,L|277:75,1,50
345,304,120731,2,0,L|383:336,1,50
345,151,120916,2,0,L|376:112,1,50
488,232,121101,2,0,L|412:235,1,50
208,204,121287,6,0,P|216:262|261:300,1,100,4|0,0:0|0:0,0:0:0:0:
459,160,121657,2,0,P|447:106|404:73,1,100,8|0,0:0|0:0,0:0:0:0:
273,45,122027,2,0,P|228:51|193:104,1,100
343,306,122398,2,0,P|388:300|423:247,1,100
256,192,122768,12,0,123879,0:0:0:0:
190,313,124249,5,0,0:0:0:0:
254,122,124435,1,8,0:0:0:0:
302,315,124620,1,0,0:0:0:0:
149,185,124805,1,0,0:0:0:0:
348,188,124990,5,0,0:0:0:0:
128,264,125175,1,0,0:0:0:0:
353,114,125361,1,8,0:0:0:0:
256,120,125546,2,0,P|325:109|388:128,1,110
478,217,125916,1,10,0:0:0:0:
338,369,126101,1,0,0:0:0:0:
88,80,126472,6,0,B|208:80,1,110,10|0,0:0|0:0,0:0:0:0:
400,292,126842,2,0,B|280:292,1,110,2|0,0:0|0:0,0:0:0:0:
187,91,127212,5,4,0:0:0:0:
309,295,127398,1,0,0:0:0:0:
335,68,127583,1,8,0:0:0:0:
183,244,127768,1,0,0:0:0:0:
393,189,127953,1,0,0:0:0:0:
187,91,128138,1,0,0:0:0:0:
313,301,128324,1,8,0:0:0:0:
183,244,128509,6,0,P|126:179|200:88,1,220
453,281,129064,2,0,P|414:233|414:180,1,100
284,46,129435,2,0,P|319:112|311:165,1,100
323,320,129805,2,0,P|282:258|279:198,1,100
215,42,130175,5,0,0:0:0:0:
358,144,130361,1,0,0:0:0:0:
199,229,130546,1,8,0:0:0:0:
199,229,130731,2,0,P|102:209|115:107,1,200
314,36,131287,1,8,0:0:0:0:
314,36,131379,1,0,0:0:0:0:
314,36,131472,1,0,0:0:0:0:
425,205,131657,5,0,0:0:0:0:
223,128,131842,1,0,0:0:0:0:
237,315,132027,1,0,0:0:0:0:
385,121,132212,1,0,0:0:0:0:
455,229,132398,5,0,0:0:0:0:
464,260,132490,1,0,0:0:0:0:
456,300,132583,1,0,0:0:0:0:
432,336,132675,1,0,0:0:0:0:
384,352,132768,1,0,0:0:0:0:
344,348,132861,2,0,L|280:308,1,60.5000018463135
184,228,133138,6,0,B|159:279|188:348,1,121.000003692627,4|0,0:0|0:0,0:0:0:0:
375,238,133509,1,0,0:0:0:0:
314,60,133694,1,0,0:0:0:0:
158,207,133879,1,0,0:0:0:0:
88,58,134064,1,0,0:0:0:0:
88,58,134157,1,0,0:0:0:0:
88,58,134249,1,8,0:0:0:0:
19,221,134435,1,0,0:0:0:0:
188,147,134620,5,0,0:0:0:0:
228,96,134712,1,0,0:0:0:0:
284,92,134805,1,0,0:0:0:0:
340,120,134897,1,0,0:0:0:0:
344,176,134990,1,0,0:0:0:0:
392,224,135082,1,0,0:0:0:0:
452,224,135175,1,0,0:0:0:0:
496,180,135268,1,0,0:0:0:0:
500,124,135360,1,0,0:0:0:0:
271,24,135546,5,0,0:0:0:0:
389,212,135731,1,8,0:0:0:0:
218,69,135916,1,0,0:0:0:0:
212,196,136101,2,0,L|248:320,1,121.000003692627
451,264,136472,2,0,L|404:140,1,121.000003692627
233,263,136842,2,0,L|324:348,1,121.000003692627
436,196,137212,2,0,L|340:120,1,121.000003692627
192,36,137583,5,0,0:0:0:0:
160,28,137675,1,0,0:0:0:0:
131,31,137768,1,0,0:0:0:0:
83,56,137860,1,0,0:0:0:0:
56,103,137953,1,0,0:0:0:0:
60,157,138045,1,0,0:0:0:0:
93,200,138138,1,0,0:0:0:0:
130,207,138231,1,0,0:0:0:0:
172,208,138324,2,0,L|224:160,1,60.5000018463135
261,98,138509,2,0,L|320:164,1,60.5000018463135
353,201,138694,1,0,0:0:0:0:
450,354,138879,1,0,0:0:0:0:
251,311,139064,5,4,0:0:0:0:
153,105,139249,1,0,0:0:0:0:
145,313,139435,1,8,0:0:0:0:
327,144,139620,1,0,0:0:0:0:
117,200,139805,1,0,0:0:0:0:
117,200,139898,1,0,0:0:0:0:
117,200,139990,1,0,0:0:0:0:
332,285,140175,1,0,0:0:0:0:
225,69,140361,1,0,0:0:0:0:
380,205,140546,6,0,P|433:209|488:172,1,121.000003692627
438,55,140916,2,0,P|380:44|300:80,2,121.000003692627
470,233,141472,1,0,0:0:0:0:
277,254,141657,1,8,0:0:0:0:
405,127,141842,1,0,0:0:0:0:
254,270,142027,5,0,0:0:0:0:
179,43,142212,1,0,0:0:0:0:
157,259,142398,1,0,0:0:0:0:
270,43,142583,1,0,0:0:0:0:
94,196,142768,1,0,0:0:0:0:
324,116,142953,1,0,0:0:0:0:
108,95,143138,1,0,0:0:0:0:
318,218,143324,1,0,0:0:0:0:
381,58,143509,6,0,L|332:120,1,60.5000018463135
419,122,143694,2,0,L|376:192,1,60.5000018463135
463,182,143879,2,0,L|412:256,1,60.5000018463135
500,256,144064,2,0,L|448:328,1,60.5000018463135
202,333,144249,5,0,0:0:0:0:
147,337,144341,1,0,0:0:0:0:
96,317,144434,1,0,0:0:0:0:
60,276,144526,1,0,0:0:0:0:
44,224,144619,1,0,0:0:0:0:
54,170,144711,1,0,0:0:0:0:
85,126,144804,1,0,0:0:0:0:
392,56,144990,6,0,P|440:104|440:160,1,121.000003692627
385,334,145361,2,0,P|311:344|252:296,1,121.000003692627
82,264,145731,2,0,P|84:188|120:148,1,121.000003692627
193,53,146101,1,0,0:0:0:0:
445,90,146286,1,0,0:0:0:0:
445,90,146472,6,0,B|368:200|488:200|408:328,1,242.000007385254
262,168,147027,1,0,0:0:0:0:
196,312,147212,2,0,B|128:356|72:304,1,121.000003692627
48,139,147583,1,8,0:0:0:0:
292,268,147768,1,0,0:0:0:0:
324,76,147953,5,0,0:0:0:0:
172,308,148138,1,0,0:0:0:0:
404,156,148324,1,0,0:0:0:0:
132,216,148509,1,0,0:0:0:0:
404,268,148694,1,0,0:0:0:0:
176,112,148879,1,0,0:0:0:0:
316,352,149064,1,0,0:0:0:0:
296,76,149249,1,0,0:0:0:0:
196,336,149435,5,0,0:0:0:0:
277,244,149527,1,0,0:0:0:0:
310,223,149620,1,0,0:0:0:0:
348,216,149712,1,0,0:0:0:0:
385,230,149805,1,8,0:0:0:0:
405,264,149898,1,0,0:0:0:0:
393,301,149990,1,0,0:0:0:0:
357,319,150083,1,0,0:0:0:0:
312,316,150175,1,0,0:0:0:0:
280,284,150268,1,0,0:0:0:0:
264,244,150361,1,0,0:0:0:0:
264,200,150453,1,0,0:0:0:0:
300,164,150546,6,0,B|356:116,1,60.5000018463135,8|0,0:0|0:0,0:0:0:0:
248,16,150731,2,0,B|268:84,1,60.5000018463135
196,144,150916,6,0,B|142:179|68:148,1,121.000003692627,4|0,0:0|0:0,0:0:0:0:
81,55,151287,1,8,0:0:0:0:
281,120,151472,1,0,0:0:0:0:
91,194,151657,1,0,0:0:0:0:
208,23,151842,1,0,0:0:0:0:
207,237,152027,1,8,0:0:0:0:
102,79,152212,1,0,0:0:0:0:
299,236,152398,5,0,0:0:0:0:
299,236,152490,1,0,0:0:0:0:
299,236,152583,2,0,B|368:236|408:176,1,121.000003692627,0|8,0:0|0:0,0:0:0:0:
282,68,152953,1,0,0:0:0:0:
160,176,153138,2,0,B|107:202|40:176,1,121.000003692627
115,62,153509,5,8,0:0:0:0:
152,288,153694,1,0,0:0:0:0:
260,44,153879,1,0,0:0:0:0:
280,328,154064,1,0,0:0:0:0:
376,80,154249,1,0,0:0:0:0:
168,280,154435,5,0,0:0:0:0:
420,188,154620,1,0,0:0:0:0:
112,176,154805,1,0,0:0:0:0:
368,336,154990,1,0,0:0:0:0:
176,56,155175,1,0,0:0:0:0:
336,144,155361,5,0,0:0:0:0:
373,166,155453,1,0,0:0:0:0:
415,160,155546,1,0,0:0:0:0:
446,129,155638,1,0,0:0:0:0:
451,87,155731,1,0,0:0:0:0:
428,50,155823,1,0,0:0:0:0:
388,35,155916,1,0,0:0:0:0:
346,48,156009,1,0,0:0:0:0:
320,72,156101,5,0,0:0:0:0:
289,115,156193,1,0,0:0:0:0:
276,169,156286,1,0,0:0:0:0:
238,207,156378,1,0,0:0:0:0:
184,211,156471,1,0,0:0:0:0:
137,184,156563,1,0,0:0:0:0:
111,137,156656,1,0,0:0:0:0:
117,83,156749,1,0,0:0:0:0:
144,44,156842,2,0,L|240:48,1,60.5000018463135
