osu file format v14

[General]
AudioFilename: UNDEAD HEART.mp3
AudioLeadIn: 0
PreviewTime: 59492
Countdown: 0
SampleSet: None
StackLeniency: 0.7
Mode: 1
LetterboxInBreaks: 0
WidescreenStoryboard: 1

[Editor]
Bookmarks: 9779
DistanceSpacing: 0.8
BeatDivisor: 2
GridSize: 32
TimelineZoom: 1.38

[Metadata]
Title:UNDEAD HEART(ikari no Warriors)
TitleUnicode:UNDEAD HEART(怒りのWarriors)
Artist:Sakamoto eizo x Takahama Yusuke
ArtistUnicode:坂本英三 × 高濱祐輔
Creator:Firce777
Version:Kantan
Source:Taiko no Tatsujin
Tags:
BeatmapID:4002815
BeatmapSetID:586605

[Difficulty]
HPDrainRate:6
CircleSize:5
OverallDifficulty:4
ApproachRate:5
SliderMultiplier:1.4
SliderTickRate:1

[Events]
//Background and Video events
0,0,"BG.jpg",0,80
//Break Periods
//Storyboard Layer 0 (Background)
//Storyboard Layer 1 (Fail)
//Storyboard Layer 2 (Pass)
//Storyboard Layer 3 (Foreground)
//Storyboard Layer 4 (Overlay)
//Storyboard Sound Samples

[TimingPoints]
637,285.714285714286,28,1,0,80,1,0
8637,285.714285714286,4,1,0,80,1,0
56494,285.714285714286,4,1,0,80,1,0
57636,285.714285714286,5,1,0,80,1,0
58921,285.714285714286,4,1,0,80,1,0
60063,-100,4,1,0,80,0,1
78349,-100,4,1,0,80,0,0
96635,-100,4,1,0,80,0,1
119492,-100,4,1,0,80,0,0

[HitObjects]
256,192,779,5,0,0:0:0:0:
256,192,1922,1,0,0:0:0:0:
256,192,2494,1,0,0:0:0:0:
256,192,3065,1,0,0:0:0:0:
256,192,4208,1,0,0:0:0:0:
256,192,4779,1,0,0:0:0:0:
256,192,5351,1,0,0:0:0:0:
256,192,6494,1,0,0:0:0:0:
256,192,7065,1,0,0:0:0:0:
256,192,7351,1,0,0:0:0:0:
64,64,8637,2,0,L|416:96,1,350
256,192,9779,1,0,0:0:0:0:
256,192,10922,1,0,0:0:0:0:
256,192,11494,1,0,0:0:0:0:
256,192,12065,1,0,0:0:0:0:
256,192,12637,1,0,0:0:0:0:
256,192,12922,1,0,0:0:0:0:
256,192,13208,1,0,0:0:0:0:
256,192,14351,1,0,0:0:0:0:
256,192,15494,1,0,0:0:0:0:
256,192,16065,1,0,0:0:0:0:
256,192,16637,1,4,0:0:0:0:
256,192,17494,1,4,0:0:0:0:
256,192,18208,1,4,0:0:0:0:
256,192,18922,1,0,0:0:0:0:
256,192,20065,1,8,0:0:0:0:
256,192,20637,1,8,0:0:0:0:
256,192,21208,1,0,0:0:0:0:
256,192,21779,1,0,0:0:0:0:
256,192,22065,1,0,0:0:0:0:
256,192,22351,1,0,0:0:0:0:
256,192,23494,1,0,0:0:0:0:
256,192,24637,1,8,0:0:0:0:
256,192,25208,1,8,0:0:0:0:
256,192,25779,1,0,0:0:0:0:
256,192,26351,1,0,0:0:0:0:
256,192,26637,1,0,0:0:0:0:
256,192,26922,12,0,27779,0:0:0:0:
256,192,28065,5,0,0:0:0:0:
256,192,29208,1,0,0:0:0:0:
256,192,29494,1,0,0:0:0:0:
256,192,29779,1,0,0:0:0:0:
256,192,30351,1,0,0:0:0:0:
256,192,30922,1,0,0:0:0:0:
160,96,31494,2,0,L|512:96,1,350
256,192,32637,1,0,0:0:0:0:
256,192,33779,1,0,0:0:0:0:
256,192,34065,1,0,0:0:0:0:
256,192,34351,1,0,0:0:0:0:
256,192,34922,1,0,0:0:0:0:
256,192,35494,1,8,0:0:0:0:
256,192,36065,1,0,0:0:0:0:
256,192,36494,1,4,0:0:0:0:
256,192,37208,12,0,38065,0:0:0:0:
128,64,38351,6,0,P|320:96|288:192,1,350
256,192,39494,1,0,0:0:0:0:
256,192,40065,1,0,0:0:0:0:
256,192,40351,1,0,0:0:0:0:
128,96,40637,2,0,L|512:128,1,350
256,192,41779,12,0,42636,0:0:0:0:
256,192,42922,6,0,P|448:224|416:320,1,350
384,320,44065,1,0,0:0:0:0:
384,320,44636,1,8,0:0:0:0:
384,320,44922,1,8,0:0:0:0:
256,192,45208,1,0,0:0:0:0:
256,192,45637,1,4,0:0:0:0:
256,192,46351,1,4,0:0:0:0:
256,192,46922,1,4,0:0:0:0:
256,192,47494,1,12,0:0:0:0:
256,192,48065,1,12,0:0:0:0:
256,192,48637,12,0,50351,0:0:0:0:
256,192,50922,5,4,0:0:0:0:
256,192,51493,1,4,0:0:0:0:
256,192,52065,1,12,0:0:0:0:
256,192,52636,1,12,0:0:0:0:
256,192,53208,1,4,0:0:0:0:
256,192,53637,1,4,0:0:0:0:
256,192,54065,1,4,0:0:0:0:
256,192,54494,1,4,0:0:0:0:
256,192,54922,1,4,0:0:0:0:
256,192,55351,1,4,0:0:0:0:
256,192,55779,1,4,0:0:0:0:
256,192,56208,1,4,0:0:0:0:
128,64,56494,2,4,P|416:96|416:160,1,420
256,160,57778,1,4,0:0:0:0:
256,160,58207,1,4,0:0:0:0:
256,160,58636,1,4,0:0:0:0:
256,192,60063,1,0,0:0:0:0:
256,192,60492,1,0,0:0:0:0:
256,192,60921,1,0,0:0:0:0:
256,192,61778,1,0,0:0:0:0:
256,192,62063,1,0,0:0:0:0:
256,192,62349,1,0,0:0:0:0:
256,192,62778,1,0,0:0:0:0:
256,192,63206,1,0,0:0:0:0:
256,192,64063,1,0,0:0:0:0:
256,192,64349,1,0,0:0:0:0:
256,192,64635,1,0,0:0:0:0:
256,192,65063,1,0,0:0:0:0:
256,192,65778,1,0,0:0:0:0:
256,192,66206,1,0,0:0:0:0:
256,192,66921,1,0,0:0:0:0:
256,192,67206,1,0,0:0:0:0:
256,192,67492,1,0,0:0:0:0:
256,192,67635,1,0,0:0:0:0:
256,192,67778,1,0,0:0:0:0:
256,192,68063,12,0,68921,0:0:0:0:
256,192,69206,5,0,0:0:0:0:
256,192,69635,1,0,0:0:0:0:
256,192,70064,1,0,0:0:0:0:
256,192,70921,1,8,0:0:0:0:
256,192,71206,1,8,0:0:0:0:
256,192,71492,1,0,0:0:0:0:
256,192,71921,1,0,0:0:0:0:
256,192,72349,1,0,0:0:0:0:
256,192,73206,1,8,0:0:0:0:
256,192,73492,1,8,0:0:0:0:
256,192,73778,1,0,0:0:0:0:
256,192,74206,1,0,0:0:0:0:
256,192,74921,1,8,0:0:0:0:
256,192,75349,1,8,0:0:0:0:
256,192,76064,1,8,0:0:0:0:
256,192,76349,1,8,0:0:0:0:
256,192,76635,1,8,0:0:0:0:
256,192,76778,1,8,0:0:0:0:
256,192,76921,1,8,0:0:0:0:
256,192,77206,1,4,0:0:0:0:
256,192,77635,1,4,0:0:0:0:
64,32,78349,2,0,P|320:64|0:320,1,910
256,192,80635,1,0,0:0:0:0:
256,192,80921,1,0,0:0:0:0:
256,192,81206,1,0,0:0:0:0:
256,192,81492,1,0,0:0:0:0:
256,192,81778,1,4,0:0:0:0:
256,192,82349,1,4,0:0:0:0:
64,64,82921,2,0,L|416:96,1,350
256,192,84063,1,0,0:0:0:0:
256,192,84349,1,0,0:0:0:0:
256,192,84635,1,0,0:0:0:0:
256,192,84921,1,0,0:0:0:0:
256,192,85206,1,8,0:0:0:0:
256,192,85492,1,8,0:0:0:0:
256,192,85778,1,8,0:0:0:0:
256,192,86063,1,8,0:0:0:0:
256,192,86349,12,0,87206,0:0:0:0:
256,192,87492,5,8,0:0:0:0:
256,192,87778,1,8,0:0:0:0:
256,192,88064,1,8,0:0:0:0:
256,192,88349,1,8,0:0:0:0:
256,192,88635,1,0,0:0:0:0:
256,192,88921,1,0,0:0:0:0:
256,192,89207,1,0,0:0:0:0:
256,192,89492,1,0,0:0:0:0:
256,192,89778,1,8,0:0:0:0:
256,192,90064,1,8,0:0:0:0:
256,192,90350,1,8,0:0:0:0:
256,192,90635,1,8,0:0:0:0:
256,192,90921,12,0,91778,0:0:0:0:
256,192,92063,5,8,0:0:0:0:
256,192,92349,1,8,0:0:0:0:
256,192,92635,1,0,0:0:0:0:
256,192,92920,1,0,0:0:0:0:
256,192,93206,1,8,0:0:0:0:
256,192,93492,1,8,0:0:0:0:
256,192,93778,1,0,0:0:0:0:
256,192,93921,1,0,0:0:0:0:
256,192,94063,1,0,0:0:0:0:
256,192,94492,12,0,96063,0:0:0:0:
256,192,96635,5,0,0:0:0:0:
256,192,97064,1,0,0:0:0:0:
256,192,97493,1,0,0:0:0:0:
256,192,98350,1,8,0:0:0:0:
256,192,98635,1,8,0:0:0:0:
256,192,98921,1,0,0:0:0:0:
256,192,99350,1,0,0:0:0:0:
256,192,99778,1,0,0:0:0:0:
256,192,100635,1,8,0:0:0:0:
256,192,100921,1,8,0:0:0:0:
256,192,101207,1,0,0:0:0:0:
256,192,101635,1,0,0:0:0:0:
256,192,102350,1,8,0:0:0:0:
256,192,102778,1,8,0:0:0:0:
256,192,103493,1,0,0:0:0:0:
256,192,103778,1,0,0:0:0:0:
256,192,104064,1,0,0:0:0:0:
256,192,104207,1,0,0:0:0:0:
256,192,104350,1,0,0:0:0:0:
256,192,104635,12,0,105493,0:0:0:0:
256,192,105778,5,0,0:0:0:0:
256,192,106207,1,0,0:0:0:0:
256,192,106636,1,8,0:0:0:0:
256,192,107493,1,8,0:0:0:0:
256,192,107778,1,8,0:0:0:0:
256,192,108064,1,0,0:0:0:0:
256,192,108493,1,0,0:0:0:0:
256,192,108921,1,8,0:0:0:0:
256,192,109778,1,8,0:0:0:0:
256,192,110064,1,8,0:0:0:0:
256,192,110350,1,0,0:0:0:0:
256,192,110778,1,0,0:0:0:0:
256,192,111493,1,8,0:0:0:0:
256,192,111921,1,8,0:0:0:0:
256,192,112635,12,0,114349,0:0:0:0:
256,192,114921,5,4,0:0:0:0:
256,192,115492,1,4,0:0:0:0:
256,192,116063,1,12,0:0:0:0:
256,192,116635,1,12,0:0:0:0:
256,192,117206,1,4,0:0:0:0:
256,192,117492,1,4,0:0:0:0:
256,192,117778,1,4,0:0:0:0:
256,192,118063,1,4,0:0:0:0:
256,192,118349,1,4,0:0:0:0:
256,192,118778,1,4,0:0:0:0:
256,192,119492,1,0,0:0:0:0:
256,192,120063,1,0,0:0:0:0:
256,192,120635,1,0,0:0:0:0:
256,192,121206,1,0,0:0:0:0:
256,192,121492,1,0,0:0:0:0:
256,192,121778,1,0,0:0:0:0:
256,192,122349,1,8,0:0:0:0:
256,192,122635,1,8,0:0:0:0:
256,192,122921,1,0,0:0:0:0:
256,192,124063,1,0,0:0:0:0:
256,192,124635,1,0,0:0:0:0:
256,192,125206,1,0,0:0:0:0:
256,192,125778,1,8,0:0:0:0:
256,192,126063,1,8,0:0:0:0:
256,192,126349,12,0,127206,0:0:0:0:
160,64,127492,6,4,L|352:96,9,140
256,192,130921,1,0,0:0:0:0:
256,192,131492,1,0,0:0:0:0:
256,192,132063,1,0,0:0:0:0:
256,192,132635,1,8,0:0:0:0:
256,192,132778,1,8,0:0:0:0:
256,192,132921,1,8,0:0:0:0:
256,192,133206,1,4,0:0:0:0:
256,192,133635,1,4,0:0:0:0:
256,192,134063,1,4,0:0:0:0:
