osu file format v14

[General]
AudioFilename: audio.mp3
AudioLeadIn: 0
PreviewTime: 103862
Countdown: 0
SampleSet: Normal
StackLeniency: 0.5
Mode: 0
LetterboxInBreaks: 0
WidescreenStoryboard: 1

[Editor]
DistanceSpacing: 1
BeatDivisor: 4
GridSize: 32
TimelineZoom: 2.400001

[Metadata]
Title:Eye of Aeon
TitleUnicode:劫の眼
Artist:Sakamoto Shoichiro
ArtistUnicode:坂本昌一郎
Creator:niii_san
Version:Reiji Maigo's Insane
Source:11eyes -罪と罰と贖いの少女-
Tags:イレブンアイズ Sin Damnation and the Atonement Girl Tsumi to Batsu to Aganai no Shoujo Aeon no Me Original Sound Track & Arrange Lass Eroge Visual Novel Video Game Instrumental Mariko Sakuragi Reiji Maigo -_Ex_- Maot nisan anzt ro16 hd2
BeatmapID:3175889
BeatmapSetID:1543327

[Difficulty]
HPDrainRate:5
CircleSize:4
OverallDifficulty:7
ApproachRate:8
SliderMultiplier:1.6
SliderTickRate:1

[Events]
//Background and Video events
0,0,"bg.jpg",0,0
//Break Periods
//Storyboard Layer 0 (Background)
//Storyboard Layer 1 (Fail)
//Storyboard Layer 2 (Pass)
//Storyboard Layer 3 (Foreground)
//Storyboard Layer 4 (Overlay)
//Storyboard Sound Samples

[TimingPoints]
3109,333.333333333333,4,1,1,70,1,0
39775,333.333333333333,4,1,1,70,1,0
61108,-90.9090909090909,4,1,1,70,0,0
61441,-90.9090909090909,4,1,1,70,0,1
71691,-90.9090909090909,4,1,1,70,0,0
71774,-90.9090909090909,4,1,1,70,0,1
82441,-100,4,1,1,70,0,0
103774,352.941176470588,4,2,0,70,1,0
103774,-133.333333333333,4,2,0,70,0,0
104479,342.857142857143,4,2,0,70,1,0
104479,-133.333333333333,4,2,0,70,0,0
105164,333.333333333333,4,2,0,70,1,0
105164,-133.333333333333,4,2,0,70,0,0
111830,326.086956521739,4,2,0,70,1,0
111830,-133.333333333333,4,2,0,70,0,0
114440,333.333333333333,4,2,0,70,1,0
114440,-111.111111111111,4,2,0,70,0,0
125995,-111.111111111111,4,2,0,70,0,0
126439,-90.9090909090909,4,1,1,70,0,0
145106,-100,4,1,1,70,0,0
166439,-90.9090909090909,4,1,1,70,0,1
177023,-90.9090909090909,4,1,1,70,0,0
177106,-90.9090909090909,4,1,1,70,0,1
185106,-90.9090909090909,4,1,1,70,0,0
186606,-100,4,1,1,70,0,0

[Colours]
Combo1 : 250,180,240
Combo2 : 110,190,225
Combo3 : 255,230,130
Combo4 : 150,230,140

[HitObjects]
256,192,24442,12,4,25775,0:2:0:0:
128,192,26108,5,2,0:2:0:0:
128,192,26275,1,2,0:2:0:0:
232,280,26442,1,2,0:2:0:0:
232,280,26608,1,2,0:2:0:0:
152,264,26775,1,2,0:2:0:0:
204,204,26942,2,0,B|268:188|308:192|368:244,1,160,10|2,0:2|0:2,0:2:0:0:
388,304,27442,1,2,0:2:0:0:
464,276,27608,2,0,B|480:212|476:172|424:112,1,160,10|10,0:2|0:2,0:2:0:0:
360,108,28108,1,2,0:2:0:0:
324,180,28275,1,10,0:2:0:0:
324,180,28358,1,8,0:2:0:0:
324,180,28442,1,12,0:2:0:0:
280,60,28608,5,0,0:2:0:0:
240,60,28692,1,0,0:2:0:0:
200,60,28775,1,2,0:2:0:0:
144,116,28942,1,2,0:2:0:0:
192,180,29108,1,2,0:2:0:0:
136,236,29275,1,2,0:2:0:0:
184,300,29441,1,2,0:2:0:0:
232,364,29608,2,0,B|280:319|318:304|395:322,1,160,10|2,0:2|0:2,0:2:0:0:
448,356,30108,1,2,0:2:0:0:
512,232,30275,2,0,B|463:187|425:172|348:190,1,160,10|10,0:2|0:2,0:2:0:0:
292,292,30775,1,2,0:2:0:0:
172,284,30942,1,10,0:2:0:0:
172,284,31025,1,8,0:2:0:0:
172,284,31108,1,12,0:2:0:0:
104,176,31275,5,2,0:2:0:0:
104,136,31358,1,2,0:2:0:0:
104,96,31442,1,2,0:2:0:0:
268,112,31608,1,2,0:2:0:0:
142,1,31775,1,2,0:2:0:0:
177,159,31942,1,2,0:2:0:0:
245,11,32108,1,2,0:2:0:0:
32,56,32275,2,0,B|-1:113|-8:152|25:224,1,160,10|2,0:2|0:2,0:2:0:0:
178,292,32775,1,2,0:2:0:0:
254,264,32942,2,0,B|287:207|294:168|261:96,1,160,10|10,0:2|0:2,0:2:0:0:
128,216,33442,1,2,0:2:0:0:
178,292,33608,1,10,0:2:0:0:
178,292,33692,1,8,0:2:0:0:
178,292,33775,1,12,0:2:0:0:
280,152,33942,5,2,0:2:0:0:
320,152,34025,1,2,0:2:0:0:
360,152,34108,1,2,0:2:0:0:
501,235,34275,1,2,0:2:0:0:
334,250,34442,1,2,0:2:0:0:
455,143,34609,1,2,0:2:0:0:
423,302,34775,1,2,0:2:0:0:
248,252,34942,2,0,B|215:195|208:156|241:84,1,160,10|2,0:2|0:2,0:2:0:0:
364,240,35442,1,2,0:2:0:0:
256,348,35608,2,0,P|204:336|176:316,1,80,10|0,0:2|0:2,0:2:0:0:
332,196,35942,2,0,L|340:356,1,160,10|0,0:2|0:2,0:2:0:0:
380,380,36358,1,8,0:2:0:0:
380,380,36442,5,14,0:2:0:0:
448,340,36608,1,2,0:2:0:0:
64,252,36942,5,6,0:2:0:0:
448,132,37442,5,6,0:2:0:0:
64,44,37942,5,6,0:2:0:0:
212,128,38275,1,8,0:2:0:0:
212,128,38358,1,8,0:2:0:0:
212,128,38442,2,0,L|197:230,1,80,14|8,0:2|0:2,0:0:0:0:
300,256,38775,2,0,L|314:153,1,80,14|0,0:2|0:2,0:2:0:0:
310,176,39775,6,0,B|295:122|246:79|183:90,1,160,10|8,0:2|0:0,0:0:0:0:
56,88,40275,2,0,B|70:141|119:184|182:173,1,160,2|0,0:0|0:0,0:0:0:0:
240,220,40775,2,0,L|240:388,1,160,10|8,0:0|0:2,0:0:0:0:
328,264,41275,2,0,L|328:96,1,160,2|0,0:0|0:0,0:0:0:0:
412,44,41775,2,0,L|412:132,1,80,10|0,0:2|0:0,0:0:0:0:
508,204,42108,1,10,0:0:0:0:
488,280,42275,1,2,0:0:0:0:
412,308,42441,6,0,B|374:267|310:252|256:276,1,160,10|8,0:2|0:0,0:0:0:0:
232,344,42941,2,0,L|72:344,1,160,2|0,0:0|0:0,0:0:0:0:
20,284,43441,1,10,0:0:0:0:
68,220,43608,1,0,0:0:0:0:
28,152,43774,1,8,0:2:0:0:
88,100,43941,6,0,B|148:104|196:84|216:16,1,160,2|0,0:0|0:0,0:0:0:0:
280,92,44441,1,10,0:2:0:0:
280,132,44524,1,0,0:0:0:0:
280,172,44608,1,0,0:0:0:0:
416,224,44774,1,10,0:0:0:0:
416,224,44858,1,0,0:0:0:0:
416,224,44941,1,2,0:0:0:0:
416,224,45024,1,2,0:0:0:0:
416,224,45108,6,0,B|356:224|356:224|332:272|264:268,1,160,10|8,0:2|0:0,0:0:0:0:
132,312,45608,2,0,B|192:312|192:312|216:360|284:356,1,160,2|0,0:0|0:0,0:0:0:0:
352,332,46108,2,0,L|352:160,1,160,10|8,0:0|0:2,0:0:0:0:
412,132,46608,2,0,B|374:173|310:188|256:164,1,160,2|0,0:0|0:0,0:0:0:0:
220,104,47108,2,0,L|136:104,1,80,10|0,0:2|0:0,0:0:0:0:
40,152,47441,1,10,0:0:0:0:
80,220,47608,1,2,0:0:0:0:
160,232,47774,6,0,B|216:292|216:292|160:380,1,160,10|8,0:2|0:0,0:0:0:0:
120,300,48274,2,0,B|169:274|235:282|277:323,1,160,2|0,0:0|0:0,0:0:0:0:
320,380,48774,2,0,B|375:375|426:334|441:276,1,160,10|8,0:0|0:2,0:0:0:0:
376,240,49274,2,0,L|376:76,1,160,2|0,0:0|0:0,0:0:0:0:
312,32,49774,1,0,0:0:0:0:
293,48,49858,1,0,0:0:0:0:
271,58,49941,1,0,0:0:0:0:
248,66,50024,1,0,0:0:0:0:
224,71,50108,1,8,0:0:0:0:
200,75,50191,1,0,0:0:0:0:
176,77,50274,1,0,0:0:0:0:
151,74,50358,1,0,0:0:0:0:
128,66,50441,6,0,P|56:108|23:198,1,160,14|8,0:2|0:0,0:0:0:0:
4,304,50941,2,0,P|76:262|109:172,1,160,2|0,0:0|0:0,0:0:0:0:
176,152,51441,2,0,L|340:152,1,160,10|8,0:0|0:2,0:0:0:0:
384,236,51941,2,0,L|276:236,2,80,2|8|0,0:0|0:0|0:0,0:0:0:0:
460,212,52441,1,10,0:2:0:0:
500,144,52608,1,2,0:0:0:0:
480,68,52774,1,10,0:0:0:0:
408,36,52941,1,2,0:0:0:0:
332,60,53108,6,0,B|268:80|220:60|188:4,1,160,10|8,0:2|0:0,0:0:0:0:
132,140,53608,2,0,B|196:120|244:140|276:196,1,160,2|0,0:0|0:0,0:0:0:0:
352,244,54108,2,0,L|364:152,2,80,10|0|8,0:0|0:0|0:2,0:0:0:0:
276,268,54608,1,2,0:0:0:0:
200,296,54774,2,0,L|189:216,1,80,8|0,0:0|0:0,0:0:0:0:
124,172,55108,1,10,0:2:0:0:
44,184,55274,1,2,0:0:0:0:
0,120,55441,2,0,P|0:76|16:36,1,80,10|2,0:0|0:0,0:0:0:0:
52,32,55691,1,0,0:0:0:0:
52,32,55774,6,0,B|96:72|140:84|203:60,1,160,10|8,0:2|0:0,0:0:0:0:
260,8,56274,2,0,B|298:53|308:97|282:159,1,160,2|0,0:0|0:0,0:0:0:0:
416,208,56774,2,0,B|377:162|367:118|393:56,1,160,10|8,0:0|0:2,0:0:0:0:
492,172,57274,1,2,0:0:0:0:
492,252,57441,2,0,P|464:278|424:296,1,80,8|0,0:0|0:0,0:0:0:0:
356,260,57774,1,10,0:2:0:0:
276,260,57941,1,2,0:0:0:0:
224,320,58108,1,10,0:0:0:0:
152,352,58274,1,2,0:0:0:0:
152,352,58358,1,0,0:0:0:0:
152,352,58441,6,0,P|104:296|0:276,1,160,10|8,0:2|0:0,0:0:0:0:
100,204,58941,2,0,L|100:44,1,160,2|0,0:0|0:0,0:0:0:0:
184,4,59441,2,0,L|184:96,1,80,10|0,0:0|0:0,0:0:0:0:
256,124,59774,5,0,0:0:0:0:
268,124,59858,1,0,0:0:0:0:
280,124,59941,1,0,0:0:0:0:
292,124,60024,1,0,0:0:0:0:
304,124,60108,2,0,L|352:124,3,40,8|0|0|0,0:0|0:0|0:0|0:0,0:0:0:0:
376,124,60441,1,0,0:0:0:0:
405,136,60524,1,0,0:0:0:0:
430,156,60608,1,0,0:0:0:0:
444,184,60691,1,0,0:0:0:0:
447,215,60774,1,8,0:0:0:0:
438,246,60858,1,0,0:0:0:0:
418,271,60941,1,0,0:0:0:0:
389,285,61024,1,0,0:0:0:0:
356,284,61108,6,0,P|312:256|248:248,1,88.000002685547,12|0,0:2|0:0,0:0:0:0:
144,324,61441,1,10,0:0:0:0:
84,248,61607,1,2,0:0:0:0:
144,324,61774,1,10,0:2:0:0:
152,176,61941,1,2,0:0:0:0:
144,324,62107,1,10,0:0:0:0:
248,148,62274,1,2,0:0:0:0:
404,172,62441,6,0,B|452:228|460:260|444:340,2,176.000005371094,10|10|10,0:2|0:0|0:2,0:0:0:0:
320,192,63274,1,0,0:0:0:0:
248,148,63441,2,0,P|236:100|252:44,1,88.000002685547,10|0,0:0|0:0,0:0:0:0:
152,8,63774,6,0,L|136:220,1,176.000005371094,10|10,0:2|0:0,0:0:0:0:
234,323,64274,2,2,L|250:111,1,176.000005371094,2|0,0:0|0:0,0:0:0:0:
128,280,64774,2,0,L|120:386,1,88.000002685547,8|0,0:0|0:0,0:0:0:0:
36,260,65108,2,0,L|44:154,1,88.000002685547,8|0,0:2|0:0,0:0:0:0:
102,37,65441,5,10,0:0:0:0:
137,147,65608,1,2,0:0:0:0:
212,37,65774,1,10,0:2:0:0:
247,147,65941,1,2,0:0:0:0:
322,37,66108,1,10,0:0:0:0:
357,147,66275,1,2,0:0:0:0:
475,136,66441,6,2,B|535:204|535:204|467:300,1,176.000005371094,10|8,0:2|0:0,0:0:0:0:
367,284,66941,2,2,B|307:216|307:216|375:120,1,176.000005371094,2|0,0:0|0:0,0:0:0:0:
288,92,67441,2,0,B|244:108|244:108|181:73,1,88.000002685547,10|0,0:0|0:0,0:0:0:0:
132,44,67774,6,0,P|88:56|48:108,1,88.000002685547,10|0,0:2|0:0,0:0:0:0:
132,224,68108,1,10,0:0:0:0:
132,224,68191,1,0,0:0:0:0:
132,224,68274,2,0,L|132:136,1,88.000002685547,2|8,0:0|0:2,0:0:0:0:
40,236,68608,2,0,L|40:324,1,88.000002685547,2|8,0:0|0:0,0:0:0:0:
128,368,68941,1,2,0:0:0:0:
128,368,69024,1,0,0:0:0:0:
128,368,69108,6,2,B|180:316|236:308|308:328,4,176.000005371094,10|8|8|8|8,0:2|0:0|0:2|0:0|0:2,0:0:0:0:
40,324,70608,1,0,0:0:0:0:
40,324,70691,1,0,0:0:0:0:
40,324,70774,2,0,P|20:276|28:236,1,88.000002685547,10|2,0:0|0:0,0:0:0:0:
100,192,71108,1,10,0:2:0:0:
180,224,71274,1,2,0:0:0:0:
244,116,71441,1,10,0:0:0:0:
272,104,71524,1,0,0:0:0:0:
302,97,71608,1,0,0:0:0:0:
332,95,71691,1,0,0:0:0:0:
364,100,71774,6,2,L|377:295,1,176.000005371094,14|8,0:2|0:0,0:0:0:0:
460,372,72274,2,2,L|473:176,1,176.000005371094,2|0,0:0|0:0,0:0:0:0:
472,108,72774,2,0,P|416:116|360:112,1,88.000002685547,10|0,0:0|0:0,0:0:0:0:
364,80,73024,1,0,0:0:0:0:
364,80,73108,6,0,P|308:72|252:76,1,88.000002685547,10|0,0:2|0:0,0:0:0:0:
180,152,73441,2,0,P|236:160|292:156,1,88.000002685547,10|0,0:0|0:0,0:0:0:0:
184,64,73774,2,0,P|128:56|72:60,1,88.000002685547,10|0,0:2|0:0,0:0:0:0:
8,140,74108,2,0,P|64:148|120:144,1,88.000002685547,10|0,0:0|0:0,0:0:0:0:
184,64,74441,6,0,B|223:126|227:158|200:235,1,176.000005371094,10|10,0:2|0:0,0:0:0:0:
336,300,74941,2,2,B|296:237|292:205|319:128,1,176.000005371094,2|0,0:0|0:0,0:0:0:0:
404,112,75441,2,0,L|392:20,1,88.000002685547,8|0,0:0|0:0,0:0:0:0:
488,124,75774,2,0,L|476:216,1,88.000002685547,8|0,0:2|0:0,0:0:0:0:
296,296,76108,5,10,0:0:0:0:
512,328,76274,1,2,0:0:0:0:
360,240,76441,1,10,0:2:0:0:
448,384,76608,1,2,0:0:0:0:
436,284,76774,1,10,0:0:0:0:
372,340,76941,1,2,0:0:0:0:
228,344,77108,6,2,B|176:256|280:256|204:148,1,176.000005371094,10|8,0:2|0:0,0:0:0:0:
140,48,77608,2,2,B|192:136|88:136|164:244,1,176.000005371094,2|0,0:0|0:0,0:0:0:0:
316,248,78108,2,0,P|316:188|304:152,1,88.000002685547,10|0,0:0|0:0,0:0:0:0:
396,268,78441,1,10,0:2:0:0:
448,204,78608,1,0,0:0:0:0:
448,204,78691,1,0,0:0:0:0:
448,204,78774,2,0,P|436:144|448:108,1,88.000002685547,8|2,0:0|0:0,0:0:0:0:
442,119,79274,5,2,0:0:0:0:
304,132,79440,1,8,0:0:0:0:
232,8,79607,1,0,0:0:0:0:
64,40,79774,6,2,L|64:244,3,176.000005371094,10|8|8|8,0:2|0:0|0:2|0:0,0:0:0:0:
200,364,80941,1,2,0:0:0:0:
200,364,81024,1,2,0:0:0:0:
200,364,81108,6,2,B|157:308|100:294|10:319,1,176.000005371094,2|8,0:0|0:0,0:0:0:0:
18,330,81524,1,0,0:0:0:0:
44,346,81608,1,2,0:0:0:0:
74,342,81691,1,0,0:0:0:0:
99,324,81774,1,0,0:0:0:0:
116,298,81858,1,0,0:0:0:0:
120,267,81941,1,2,0:0:0:0:
107,238,82024,1,0,0:0:0:0:
88,212,82108,1,8,0:0:0:0:
73,185,82191,1,0,0:0:0:0:
67,154,82274,1,0,0:0:0:0:
74,123,82358,1,0,0:0:0:0:
94,98,82441,5,14,0:2:0:0:
316,133,82774,1,8,0:0:0:0:
400,168,82941,1,2,0:0:0:0:
400,168,83024,1,0,0:0:0:0:
400,168,83108,2,0,P|416:208|412:252,1,80,8|0,0:2|0:0,0:0:0:0:
348,288,83441,2,0,B|288:276|242:287|186:355,1,160,10|8,0:0|0:2,0:0:0:0:
124,344,83941,1,2,0:0:0:0:
84,276,84108,1,8,0:0:0:0:
108,200,84274,1,0,0:0:0:0:
32,148,84441,2,0,L|19:235,1,80,10|2,0:2|0:0,0:0:0:0:
112,120,84774,1,10,0:0:0:0:
180,160,84941,1,2,0:0:0:0:
236,100,85108,6,0,B|284:68|336:48|408:72,1,160,10|8,0:2|0:0,0:0:0:0:
452,112,85608,2,0,B|412:168|412:168|456:284,1,160,2|0,0:0|0:0,0:0:0:0:
380,300,86108,2,0,L|296:294,1,80,10|0,0:0|0:0,0:0:0:0:
252,360,86441,1,8,0:2:0:0:
252,360,86524,1,0,0:0:0:0:
252,360,86608,2,0,L|84:371,1,160,2|0,0:0|0:0,0:0:0:0:
28,320,87108,2,0,L|41:220,1,80,10|2,0:2|0:0,0:0:0:0:
108,200,87441,1,10,0:0:0:0:
104,176,87524,1,0,0:0:0:0:
100,152,87608,1,2,0:0:0:0:
96,128,87691,1,0,0:0:0:0:
92,104,87774,6,0,B|156:120|208:104|236:44,1,160,10|8,0:2|0:0,0:0:0:0:
300,120,88274,2,0,B|364:104|416:120|444:180,1,160,2|0,0:0|0:0,0:0:0:0:
500,116,88774,1,10,0:0:0:0:
500,116,88858,1,0,0:0:0:0:
500,116,88941,2,0,L|506:24,1,80,0|8,0:0|0:2,0:0:0:0:
438,169,89274,1,2,0:0:0:0:
438,169,89358,1,0,0:0:0:0:
438,169,89441,2,0,L|444:260,1,80,8|0,0:0|0:0,0:0:0:0:
356,328,89774,2,0,L|362:236,1,80,10|0,0:2|0:0,0:0:0:0:
292,208,90108,1,10,0:0:0:0:
268,216,90191,1,0,0:0:0:0:
244,224,90274,1,2,0:0:0:0:
220,232,90358,1,0,0:0:0:0:
196,240,90441,6,0,B|128:216|104:160|124:92,1,160,10|8,0:2|0:0,0:0:0:0:
44,60,90941,2,0,L|18:238,1,160,2|0,0:0|0:0,0:0:0:0:
88,264,91441,2,0,L|100:351,1,80,10|0,0:0|0:0,0:0:0:0:
176,312,91774,1,8,0:2:0:0:
189,274,91858,1,0,0:0:0:0:
202,237,91941,1,2,0:0:0:0:
268,292,92108,2,0,L|280:379,1,80,8|0,0:0|0:0,0:0:0:0:
360,376,92441,1,0,0:0:0:0:
383,373,92524,1,0,0:0:0:0:
405,366,92608,1,0,0:0:0:0:
425,353,92691,1,0,0:0:0:0:
442,335,92774,1,8,0:0:0:0:
453,313,92858,1,0,0:0:0:0:
460,289,92941,1,0,0:0:0:0:
456,265,93024,1,0,0:0:0:0:
449,241,93108,6,0,B|404:185|404:125|441:64,1,160,14|8,0:2|0:0,0:0:0:0:
492,40,93608,1,2,0:0:0:0:
416,12,93774,2,0,L|313:27,1,80,8|0,0:2|0:0,0:0:0:0:
324,64,94024,1,0,0:0:0:0:
324,64,94108,2,0,L|221:50,2,80,10|0|8,0:0|0:0|0:2,0:0:0:0:
340,144,94608,1,2,0:0:0:0:
280,196,94774,1,8,0:0:0:0:
208,160,94941,1,0,0:0:0:0:
132,184,95108,2,0,P|108:240|116:280,1,80,10|2,0:2|0:0,0:0:0:0:
168,312,95441,1,10,0:0:0:0:
92,340,95608,1,2,0:0:0:0:
28,292,95774,6,0,L|15:108,1,160,10|8,0:2|0:0,0:0:0:0:
68,72,96274,1,2,0:0:0:0:
152,104,96441,1,8,0:2:0:0:
152,104,96524,1,0,0:0:0:0:
152,104,96608,1,0,0:0:0:0:
200,40,96774,2,0,B|256:72|256:72|360:40,1,160,10|8,0:0|0:2,0:0:0:0:
428,52,97274,2,0,L|441:147,1,80,2|8,0:0|0:0,0:0:0:0:
364,164,97608,1,0,0:0:0:0:
357,244,97774,1,10,0:2:0:0:
351,325,97941,1,2,0:0:0:0:
276,364,98108,2,0,L|262:268,1,80,10|2,0:0|0:0,0:0:0:0:
196,240,98441,6,0,B|140:280|88:288|16:256,1,160,10|8,0:2|0:0,0:0:0:0:
4,200,98941,1,2,0:2:0:0:
4,200,99108,2,0,L|4:112,1,80,8|0,0:2|0:0,0:0:0:0:
72,76,99441,2,0,B|116:92|128:136|128:136|172:112|212:124,1,160,10|8,0:0|0:2,0:0:0:0:
252,180,99941,2,0,L|351:186,1,80,2|8,0:0|0:0,0:0:0:0:
408,156,100274,1,0,0:0:0:0:
472,200,100441,2,0,P|488:252|484:296,1,80,10|2,0:2|0:0,0:0:0:0:
420,320,100774,1,10,0:0:0:0:
344,300,100941,1,2,0:0:0:0:
292,360,101108,6,0,B|240:316|196:304|124:328,1,160,10|8,0:2|0:0,0:0:0:0:
72,356,101608,1,2,0:0:0:0:
72,356,101691,1,0,0:0:0:0:
72,356,101774,2,0,P|48:304|52:256,1,80,8|0,0:2|0:0,0:0:0:0:
120,244,102108,2,0,P|144:192|140:144,1,80,10|0,0:0|0:0,0:0:0:0:
76,132,102441,5,0,0:0:0:0:
72,120,102524,1,0,0:0:0:0:
68,108,102608,1,0,0:0:0:0:
64,96,102691,1,0,0:0:0:0:
60,84,102774,2,0,L|116:84,3,40,8|0|0|0,0:0|0:0|0:0|0:0,0:0:0:0:
132,84,103108,1,0,0:0:0:0:
162,74,103191,1,0,0:0:0:0:
186,53,103274,1,0,0:0:0:0:
203,25,103358,1,0,0:0:0:0:
234,29,103441,1,8,0:0:0:0:
260,46,103524,1,0,0:0:0:0:
277,73,103608,1,0,0:0:0:0:
279,104,103691,1,0,0:0:0:0:
271,131,103774,1,4,0:1:0:0:
271,131,104126,6,0,L|271:207,1,60.0000022888184,2|2,0:0|0:0,0:0:0:0:
184,248,104479,2,0,L|184:180,1,60.0000022888184,2|2,0:0|0:0,0:0:0:0:
336,248,104821,2,0,L|336:332,1,60.0000022888184,2|2,0:0|0:0,0:0:0:0:
276,372,105164,2,0,B|249:337|200:329|140:333,1,120.000004577637,2|2,0:0|0:0,0:0:0:0:
75,227,105830,2,0,B|101:192|150:184|210:188,1,120.000004577637,2|2,0:0|0:0,0:0:0:0:
336,248,106497,6,0,L|336:108,1,120.000004577637,2|2,0:0|0:0,0:0:0:0:
336,128,106997,1,2,0:0:0:0:
336,128,108164,6,0,L|268:128,1,60.0000022888184,2|2,0:0|0:0,0:0:0:0:
380,192,108497,2,0,L|316:215,1,60.0000022888184,2|2,0:0|0:0,0:0:0:0:
443,237,108830,2,0,L|390:280,1,60.0000022888184,2|2,0:0|0:0,0:0:0:0:
336,328,109164,5,2,0:0:0:0:
120,232,109664,1,2,0:0:0:0:
120,232,109830,2,0,L|120:144,1,60.0000022888184,2|0,0:0|0:0,0:0:0:0:
40,160,110164,2,0,L|40:88,1,60.0000022888184,2|0,0:0|0:0,0:0:0:0:
188,44,110497,2,0,L|188:124,1,60.0000022888184,2|0,0:0|0:0,0:0:0:0:
272,220,110830,1,2,0:0:0:0:
344,184,110997,2,0,L|344:100,1,60.0000022888184,2|2,0:0|0:0,0:0:0:0:
376,84,111330,2,0,L|376:228,1,120.000004577637,2|2,0:0|0:0,0:0:0:0:
256,192,111747,12,2,113134,0:0:0:0:
256,64,113460,6,0,L|256:152,1,60.0000022888184,2|2,0:0|0:0,0:0:0:0:
332,124,113786,1,2,0:0:0:0:
296,192,113949,1,2,0:0:0:0:
216,192,114112,1,2,0:0:0:0:
180,124,114275,1,2,0:0:0:0:
92,76,114440,6,0,B|12:140|-24:260|48:348,1,287.999991210938,6|2,0:2|0:0,0:0:0:0:
256,376,115440,1,2,0:0:0:0:
256,376,115773,2,0,L|256:208,2,143.999995605469,2|2|2,0:0|0:0|0:0,0:0:0:0:
256,232,116773,2,0,L|256:144,1,71.9999978027344,2|2,0:0|0:0,0:0:0:0:
194,92,117106,2,0,P|255:59|317:90,1,143.999995605469,2|2,0:0|0:0,0:0:0:0:
424,176,117606,2,0,P|256:232|88:176,1,359.999989013672,2|2,0:0|0:0,0:0:0:0:
88,176,118773,6,0,L|88:80,1,71.9999978027344,2|2,0:0|0:0,0:0:0:0:
8,268,119106,2,0,L|8:172,1,71.9999978027344,2|2,0:0|0:0,0:0:0:0:
152,324,119440,1,2,0:0:0:0:
152,244,119606,1,2,0:0:0:0:
228,188,119773,6,0,B|296:164|364:124|364:268|428:224|512:204,1,287.999991210938,6|2,0:2|0:0,0:0:0:0:
498,207,120773,2,0,L|498:119,1,71.9999978027344,2|2,0:0|0:0,0:0:0:0:
500,56,121106,1,2,0:0:0:0:
292,320,121440,1,2,0:0:0:0:
292,320,121606,2,0,L|292:228,1,71.9999978027344,2|2,0:0|0:0,0:0:0:0:
212,252,121939,2,0,L|212:176,2,71.9999978027344,2|2|2,0:0|0:0|0:0,0:0:0:0:
148,300,122439,6,0,B|12:304|-28:180|52:80,1,287.999991210938,2|2,0:0|0:0,0:0:0:0:
436,12,123773,1,2,0:0:0:0:
392,316,124328,1,2,0:0:0:0:
120,180,124662,1,2,0:0:0:0:
496,132,125106,5,6,0:0:0:0:
296,360,125662,1,2,0:0:0:0:
20,236,125995,1,2,0:2:0:0:
20,236,126439,5,10,0:2:0:0:
60,156,126606,1,0,0:0:0:0:
144,132,126773,1,8,0:0:0:0:
224,164,126939,1,2,0:0:0:0:
216,140,127106,5,8,0:2:0:0:
136,108,127272,1,0,0:0:0:0:
52,132,127439,1,10,0:0:0:0:
12,212,127606,1,0,0:0:0:0:
104,304,127773,6,0,L|104:204,1,88.000002685547,8|2,0:2|0:0,0:0:0:0:
184,344,128106,1,8,0:0:0:0:
272,312,128273,1,2,0:0:0:0:
272,312,128356,1,2,0:0:0:0:
272,312,128439,2,2,B|340:284|340:352|436:320,1,132.00000402832,10|0,0:2|0:0,0:0:0:0:
440,316,128773,2,0,P|460:276|448:204,1,88.000002685547,10|0,0:0|0:0,0:0:0:0:
344,120,129106,5,10,0:2:0:0:
366,204,129273,1,0,0:0:0:0:
427,140,129439,1,8,0:0:0:0:
328,100,129606,5,2,0:0:0:0:
350,184,129773,1,8,0:2:0:0:
411,120,129939,1,0,0:0:0:0:
312,80,130106,5,10,0:0:0:0:
334,164,130273,1,0,0:0:0:0:
395,100,130439,1,8,0:2:0:0:
296,60,130606,5,2,0:0:0:0:
318,144,130773,1,8,0:0:0:0:
379,80,130939,1,0,0:0:0:0:
235,124,131106,6,2,P|188:120|136:124,1,88.000002685547,10|0,0:2|0:0,0:0:0:0:
272,220,131439,2,0,P|319:224|371:220,1,88.000002685547,10|0,0:0|0:0,0:0:0:0:
188,204,131773,5,10,0:2:0:0:
220,284,131939,1,0,0:0:0:0:
168,352,132106,1,8,0:0:0:0:
136,272,132273,2,0,L|32:272,1,88.000002685547,2|8,0:0|0:2,0:0:0:0:
376,112,132773,2,0,L|480:112,1,88.000002685547,10|0,0:0|0:0,0:0:0:0:
300,240,133273,2,0,L|300:344,1,88.000002685547,2|8,0:0|0:0,0:0:0:0:
212,144,133606,1,2,0:0:0:0:
212,144,133689,1,2,0:0:0:0:
212,144,133773,2,2,B|240:92|240:52|204:4,1,132.00000402832,10|0,0:2|0:0,0:0:0:0:
172,8,134106,2,0,P|128:16|76:20,1,88.000002685547,10|0,0:0|0:0,0:0:0:0:
16,128,134439,5,10,0:2:0:0:
96,164,134606,1,0,0:0:0:0:
168,112,134773,1,8,0:0:0:0:
164,100,134939,5,2,0:0:0:0:
244,64,135106,1,8,0:2:0:0:
316,116,135273,1,0,0:0:0:0:
312,128,135439,5,10,0:0:0:0:
392,164,135606,1,0,0:0:0:0:
464,112,135773,1,8,0:2:0:0:
468,124,135939,5,2,0:0:0:0:
504,204,136106,1,8,0:0:0:0:
452,276,136273,1,0,0:0:0:0:
364,264,136439,1,0,0:0:0:0:
348,268,136523,1,0,0:0:0:0:
332,272,136606,1,0,0:0:0:0:
316,276,136689,1,0,0:0:0:0:
300,280,136773,1,8,0:0:0:0:
284,284,136856,1,0,0:0:0:0:
268,288,136939,1,0,0:0:0:0:
252,292,137023,1,0,0:0:0:0:
236,296,137106,6,0,L|148:296,2,88.000002685547,14|0|8,0:2|0:0|0:0,0:0:0:0:
0,164,137606,2,0,L|88:164,2,88.000002685547,2|8|0,0:0|0:2|0:0,0:0:0:0:
236,32,138106,2,0,L|148:32,2,88.000002685547,10|0|8,0:0|0:0|0:2,0:0:0:0:
296,164,138606,2,0,L|384:164,1,88.000002685547,2|8,0:0|0:0,0:0:0:0:
472,132,138939,1,2,0:0:0:0:
472,132,139023,1,2,0:0:0:0:
472,132,139106,2,2,P|488:76|476:28,1,88.000002685547,10|0,0:2|0:0,0:0:0:0:
404,12,139439,1,10,0:0:0:0:
48,116,139773,6,0,L|48:28,1,88.000002685547,10|0,0:2|0:0,0:0:0:0:
464,268,140273,2,0,L|464:356,1,88.000002685547,2|8,0:0|0:2,0:0:0:0:
16,104,140773,2,0,L|16:16,1,88.000002685547,10|0,0:0|0:0,0:0:0:0:
496,280,141273,2,0,L|496:368,1,88.000002685547,2|8,0:0|0:0,0:0:0:0:
256,192,141773,2,0,L|356:191,1,88.000002685547,10|0,0:2|0:0,0:0:0:0:
256,192,142106,2,0,L|156:192,1,88.000002685547,10|0,0:0|0:0,0:0:0:0:
84,212,142439,5,10,0:2:0:0:
40,288,142606,1,0,0:0:0:0:
100,352,142773,1,8,0:0:0:0:
180,320,142939,1,2,0:0:0:0:
256,368,143106,1,8,0:2:0:0:
332,320,143273,1,0,0:0:0:0:
412,352,143439,1,10,0:0:0:0:
472,288,143606,1,0,0:0:0:0:
428,212,143773,1,12,0:2:0:0:
304,192,143940,5,0,0:0:0:0:
280,192,144024,1,0,0:0:0:0:
256,192,144107,1,8,0:0:0:0:
232,192,144189,1,0,0:0:0:0:
208,192,144273,1,4,0:2:0:0:
184,192,144606,5,0,0:0:0:0:
208,192,144690,1,0,0:0:0:0:
232,192,144774,1,8,0:0:0:0:
256,192,144856,1,0,0:0:0:0:
280,192,144939,1,0,0:0:0:0:
304,192,145023,1,0,0:0:0:0:
328,192,145106,5,14,0:2:0:0:
108,192,145606,1,2,0:0:0:0:
404,192,146106,1,2,0:0:0:0:
32,192,146606,1,2,0:0:0:0:
480,192,147106,5,2,0:0:0:0:
32,192,147439,1,2,0:0:0:0:
256,192,147773,6,0,L|256:136,1,40,2|0,0:0|0:0,0:0:0:0:
256,192,148273,2,0,L|256:256,1,40,2|0,0:0|0:0,0:0:0:0:
128,100,148773,2,0,L|128:40,1,40,2|0,0:0|0:0,0:0:0:0:
384,284,149273,2,0,L|384:344,1,40,2|0,0:0|0:0,0:0:0:0:
128,192,149773,5,2,0:0:0:0:
384,192,150106,1,2,0:0:0:0:
40,192,150439,5,2,0:0:0:0:
40,192,150773,1,2,0:0:0:0:
128,192,150939,1,2,0:0:0:0:
472,192,151439,5,2,0:0:0:0:
472,192,151773,1,2,0:0:0:0:
384,192,151939,1,2,0:0:0:0:
472,192,152439,5,2,0:0:0:0:
40,192,152773,1,2,0:0:0:0:
180,116,153106,6,0,L|180:60,1,40,2|0,0:0|2:0,0:0:0:0:
264,224,153439,1,2,0:0:0:0:
332,268,153606,2,0,L|332:328,1,40,2|0,0:0|2:0,0:0:0:0:
152,96,154106,2,0,L|152:36,1,40,2|0,0:0|2:0,0:0:0:0:
292,244,154439,1,2,0:0:0:0:
360,288,154606,2,0,L|360:348,1,40,2|0,0:0|2:0,0:0:0:0:
72,96,155106,5,2,0:0:0:0:
440,288,155439,1,2,0:0:0:0:
312,192,155773,5,10,0:2:0:0:
256,248,155939,1,0,0:0:0:0:
200,304,156106,1,10,0:0:0:0:
144,360,156273,2,0,B|80:372|28:340|40:260,1,160,2|0,0:0|0:0,0:0:0:0:
124,192,156773,2,0,L|124:280,2,80,10|0|10,0:0|0:0|0:2,0:0:0:0:
104,108,157273,2,0,B|168:96|220:128|208:208,1,160,2|0,0:0|0:0,0:0:0:0:
288,256,157773,6,0,L|299:176,1,80,10|0,0:2|0:0,0:0:0:0:
204,276,158106,2,0,L|215:355,1,80,10|0,0:0|0:0,0:0:0:0:
138,219,158439,6,0,P|173:195|229:195,1,80,10|0,0:2|0:0,0:0:0:0:
209,190,158773,1,10,0:0:0:0:
124,300,158939,2,0,B|59:299|21:268|23:188,1,160,2|0,0:0|0:0,0:0:0:0:
80,140,159439,2,0,P|43:118|-12:122,1,80,10|0,0:0|0:0,0:0:0:0:
7,116,159773,1,10,0:2:0:0:
112,216,159939,2,0,B|175:210|211:176|203:97,1,160,2|0,0:0|0:0,0:0:0:0:
124,0,160439,6,0,L|136:91,1,80,10|0,0:2|0:0,0:0:0:0:
272,228,160773,2,0,L|284:136,1,80,10|0,0:0|0:0,0:0:0:0:
476,128,161106,6,0,B|417:143|417:143|310:72,1,160,10|10,0:2|0:0,0:0:0:0:
60,116,161606,2,0,B|118:100|118:100|225:171,1,160,2|2,0:0|0:0,0:0:0:0:
304,352,162106,2,0,B|252:272|340:276|288:180,1,160,10|10,0:0|0:2,0:0:0:0:
194,2,162606,2,0,B|246:82|158:78|210:174,1,160,2|0,0:0|0:0,0:0:0:0:
376,304,163106,6,0,P|428:304|472:312,1,80,10|0,0:2|0:0,0:0:0:0:
220,236,163439,2,0,P|168:236|124:244,1,80,10|0,0:0|0:0,0:0:0:0:
44,364,163773,5,2,0:0:0:0:
44,364,163856,1,0,0:0:0:0:
44,364,163939,1,0,0:0:0:0:
44,364,164023,1,0,0:0:0:0:
44,364,164106,1,8,0:0:0:0:
44,364,164189,1,0,0:0:0:0:
44,364,164273,1,0,0:0:0:0:
44,364,164356,1,0,0:0:0:0:
44,364,164439,1,0,0:0:0:0:
44,364,164523,1,0,0:0:0:0:
44,364,164606,1,0,0:0:0:0:
44,364,164689,1,0,0:0:0:0:
44,364,164773,6,0,L|32:285,1,80,10|0,0:0|0:0,0:0:0:0:
32,285,165106,1,10,0:2:0:0:
152,160,165273,2,0,L|126:339,1,160,2|0,0:0|0:0,0:0:0:0:
200,364,165773,1,0,0:0:0:0:
227,350,165856,1,0,0:0:0:0:
257,342,165939,1,0,0:0:0:0:
289,339,166023,1,0,0:0:0:0:
320,340,166106,2,2,P|364:352|424:348,1,80,10|0,0:0|0:0,0:0:0:0:
476,240,166439,5,14,0:2:0:0:
468,200,166523,1,0,0:0:0:0:
460,160,166606,1,0,0:0:0:0:
512,88,166773,1,8,0:0:0:0:
436,44,166939,2,2,B|352:80|352:0|232:60,1,176.000005371094,2|0,0:0|0:0,0:0:0:0:
184,84,167439,2,2,L|170:180,2,88.000002685547,10|0|0,0:0|0:0|0:0,0:0:0:0:
268,148,167939,1,2,0:0:0:0:
276,188,168023,1,0,0:0:0:0:
284,228,168106,1,8,0:0:0:0:
216,284,168273,1,0,0:0:0:0:
312,320,168439,5,10,0:2:0:0:
377,260,168606,1,0,0:0:0:0:
460,294,168773,1,8,0:0:0:0:
508,212,168939,6,2,B|512:140|476:84|376:96,1,176.000005371094,2|0,0:0|0:0,0:0:0:0:
377,99,169356,1,0,0:0:0:0:
348,110,169439,1,8,0:0:0:0:
326,133,169523,1,0,0:0:0:0:
307,158,169606,1,0,0:0:0:0:
280,174,169689,1,0,0:0:0:0:
248,180,169773,2,0,P|200:180|184:176,3,44.0000013427735
180,160,170106,2,0,P|132:160|116:164,3,44.0000013427735,8|0|0|0,0:0|0:0|0:0|0:0,0:0:0:0:
112,180,170439,5,0,0:0:0:0:
81,188,170523,1,0,0:0:0:0:
50,184,170606,1,0,0:0:0:0:
25,166,170689,1,0,0:0:0:0:
8,140,170773,1,8,0:0:0:0:
6,110,170856,1,0,0:0:0:0:
17,82,170939,1,0,0:0:0:0:
39,61,171023,1,0,0:0:0:0:
68,52,171106,2,0,L|111:62,1,44.0000013427735
144,60,171273,2,0,L|187:51,1,44.0000013427735
216,52,171439,2,0,L|259:62,1,44.0000013427735,8|0,0:0|0:0,0:0:0:0:
292,60,171606,2,0,L|335:51,1,44.0000013427735
404,4,171773,5,0,0:0:0:0:
433,11,171856,1,0,0:0:0:0:
459,27,171939,1,0,0:0:0:0:
478,52,172023,1,0,0:0:0:0:
480,83,172106,2,0,P|472:115|457:139,1,44.0000013427735,8|0,0:0|0:0,0:0:0:0:
444,148,172273,2,0,P|451:180|466:204,1,44.0000013427735
512,240,172439,1,0,0:0:0:0:
484,225,172523,1,0,0:0:0:0:
454,218,172606,1,0,0:0:0:0:
423,221,172689,1,0,0:0:0:0:
392,230,172773,1,8,0:0:0:0:
364,244,172856,1,0,0:0:0:0:
335,253,172939,1,0,0:0:0:0:
303,254,173023,1,0,0:0:0:0:
276,240,173106,6,2,L|249:50,1,176.000005371094,10|8,0:2|0:0,0:0:0:0:
172,184,173606,2,2,L|145:375,1,176.000005371094,2|0,0:0|0:0,0:0:0:0:
56,300,174106,2,2,L|41:197,1,88.000002685547,10|0,0:0|0:0,0:0:0:0:
128,100,174439,2,2,B|224:60|208:140|316:92,3,176.000005371094,10|8|8|8,0:2|0:0|0:2|0:0,0:0:0:0:
356,32,175606,1,2,0:0:0:0:
396,24,175689,1,2,0:0:0:0:
436,16,175773,6,2,L|409:207,1,176.000005371094,10|8,0:2|0:0,0:0:0:0:
484,304,176273,2,0,L|511:113,1,176.000005371094
492,108,176689,1,0,0:0:0:0:
480,113,176772,1,8,0:0:0:0:
469,121,176855,1,0,0:0:0:0:
461,132,176939,1,0,0:0:0:0:
455,143,177022,1,0,0:0:0:0:
451,155,177106,5,12,0:2:0:0:
369,126,177273,1,0,0:0:0:0:
287,97,177439,2,0,L|273:196,1,88.000002685547,8|0,0:0|0:0,0:0:0:0:
204,72,177773,1,8,0:2:0:0:
122,43,177940,1,0,0:0:0:0:
81,28,178023,1,0,0:0:0:0:
40,14,178106,2,0,L|26:113,1,88.000002685547,8|0,0:0|0:0,0:0:0:0:
184,168,178439,5,0,0:0:0:0:
143,153,178522,1,0,0:0:0:0:
102,139,178606,2,0,L|95:188,2,44.0000013427735,0|0|8,0:0|0:0|0:0,0:0:0:0:
232,276,178940,1,0,0:0:0:0:
191,261,179023,1,0,0:0:0:0:
150,247,179106,2,0,L|143:296,2,44.0000013427735
220,364,179439,1,8,0:0:0:0:
259,360,179523,1,0,0:0:0:0:
296,348,179606,1,0,0:0:0:0:
321,318,179689,1,0,0:0:0:0:
322,278,179773,6,2,B|294:218|300:155|355:83,1,176.000005371094,10|8,0:2|0:0,0:0:0:0:
440,16,180273,2,2,B|468:76|462:139|407:211,1,176.000005371094,2|0,0:0|0:0,0:0:0:0:
397,194,180689,1,0,0:0:0:0:
366,199,180773,1,8,0:0:0:0:
338,185,180856,1,0,0:0:0:0:
309,174,180939,1,0,0:0:0:0:
278,171,181023,1,0,0:0:0:0:
248,180,181106,2,0,L|180:184,1,44.0000013427735
176,196,181273,2,0,L|120:156,1,44.0000013427735
108,172,181439,2,0,L|91:106,1,44.0000013427735,8|0,0:0|0:0,0:0:0:0:
72,112,181606,2,0,L|101:50,1,44.0000013427735
132,60,181773,6,0,L|132:4,3,44.0000013427735
160,0,182106,1,8,0:0:0:0:
195,17,182189,1,0,0:0:0:0:
234,24,182273,1,0,0:0:0:0:
273,20,182356,1,0,0:0:0:0:
308,4,182439,6,2,L|508:4,2,176.000005371094,14|8|8,0:2|0:0|0:2,0:0:0:0:
232,64,183273,1,0,0:0:0:0:
232,64,183356,1,0,0:0:0:0:
232,64,183439,1,8,0:0:0:0:
232,64,183523,1,0,0:0:0:0:
232,64,183606,1,6,0:0:0:0:
232,64,183939,5,0,0:0:0:0:
192,69,184023,1,0,0:0:0:0:
152,75,184106,1,8,0:0:0:0:
64,87,184273,1,6,0:0:0:0:
64,87,184606,5,2,0:0:0:0:
60,120,184689,1,0,0:0:0:0:
56,156,184773,1,8,0:0:0:0:
52,192,184856,1,0,0:0:0:0:
48,228,184939,1,0,0:0:0:0:
44,264,185023,1,0,0:0:0:0:
256,192,185106,12,10,186273,0:2:0:0:
256,273,186606,5,2,0:0:0:0:
256,192,186773,1,2,0:0:0:0:
256,112,186939,1,10,0:2:0:0:
168,345,187273,1,10,0:2:0:0:
168,264,187439,1,2,0:0:0:0:
168,184,187606,1,10,0:2:0:0:
168,184,187689,1,8,0:2:0:0:
168,184,187773,5,12,0:2:0:0:
256,273,187939,1,2,0:0:0:0:
296,273,188023,1,0,0:0:0:0:
336,273,188106,1,2,0:2:0:0:
408,237,188273,1,2,0:2:0:0:
428,161,188439,1,2,0:2:0:0:
376,101,188606,1,2,0:2:0:0:
296,101,188773,1,2,0:2:0:0:
240,157,188939,2,0,B|192:184|136:192|60:144,1,160,10|2,0:2|0:2,0:2:0:0:
20,200,189439,1,2,0:2:0:0:
120,312,189606,2,0,B|168:285|224:277|300:325,1,160,10|10,0:2|0:2,0:2:0:0:
380,384,190106,1,2,0:2:0:0:
496,324,190273,1,10,0:2:0:0:
496,324,190356,1,8,0:2:0:0:
496,324,190439,1,12,0:2:0:0:
508,196,190606,5,2,0:0:0:0:
508,156,190689,1,2,0:0:0:0:
508,116,190773,1,2,0:2:0:0:
379,11,190939,1,2,0:2:0:0:
426,167,191106,1,2,0:2:0:0:
482,16,191273,1,2,0:2:0:0:
343,108,191439,1,2,0:2:0:0:
236,36,191606,2,0,B|203:93|196:132|229:204,1,160,10|2,0:2|0:2,0:2:0:0:
352,260,192106,1,2,0:2:0:0:
428,240,192273,2,0,B|461:183|468:144|435:72,1,160,10|10,0:2|0:2,0:2:0:0:
304,184,192773,1,2,0:2:0:0:
352,260,192939,1,10,0:2:0:0:
352,260,193023,1,8,0:2:0:0:
352,260,193106,1,12,0:2:0:0:
256,108,193273,5,2,0:0:0:0:
216,108,193356,1,2,0:0:0:0:
176,108,193439,1,2,0:2:0:0:
35,191,193606,1,2,0:2:0:0:
202,206,193773,1,2,0:2:0:0:
81,99,193940,1,2,0:2:0:0:
113,258,194106,1,2,0:2:0:0:
288,208,194273,2,0,B|321:151|328:112|295:40,1,160,10|2,0:2|0:2,0:2:0:0:
172,196,194773,1,2,0:2:0:0:
280,304,194939,2,0,P|332:292|360:272,1,80,10|0,0:2|0:2,0:2:0:0:
204,152,195273,2,0,L|196:312,1,160,10|0,0:2|0:2,0:2:0:0:
156,336,195689,1,8,0:2:0:0:
156,336,195773,5,14,0:2:0:0:
88,296,195939,1,2,0:0:0:0:
441,258,196273,5,6,0:2:0:0:
70,125,196773,5,6,0:2:0:0:
424,88,197273,5,6,0:2:0:0:
300,128,197606,1,8,0:2:0:0:
300,128,197689,1,8,0:2:0:0:
300,128,197773,2,0,L|315:230,1,80,14|8,0:2|0:2,0:0:0:0:
212,256,198106,2,0,L|198:153,1,80,14|0,0:2|0:2,0:2:0:0:
256,192,198439,12,4,201106,0:0:0:0:
