osu file format v14

[General]
AudioFilename: audio.mp3
AudioLeadIn: 0
PreviewTime: 103862
Countdown: 0
SampleSet: Normal
StackLeniency: 0.5
Mode: 0
LetterboxInBreaks: 0
WidescreenStoryboard: 1

[Editor]
DistanceSpacing: 1
BeatDivisor: 4
GridSize: 32
TimelineZoom: 1.700001

[Metadata]
Title:Eye of Aeon
TitleUnicode:劫の眼
Artist:Sakamoto Shoichiro
ArtistUnicode:坂本昌一郎
Creator:niii_san
Version:Reiji Maigo & niii_san's Normal
Source:11eyes -罪と罰と贖いの少女-
Tags:イレブンアイズ Sin Damnation and the Atonement Girl Tsumi to Batsu to Aganai no Shoujo Aeon no Me Original Sound Track & Arrange Lass Eroge Visual Novel Video Game Instrumental Mariko Sakuragi Reiji Maigo -_Ex_- Maot nisan anzt ro16 hd2
BeatmapID:3177128
BeatmapSetID:1543327

[Difficulty]
HPDrainRate:4
CircleSize:3
OverallDifficulty:4
ApproachRate:5
SliderMultiplier:1.2
SliderTickRate:1

[Events]
//Background and Video events
0,0,"bg.jpg",0,0
//Break Periods
//Storyboard Layer 0 (Background)
//Storyboard Layer 1 (Fail)
//Storyboard Layer 2 (Pass)
//Storyboard Layer 3 (Foreground)
//Storyboard Layer 4 (Overlay)
//Storyboard Sound Samples

[TimingPoints]
3109,333.333333333333,4,1,1,70,1,0
39775,333.333333333333,4,1,1,70,1,0
61108,-100,4,1,1,70,0,0
61441,-100,4,1,1,70,0,1
71691,-100,4,1,1,70,0,0
71774,-100,4,1,1,70,0,1
82441,-100,4,1,1,70,0,0
103774,352.941176470588,4,2,0,70,1,0
103774,-100,4,2,0,70,0,0
104126,-111.111111111111,4,2,0,70,0,0
104479,342.857142857143,4,2,0,70,1,0
105164,333.333333333333,4,2,0,70,1,0
105164,-111.111111111111,4,2,0,70,0,0
111830,326.086956521739,4,2,0,70,1,0
111830,-111.111111111111,4,2,0,70,0,0
114440,333.333333333333,4,2,0,70,1,0
114440,-111.111111111111,4,2,0,70,0,0
126439,-100,4,1,1,70,0,0
166439,-100,4,1,1,70,0,1
177023,-100,4,1,1,70,0,0
177106,-100,4,1,1,70,0,1
185106,-100,4,1,1,70,0,0

[Colours]
Combo1 : 250,180,240
Combo2 : 110,190,225
Combo3 : 255,230,130
Combo4 : 150,230,140

[HitObjects]
256,192,25775,5,4,0:2:0:0:
168,132,26108,2,0,B|144:76|168:4|168:4,2,120,2|2|2,0:2|0:2|0:2,0:0:0:0:
132,172,26942,2,0,B|68:136|4:168|4:168|36:216,1,180,10|2,0:2|0:2,0:2:0:0:
68,244,27608,2,0,L|77:379,1,120,10|10,0:2|0:2,0:2:0:0:
128,384,28108,1,2,0:2:0:0:
208,312,28442,5,12,0:2:0:0:
308,356,28775,2,0,B|352:356|352:356|396:336|396:336|440:336,2,120,2|2|2,0:2|0:2|0:2,0:0:0:0:
260,328,29608,2,0,B|212:280|232:192|232:192,1,120,10|2,0:2|0:2,0:2:0:0:
276,192,30108,1,2,0:2:0:0:
276,192,30275,1,10,0:2:0:0:
380,160,30608,2,0,L|385:88,1,60,10|2,0:2|0:2,0:0:0:0:
360,60,30942,1,10,0:2:0:0:
360,60,31108,6,0,B|316:104|228:92|228:92,1,120,12|2,0:2|0:2,0:2:0:0:
144,68,31775,2,0,L|152:8,2,60,2|2|2,0:2|0:2|0:2,0:0:0:0:
92,88,32275,2,0,L|111:226,1,120,10|2,0:2|0:2,0:2:0:0:
76,252,32775,1,2,0:2:0:0:
76,252,32942,2,0,B|132:236|132:236|196:284,1,120,10|10,0:2|0:2,0:2:0:0:
196,324,33442,1,2,0:2:0:0:
292,272,33775,5,12,0:2:0:0:
384,332,34108,2,0,B|416:276|384:212|384:212,2,120,2|2|2,0:2|0:2|0:2,0:0:0:0:
428,364,34942,2,0,B|472:348|516:360|516:360|508:324,1,120,10|2,0:2|0:2,0:2:0:0:
500,284,35442,1,2,0:2:0:0:
500,284,35608,1,10,0:2:0:0:
420,212,35942,2,0,L|420:28,1,180,10|14,0:2|0:2,0:2:0:0:
296,136,36942,6,0,L|296:320,2,180,6|6|6,0:2|0:2|0:2,0:0:0:0:
148,204,38442,1,14,0:2:0:0:
52,152,38775,1,14,0:2:0:0:
52,152,39775,6,0,B|39:215|65:272|65:272,1,120,10|8,0:2|0:0,0:0:0:0:
106,303,40275,2,0,L|233:295,1,120,2|0,0:0|0:0,0:0:0:0:
266,330,40775,1,10,0:0:0:0:
370,373,41108,1,8,0:2:0:0:
370,373,41275,2,0,B|438:316|438:316|395:233,1,180,2|10,0:0|0:2,0:0:0:0:
289,221,42108,6,0,L|299:162,1,60,10|2,0:0|0:0,0:0:0:0:
350,145,42441,2,0,B|389:77|336:26|336:26,1,120,10|8,0:2|0:0,0:0:0:0:
298,0,42941,1,2,0:0:0:0:
154,74,43441,2,0,B|101:57|101:57|27:67,1,120,10|8,0:0|0:2,0:0:0:0:
5,109,43941,2,0,B|5:153|5:153|25:197|25:197|25:241,1,120,2|0,0:0|0:0,0:0:0:0:
68,258,44441,1,10,0:2:0:0:
127,348,44774,5,10,0:0:0:0:
223,299,45108,2,0,B|278:282|278:282|342:305,1,120,10|8,0:2|0:0,0:0:0:0:
386,324,45608,2,0,B|392:252|415:189|415:189,1,120,2|0,0:0|0:0,0:0:0:0:
438,160,46108,1,10,0:0:0:0:
334,153,46441,1,8,0:2:0:0:
334,153,46608,2,0,B|269:87|269:87|329:13,1,180,2|10,0:0|0:2,0:0:0:0:
428,51,47441,6,0,L|490:63,1,60,10|2,0:0|0:0,0:0:0:0:
511,110,47774,2,0,B|511:175|494:244|494:244,1,120,10|8,0:2|0:0,0:0:0:0:
460,268,48274,2,0,B|396:248|396:248|336:271,1,120,2|0,0:0|0:0,0:0:0:0:
302,298,48774,1,10,0:0:0:0:
197,270,49108,6,0,B|298:167|206:19|206:19,1,240,8|10,0:2|0:2,0:0:0:0:
115,19,50108,1,10,0:0:0:0:
15,61,50441,6,0,B|-4:110|-4:110|16:174,1,120,14|8,0:2|0:0,0:0:0:0:
65,195,50941,2,0,B|83:244|83:244|63:308,1,120,2|0,0:0|0:0,0:0:0:0:
38,357,51441,2,0,B|100:340|168:369|168:369,1,120,10|8,0:0|0:2,0:0:0:0:
208,379,51941,1,2,0:0:0:0:
356,314,52441,5,10,0:2:0:0:
356,314,52608,2,0,L|423:343,2,60,2|10|2,0:0|0:0|0:0,0:0:0:0:
304,298,53108,2,0,B|271:227|338:182|338:182,1,120,10|8,0:2|0:0,0:0:0:0:
373,159,53608,2,0,B|406:88|339:43|339:43,1,120,2|0,0:0|0:0,0:0:0:0:
304,18,54108,2,0,L|172:35,1,120,10|8,0:0|0:2,0:0:0:0:
131,41,54608,1,2,0:0:0:0:
59,188,55108,5,10,0:2:0:0:
59,188,55274,2,0,L|-11:179,2,60,2|10|2,0:2|0:0|0:0,0:0:0:0:
109,167,55774,2,0,B|173:211|137:284|137:284,1,120,10|8,0:2|0:0,0:0:0:0:
128,325,56274,2,0,B|191:314|191:314|242:341,1,120,2|0,0:0|0:0,0:0:0:0:
284,371,56774,2,0,B|347:382|347:382|398:355,1,120,10|8,0:0|0:2,0:0:0:0:
443,329,57274,1,2,0:0:0:0:
507,182,57774,5,10,0:2:0:0:
507,182,57941,2,0,L|512:122,2,60,2|10|2,0:0|0:0|0:0,0:0:0:0:
460,209,58441,2,0,B|417:202|417:202|370:216|370:216|326:209,1,120,10|8,0:2|0:0,0:0:0:0:
290,223,58941,2,0,B|231:170|269:103|269:103,1,120,2|0,0:0|0:0,0:0:0:0:
280,62,59441,1,10,0:0:0:0:
186,7,59774,6,0,B|35:-6|3:140|3:140,1,240,8|10,0:2|0:2,0:0:0:0:
46,234,60774,1,10,0:0:0:0:
152,216,61108,1,12,0:2:0:0:
256,244,61441,6,0,L|266:315,1,60,10|2,0:0|0:0,0:0:0:0:
320,308,61774,2,0,L|370:359,1,60,10|2,0:2|0:0,0:0:0:0:
408,320,62108,2,0,L|478:332,1,60,10|2,0:0|0:0,0:0:0:0:
508,292,62441,1,10,0:2:0:0:
440,208,62774,1,10,0:0:0:0:
508,124,63108,1,10,0:2:0:0:
456,28,63441,1,10,0:0:0:0:
360,76,63774,6,0,B|316:76|316:76|280:52|280:52|216:52,1,120,10|10,0:2|0:0,0:0:0:0:
224,100,64274,2,2,B|180:100|180:100|144:76|144:76|80:76,1,120,2|0,0:0|0:0,0:0:0:0:
60,92,64774,2,0,B|60:160|48:240|48:240,1,120,8|8,0:0|0:2,0:0:0:0:
120,296,65441,2,0,L|211:289,1,60,10|2,0:0|0:0,0:0:0:0:
208,340,65774,2,0,L|299:333,1,60,10|2,0:2|0:0,0:0:0:0:
288,284,66108,2,0,L|379:277,1,60,10|2,0:0|0:0,0:0:0:0:
384,320,66441,6,2,B|464:312|464:224|464:224,1,120,10|8,0:2|0:0,0:0:0:0:
416,212,66941,2,2,L|389:25,1,180,2|10,0:0|0:0,0:0:0:0:
292,76,67774,1,10,0:2:0:0:
200,28,68108,1,10,0:0:0:0:
200,28,68274,1,2,0:0:0:0:
92,48,68608,2,0,B|33:88|41:176|41:176,1,120,2|2,0:0|0:0,0:0:0:0:
84,188,69108,6,2,L|226:208,1,120,10|8,0:2|0:0,0:0:0:0:
260,300,69774,2,0,L|402:279,2,120,8|8|0,0:2|0:0|0:0,0:0:0:0:
180,372,70774,1,10,0:0:0:0:
72,352,71108,1,10,0:2:0:0:
40,248,71441,1,10,0:0:0:0:
120,176,71774,6,2,B|156:124|156:124|124:48,1,120,14|8,0:2|0:0,0:0:0:0:
92,36,72274,2,2,B|180:4|180:80|292:36,1,180,2|10,0:0|0:0,0:0:0:0:
368,8,73108,1,10,0:2:0:0:
448,80,73441,1,10,0:0:0:0:
400,176,73774,1,10,0:2:0:0:
480,248,74107,1,10,0:0:0:0:
444,348,74441,6,0,L|296:332,1,120,10|10,0:2|0:0,0:0:0:0:
320,280,74941,2,2,L|172:296,1,120,2|0,0:0|0:0,0:0:0:0:
152,320,75441,2,0,B|192:256|160:188|160:188,1,120,8|8,0:0|0:2,0:0:0:0:
76,144,76108,2,0,P|68:104|76:72,1,60,10|2,0:0|0:0,0:0:0:0:
124,76,76441,2,0,P|148:43|177:27,1,60,10|2,0:2|0:0,0:0:0:0:
212,60,76774,2,0,P|252:56|283:67,1,60,10|2,0:0|0:0,0:0:0:0:
296,108,77108,6,2,B|356:128|360:80|416:96|416:96,1,120,10|8,0:2|0:0,0:0:0:0:
468,100,77608,2,2,B|477:163|477:163|452:211|452:211|464:298,1,180,2|10,0:0|0:0,0:0:0:0:
404,364,78441,1,10,0:2:0:0:
304,336,78774,1,8,0:0:0:0:
304,336,78941,1,2,0:0:0:0:
276,232,79274,2,0,L|284:172,2,60,2|8|0,0:0|0:0|0:0,0:0:0:0:
232,260,79774,6,2,B|124:280|120:196|0:212,2,240,10|8|8,0:2|0:2|0:2,0:0:0:0:
380,192,81608,2,0,L|362:70,1,120,2|2,0:0|0:0,0:0:0:0:
208,20,82441,1,14,0:2:0:0:
256,192,82524,12,0,87108,0:0:0:0:
332,46,87774,6,0,B|388:95|355:179|355:179,1,120,10|8,0:2|0:0,0:0:0:0:
346,208,88274,2,0,L|229:231,1,120,2|0,0:0|0:0,0:0:0:0:
174,240,88774,1,10,0:0:0:0:
141,136,89108,1,8,0:2:0:0:
141,136,89274,2,0,B|60:105|60:105|-6:184,1,180,2|10,0:0|0:2,0:0:0:0:
12,284,90108,6,0,L|29:348,1,60,10|2,0:0|0:0,0:0:0:0:
71,373,90441,2,0,B|194:364,1,120,10|8,0:2|0:0,0:0:0:0:
244,361,90941,1,2,0:0:0:0:
354,349,91274,1,0,0:0:0:0:
354,349,91441,2,0,B|394:302|394:302|374:225|374:225,1,120,10|8,0:0|0:2,0:0:0:0:
347,201,91941,1,2,0:0:0:0:
390,45,92441,6,0,B|271:82|145:22|145:22,1,240,8|14,0:2|0:2,0:0:0:0:
68,88,93441,1,8,0:0:0:0:
68,88,93608,2,0,B|79:151|79:151|54:211,1,120,2|0,0:0|0:0,0:0:0:0:
17,233,94108,2,0,B|6:296|6:296|31:356,1,120,10|8,0:0|0:2,0:0:0:0:
67,383,94608,1,2,0:0:0:0:
229,355,95108,5,10,0:2:0:0:
229,355,95274,2,0,L|298:365,2,60,2|10|2,0:0|0:0|0:0,0:0:0:0:
185,323,95774,2,0,B|149:259|200:198|200:198,1,120,10|8,0:2|0:0,0:0:0:0:
227,168,96274,2,0,B|270:164|270:164|299:174|299:174|344:170,1,120,2|0,0:0|0:0,0:0:0:0:
398,167,96774,2,0,B|425:110|425:110|396:60,1,120,10|8,0:0|0:2,0:0:0:0:
360,19,97274,1,2,0:0:0:0:
202,27,97774,5,10,0:2:0:0:
202,27,97941,2,0,L|132:17,2,60,2|10|2,0:0|0:0|0:0,0:0:0:0:
244,61,98441,2,0,B|215:111|215:111|242:168,1,120,10|8,0:2|0:0,0:0:0:0:
269,213,98941,2,0,B|296:263|296:263|267:320,1,120,2|0,0:2|0:0,0:0:0:0:
238,365,99441,2,0,B|175:340|116:353|116:353,1,120,10|8,0:0|0:2,0:0:0:0:
72,377,99941,1,2,0:0:0:0:
44,215,100441,5,10,0:2:0:0:
44,215,100608,2,0,L|-15:207,2,60,2|10|2,0:0|0:0|0:0,0:0:0:0:
97,222,101108,2,0,B|137:167|94:101|94:101,1,120,10|8,0:2|0:0,0:0:0:0:
81,56,101608,2,0,B|140:31|140:31|214:68,1,120,2|0,0:0|0:0,0:0:0:0:
232,89,102108,2,0,B|287:116|287:116|347:95,1,120,10|8,0:0|0:2,0:0:0:0:
392,76,102608,1,2,0:0:0:0:
503,193,103108,5,10,0:2:0:0:
509,300,103441,1,10,0:0:0:0:
409,338,103774,1,4,0:1:0:0:
337,272,104126,6,0,L|229:279,1,107.999996704102,2|2,0:0|0:0,0:0:0:0:
159,361,104821,1,2,0:0:0:0:
62,333,105164,2,0,B|90:225|54:115|54:115,1,215.999993408203,2|2,0:0|0:0,0:0:0:0:
22,27,106164,1,2,0:0:0:0:
116,3,106497,2,0,L|280:3,1,161.999995056153,2|2,0:0|0:0,0:0:0:0:
468,136,108164,6,0,B|440:192|468:252|468:252,2,107.999996704102,2|2|2,0:0|0:0|0:0,0:0:0:0:
392,76,109164,2,0,B|296:128|168:108|168:108,1,215.999993408203,2|2,0:0|0:0,0:0:0:0:
116,40,110164,1,2,0:0:0:0:
28,80,110497,2,0,L|11:198,1,107.999996704102,2|2,0:0|0:0,0:0:0:0:
4,236,110997,1,2,0:0:0:0:
72,304,111330,1,2,0:0:0:0:
168,280,111664,2,0,L|175:224,1,53.9999983520508,2|2,0:0|0:0,0:0:0:0:
392,88,113460,5,2,0:0:0:0:
345,174,113786,1,2,0:0:0:0:
427,228,114112,1,2,0:0:0:0:
388,316,114440,2,0,B|276:276|292:368|148:332,1,215.999993408203,6|0,0:2|0:0,0:0:0:0:
96,284,115440,1,2,0:0:0:0:
156,208,115773,2,0,L|137:73,2,107.999996704102,2|2|2,0:0|0:0|0:0,0:0:0:0:
248,236,116773,1,2,0:0:0:0:
328,180,117106,2,0,L|309:45,1,107.999996704102,2|2,0:0|0:0,0:0:0:0:
304,24,117606,1,2,0:0:0:0:
64,60,118773,5,2,0:0:0:0:
40,156,119106,1,2,0:0:0:0:
124,208,119440,1,2,0:0:0:0:
208,156,119773,2,0,B|328:144|403:255|403:255,1,215.999993408203,6|2,0:2|0:0,0:0:0:0:
432,336,120773,1,2,0:0:0:0:
348,384,121106,2,0,L|217:365,1,107.999996704102,2|2,0:0|0:0,0:0:0:0:
192,360,121606,1,2,0:0:0:0:
97,380,121939,2,0,B|4:336|32:228|32:228,1,161.999995056153,2|2,0:0|0:0,0:0:0:0:
256,192,123773,12,6,125106,0:0:0:0:
191,77,126439,6,0,B|250:67|250:67|315:117,1,120,10|8,0:2|0:0,0:0:0:0:
334,143,126939,2,0,B|381:179|381:179|440:169,1,120,2|0,0:0|0:0,0:0:0:0:
494,159,127439,2,0,B|523:232|501:289|501:289,1,120,10|8,0:0|0:2,0:0:0:0:
490,328,127939,1,2,0:0:0:0:
394,378,128273,5,2,0:0:0:0:
394,378,128439,2,2,B|336:338|268:360|268:360,2,120,10|10|10,0:2|0:0|0:2,0:0:0:0:
490,328,129439,1,8,0:0:0:0:
490,328,129606,2,0,L|499:204,1,120,2|0,0:0|0:0,0:0:0:0:
455,176,130106,2,0,L|464:52,1,120,10|8,0:0|0:2,0:0:0:0:
430,13,130606,2,0,B|378:44|378:44|292:28,1,120,2|0,0:0|0:0,0:0:0:0:
270,10,131106,5,10,0:2:0:0:
184,76,131439,1,10,0:0:0:0:
80,46,131773,2,0,B|47:98|47:98|73:166,1,120,10|8,0:2|0:0,0:0:0:0:
90,201,132273,2,0,B|116:256|116:256|82:320,1,120,2|0,0:0|0:0,0:0:0:0:
69,358,132773,2,0,L|193:380,1,120,10|8,0:0|0:2,0:0:0:0:
234,352,133273,1,2,0:0:0:0:
322,290,133606,5,2,0:0:0:0:
322,290,133773,2,2,B|378:273|378:273|436:292,2,120,10|10|10,0:2|0:0|0:2,0:0:0:0:
227,250,134773,1,8,0:0:0:0:
227,250,134939,2,0,B|171:267|171:267|113:248,1,120,2|0,0:0|0:0,0:0:0:0:
62,227,135439,2,0,B|27:159|63:102|63:102,1,120,10|8,0:0|0:2,0:0:0:0:
84,63,135939,2,0,B|127:66|127:66|165:46|165:46|229:51,1,120,2|0,0:0|0:0,0:0:0:0:
245,23,136439,5,10,0:2:0:0:
333,85,136773,1,10,0:0:0:0:
437,59,137106,2,0,B|440:102|440:102|420:140|420:140|425:204,1,120,14|8,0:2|0:0,0:0:0:0:
381,209,137606,2,0,B|384:252|384:252|364:290|364:290|369:354,1,120,2|0,0:0|0:0,0:0:0:0:
352,376,138106,2,0,B|299:339|299:339|223:356,1,120,10|8,0:0|0:2,0:0:0:0:
194,369,138606,1,2,0:0:0:0:
113,306,138939,5,2,0:0:0:0:
113,306,139106,2,2,P|48:288|-7:298,2,120,10|10|10,0:2|0:0|0:2,0:0:0:0:
194,369,140106,1,8,0:0:0:0:
194,369,140273,2,0,B|228:314|228:314|207:236,1,120,2|0,0:0|0:0,0:0:0:0:
189,212,140773,2,0,B|162:153|162:153|215:81,1,120,10|8,0:0|0:2,0:0:0:0:
230,66,141273,2,0,B|356:76,1,120,2|0,0:0|0:0,0:0:0:0:
403,66,141773,5,10,0:2:0:0:
447,164,142106,1,10,0:0:0:0:
482,265,142439,2,0,B|439:262|439:262|401:282|401:282|337:277,1,120,10|8,0:2|0:0,0:0:0:0:
332,320,142939,2,0,B|289:317|289:317|251:337|251:337|187:332,1,120,2|0,0:0|0:0,0:0:0:0:
166,354,143439,1,10,0:0:0:0:
69,304,143773,6,0,B|3:203|89:109|89:109,1,180,12|4,0:2|0:2,0:0:0:0:
144,55,144606,2,0,B|231:21|223:111|319:80,1,180,0|14,0:0|0:2,0:0:0:0:
464,24,145606,1,2,0:0:0:0:
488,184,146106,1,2,0:0:0:0:
327,208,146606,1,2,0:0:0:0:
300,48,147106,1,2,0:0:0:0:
240,140,147439,1,2,0:0:0:0:
132,120,147773,5,2,0:0:0:0:
3,218,148273,1,2,0:0:0:0:
102,347,148773,1,2,0:0:0:0:
232,250,149273,1,2,0:0:0:0:
331,379,149773,1,2,0:0:0:0:
432,340,150106,1,2,0:0:0:0:
436,232,150439,5,2,0:0:0:0:
335,271,150773,1,2,0:0:0:0:
335,271,150939,1,2,0:0:0:0:
212,164,151439,1,2,0:0:0:0:
111,203,151773,1,2,0:0:0:0:
111,203,151939,1,2,0:0:0:0:
156,48,152439,1,2,0:0:0:0:
257,9,152773,1,2,0:0:0:0:
356,48,153106,5,2,0:0:0:0:
388,152,153439,1,2,0:0:0:0:
388,152,153606,1,2,0:0:0:0:
256,247,154106,1,2,0:0:0:0:
288,352,154439,1,2,0:0:0:0:
288,352,154606,1,2,0:0:0:0:
136,296,155106,1,2,0:0:0:0:
104,192,155439,1,2,0:0:0:0:
150,94,155773,6,0,B|193:97|193:97|231:77|231:77|295:82,1,120,10|10,0:2|0:0,0:0:0:0:
304,116,156273,2,0,B|347:119|347:119|385:99|385:99|449:104,1,120,2|0,0:0|0:0,0:0:0:0:
472,111,156773,2,0,B|453:253|453:253,1,120,10|10,0:0|0:2,0:0:0:0:
446,283,157273,1,2,0:0:0:0:
311,373,157773,5,10,0:2:0:0:
209,335,158106,1,10,0:0:0:0:
110,378,158439,2,0,B|73:322|73:322|91:252,1,120,10|10,0:2|0:0,0:0:0:0:
124,232,158939,2,0,B|137:180|137:180|100:124,1,120,2|0,0:0|0:0,0:0:0:0:
65,83,159439,2,0,B|114:20|201:56|201:56,1,120,10|10,0:0|0:2,0:0:0:0:
225,61,159939,1,2,0:0:0:0:
309,202,160439,5,10,0:2:0:0:
408,160,160773,1,10,0:0:0:0:
500,215,161106,2,0,L|506:81,1,120,10|10,0:2|0:0,0:0:0:0:
479,47,161606,2,0,B|445:44|445:44|407:64|407:64|364:61,1,120,2|2,0:0|0:0,0:0:0:0:
323,96,162106,2,0,B|289:93|289:93|251:113|251:113|208:110,1,120,10|10,0:0|0:2,0:0:0:0:
154,110,162606,1,2,0:0:0:0:
25,208,163106,5,10,0:2:0:0:
88,295,163439,1,10,0:0:0:0:
151,382,163773,2,0,B|202:350|202:350|279:365,1,120,10|8,0:2|0:0,0:0:0:0:
315,375,164273,2,0,B|366:327|338:248|338:248,1,120,2|0,0:0|0:0,0:0:0:0:
308,221,164773,2,0,B|312:236|284:157|335:109,1,120,10|8,0:0|0:2,0:0:0:0:
370,73,165273,1,2,0:0:0:0:
225,0,165773,5,10,0:2:0:0:
127,45,166106,1,10,0:0:0:0:
68,136,166439,6,0,L|85:262,1,120,14|8,0:2|0:0,0:0:0:0:
136,272,166939,2,0,L|153:145,1,120,2|0,0:0|0:0,0:0:0:0:
204,136,167439,2,0,L|221:262,1,120,10|8,0:0|0:2,0:0:0:0:
272,272,167939,2,0,L|289:145,1,120,2|0,0:0|0:0,0:0:0:0:
340,132,168439,1,10,0:2:0:0:
448,168,168773,5,8,0:0:0:0:
448,168,168939,2,2,B|464:96|416:48|416:48,1,120,2|0,0:0|0:0,0:0:0:0:
372,36,169439,2,0,L|304:40,1,60,8|0,0:0|0:0,0:0:0:0:
272,76,169773,2,0,L|204:71,1,60,8|0,0:2|0:0,0:0:0:0:
172,36,170106,2,0,L|104:41,1,60,8|0,0:0|0:0,0:0:0:0:
72,76,170439,1,8,0:2:0:0:
12,168,170773,1,8,0:0:0:0:
76,256,171106,1,8,0:2:0:0:
180,228,171439,1,8,0:0:0:0:
280,268,171773,6,0,B|273:311|273:311|285:341|285:341|279:385,2,120,8|8|8,0:2|0:0|0:2,0:0:0:0:
372,212,172773,2,0,L|360:128,1,60,8|0,0:0|0:0,0:0:0:0:
320,120,173106,2,2,B|280:148|280:148|192:112,1,120,10|8,0:2|0:0,0:0:0:0:
160,120,173606,2,2,B|120:164|120:164|140:244,1,120,2|0,0:0|0:0,0:0:0:0:
184,244,174106,1,10,0:0:0:0:
136,340,174439,6,2,B|64:360|16:296|16:296,1,120,10|8,0:2|0:0,0:0:0:0:
0,260,174939,2,0,L|17:133,1,120
68,132,175439,2,0,L|50:5,2,120,8|10|8,0:0|0:2|0:0,0:0:0:0:
160,192,176439,1,8,0:2:0:0:
260,148,176773,1,8,0:0:0:0:
352,204,177106,6,0,L|341:279,2,60,12|0|8,0:2|0:0|0:0,0:0:0:0:
444,148,177773,2,0,L|433:72,2,60,8|0|8,0:2|0:0|0:0,0:0:0:0:
448,256,178439,2,0,L|516:256,2,60,8|0|8,0:2|0:0|0:0,0:0:0:0:
352,204,179106,1,8,0:2:0:0:
260,260,179439,1,8,0:0:0:0:
156,228,179773,2,2,B|120:172|141:110|141:110,1,120,10|8,0:2|0:0,0:0:0:0:
172,68,180273,2,0,B|116:104|54:83|54:83,1,120
12,52,180773,1,8,0:0:0:0:
0,160,181106,5,8,0:2:0:0:
64,248,181439,1,8,0:0:0:0:
172,224,181773,2,0,L|247:234,1,60,8|0,0:2|0:0,0:0:0:0:
260,276,182106,2,0,L|335:265,1,60,8|0,0:0|0:0,0:0:0:0:
364,296,182439,2,2,B|512:228|428:88|428:88,1,240,14|8,0:2|0:2,0:0:0:0:
328,68,183439,2,0,L|316:147,1,60,8|6,0:0|0:0,0:0:0:0:
228,184,183939,6,0,L|216:104,1,60,0|8,0:0|0:0,0:0:0:0:
180,88,184273,1,6,0:0:0:0:
84,36,184606,2,0,L|67:154,1,120,2|0,0:0|0:0,0:0:0:0:
59,208,185106,5,14,0:2:0:0:
114,300,185439,2,0,B|66:335|66:335|0:321,2,120,2|2|2,0:2|0:2|0:2,0:0:0:0:
160,272,186273,2,0,B|194:298|230:299|230:299|272:271|272:271|334:293,1,180,10|2,0:2|0:2,0:2:0:0:
371,310,186939,2,0,L|404:186,1,120,10|10,0:2|0:2,0:2:0:0:
416,142,187439,1,2,0:2:0:0:
371,43,187773,5,12,0:2:0:0:
263,50,188106,2,0,B|215:15|215:15|149:29,2,120,2|2|2,0:2|0:2|0:2,0:0:0:0:
282,100,188939,2,0,B|307:166|271:222,1,120,10|2,0:2|0:2,0:2:0:0:
258,269,189439,1,2,0:2:0:0:
258,269,189606,1,10,0:2:0:0:
165,324,189939,2,0,L|97:303,1,60,10|2,0:2|0:2,0:0:0:0:
55,321,190273,1,10,0:2:0:0:
55,321,190439,6,0,L|37:186,1,120,12|2,0:2|0:2,0:2:0:0:
87,105,191106,2,0,L|79:37,2,60,2|2|2,0:2|0:2|0:2,0:0:0:0:
133,132,191606,2,0,B|174:121|174:121|215:134|215:134|277:118,1,120,10|2,0:2|0:2,0:2:0:0:
288,163,192106,1,2,0:2:0:0:
288,163,192273,2,0,B|329:152|329:152|370:165|370:165|432:149,1,120,10|10,0:2|0:2,0:2:0:0:
457,154,192773,1,2,0:2:0:0:
494,255,193106,5,12,0:2:0:0:
414,328,193439,2,0,B|456:376|456:376|520:381,2,120,2|2|2,0:2|0:2|0:2,0:0:0:0:
371,294,194273,2,0,B|235:326,1,120,10|2,0:2|0:2,0:2:0:0:
205,336,194773,1,2,0:2:0:0:
205,336,194939,1,10,0:2:0:0:
104,300,195273,2,0,L|104:108,1,180,10|14,0:2|0:2,0:2:0:0:
224,12,196273,6,0,L|224:212,2,180,6|6|6,0:2|0:2|0:2,0:0:0:0:
344,120,197773,1,14,0:2:0:0:
436,64,198106,1,14,0:2:0:0:
496,152,198439,1,14,0:2:0:0:
256,192,198523,12,4,201106,0:0:0:0:
