osu file format v14

[General]
AudioFilename: audio.mp3
AudioLeadIn: 0
PreviewTime: 116027
Countdown: 0
SampleSet: Soft
StackLeniency: 0.7
Mode: 0
LetterboxInBreaks: 0
WidescreenStoryboard: 1

[Editor]
Bookmarks: 22353,49782,79496,86099,88599,106884,116027,118956,145741,154884,191313,207353,209776,246347,262120,282906,301204,319426
DistanceSpacing: 1.7
BeatDivisor: 5
GridSize: 16
TimelineZoom: 3.2

[Metadata]
Title:Demo
TitleUnicode:でも
Artist:Sakamoto Maaya x Hara Masakazu (the band apart)
ArtistUnicode:坂本真綾 × 原昌和 (the band apart)
Creator:Mixagji
Version:Expert
Source:
Tags:duets duet japanese pop j-pop 岩里祐穂 iwasato yuho nu jazz
BeatmapID:3598135
BeatmapSetID:1758221

[Difficulty]
HPDrainRate:6
CircleSize:4
OverallDifficulty:8
ApproachRate:9.4
SliderMultiplier:3.59999990463257
SliderTickRate:1

[Events]
//Background and Video events
0,0,"97497203_p0 (1).jpg",0,0
//Break Periods
2,192018,206849
//Storyboard Layer 0 (Background)
//Storyboard Layer 1 (Fail)
//Storyboard Layer 2 (Pass)
//Storyboard Layer 3 (Foreground)
//Storyboard Layer 4 (Overlay)
//Storyboard Sound Samples

[TimingPoints]
545,571.428571428571,4,2,1,60,1,0
830,556.844547563805,4,2,1,60,1,0
1665,571.428571428571,4,2,1,60,1,0
2228,571.428571428571,4,2,1,40,1,0
2228,-200,4,2,1,40,0,0
4099,571.428571428571,4,2,1,50,1,0
4099,-125,4,2,1,50,0,0
21956,-83.3333333333333,4,2,1,60,0,0
22384,-125,4,2,1,50,0,0
77813,-100,4,2,1,60,0,0
78956,-125,4,2,1,60,0,0
79527,-166.666666666667,4,2,1,40,0,0
86384,-83.3333333333334,4,2,1,60,0,0
88670,-100,4,2,1,60,0,0
106956,-125,4,2,1,50,0,0
115099,-100,4,2,1,40,0,0
115527,-100,4,2,1,50,0,0
116099,-125,4,2,1,50,0,0
142670,-250,4,2,1,60,0,0
143527,-125,4,2,1,60,0,0
145813,-166.666666666667,4,2,1,40,0,0
152670,-83.3333333333334,4,2,1,60,0,0
163956,-66.6666666666667,4,2,1,60,0,0
164813,-83.3333333333333,4,2,1,60,0,0
185527,-66.6666666666667,4,2,1,60,0,0
185813,-83.3333333333333,4,2,1,60,0,0
190813,-125,4,2,1,40,0,0
191532,571.428571428571,4,2,1,40,1,0
207389,-100,4,2,1,50,0,0
208674,-100,4,2,1,60,0,0
225674,-83.3333333333333,4,2,1,60,0,0
228102,-100,4,2,1,60,0,0
294674,-83.3333333333333,4,2,1,60,0,0
296531,-100,4,2,1,60,0,0
298816,-83.3333333333333,4,2,1,60,0,0
301245,-100,4,2,1,50,0,0
302674,-100,4,2,1,35,0,0
302816,-125,4,2,1,40,0,0
304959,-125,4,2,1,30,0,0
305102,-125,4,2,1,40,0,0
310245,-166.666666666667,4,2,1,35,0,0

[Colours]
Combo1 : 4,130,255
Combo2 : 0,255,255
Combo3 : 102,102,255
Combo4 : 0,128,128

[HitObjects]
134,112,545,5,0,1:0:0:0:
363,91,687,1,0,1:0:0:0:
232,21,830,6,0,P|223:66|241:107,2,89.9999976158143,4|2|2,3:1|0:0|0:0,0:0:0:0:
284,184,1247,2,0,P|288:230|267:273,2,89.9999976158143,0|2|2,3:0|0:0|0:0,0:0:0:0:
197,321,1665,6,0,P|169:340|157:378,1,60,2|0,0:2|0:0,0:0:0:0:
172,376,1807,2,0,P|199:356|211:318,1,60,2|0,0:2|0:0,0:0:0:0:
189,225,1950,2,0,P|175:199|150:182,1,60,2|0,0:2|0:0,0:0:0:0:
137,195,2093,2,0,P|151:221|176:238,1,60,2|0,0:2|0:0,0:0:0:0:
270,268,2228,6,0,B|246:220|188:226|173:271|184:282|161:334|115:334|95:298,1,224.999994039536,0|0,3:0|0:0,0:0:0:0:
86,289,2989,2,0,P|87:310|63:338,1,59.9999984105428,4|0,0:0|0:0,0:0:0:0:
62,338,3256,6,0,P|43:316|55:274,1,71.9999980926514,0|0,1:0|0:0,0:0:0:0:
41,271,3513,1,0,1:0:0:0:
108,206,3656,5,0,3:0:0:0:
20,134,3799,1,0,0:0:0:0:
141,104,3942,2,0,P|130:113|109:118,1,29.9999992052714,0|0,0:2|0:0,0:0:0:0:
100,125,4099,6,0,P|144:118|206:93,1,108,4|0,3:2|0:0,0:0:0:0:
99,43,4384,2,0,P|55:36|27:23,1,72,0|0,0:0|0:0,0:0:0:0:
258,50,4670,2,0,P|239:80|210:101,1,72,0|0,0:0|0:0,0:0:0:0:
140,255,4956,1,0,3:0:0:0:
233,245,5099,2,0,P|251:207|253:174,1,72,0|0,3:0|0:0,0:0:0:0:
335,132,5384,1,0,0:0:0:0:
257,338,5527,2,0,P|309:326|359:288,1,108,0|0,3:0|0:0,0:0:0:0:
399,223,5813,2,0,P|381:254|372:289,1,72,0|0,1:0|0:0,0:0:0:0:
471,347,6099,1,0,0:0:0:0:
503,208,6241,2,0,P|497:182|492:172,1,36,0|0,0:0|0:0,0:0:0:0:
417,132,6384,6,0,P|408:82|434:32,1,108,0|0,3:0|0:0,0:0:0:0:
495,166,6670,2,0,P|477:199|446:216,1,72,0|0,0:0|1:0,0:0:0:0:
331,130,6956,2,0,P|300:103|266:93,1,72,0|0,0:0|0:0,0:0:0:0:
201,30,7241,1,0,3:0:0:0:
73,85,7384,1,0,3:0:0:0:
66,236,7527,1,0,0:0:0:0:
83,259,7670,1,0,0:0:0:0:
130,252,7813,1,0,3:0:0:0:
111,173,7956,1,0,3:0:0:0:
24,232,8099,1,0,1:0:0:0:
108,343,8241,2,0,P|140:329|183:319,1,72,0|0,0:0|3:0,0:0:0:0:
293,343,8527,2,0,P|308:357|325:363,1,36,0|0,0:0|0:0,0:0:0:0:
385,313,8670,6,0,P|436:275|487:267,1,108,0|0,3:0|0:0,0:0:0:0:
341,243,8956,2,0,P|305:252|265:250,1,72,0|0,0:0|1:0,0:0:0:0:
125,168,9241,1,0,0:0:0:0:
197,109,9384,2,0,P|216:146|220:178,1,72,0|0,0:0|3:0,0:0:0:0:
32,125,9670,1,0,3:0:0:0:
70,39,9813,2,0,P|108:32|141:25,1,72,0|0,0:0|0:0,0:0:0:0:
383,47,10099,2,0,P|345:54|312:61,1,72,0|0,3:0|0:0,0:0:0:0:
405,280,10384,1,0,1:0:0:0:
470,238,10527,1,0,0:0:0:0:
442,149,10670,1,0,3:0:0:0:
348,139,10813,2,0,P|341:154|338:176,1,36,0|0,0:0|0:0,0:0:0:0:
288,232,10956,6,0,P|321:276|325:342,1,108,0|0,3:0|0:0,0:0:0:0:
240,297,11241,2,0,P|206:273|171:267,1,72,0|0,0:0|1:0,0:0:0:0:
17,232,11527,2,0,P|57:237|93:223,1,72,0|0,0:0|0:0,0:0:0:0:
204,140,11813,1,0,3:0:0:0:
26,32,11956,1,0,3:0:0:0:
117,9,12099,5,0,0:0:0:0:
146,30,12241,1,0,0:0:0:0:
144,80,12384,1,0,3:0:0:0:
77,107,12527,1,0,0:0:0:0:
25,187,12670,1,0,1:0:0:0:
65,97,12813,1,0,0:0:0:0:
132,205,12956,1,0,3:0:0:0:
92,295,13099,2,0,P|69:286|56:284,1,36,0|0,0:0|0:0,0:0:0:0:
33,361,13241,6,0,P|83:375|148:363,1,108,4|0,3:2|0:0,0:0:0:0:
55,273,13527,2,0,P|19:271|-15:285,1,72,0|0,0:0|1:0,0:0:0:0:
204,301,13813,2,0,P|221:264|224:229,1,72,0|0,0:0|0:0,0:0:0:0:
221,26,14099,1,0,3:0:0:0:
153,122,14241,1,0,3:0:0:0:
291,155,14384,2,0,P|338:153|362:140,1,72,0|0,0:0|0:0,0:0:0:0:
492,38,14670,2,0,P|445:14|384:26,1,108,0|0,3:0|0:0,0:0:0:0:
430,100,14956,2,0,P|446:137|438:182,1,72,0|0,1:0|0:0,0:0:0:0:
367,250,15241,1,0,0:0:0:0:
399,342,15384,2,0,P|416:359|450:364,1,36,0|0,0:0|0:0,0:0:0:0:
458,281,15527,6,0,P|413:259|353:266,1,108,0|0,3:0|0:0,0:0:0:0:
230,233,15813,2,0,P|266:225|296:200,1,72,0|0,0:0|1:0,0:0:0:0:
268,359,16099,2,0,P|240:330|207:321,1,72,0|0,0:0|0:0,0:0:0:0:
16,291,16384,1,0,3:0:0:0:
146,218,16527,1,0,3:0:0:0:
83,147,16670,2,0,P|58:174|52:209,1,72,0|0,0:0|0:0,0:0:0:0:
107,305,16956,1,0,3:0:0:0:
193,299,17099,1,0,0:0:0:0:
243,229,17241,1,0,1:0:0:0:
237,206,17384,1,0,0:0:0:0:
291,138,17527,1,0,3:0:0:0:
377,134,17670,2,0,P|382:150|386:171,1,36
417,239,17813,6,0,P|427:185|461:140,1,108,0|0,3:0|0:0,0:0:0:0:
384,37,18099,2,0,P|417:54|452:57,1,72,0|0,0:0|1:0,0:0:0:0:
238,11,18384,2,0,P|201:19|171:41,1,72,0|0,0:0|0:0,0:0:0:0:
31,169,18670,1,0,3:0:0:0:
199,141,18813,1,0,3:0:0:0:
78,13,18956,2,0,P|58:46|55:79,1,72,0|0,0:0|0:0,0:0:0:0:
138,209,19241,2,0,P|156:259|146:294,1,72,0|0,3:0|0:0,0:0:0:0:
22,355,19527,1,0,1:0:0:0:
47,272,19670,1,0,0:0:0:0:
132,283,19813,1,0,3:0:0:0:
185,350,19956,2,0,P|175:373|165:383,1,36,0|0,0:0|0:0,0:0:0:0:
102,340,20099,6,0,P|68:290|13:274,1,108,0|0,3:0|0:0,0:0:0:0:
101,167,20384,2,0,P|70:188|33:197,1,72,0|0,0:0|1:0,0:0:0:0:
203,87,20670,2,0,P|214:120|211:157,1,72,0|0,0:0|0:0,0:0:0:0:
28,93,20956,1,0,3:0:0:0:
74,28,21099,2,0,P|108:12|147:12,1,72,0|0,3:0|0:0,0:0:0:0:
367,51,21384,5,0,0:0:0:0:
361,129,21527,2,0,P|327:145|288:145,1,72,0|0,3:0|0:0,0:0:0:0:
206,348,21813,1,0,1:0:0:0:
128,305,21956,6,0,B|134:289|134:289|172:263|178:212|178:212|198:258|250:265|250:265|271:284,1,215.999993408203,8|0,1:0|0:0,0:0:0:0:
350,267,22313,1,0,0:0:0:0:
363,256,22384,6,0,P|304:276|305:356,1,144,6|0,3:2|0:0,0:0:0:0:
118,166,22813,2,0,P|187:186|194:255,1,144,2|0,1:2|0:0,0:0:0:0:
157,355,23241,1,0,3:0:0:0:
70,331,23384,1,2,3:2:0:0:
245,331,23527,2,0,P|274:310|286:264,1,72,0|0,0:0|0:0,0:0:0:0:
303,182,23813,2,0,L|270:117,1,72,0|0,3:0|0:0,0:0:0:0:
189,85,24099,1,0,1:0:0:0:
336,188,24241,1,0,0:0:0:0:
201,162,24384,1,0,3:0:0:0:
298,43,24527,2,0,P|285:35|260:43,1,36,0|0,0:0|0:0,0:0:0:0:
350,100,24670,6,0,P|406:97|456:73,1,108,2|0,3:2|0:0,0:0:0:0:
497,20,24956,2,0,P|471:51|468:102,1,72,2|0,0:0|1:0,0:0:0:0:
420,199,25241,2,0,P|443:232|455:271,1,72,0|2,0:0|0:0,0:0:0:0:
419,340,25527,1,0,3:0:0:0:
336,188,25670,1,2,3:2:0:0:
469,269,25813,2,0,P|456:307|427:331,1,72,0|0,0:0|0:0,0:0:0:0:
319,358,26099,2,0,P|287:333|247:321,1,72,0|0,3:0|0:0,0:0:0:0:
90,363,26384,1,0,1:0:0:0:
163,303,26527,1,0,0:0:0:0:
67,160,26670,1,0,0:0:0:0:
36,251,26813,2,0,P|44:270|71:268,1,36,0|0,0:0|0:0,0:0:0:0:
125,233,26956,6,0,P|148:205|195:175,1,72,2|0,3:2|0:0,0:0:0:0:
281,181,27241,1,0,0:0:0:0:
120,30,27384,2,0,P|81:17|47:22,1,72,2|0,1:2|0:0,0:0:0:0:
231,40,27670,2,0,P|218:73|187:96,1,72,2|0,0:0|3:0,0:0:0:0:
1,129,27956,2,0,P|35:111|72:111,1,72,2|0,3:2|0:0,0:0:0:0:
136,230,28241,1,0,0:0:0:0:
78,297,28384,2,0,P|38:298|7:284,1,72,0|0,3:0|0:0,0:0:0:0:
177,371,28670,2,0,L|305:352,1,108,0|0,1:0|0:0,0:0:0:0:
325,367,28956,1,0,3:0:0:0:
391,312,29099,1,0,0:0:0:0:
381,144,29241,6,0,P|345:178|335:241,1,108,2|0,3:2|0:0,0:0:0:0:
382,290,29527,2,0,P|358:257|317:243,1,72,0|2,0:0|1:2,0:0:0:0:
209,245,29813,2,0,P|172:253|143:293,1,72,2|0,0:0|0:0,0:0:0:0:
391,312,30099,1,0,3:0:0:0:
460,234,30241,2,0,P|461:195|442:163,1,72,2|0,3:2|0:0,0:0:0:0:
486,12,30527,5,2,0:0:0:0:
493,36,30670,1,2,3:2:0:0:
454,54,30813,1,2,0:0:0:0:
375,17,30956,1,0,1:0:0:0:
306,70,31099,1,0,0:0:0:0:
329,152,31241,1,0,0:0:0:0:
414,166,31384,1,0,0:0:0:0:
414,166,31456,1,0,0:0:0:0:
414,166,31527,6,0,P|425:222|401:274,1,108,2|0,3:2|0:0,0:0:0:0:
373,296,31813,1,0,0:0:0:0:
203,353,31956,2,0,P|139:305|73:296,1,144,2|0,1:2|0:0,0:0:0:0:
19,360,32384,1,0,3:0:0:0:
6,180,32527,2,0,P|47:202|86:205,1,72,2|0,3:2|0:0,0:0:0:0:
228,88,32813,1,0,0:0:0:0:
162,31,32956,2,0,P|119:32|92:45,1,72,0|0,3:0|0:0,0:0:0:0:
205,174,33241,2,0,P|258:181|303:209,1,108,0|0,1:0|0:0,0:0:0:0:
326,246,33527,1,0,3:0:0:0:
469,130,33670,2,0,P|459:104|459:90,1,36,0|0,0:0|0:0,0:0:0:0:
410,19,33813,6,0,P|365:54|356:105,1,108,2|0,3:2|0:0,0:0:0:0:
468,89,34098,2,0,P|493:56|498:23,1,72,0|2,0:0|1:2,0:0:0:0:
392,185,34384,2,0,P|411:217|419:255,1,72,0|0,0:0|0:0,0:0:0:0:
218,274,34670,1,0,3:0:0:0:
200,189,34813,2,0,P|229:168|266:163,1,72,2|0,3:2|0:0,0:0:0:0:
310,364,35099,1,0,0:0:0:0:
224,361,35241,2,0,L|141:351,1,72,0|0,3:0|0:0,0:0:0:0:
68,375,35527,1,0,1:0:0:0:
218,274,35670,1,0,0:0:0:0:
119,251,35813,1,0,3:0:0:0:
86,155,35956,2,0,P|80:132|81:117,1,36,0|0,0:0|0:0,0:0:0:0:
27,55,36099,6,0,P|70:40|96:20,2,72,2|0|2,3:2|0:0|0:0,0:0:0:0:
229,120,36527,2,0,P|191:103|168:72,1,72,0|0,1:0|0:0,0:0:0:0:
18,202,36813,1,2,0:0:0:0:
39,247,36956,1,0,3:0:0:0:
117,233,37099,2,0,P|150:194|84:152,1,144,2|0,0:0|0:0,0:0:0:0:
39,247,37527,2,0,P|9:291|51:325,1,108,2|0,3:2|0:0,0:0:0:0:
80,332,37813,1,0,1:0:0:0:
288,298,37956,2,0,L|211:286,1,72,0|0,0:0|0:0,0:0:0:0:
171,352,38241,1,0,0:0:0:0:
462,312,38384,5,2,3:2:0:0:
388,281,38527,1,2,0:0:0:0:
398,359,38670,2,0,L|464:324,1,72,2|0,0:0|1:0,0:0:0:0:
366,166,38956,2,0,L|296:144,1,72,2|0,0:0|0:0,0:0:0:0:
220,164,39241,1,0,3:0:0:0:
54,35,39384,1,2,3:2:0:0:
132,27,39527,1,0,0:0:0:0:
153,60,39670,1,0,0:0:0:0:
127,89,39813,2,0,L|60:130,1,72,2|0,3:2|0:0,0:0:0:0:
227,13,40099,2,0,L|345:43,1,108,0|0,1:0|0:0,0:0:0:0:
470,38,40384,2,0,P|437:22|403:19,1,72,0|0,0:0|0:0,0:0:0:0:
291,181,40670,6,0,L|410:146,1,108,2|0,3:2|0:0,0:0:0:0:
503,239,40956,2,0,P|465:232|438:207,1,72,2|0,0:0|1:0,0:0:0:0:
267,287,41241,2,0,P|252:321|264:363,1,72,2|0,0:0|0:0,0:0:0:0:
469,339,41527,1,0,3:0:0:0:
395,274,41670,2,0,P|368:300|357:339,1,72,2|0,3:2|0:0,0:0:0:0:
169,287,41956,2,0,P|161:246|133:211,1,72,0|0,0:0|3:0,0:0:0:0:
71,288,42241,1,0,0:0:0:0:
126,369,42384,1,0,1:0:0:0:
246,193,42527,1,0,0:0:0:0:
59,122,42670,1,0,3:0:0:0:
29,195,42813,2,0,P|47:203|68:202,1,36,0|0,0:0|0:0,0:0:0:0:
140,143,42956,6,0,P|174:116|209:109,2,72,4|0|0,0:0|0:0|0:0,0:0:0:0:
25,27,43384,2,0,P|62:27|96:42,1,72,2|0,1:2|0:0,0:0:0:0:
269,10,43670,2,0,P|229:13|196:27,1,72,2|0,0:0|3:0,0:0:0:0:
333,232,43956,1,0,3:0:0:0:
381,169,44099,1,2,0:0:0:0:
324,313,44241,2,0,P|288:302|264:274,1,72,0|0,0:0|0:0,0:0:0:0:
417,245,44527,1,0,0:0:0:0:
212,354,44670,2,0,P|170:304|128:284,1,108,2|0,1:2|0:0,0:0:0:0:
92,279,44956,1,0,0:0:0:0:
34,333,45099,1,0,0:0:0:0:
207,212,45241,6,0,B|173:179|126:182|132:193|89:192|63:162,1,144,2|0,3:2|0:0,0:0:0:0:
0,239,45670,1,0,1:0:0:0:
127,99,45813,2,0,P|130:61|116:25,2,72,2|0|0,0:0|0:0|3:0,0:0:0:0:
33,75,46241,1,0,0:0:0:0:
231,123,46384,2,0,B|276:129|314:110|306:103|334:76|371:83,1,144,2|0,0:0|3:0,0:0:0:0:
436,17,46813,1,0,0:0:0:0:
507,216,46956,1,0,1:0:0:0:
413,221,47099,2,0,P|381:203|364:169,1,72,2|0,0:0|0:0,0:0:0:0:
469,120,47384,1,0,0:0:0:0:
458,319,47527,6,0,P|380:313|326:268,1,144,0|0,3:0|0:0,0:0:0:0:
98,297,47956,2,0,P|167:254|247:237,1,144,0|0,1:0|0:0,0:0:0:0:
241,28,48384,1,0,3:0:0:0:
275,107,48527,1,0,3:0:0:0:
169,166,48670,5,0,0:0:0:0:
64,64,48813,2,0,B|78:59|78:59|143:72,2,72,0|0|0,0:0|3:0|3:0,0:0:0:0:
208,27,49241,5,8,1:0:0:0:
81,157,49384,1,8,1:0:0:0:
237,114,49527,1,0,3:0:0:0:
317,161,49670,1,0,3:0:0:0:
503,34,49813,6,0,L|388:57,1,108,4|0,3:1|0:0,0:0:0:0:
371,85,50099,1,0,0:0:0:0:
197,111,50241,2,0,B|225:101|225:101|291:161|291:161|319:161,1,144,2|0,1:2|0:0,0:0:0:0:
453,279,50670,1,0,3:0:0:0:
489,153,50813,1,2,3:2:0:0:
323,176,50956,2,0,B|340:173|340:173|394:189,1,72,0|0,0:0|0:0,0:0:0:0:
456,309,51241,2,0,L|378:293,1,72,0|0,3:0|0:0,0:0:0:0:
223,352,51527,1,0,1:0:0:0:
210,261,51670,1,0,0:0:0:0:
128,340,51813,1,0,3:0:0:0:
300,270,51956,2,0,B|293:295|293:295|281:292,1,36,0|0,0:0|0:0,0:0:0:0:
199,273,52099,6,0,P|141:224|76:216,1,144,2|0,3:2|0:0,0:0:0:0:
130,53,52527,2,0,B|105:127|21:133,1,143.999996185303,2|0,1:2|0:0,0:0:0:0:
39,42,52956,1,0,3:0:0:0:
204,116,53099,1,2,3:2:0:0:
283,76,53241,2,0,P|254:43|227:32,1,72
285,167,53527,2,0,P|324:162|350:141,1,72,0|0,3:0|0:0,0:0:0:0:
210,206,53813,1,0,1:0:0:0:
132,167,53956,1,0,0:0:0:0:
196,301,54099,2,0,P|233:286|273:281,1,72,0|0,3:0|0:0,0:0:0:0:
349,244,54313,1,0,0:0:0:0:
373,239,54384,6,0,P|409:248|439:270,1,72,2|0,3:2|0:0,0:0:0:0:
257,373,54670,1,2,0:0:0:0:
350,331,54813,2,0,P|380:353|353:379,1,72,0|0,1:0|0:0,0:0:0:0:
146,377,55099,2,0,P|133:347|162:331,1,72,2|0,0:0|3:0,0:0:0:0:
367,180,55384,6,0,L|292:194,2,72,2|2|0,3:2|0:0|0:0,0:0:0:0:
219,242,55813,2,0,B|159:259|111:221,1,108,0|0,3:0|0:0,0:0:0:0:
81,206,56099,1,0,1:0:0:0:
134,72,56241,1,0,0:0:0:0:
67,16,56384,2,0,L|48:90,1,72,2|0,3:2|0:0,0:0:0:0:
64,190,56599,1,0,0:0:0:0:
81,206,56670,6,0,B|107:205|130:176|120:171|146:147|184:152,1,108,2|0,3:2|0:0,0:0:0:0:
245,98,56956,2,0,P|276:125|323:135,1,72,2|0,0:0|1:0,0:0:0:0:
474,27,57241,2,0,P|434:24|403:38,1,72,2|0,0:0|0:0,0:0:0:0:
363,247,57527,1,0,3:0:0:0:
460,269,57670,2,0,L|442:199,1,72,2|0,3:2|0:0,0:0:0:0:
303,359,57956,5,2,0:0:0:0:
387,341,58099,1,0,3:0:0:0:
271,280,58241,2,0,B|257:276|257:276|199:287,1,72,2|0,0:0|1:0,0:0:0:0:
17,203,58527,1,2,0:0:0:0:
101,185,58670,1,2,0:0:0:0:
49,289,58813,2,0,L|14:294,1,36,0|0,0:0|0:0,0:0:0:0:
14,221,58956,6,0,P|67:276|74:350,1,144,2|0,3:2|0:0,0:0:0:0:
101,185,59384,2,0,P|81:116|109:49,1,144,2|0,1:2|0:0,0:0:0:0:
11,196,59813,1,0,3:0:0:0:
175,123,59956,1,2,3:2:0:0:
105,39,60099,2,0,P|67:49|21:52,1,72,0|0,0:0|0:0,0:0:0:0:
186,130,60384,2,0,P|246:112|302:106,1,108,0|0,3:0|0:0,0:0:0:0:
327,129,60670,1,0,1:0:0:0:
263,247,60813,1,0,0:0:0:0:
459,186,60956,2,0,P|465:147|449:111,1,72,0|0,3:0|0:0,0:0:0:0:
404,39,61170,1,0,0:0:0:0:
385,29,61241,6,0,P|354:87|386:167,1,144,2|0,3:2|0:0,0:0:0:0:
474,356,61670,2,0,P|420:291|351:271,1,144,2|0,1:2|0:0,0:0:0:0:
158,244,62099,1,0,3:0:0:0:
231,186,62241,2,0,P|240:150|230:116,1,72,2|0,3:2|0:0,0:0:0:0:
80,199,62527,1,0,0:0:0:0:
61,290,62670,2,0,L|71:365,1,72,0|0,3:0|0:0,0:0:0:0:
295,361,62956,1,0,1:0:0:0:
196,294,63099,1,0,0:0:0:0:
283,282,63241,1,0,3:0:0:0:
208,373,63384,1,0,0:0:0:0:
337,194,63527,6,0,L|315:119,2,72,2|0|2,3:2|0:0|0:0,0:0:0:0:
374,36,63956,2,0,B|411:22|446:41,1,72,0|0,1:0|0:0,0:0:0:0:
496,211,64241,2,0,P|456:219|431:246,1,72,2|0,0:0|3:0,0:0:0:0:
198,188,64527,2,0,P|269:174|340:196,1,144,2|0,3:2|0:0,0:0:0:0:
112,121,64956,2,0,P|142:115|175:83,1,72,0|0,3:0|0:0,0:0:0:0:
96,32,65241,1,0,1:0:0:0:
0,225,65384,2,0,P|33:249|57:282,1,72,0|0,0:0|0:0,0:0:0:0:
111,346,65670,1,2,0:0:0:0:
321,273,65813,6,0,P|285:272|243:259,1,72,2|0,0:0|0:0,0:0:0:0:
344,365,66099,2,0,P|384:362|415:343,1,72,2|0,0:0|1:0,0:0:0:0:
444,162,66384,2,0,P|468:133|500:115,1,72,2|0,0:0|0:0,0:0:0:0:
491,240,66670,1,0,3:0:0:0:
357,134,66813,1,0,3:0:0:0:
332,50,66956,2,0,P|368:47|412:65,1,72,2|0,0:0|0:0,0:0:0:0:
237,191,67241,2,0,P|201:194|157:176,1,72,2|0,0:0|0:0,0:0:0:0:
99,126,67527,1,0,1:0:0:0:
239,22,67670,1,0,0:0:0:0:
153,12,67813,1,0,0:0:0:0:
180,94,67956,2,0,P|193:109|215:116,1,36,0|0,0:0|0:0,0:0:0:0:
237,191,68099,6,0,P|275:199|315:188,1,72,2|0,3:2|0:0,0:0:0:0:
464,183,68384,2,0,P|426:190|391:216,1,72,2|0,0:0|1:0,0:0:0:0:
244,297,68670,2,0,P|275:281|317:280,1,72,2|0,0:0|0:0,0:0:0:0:
434,328,68956,1,0,3:0:0:0:
374,374,69099,1,2,3:2:0:0:
466,257,69241,2,0,P|497:280|511:319,1,72,2|0,0:0|0:0,0:0:0:0:
184,343,69527,1,0,3:0:0:0:
244,297,69670,1,0,0:0:0:0:
110,316,69813,1,0,1:0:0:0:
256,376,69956,1,0,0:0:0:0:
343,288,70099,1,0,0:0:0:0:
343,288,70170,1,0,0:0:0:0:
343,288,70241,2,0,P|332:249|323:238,1,36,0|0,0:0|0:0,0:0:0:0:
364,175,70384,6,0,P|341:142|325:108,2,72,4|0|0,3:2|0:0|0:0,0:0:0:0:
360,28,70813,2,0,P|393:16|414:43,1,72,0|0,1:0|0:0,0:0:0:0:
231,91,71099,2,0,P|198:78|162:71,1,72,0|0,0:0|3:0,0:0:0:0:
58,100,71384,1,0,3:0:0:0:
269,16,71527,2,0,P|216:43|187:138,1,144,2|0,0:0|0:0,0:0:0:0:
218,201,71956,1,0,0:0:0:0:
58,100,72099,1,0,1:0:0:0:
98,175,72241,2,0,B|95:220|57:237|56:223|26:247|32:298,1,144
155,366,72670,6,0,L|298:349,1,144,2|0,3:2|0:0,0:0:0:0:
428,203,73099,2,0,P|448:241|449:272,1,72,2|0,1:2|0:0,0:0:0:0:
350,226,73384,2,0,P|353:261|371:292,1,72,2|0,0:0|3:0,0:0:0:0:
488,122,73670,2,0,B|443:130|416:105|423:98|392:71|355:78,1,144,2|0,3:2|0:0,0:0:0:0:
228,133,74099,1,0,3:0:0:0:
167,60,74241,2,0,B|140:33|104:40|108:47|81:50|57:23|57:23|86:32,1,144,2|0,0:0|0:0,0:0:0:0:
266,41,74670,1,0,0:0:0:0:
266,41,74741,1,0,0:0:0:0:
266,41,74813,1,0,0:0:0:0:
192,212,74956,6,0,P|126:215|159:169,1,144,0|0,3:0|0:0,0:0:0:0:
0,298,75384,2,0,B|29:281|61:285|61:285|85:325|125:327,1,144,0|0,1:0|0:0,0:0:0:0:
226,356,75813,1,0,3:0:0:0:
226,356,75956,1,0,3:0:0:0:
445,324,76099,2,0,P|458:260|402:282,1,144,0|0,0:0|3:0,0:0:0:0:
318,357,76527,2,0,P|350:341|372:378,1,72,0|0,0:0|1:0,0:0:0:0:
246,250,76813,1,0,0:0:0:0:
344,166,76956,2,0,P|377:179|386:143,1,72,0|0,0:0|0:0,0:0:0:0:
333,152,77241,5,0,3:0:0:0:
481,51,77384,2,0,P|480:16|448:19,2,72,8|0|8,0:0|0:0|0:0,0:0:0:0:
205,113,77813,2,0,B|243:121|274:95|266:89|291:63|340:70,1,135,4|0,1:2|0:0,0:0:0:0:
377,71,78099,5,8,3:0:0:0:
333,152,78241,1,0,0:0:0:0:
204,33,78384,1,0,1:0:0:0:
276,223,78527,2,0,L|178:207,1,90,8|0,0:3|0:0,0:0:0:0:
61,153,78813,1,0,0:0:0:0:
52,74,78956,2,0,P|92:76|121:95,1,72,0|0,1:0|0:0,0:0:0:0:
89,272,79241,2,0,P|109:254|71:247,1,72,4|0,3:0|0:0,0:0:0:0:
18,313,79527,6,0,P|78:304|179:332,1,161.999995056153,2|0,3:2|0:0,0:0:0:0:
256,370,80099,1,8,0:0:0:0:
377,256,80384,2,0,L|336:218,1,53.9999983520508,0|0,0:0|3:0,0:0:0:0:
274,157,80670,1,2,3:2:0:0:
496,227,80956,1,2,3:2:0:0:
372,356,81241,2,0,P|344:293|353:195,1,161.999995056153,8|0,0:0|0:0,0:0:0:0:
407,23,81813,2,0,P|435:86|426:184,1,161.999995056153,2|0,3:2|0:0,0:0:0:0:
350,201,82384,1,8,0:0:0:0:
150,72,82670,1,0,0:0:0:0:
150,72,82813,2,0,L|314:58,1,161.999995056153,0|0,3:0|0:0,0:0:0:0:
234,150,83384,1,0,0:0:0:0:
150,198,83527,6,0,B|116:164|71:162,1,80.9999975280763,10|0,0:0|0:0,0:0:0:0:
80,248,83813,2,0,P|39:272|27:315,1,80.9999975280763,2|0,0:0|0:0,0:0:0:0:
92,368,84099,1,2,3:2:0:0:
254,339,84384,1,2,0:0:0:0:
254,339,84527,1,2,0:0:0:0:
422,369,84813,2,0,B|444:354|489:346|486:343,1,53.9999983520508,0|0,0:0|0:0,0:0:0:0:
370,300,85099,2,0,P|419:273|457:266,1,80.9999975280763,2|0,3:2|0:0,0:0:0:0:
472,266,85384,1,0,0:0:0:0:
499,161,85527,2,0,P|462:167|414:150,1,80.9999975280763,2|0,3:2|0:0,0:0:0:0:
260,192,85813,2,0,P|298:163|334:153,1,80.9999975280763,10|0,0:0|0:0,0:0:0:0:
230,95,86099,2,0,P|196:117|172:150,1,80.9999975280763,2|0,0:0|0:0,0:0:0:0:
400,60,86384,6,0,B|434:58|469:80|469:80|475:73|475:73|428:20|345:19,1,215.999993408203,4|0,3:2|0:0,0:0:0:0:
140,31,86813,2,0,B|111:76|111:76|5:35|5:35|13:90,1,215.999993408203,4|0,3:0|0:0,0:0:0:0:
112,241,87241,2,0,P|162:216|224:206,1,107.999996704102,8|0,3:0|0:0,0:0:0:0:
40,190,87527,1,0,0:0:0:0:
257,294,87670,1,0,1:0:0:0:
135,355,87813,2,0,B|77:343|38:291|38:291|50:339,1,161.999995056153,8|0,1:0|0:0,0:0:0:0:
49,357,88099,5,0,3:0:0:0:
257,294,88241,1,0,1:0:0:0:
199,230,88384,1,0,1:0:0:0:
320,356,88527,2,0,P|351:354|374:342,1,53.9999983520508,2|0,0:0|0:0,0:0:0:0:
381,262,88670,6,0,P|432:255|428:307,1,90,6|0,3:1|0:0,0:0:0:0:
465,28,88956,2,0,P|475:80|426:142,1,135,2|0,0:1|0:0,0:0:0:0:
378,142,89241,1,8,1:0:0:0:
163,44,89384,2,0,P|204:27|251:29,2,90,2|0|2,0:0|0:0|0:0,0:0:0:0:
300,96,89813,1,0,3:0:0:0:
114,165,89956,2,0,P|69:159|32:137,2,90,2|0|2,0:0|0:0|0:0,0:0:0:0:
27,43,90384,1,8,1:0:0:0:
160,241,90527,2,0,P|207:222|256:221,1,90,2|0,0:0|0:0,0:0:0:0:
124,354,90813,2,0,P|94:346|79:335,1,45,0|0,0:0|0:0,0:0:0:0:
11,278,90956,6,0,L|35:182,2,90,0|0|2,3:0|0:0|0:0,0:0:0:0:
111,137,91384,1,0,0:0:0:0:
226,322,91527,2,0,B|271:349|299:327|295:315|326:312|364:338,1,135,8|0,1:0|0:0,0:0:0:0:
260,248,91813,2,0,P|211:239|173:260,1,90,2|2,0:0|0:0,0:0:0:0:
367,343,92099,1,0,3:0:0:0:
448,301,92241,1,2,0:0:0:0:
288,162,92384,1,0,0:0:0:0:
349,228,92527,1,2,0:0:0:0:
416,41,92670,2,0,B|447:34|469:78|453:107|421:127|381:117,1,135,8|0,1:0|0:0,0:0:0:0:
351,95,92956,1,2,0:0:0:0:
440,202,93099,1,2,0:0:0:0:
254,65,93241,6,0,P|211:49|190:86,1,90,0|0,3:0|0:0,0:0:0:0:
231,349,93527,2,0,P|241:301|207:283,1,90,2|0,0:0|0:0,0:0:0:0:
129,341,93813,1,8,1:0:0:0:
230,192,93956,1,2,0:0:0:0:
135,163,94099,1,0,0:0:0:0:
2,277,94241,1,2,0:0:0:0:
97,248,94384,1,0,3:0:0:0:
98,65,94527,1,0,0:0:0:0:
84,52,94670,2,0,P|40:51|26:93,1,90,2|0,0:0|0:0,0:0:0:0:
192,272,94956,1,8,1:0:0:0:
262,202,95099,6,0,P|270:154|263:110,1,90,2|0,0:0|0:0,0:0:0:0:
305,28,95313,1,0,0:0:0:0:
306,12,95384,2,0,P|343:43|363:87,1,90,2|0,0:0|3:0,0:0:0:0:
297,292,95670,2,0,P|334:263|350:223,1,90,2|0,0:0|0:0,0:0:0:0:
451,159,95956,1,0,0:0:0:0:
468,336,96099,2,0,P|423:330|376:361,1,90,8|0,1:0|0:0,0:0:0:0:
44,336,96384,2,0,P|74:302|130:296,1,90,0|2,0:0|0:0,0:0:0:0:
204,342,96670,5,0,3:0:0:0:
99,173,96813,1,2,0:0:0:0:
28,239,96956,1,0,0:0:0:0:
181,219,97099,1,2,0:0:0:0:
210,125,97241,5,8,1:0:0:0:
99,173,97384,1,2,0:0:0:0:
296,177,97527,1,0,0:0:0:0:
161,40,97670,2,0,P|140:49|118:51,1,45,2|0,0:0|0:0,0:0:0:0:
45,13,97813,6,0,P|114:24|181:59,1,135,6|0,3:1|0:0,0:0:0:0:
287,71,98099,2,0,P|336:65|421:29,1,135,2|0,0:1|0:0,0:0:0:0:
503,82,98384,1,8,1:0:0:0:
381,237,98527,2,0,P|339:220|290:210,2,90,2|0|2,0:0|0:0|0:0,0:0:0:0:
204,287,98956,1,0,3:0:0:0:
389,348,99099,1,2,0:0:0:0:
472,286,99241,2,0,P|485:238|473:195,1,90,0|0,0:0|0:0,0:0:0:0:
280,364,99527,1,8,1:0:0:0:
313,270,99670,2,0,P|297:224|265:191,1,90,2|0,0:0|0:0,0:0:0:0:
167,371,99956,1,2,0:0:0:0:
145,274,100099,6,0,P|94:227|22:219,1,135,0|0,3:0|0:0,0:0:0:0:
123,265,100384,2,0,P|171:244|198:213,1,90,0|2,0:0|0:0,0:0:0:0:
93,113,100670,1,8,1:0:0:0:
253,123,100813,2,0,B|273:79|257:34,1,90,0|0,0:0|0:0,0:0:0:0:
295,197,101099,2,0,P|229:171|157:159,1,135,2|0,0:0|0:0,0:0:0:0:
90,94,101384,6,0,P|117:59|151:84,1,90,2|0,0:0|0:0,0:0:0:0:
307,218,101670,2,0,P|352:207|352:163,1,90,2|8,0:0|1:0,0:0:0:0:
160,285,101956,2,0,P|126:314|149:353,1,90,2|0,0:0|0:0,0:0:0:0:
238,373,102241,1,0,0:0:0:0:
396,273,102384,6,0,B|377:263|377:263|307:290,1,90,2|0,3:2|0:0,0:0:0:0:
410,362,102670,2,0,B|429:372|429:372|499:345,1,90,0|2,0:0|0:0,0:0:0:0:
478,157,102956,1,8,1:0:0:0:
393,186,103099,1,2,0:0:0:0:
347,123,103241,1,0,0:0:0:0:
356,92,103384,1,2,0:0:0:0:
167,127,103527,5,0,3:0:0:0:
241,61,103670,1,0,0:0:0:0:
269,137,103813,1,2,0:0:0:0:
240,175,103956,1,2,0:0:0:0:
79,204,104099,5,8,1:0:0:0:
144,277,104241,2,0,P|191:262|242:258,1,90,2|0,0:0|0:0,0:0:0:0:
66,105,104527,2,0,B|66:82|56:55|56:55|66:78|89:94,1,90,4|0,0:2|3:0,0:0:0:0:
38,285,104813,2,0,B|26:318|11:341|11:341|32:321,1,90,0|8,0:0|0:3,0:0:0:0:
211,177,105099,1,0,0:0:0:0:
308,163,105241,1,8,1:0:0:0:
400,198,105384,1,0,0:0:0:0:
457,278,105527,2,0,P|473:323|475:368,1,90,0|0,0:0|0:0,0:0:0:0:
198,153,105813,5,0,1:0:0:0:
323,193,105956,1,0,0:0:0:0:
198,235,106099,1,0,1:0:0:0:
276,127,106241,1,0,0:0:0:0:
276,260,106384,5,0,1:0:0:0:
210,73,106527,1,0,0:0:0:0:
236,347,106670,1,0,0:0:0:0:
386,106,106813,1,0,0:0:0:0:
386,106,106884,1,0,0:0:0:0:
386,106,106956,6,0,B|370:135|335:130|338:121|314:121|290:154,1,108,4|0,1:0|0:0,0:0:0:0:
331,41,107241,2,0,P|361:18|402:26,1,72,0|0,0:0|0:0,0:0:0:0:
255,225,107527,2,0,P|213:228|192:198,1,72,0|0,0:0|0:0,0:0:0:0:
26,86,107813,1,0,3:0:0:0:
183,31,107956,1,0,3:0:0:0:
103,208,108099,2,0,P|63:199|24:201,1,72,0|0,0:0|0:0,0:0:0:0:
251,109,108384,2,0,P|200:121|134:122,1,108,0|0,3:0|0:0,0:0:0:0:
109,104,108670,1,0,1:0:0:0:
159,263,108813,1,0,0:0:0:0:
13,173,108956,1,0,0:0:0:0:
54,265,109099,2,0,P|52:288|46:299,1,36,0|0,0:0|0:0,0:0:0:0:
5,367,109241,6,0,P|38:333|110:317,1,108,0|0,3:0|0:0,0:0:0:0:
197,368,109527,2,0,P|203:328|182:304,1,72,0|0,0:0|1:0,0:0:0:0:
261,133,109813,2,0,P|303:128|320:104,1,72,0|0,0:0|0:0,0:0:0:0:
444,170,110099,1,0,3:0:0:0:
345,21,110241,1,0,3:0:0:0:
466,10,110384,1,0,0:0:0:0:
488,42,110527,1,0,0:0:0:0:
427,93,110670,1,0,3:0:0:0:
353,63,110813,1,0,0:0:0:0:
444,170,110956,1,0,1:0:0:0:
455,207,111099,1,0,0:0:0:0:
407,269,111241,1,0,0:0:0:0:
330,246,111384,2,0,P|319:263|311:278,1,36,0|0,0:0|0:0,0:0:0:0:
340,350,111527,6,0,P|316:298|265:258,1,108,0|0,3:0|0:0,0:0:0:0:
407,269,111813,2,0,P|427:311|406:336,1,72,0|0,0:0|1:0,0:0:0:0:
218,352,112099,2,0,P|181:329|154:320,1,72,0|0,0:0|0:0,0:0:0:0:
29,152,112384,1,0,3:0:0:0:
100,118,112527,2,0,P|106:153|98:192,1,72,0|0,3:0|0:0,0:0:0:0:
51,293,112813,1,0,0:0:0:0:
231,183,112956,2,0,P|214:216|178:242,1,72,0|0,3:0|0:0,0:0:0:0:
165,34,113241,2,0,L|244:29,1,72,0|0,1:0|0:0,0:0:0:0:
294,108,113527,1,0,0:0:0:0:
441,40,113670,1,0,0:0:0:0:
441,40,113741,1,0,0:0:0:0:
441,40,113813,6,0,B|410:19|386:28|378:58|416:96,1,108,0|0,3:0|0:0,0:0:0:0:
496,199,114099,2,0,P|475:169|437:163,1,72,0|0,0:0|1:0,0:0:0:0:
313,17,114384,2,0,P|334:47|372:53,1,72,0|0,0:0|0:0,0:0:0:0:
418,249,114670,1,0,3:0:0:0:
497,96,114813,1,0,3:0:0:0:
304,133,114956,1,0,0:0:0:0:
242,197,115099,2,0,B|210:241|241:286|247:273|278:314|252:348|252:348|235:313,1,180,0|0,0:0|0:0,0:0:0:0:
318,232,115527,1,8,1:0:0:0:
166,340,115670,1,8,1:0:0:0:
346,369,115813,2,0,B|389:349|411:346|411:346|389:339,1,90,0|0,3:0|0:0,0:0:0:0:
121,263,116099,6,0,P|65:272|10:293,1,108,6|0,3:2|0:0,0:0:0:0:
6,327,116384,1,0,0:0:0:0:
195,201,116527,2,0,B|147:193|136:158|144:155|120:124|72:126,1,144,2|0,1:2|0:0,0:0:0:0:
31,190,116956,1,0,3:0:0:0:
192,96,117099,1,2,3:2:0:0:
56,45,117241,2,0,P|98:44|140:22,1,72,0|0,0:0|0:0,0:0:0:0:
319,71,117527,2,0,P|265:75|222:106,1,108,0|0,3:0|0:0,0:0:0:0:
200,138,117813,1,0,1:0:0:0:
415,71,117956,2,0,P|403:33|379:4,1,72,0|0,0:0|0:0,0:0:0:0:
359,163,118241,2,0,P|361:187|369:202,1,36,0|0,0:0|0:0,0:0:0:0:
440,155,118384,6,0,P|450:119|431:43,1,108,2|0,3:2|0:0,0:0:0:0:
344,147,118670,2,0,P|349:183|365:216,1,72,0|2,0:0|1:2,0:0:0:0:
480,355,118956,2,0,P|475:319|459:286,1,72
269,321,119241,1,0,3:0:0:0:
173,354,119384,2,0,B|126:364|95:343|104:338|78:308|36:317,1,144,2|0,3:2|0:0,0:0:0:0:
202,253,119813,2,0,P|234:232|256:198,1,72,0|0,3:0|0:0,0:0:0:0:
68,38,120099,1,0,1:0:0:0:
7,138,120241,1,0,0:0:0:0:
181,108,120384,2,0,P|193:74|165:65,1,72,0|0,0:0|0:0,0:0:0:0:
96,119,120599,1,0,0:0:0:0:
101,133,120670,6,0,P|116:180|112:216,1,72,2|0,3:2|0:0,0:0:0:0:
26,245,120956,1,2,0:0:0:0:
134,367,121099,2,0,P|118:328|97:305,1,72,0|0,1:0|0:0,0:0:0:0:
233,169,121384,2,0,P|223:203|194:237,1,72,2|0,0:0|3:0,0:0:0:0:
303,375,121670,2,0,P|284:341|256:318,1,72,2|0,3:2|0:0,0:0:0:0:
341,135,121956,1,0,0:0:0:0:
358,57,122099,2,0,P|414:65|460:109,1,108,0|0,3:0|0:0,0:0:0:0:
473,130,122384,1,0,1:0:0:0:
324,232,122527,1,0,0:0:0:0:
414,248,122670,2,0,P|427:283|427:326,1,72,0|0,0:0|0:0,0:0:0:0:
491,363,122884,1,0,0:0:0:0:
500,350,122956,6,0,P|475:318|400:329,1,108,2|0,3:2|0:0,0:0:0:0:
415,234,123241,2,0,P|453:231|477:202,1,72,2|0,0:0|1:0,0:0:0:0:
289,121,123527,2,0,L|215:108,1,72,2|0,0:0|0:0,0:0:0:0:
236,203,123813,1,0,3:0:0:0:
152,26,123956,2,0,P|111:30|78:45,1,72,2|0,3:2|0:0,0:0:0:0:
67,280,124241,1,2,0:0:0:0:
95,252,124384,1,0,3:0:0:0:
81,215,124527,1,2,0:0:0:0:
3,232,124670,1,0,1:0:0:0:
178,272,124813,1,0,0:0:0:0:
18,344,124956,1,2,0:0:0:0:
103,377,125099,1,0,0:0:0:0:
103,377,125170,1,0,0:0:0:0:
103,377,125241,6,0,P|155:355|247:349,1,144,2|0,3:2|0:0,0:0:0:0:
438,299,125670,2,0,P|366:295|299:270,1,144,2|0,1:2|0:0,0:0:0:0:
268,170,126099,1,0,3:0:0:0:
412,52,126241,1,2,3:2:0:0:
464,111,126384,2,0,P|427:133|396:132,1,72,0|0,0:0|0:0,0:0:0:0:
211,107,126670,2,0,P|242:88|281:85,1,72,0|0,3:0|0:0,0:0:0:0:
357,206,126956,1,0,1:0:0:0:
295,89,127099,1,0,0:0:0:0:
412,52,127241,2,0,P|443:63|468:92,1,72,0|0,0:0|0:0,0:0:0:0:
487,187,127456,1,0,0:0:0:0:
480,198,127527,6,0,B|459:227|418:210|418:210|396:223|396:269,1,108,2|0,3:2|0:0,0:0:0:0:
409,280,127813,1,0,0:0:0:0:
391,133,127956,2,0,P|420:199|411:269,1,144,2|0,1:2|0:0,0:0:0:0:
304,326,128384,1,0,3:0:0:0:
478,359,128527,1,2,3:2:0:0:
318,288,128670,2,0,L|244:302,1,72,0|0,0:0|0:0,0:0:0:0:
133,172,128956,1,0,3:0:0:0:
43,150,129099,1,0,0:0:0:0:
108,268,129241,1,0,1:0:0:0:
247,176,129384,1,0,0:0:0:0:
218,85,129527,1,0,0:0:0:0:
55,41,129670,1,0,0:0:0:0:
55,41,129741,1,0,0:0:0:0:
55,41,129813,6,0,P|86:52|127:52,1,72,2|0,3:2|0:0,0:0:0:0:
327,104,130099,1,0,0:0:0:0:
396,67,130241,2,0,P|384:29|361:4,1,72,2|0,1:2|0:0,0:0:0:0:
278,290,130527,1,2,0:0:0:0:
325,353,130670,1,0,3:0:0:0:
402,334,130813,2,0,P|446:283|383:232,1,144,2|0,3:2|0:0,0:0:0:0:
174,152,131241,2,0,P|242:177|316:181,1,144,0|0,3:0|1:0,0:0:0:0:
476,147,131670,2,0,P|433:135|395:142,1,72,0|0,0:0|0:0,0:0:0:0:
229,268,131956,1,0,0:0:0:0:
209,344,132099,6,0,P|246:346|281:329,1,72,2|0,3:2|0:0,0:0:0:0:
174,211,132384,2,0,P|154:240|150:276,1,72,2|0,0:0|1:0,0:0:0:0:
272,147,132670,2,0,P|256:105|237:83,1,72,2|0,0:0|0:0,0:0:0:0:
146,49,132956,1,0,3:0:0:0:
307,26,133099,1,0,3:0:0:0:
149,133,133241,2,0,P|112:127|82:107,1,72,2|0,0:0|0:0,0:0:0:0:
33,274,133527,2,0,P|64:254|101:252,1,72,2|0,3:2|0:0,0:0:0:0:
177,286,133813,1,0,1:0:0:0:
88,337,133956,1,0,0:0:0:0:
201,199,134099,1,0,0:0:0:0:
269,251,134241,2,0,P|275:270|276:287,1,36,0|0,0:0|0:0,0:0:0:0:
234,355,134384,6,0,P|259:328|300:314,1,72,2|0,3:2|0:0,0:0:0:0:
486,224,134670,2,0,P|452:237|414:232,1,72,2|0,0:0|1:0,0:0:0:0:
281,99,134956,2,0,P|277:139|289:172,1,72,0|0,0:0|0:0,0:0:0:0:
429,331,135241,1,0,3:0:0:0:
447,142,135384,1,2,3:2:0:0:
425,58,135527,2,0,P|391:68|369:102,1,72,0|0,0:0|0:0,0:0:0:0:
406,345,135813,2,0,P|448:334|483:328,1,72,0|0,3:0|0:0,0:0:0:0:
315,296,136099,1,8,1:0:0:0:
343,215,136241,1,0,1:0:0:0:
288,373,136384,2,0,P|250:356|216:345,1,72,0|0,0:0|0:0,0:0:0:0:
76,288,136670,6,0,P|38:296|0:308,2,72,4|0|2,3:1|0:0|0:0,0:0:0:0:
200,196,137099,2,0,P|152:187|123:178,1,72,8|0,1:0|0:0,0:0:0:0:
22,208,137384,1,2,0:0:0:0:
201,97,137527,2,0,P|227:70|211:39,1,72,0|0,3:0|0:0,0:0:0:0:
24,97,137813,2,0,P|64:91|100:81,1,72,2|0,0:0|0:0,0:0:0:0:
366,55,138099,2,0,P|323:82|285:147,1,108,6|0,3:2|0:0,0:0:0:0:
298,170,138384,1,8,1:0:0:0:
488,137,138527,1,2,0:0:0:0:
418,221,138670,1,0,0:0:0:0:
393,185,138813,1,2,0:0:0:0:
390,142,138956,6,0,B|382:73|448:37|448:37|447:68,1,144,0|0,3:0|0:0,0:0:0:0:
341,268,139384,2,0,B|329:301|294:298|299:286|249:301|271:375,1,144,0|2,1:0|0:0,0:0:0:0:
362,366,139813,1,0,3:0:0:0:
362,366,139956,1,0,0:0:0:0:
232,232,140099,2,0,L|90:215,1,144
13,256,140527,1,2,0:0:0:0:
184,129,140670,2,0,P|150:93|119:104,1,72,0|0,1:0|0:0,0:0:0:0:
64,346,140956,1,0,0:0:0:0:
183,364,141099,1,0,0:0:0:0:
183,364,141170,1,0,0:0:0:0:
183,364,141241,6,0,B|221:336|258:346|253:355|283:366|325:337,1,144,2|0,0:0|0:0,0:0:0:0:
422,370,141670,1,0,0:0:0:0:
268,254,141813,2,0,P|194:240|125:205,1,144,0|0,1:0|3:0,0:0:0:0:
13,256,142241,1,0,3:0:0:0:
312,120,142384,2,0,P|345:138|336:171,1,72,2|0,0:0|0:0,0:0:0:0:
484,52,142670,2,0,P|445:51|430:36,1,54,0|0,3:0|0:0,0:0:0:0:
413,7,142956,1,8,1:0:0:0:
320,25,143099,1,2,0:0:0:0:
225,70,143241,1,0,0:0:0:0:
132,52,143384,1,2,0:0:0:0:
26,141,143527,6,0,P|61:143|105:130,1,72,0|0,3:0|0:0,0:0:0:0:
225,70,143813,1,0,0:0:0:0:
132,52,143956,1,0,0:0:0:0:
96,243,144099,2,0,L|215:196,1,108,4|0,1:2|0:0,0:0:0:0:
237,189,144384,1,0,1:0:0:0:
118,353,144527,1,2,0:0:0:0:
40,315,144670,5,0,3:0:0:0:
196,384,144813,2,0,B|237:379|260:346|250:341|276:309|317:308,1,144,0|0,1:0|0:0,0:0:0:0:
430,183,145241,2,0,P|451:199|456:215,3,36,0|0|0|0,0:0|0:0|0:0|0:0,0:0:0:0:
423,334,145527,2,0,P|402:318|397:302,3,36,0|0|0|0,0:0|0:0|0:0|0:0,0:0:0:0:
387,221,145813,6,0,B|389:170|426:148|426:160|457:129|454:65,1,161.999995056153,6|0,3:2|0:0,0:0:0:0:
469,221,146384,2,0,P|478:253|472:286,1,53.9999983520508,8|0,0:0|0:0,0:0:0:0:
394,358,146670,2,0,P|385:326|391:293,1,53.9999983520508,0|0,0:0|3:0,0:0:0:0:
374,85,146956,2,0,B|419:96|417:74|451:86|437:102|475:118,1,107.999996704102,2|0,0:0|0:0,0:0:0:0:
300,144,147527,2,0,B|261:120|241:171|227:167|251:91|142:110,1,161.999995056153,8|0,0:0|0:0,0:0:0:0:
158,228,148099,2,0,B|119:252|99:201|85:205|109:281|0:262,1,161.999995056153,2|0,3:2|0:0,0:0:0:0:
170,349,148670,2,0,P|240:322|297:324,1,107.999996704102,8|0,0:0|0:0,0:0:0:0:
351,217,149099,2,0,P|396:243|466:249,1,107.999996704102,2|0,3:2|0:0,0:0:0:0:
487,344,149527,2,0,L|435:367,1,53.9999983520508,0|0,3:0|0:0,0:0:0:0:
321,330,149813,6,0,P|273:332|240:349,1,80.9999975280763,8|0,0:0|0:0,0:0:0:0:
197,283,150099,2,0,P|149:304|127:332,1,80.9999975280763,2|0,0:0|0:0,0:0:0:0:
50,349,150384,1,2,3:2:0:0:
18,126,150670,1,2,0:0:0:0:
18,126,150813,1,2,0:0:0:0:
108,33,151099,1,2,0:0:0:0:
108,33,151241,1,2,0:0:0:0:
108,33,151384,2,0,P|125:74|117:136,1,107.999996704102,2|0,3:2|0:0,0:0:0:0:
55,211,151813,1,0,3:0:0:0:
137,232,151956,2,0,P|189:212|254:197,1,107.999996704102,2|0,3:2|0:0,0:0:0:0:
375,125,152384,2,0,P|327:119|286:96,1,80.9999975280763,8|0,0:0|0:0,0:0:0:0:
276,25,152670,6,0,P|236:145|236:315,1,269.999984607697,4|0,0:0|0:0,0:0:0:0:
236,359,153098,6,0,P|275:238|276:69,1,269.999984607697,4|0,3:2|0:0,0:0:0:0:
247,31,153527,1,0,3:0:0:0:
247,31,153670,1,0,0:0:0:0:
346,228,153813,6,0,B|380:227|380:227|412:191|412:191|448:187,1,107.999996704102,0|0,0:0|1:0,0:0:0:0:
165,113,154099,2,0,B|130:69|130:69|36:93|36:93|39:123,1,161.999995056153,8|0,1:0|0:0,0:0:0:0:
39,123,154384,1,0,1:0:0:0:
142,201,154527,1,8,1:0:0:0:
35,347,154670,1,2,3:0:0:0:
34,307,154813,1,2,3:0:0:0:
110,276,154956,6,0,B|148:321|186:284|179:278|222:240|242:297|230:297|261:346|313:305,1,215.999993408203,2|0,3:1|0:0,0:0:0:0:
40,204,155384,2,0,B|106:212|147:167|138:162|173:115|242:125,1,215.999993408203,2|2,0:1|0:1,0:0:0:0:
402,232,155813,1,0,3:0:0:0:
411,236,155884,1,0,3:0:0:0:
421,232,155956,1,0,3:0:0:0:
428,224,156027,1,0,3:0:0:0:
431,213,156099,6,0,P|412:167|399:162,1,53.9999983520508,2|0,1:0|0:0,0:0:0:0:
277,219,156241,2,0,P|380:237|435:327,1,215.999993408203,10|0,0:1|0:0,0:0:0:0:
462,46,156670,2,0,P|421:94|324:103,1,161.999995056153,10|2,1:0|1:0,0:0:0:0:
235,62,156956,2,0,P|244:37|274:24,3,53.9999983520508,0|0|0|0,3:0|3:0|3:0|3:0,0:0:0:0:
245,154,157241,6,0,P|267:204|264:258,1,107.999996704102,2|0,0:1|0:0,0:0:0:0:
66,169,157527,2,0,P|99:127|150:112,1,107.999996704102,2|2,1:0|1:0,0:0:0:0:
296,348,157813,1,8,3:0:0:0:
211,328,157956,1,0,0:0:0:0:
264,256,158099,2,0,P|325:251|370:272,1,107.999996704102,2|0,0:1|0:0,0:0:0:0:
204,313,158384,6,2,P|185:232|261:173,1,161.999995056153,2|2,3:1|0:1,0:1:0:0:
307,105,158670,2,0,P|343:66|396:72,1,107.999996704102
470,316,158956,1,10,1:0:0:0:
451,204,159099,2,0,B|477:137|477:137|484:188,1,107.999996704102,0|0,3:0|3:0,0:0:0:0:
377,359,159384,6,0,B|361:322|361:322|242:274|242:274|190:298,1,215.999993408203,4|2,3:2|0:0,0:0:0:0:
127,331,159741,1,0,0:0:0:0:
127,331,159813,2,0,B|136:369|136:369|67:340,1,107.999996704102,2|0,0:1|0:0,0:0:0:0:
221,180,160099,6,0,B|253:169|253:169|329:214,1,107.999996704102,10|0,3:1|0:0,0:0:0:0:
119,216,160384,1,0,0:0:0:0:
37,187,160527,1,0,0:0:0:0:
199,164,160670,6,0,B|232:227|232:227|221:262,1,107.999996704102,2|0,3:1|0:0,0:0:0:0:
106,89,160956,1,0,0:0:0:0:
168,29,161099,1,0,0:0:0:0:
343,70,161241,6,0,B|315:94|315:94|234:102,1,107.999996704102,10|0,0:1|0:0,0:0:0:0:
36,46,161527,2,0,B|72:48|72:48|135:100,1,107.999996704102,2|0,0:1|0:0,0:0:0:0:
119,290,161813,2,0,B|121:253|121:253|173:190,1,107.999996704102,2|0,0:1|0:0,0:0:0:0:
237,19,162099,6,0,B|255:7|255:7|229:95,1,107.999996704102,2|0,1:0|0:0,0:0:0:0:
331,294,162384,1,2,3:1:0:0:
341,305,162456,1,2,0:0:0:0:
347,319,162527,1,2,0:1:0:0:
361,302,162599,1,2,0:0:0:0:
375,288,162670,2,0,L|409:241,3,53.9999983520508,2|2|2|2,0:1|0:0|0:1|0:0,0:0:0:0:
292,227,162956,6,0,B|249:244|191:235|191:235|274:260|274:260|229:278|204:300|204:300|242:301|259:317|259:317|228:333|219:378,1,377.999978450776,2|2,0:1|0:1,0:0:0:0:
238,356,163527,6,0,B|269:366|289:299|246:257|168:268|138:336,1,215.999987686158,2|2,3:1|1:0,0:0:0:0:
323,348,163956,6,0,P|229:274|113:358,1,270.000003147125,6|2,0:1|0:1,0:0:0:0:
34,271,164384,1,0,1:0:0:0:
34,271,164527,1,2,0:0:0:0:
261,184,164670,1,0,1:0:0:0:
194,110,164813,2,0,P|116:103|128:215,1,215.999993408203,8|0,1:0|0:0,0:0:0:0:
209,261,165170,1,0,0:0:0:0:
209,261,165241,6,0,L|-4:206,1,215.999993408203,2|2,3:1|0:1,0:0:0:0:
261,184,165670,2,0,L|64:289,1,215.999993408203,0|0,1:0|0:0,0:0:0:0:
156,364,166099,6,0,P|185:355|186:332,1,53.9999983520508,10|0,1:0|0:0,0:0:0:0:
314,262,166241,2,0,B|262:290|287:354|287:354|312:321|367:329,1,179.999994506836,4|0,1:2|0:0,0:0:0:0:
435,289,166575,6,0,P|465:293|497:323,1,71.9999958953859,2|2,0:1|0:0,0:0:0:0:
484,334,166765,2,0,P|454:310|440:272,1,71.9999958953859,2|2,0:1|0:0,0:0:0:0:
450,271,166956,2,0,P|479:227|469:168,1,107.999993843079,8|0,1:0|0:0,0:0:0:0:
417,12,167241,2,0,P|399:66|348:97,1,107.999993843079,2|0,0:1|0:0,0:0:0:0:
147,72,167527,5,0,3:0:0:0:
225,25,167670,1,2,0:1:0:0:
244,71,167741,1,0,0:0:0:0:
229,119,167813,1,2,0:1:0:0:
58,65,167956,1,0,0:0:0:0:
247,86,168099,2,0,B|271:105|271:105|365:85,2,107.999996704102,8|0|2,1:0|0:0|0:1,0:0:0:0:
18,195,168527,6,0,B|45:166|45:166|187:197|187:197|197:228,1,215.999993408203,4|0,3:2|0:0,0:0:0:0:
394,357,168956,1,10,0:1:0:0:
487,315,169099,1,0,0:0:0:0:
445,232,169241,1,8,1:0:0:0:
388,268,169384,1,2,0:0:0:0:
388,268,169456,1,0,0:0:0:0:
388,268,169527,1,2,0:0:0:0:
446,302,169670,1,2,1:0:0:0:
466,161,169813,5,0,0:0:0:0:
369,152,169956,1,2,0:1:0:0:
292,212,170099,1,0,0:0:0:0:
280,307,170241,2,0,B|228:329|197:294|205:288|180:211|78:253,1,215.999993408203,10|0,1:0|1:0,0:0:0:0:
91,248,170599,1,0,1:0:0:0:
91,248,170670,2,0,P|103:220|120:204,1,53.9999983520508,0|0,1:0|0:0,0:0:0:0:
279,226,170813,6,0,B|272:282|226:291|225:281|145:264|131:373,1,215.999993408203,4|0,1:2|0:0,0:0:0:0:
133,360,171170,1,0,3:0:0:0:
133,360,171241,1,0,3:0:0:0:
120,204,171384,2,0,B|98:182|107:157|107:157|81:141|31:162|19:220|45:258|86:277,1,215.999993408203,8|0,1:0|0:0,0:0:0:0:
217,151,171813,1,0,1:0:0:0:
137,48,171956,6,0,P|79:47|30:15,1,107.999996704102,2|0,0:1|0:0,0:0:0:0:
251,78,172241,2,0,P|295:47|352:30,1,107.999996704102,2|0,0:1|0:0,0:0:0:0:
499,233,172527,1,0,0:0:0:0:
421,173,172670,2,0,B|363:134|316:173|322:181|278:181|258:162|258:162|293:160|320:126,1,215.999993408203,2|0,0:1|0:0,0:0:0:0:
459,67,173099,2,0,P|426:81|399:85,1,53.9999983520508,0|0,0:0|0:0,0:0:0:0:
291,255,173241,6,0,B|326:262|360:242|360:242|368:295|316:329|256:317|276:287|232:270|178:312|196:382,1,323.999981529237,4|0,3:1|0:0,0:0:0:0:
394,369,173813,1,8,1:0:0:0:
474,347,173956,2,0,P|444:300|392:289,2,107.999996704102,0|0|0,0:0|0:0|0:0,0:0:0:0:
186,213,174384,5,2,3:2:0:0:
89,201,174527,1,2,0:0:0:0:
22,271,174670,1,2,0:0:0:0:
110,308,174812,1,2,0:0:0:0:
35,372,174956,5,8,1:0:0:0:
169,240,175099,1,2,0:0:0:0:
45,100,175241,2,0,P|18:108|-2:127,1,53.9999983520508,0|0,0:0|0:0,0:0:0:0:
2,137,175384,6,2,B|56:156|104:126|95:114|142:75|220:90,1,215.999993408203,2|0,3:1|0:1,0:1:0:0:
37,48,175813,2,0,B|11:0|11:0|67:26,1,107.999996704102,0|0,1:0|0:0,0:0:0:0:
245,208,176099,2,0,B|256:142|318:135|332:155|398:141|379:70|335:79,1,215.999993408203,8|0,1:0|0:0,0:0:0:0:
271,30,176527,1,0,3:0:0:0:
358,219,176670,2,0,B|384:248|416:230|405:222|435:201|472:223,2,107.999996704102,2|0|0,3:1|0:0|0:0,0:0:0:0:
506,368,177099,2,0,B|454:345|453:297|453:297|411:336|352:342|352:342|351:374,1,215.999993408203,10|2,1:1|0:1,0:0:0:0:
342,375,177456,1,0,0:0:0:0:
340,374,177527,2,0,B|286:339|286:339|294:286,1,107.999996704102,0|0,0:0|0:0,0:0:0:0:
66,232,177813,6,0,B|27:251|27:251|185:256|185:256|156:281,1,215.999993408203,2|0,3:1|0:0,0:0:0:0:
118,331,178241,1,0,0:0:0:0:
168,84,178384,2,2,B|131:20|131:20|34:82|34:82|40:118,1,215.999993408203,10|2,1:1|0:1,0:1:0:0:
118,158,178813,1,0,3:0:0:0:
363,126,178956,5,0,3:0:0:0:
304,62,179099,1,2,0:1:0:0:
275,93,179170,1,0,0:0:0:0:
279,135,179241,1,2,0:1:0:0:
384,45,179384,1,0,0:0:0:0:
231,19,179527,1,8,1:0:0:0:
407,200,179670,1,0,3:0:0:0:
488,171,179813,1,2,0:1:0:0:
386,319,179956,1,2,0:1:0:0:
317,265,180099,5,2,0:0:0:0:
301,249,180170,1,0,0:0:0:0:
279,251,180241,1,2,0:0:0:0:
266,233,180313,1,0,0:0:0:0:
244,232,180384,1,2,0:0:0:0:
234,212,180456,1,0,0:0:0:0:
212,212,180527,1,2,0:0:0:0:
204,191,180599,1,0,0:0:0:0:
182,188,180670,5,0,1:0:0:0:
218,166,180741,1,0,0:0:0:0:
255,188,180813,1,0,1:0:0:0:
293,168,180884,1,0,0:0:0:0:
324,198,180956,1,0,0:0:0:0:
366,201,181027,1,0,0:0:0:0:
381,241,181099,1,0,1:0:0:0:
421,255,181170,1,0,0:0:0:0:
463,247,181241,6,0,B|486:222|486:222|454:205,1,53.9999983520508,2|0,0:1|0:0,0:0:0:0:
462,125,181384,2,0,B|466:94|466:94|441:89,1,53.9999983520508,0|0,0:0|0:0,0:0:0:0:
370,47,181527,2,0,B|336:33|336:33|326:62,1,53.9999983520508,2|0,0:1|0:0,0:0:0:0:
254,91,181670,2,0,B|221:99|221:99|240:127,1,53.9999983520508,0|0,0:0|0:0,0:0:0:0:
214,29,181813,6,0,B|224:59|224:59|201:65,1,53.9999983520508,2|0,1:0|0:0,0:0:0:0:
177,139,181956,2,0,B|161:164|161:164|141:147,1,53.9999983520508,2|0,1:0|0:0,0:0:0:0:
64,151,182099,2,0,B|40:171|40:171|35:136,1,53.9999983520508,2|0,0:0|0:0,0:0:0:0:
24,68,182241,2,0,B|-2:49|-2:49|32:40,1,53.9999983520508,2|0,1:2|0:0,0:0:0:0:
98,17,182384,6,0,B|127:-4|127:-4|91:80|91:80|133:180|133:180|107:285,1,323.999990112305,0|0,1:0|0:0,0:0:0:0:
231,283,182956,2,0,B|200:313|200:313|83:197|83:197|9:286,1,323.999990112305,8|0,1:0|0:0,0:0:0:0:
94,356,183527,5,2,3:1:0:0:
134,279,183670,1,0,3:0:0:0:
199,223,183813,1,2,0:1:0:0:
274,181,183956,1,0,0:0:0:0:
355,151,184099,1,10,1:0:0:0:
440,143,184241,1,0,0:0:0:0:
489,71,184384,1,2,3:1:0:0:
416,23,184527,6,0,P|436:103|454:248,1,215.999993408203,2|2,3:1|0:1,0:0:0:0:
452,322,184956,2,0,P|464:344|408:346,1,107.999996704102,0|0,0:0|0:0,0:0:0:0:
269,247,185241,2,0,B|263:210|263:210|190:184,1,107.999996704102,8|0,1:0|0:0,0:0:0:0:
35,64,185527,6,0,B|56:75|56:75|180:43,1,135.000005149842,2|0,0:1|3:0,0:0:0:0:
398,47,185813,6,0,B|355:38|355:38|286:93,2,107.999996704102,2|0|2,3:1|0:0|0:1,0:0:0:0:
213,136,186241,2,0,B|216:204|216:204|119:145|119:145|90:170,1,215.999993408203,8|0,1:0|0:0,0:0:0:0:
92,167,186599,1,2,0:0:0:0:
92,167,186670,1,2,1:0:0:0:
32,228,186813,1,8,1:0:0:0:
111,261,186956,6,0,B|131:227|131:227|120:143|120:143|45:121|45:121|27:139,1,215.999993408203,2|0,3:1|0:0,0:0:0:0:
23,341,187384,1,0,0:0:0:0:
107,359,187527,2,0,B|169:362|209:327|195:324|238:278|310:276,1,215.999993408203,10|0,1:0|0:0,0:0:0:0:
386,292,187956,1,0,0:0:0:0:
429,217,188099,5,2,3:1:0:0:
443,233,188170,1,0,3:0:0:0:
463,225,188241,1,2,0:1:0:0:
475,242,188313,1,0,0:0:0:0:
495,247,188384,1,2,0:1:0:0:
487,289,188456,1,0,0:0:0:0:
462,323,188527,1,2,0:1:0:0:
447,371,188599,1,0,0:0:0:0:
426,380,188670,6,0,L|370:370,1,53.9999983520508,8|0,1:0|0:0,0:0:0:0:
301,334,188813,1,0,0:0:0:0:
301,334,188884,2,0,L|235:330,1,53.9999983520508,2|0,0:1|0:0,0:0:0:0:
186,268,189027,1,0,0:0:0:0:
186,268,189099,2,0,L|183:209,1,53.9999983520508,2|0,0:1|0:0,0:0:0:0:
142,138,189241,5,8,1:0:0:0:
44,135,189384,2,0,B|58:144|58:144|140:116|140:116|146:103|146:103|227:76|227:76|239:82,1,215.999987686158,2|2,1:0|0:0,0:0:0:0:
150,64,189813,6,0,P|118:41|128:10,2,71.9999958953859,2|0|2,0:0|0:0|0:0,0:0:0:0:
222,159,190098,2,0,P|219:193|185:210,2,71.9999958953859,0|2|0,1:0|0:0|0:0,0:0:0:0:
242,73,190384,1,2,3:2:0:0:
349,44,190527,1,2,0:0:0:0:
334,44,190599,1,0,0:0:0:0:
325,59,190670,1,2,0:0:0:0:
390,142,190813,6,0,P|393:179|423:207,1,72
431,200,191099,2,0,P|383:209|357:230,1,72,2|0,0:0|0:0,0:0:0:0:
258,322,191384,6,0,L|421:300,1,146,4|0,0:0|0:0,0:0:0:0:
484,362,191818,1,2,0:0:0:0:
191,183,207389,6,0,P|287:174|341:106,1,179.999995231628,4|0,1:2|0:0,0:0:0:0:
430,303,207818,1,0,2:0:0:0:
342,283,207960,2,0,P|340:331|368:368,1,89.9999976158142,8|0,0:3|0:0,0:0:0:0:
238,382,208246,2,0,P|252:338|232:299,1,89.9999976158142
219,94,208532,1,8,0:0:0:0:
117,102,208674,5,0,0:0:0:0:
160,32,208818,2,0,P|195:66|203:108,2,89.9999976158142,0|0|2,3:0|3:0|3:2,0:0:0:0:
36,276,209247,1,0,3:0:0:0:
89,193,209390,1,2,0:2:0:0:
19,105,209532,1,0,0:0:0:0:
19,105,209675,2,0,P|29:77|48:64,1,44.9999988079071,2|0,0:0|0:0,0:0:0:0:
117,102,209818,6,0,P|104:148|26:196,1,89.9999976158142,6|0,3:1|0:0,0:0:0:0:
22,278,210103,2,0,P|94:271|149:232,1,89.9999976158142,2|0,0:1|0:0,0:0:0:0:
178,206,210389,1,8,1:0:0:0:
230,355,210532,2,0,L|141:344,2,89.9999976158142,2|0|2,0:0|0:0|0:0,0:0:0:0:
433,330,210960,5,0,3:0:0:0:
362,273,211103,2,0,P|339:313|345:358,2,89.9999976158142,2|0|2,0:0|0:0|0:0,0:0:0:0:
493,153,211532,1,8,1:0:0:0:
428,90,211674,2,0,P|386:106|373:154,1,89.9999976158142,2|0,0:0|0:0,0:0:0:0:
283,41,211960,6,0,B|330:55|375:21|361:18|404:-10|462:7,1,179.999995231628,2|0,0:0|0:0,0:0:0:0:
474,216,212389,1,0,0:0:0:0:
366,237,212532,2,0,P|296:225|276:210,1,89.9999976158142,2|8,0:0|1:0,0:0:0:0:
180,122,212818,2,0,P|121:120|48:154,1,134.999996423721,2|0,0:0|0:0,0:0:0:0:
33,190,213103,1,2,0:0:0:0:
67,36,213246,5,0,3:0:0:0:
129,213,213389,2,0,P|106:253|66:279,2,89.9999976158142,2|0|2,0:0|0:0|0:0,0:0:0:0:
281,81,213818,2,0,P|240:65|213:25,2,89.9999976158142,8|2|0,1:0|0:0|0:0,0:0:0:0:
330,216,214246,2,0,P|311:226|303:254,1,44.9999988079071,2|0,0:0|0:0,0:0:0:0:
233,227,214389,6,0,P|263:282|268:367,1,134.999996423721,0|0,3:0|0:0,0:0:0:0:
351,369,214675,2,0,P|370:328|351:331,1,89.9999976158142,0|0,0:0|0:0,0:0:0:0:
143,341,214960,1,8,1:0:0:0:
229,364,215103,1,2,0:0:0:0:
216,274,215246,1,0,0:0:0:0:
130,245,215389,1,2,0:0:0:0:
40,299,215532,5,0,3:0:0:0:
190,172,215675,2,0,B|177:121|177:121|145:142,2,89.9999976158142,2|0|2,0:0|0:0|0:0,0:0:0:0:
34,53,216103,1,8,1:0:0:0:
34,53,216246,2,0,B|29:83|29:83|86:56,1,89.9999976158142,0|0,0:0|0:0,0:0:0:0:
309,34,216532,6,0,B|296:17|296:17|234:50,1,89.9999976158142,2|0,0:0|3:0,0:0:0:0:
30,195,216818,2,0,B|24:175|24:175|93:183,1,89.9999976158142,2|0,0:0|0:0,0:0:0:0:
336,129,217103,2,0,L|261:187,1,89.9999976158142,2|8,0:0|1:0,0:0:0:0:
447,100,217389,2,0,L|410:15,1,89.9999976158142,2|0,0:0|0:0,0:0:0:0:
406,239,217675,1,2,0:0:0:0:
485,179,217818,5,0,3:0:0:0:
386,186,217960,1,2,0:0:0:0:
305,244,218103,1,0,0:0:0:0:
278,339,218246,1,2,0:0:0:0:
371,372,218389,5,8,1:0:0:0:
289,316,218532,1,2,0:0:0:0:
190,301,218675,1,0,0:0:0:0:
104,351,218818,2,0,L|51:331,1,44.9999988079071,2|0,0:0|0:0,0:0:0:0:
28,336,218960,6,0,B|74:352|74:352|108:291|108:291|97:257,1,134.999996423721,2|0,3:1|0:0,0:0:0:0:
135,208,219246,2,0,B|112:164|112:164|72:142|72:142|71:97,1,134.999996423721,2|0,0:1|0:0,0:0:0:0:
114,34,219532,1,12,1:0:0:0:
31,210,219675,2,0,B|46:217|46:217|125:198,2,89.9999976158143,2|0|2,0:0|0:0|0:0,0:0:0:0:
195,112,220103,5,0,3:0:0:0:
289,268,220246,1,2,0:0:0:0:
333,179,220389,2,0,P|331:134|307:92,1,89.9999976158142,0|2,0:0|0:0,0:0:0:0:
211,210,220675,2,0,P|178:243|173:289,2,89.9999976158142,8|2|0,1:0|0:0|0:0,0:0:0:0:
289,268,221103,1,0,0:0:0:0:
453,247,221246,6,0,B|395:254|378:297|386:299|381:345|319:360,1,179.999995231628,2|0,3:2|0:0,0:0:0:0:
224,347,221675,1,0,0:0:0:0:
451,342,221818,2,0,P|410:313|378:279,1,89.9999976158142,8|0,1:0|0:0,0:0:0:0:
357,188,222103,1,0,0:0:0:0:
481,34,222246,2,0,P|469:78|435:112,1,89.9999976158142,2|0,0:0|3:0,0:0:0:0:
300,111,222532,6,0,L|206:81,1,89.9999976158142,2|0,0:0|0:0,0:0:0:0:
25,56,222818,2,0,L|120:34,1,89.9999976158142,2|8,0:0|1:0,0:0:0:0:
261,25,223103,1,2,0:0:0:0:
199,102,223246,1,0,0:0:0:0:
207,200,223389,2,0,P|213:224|227:239,1,44.9999988079071,2|0,0:0|0:0,0:0:0:0:
255,310,223532,6,0,P|205:316|163:340,1,89.9999976158142,2|0,3:2|0:0,0:0:0:0:
25,224,223818,2,0,P|74:233|120:223,1,89.9999976158142,0|2,0:0|0:0,0:0:0:0:
427,121,224103,1,8,1:0:0:0:
336,80,224246,1,2,0:0:0:0:
257,141,224389,1,0,0:0:0:0:
161,115,224532,1,2,0:0:0:0:
335,241,224675,1,2,3:2:0:0:
361,239,224818,1,2,0:0:0:0:
412,254,224960,1,0,0:0:0:0:
448,324,225103,1,2,0:0:0:0:
373,374,225246,1,8,1:0:0:0:
278,315,225389,6,0,L|370:294,1,89.9999976158142,0|0,0:0|0:0,0:0:0:0:
469,166,225675,2,0,B|420:181|420:181|353:128|353:128|329:138,1,161.999995056153,4|0,1:2|0:0,0:0:0:0:
264,93,225960,2,0,B|231:105|231:105|128:82|128:82|151:106,1,161.999995056153,8|0,0:3|0:0,0:0:0:0:
220,27,226246,2,0,B|239:41|239:41|230:157|230:157|206:172,1,161.999995056153,8|0,3:0|0:0,0:0:0:0:
131,199,226532,2,0,B|155:177|155:177|214:229,1,107.999996704102,0|0,3:0|3:0,0:0:0:0:
151,332,226818,1,0,0:0:0:0:
294,225,226960,5,8,1:0:0:0:
237,317,227103,1,8,1:0:0:0:
340,349,227246,1,0,0:0:0:0:
240,355,227389,1,0,0:0:0:0:
427,374,227532,1,0,3:0:0:0:
472,308,227675,1,2,3:2:0:0:
418,228,227818,1,0,3:0:0:0:
478,139,227960,2,0,P|483:110|474:83,1,53.9999983520508,2|0,0:0|0:0,0:0:0:0:
404,48,228103,6,0,P|459:67|495:140,1,135,6|0,3:1|0:0,0:0:0:0:
485,216,228389,2,0,B|428:227|401:177|410:174|382:160|354:169,1,135,2|0,0:1|0:0,0:0:0:0:
324,184,228675,1,8,1:0:0:0:
205,84,228818,2,0,P|264:66|287:32,2,90,2|8|2,0:0|0:0|0:0,0:0:0:0:
25,232,229246,5,0,3:0:0:0:
111,208,229389,2,0,P|158:219|192:257,1,90,2|0,0:0|0:0,0:0:0:0:
185,338,229675,1,2,0:0:0:0:
375,269,229818,1,8,1:0:0:0:
326,352,229960,2,0,P|289:326|280:285,2,90,2|0|2,0:0|0:0|0:0,0:0:0:0:
388,162,230389,5,0,3:0:0:0:
463,190,230532,2,0,B|459:220|436:231|435:220|416:244|418:273,1,90,2|0,0:0|0:0,0:0:0:0:
414,352,230818,1,0,0:0:0:0:
223,221,230960,1,8,1:0:0:0:
279,150,231103,2,0,P|305:186|313:231,1,90,2|0,0:0|0:0,0:0:0:0:
168,292,231389,1,2,0:0:0:0:
85,262,231532,5,0,3:0:0:0:
223,221,231675,1,2,0:0:0:0:
120,365,231818,1,0,0:0:0:0:
33,340,231960,1,2,0:0:0:0:
49,105,232103,2,0,B|60:146|103:147|99:140|135:147|143:201,1,135,8|0,1:0|0:0,0:0:0:0:
45,204,232389,2,0,P|75:166|120:151,1,90,2|0,0:0|0:0,0:0:0:0:
159,72,232603,1,0,0:0:0:0:
179,62,232674,6,0,P|229:66|270:90,1,90,2|0,3:2|0:0,0:0:0:0:
384,233,232960,2,0,L|372:324,1,90,0|2,0:0|0:0,0:0:0:0:
483,207,233246,1,8,1:0:0:0:
381,339,233389,1,2,0:0:0:0:
372,142,233532,1,0,0:0:0:0:
320,268,233675,1,2,0:0:0:0:
250,157,233818,5,2,3:2:0:0:
283,272,233960,1,2,0:0:0:0:
180,254,234103,1,0,0:0:0:0:
267,294,234246,1,2,0:0:0:0:
212,349,234389,1,8,1:0:0:0:
274,318,234532,1,2,0:0:0:0:
116,369,234675,1,0,0:0:0:0:
294,332,234818,6,0,B|262:319|262:319|189:326,1,90,2|0,0:0|3:0,0:0:0:0:
16,251,235103,2,0,B|5:257|5:257|87:273,1,90,2|0,0:0|0:0,0:0:0:0:
329,208,235389,2,0,B|315:198|315:198|218:229|218:229|192:226,1,135,2|0,1:2|0:0,0:0:0:0:
149,157,235675,2,0,B|137:151|137:151|67:171|67:171|49:169,1,90,2|0,0:0|0:0,0:0:0:0:
67,44,235960,1,2,0:0:0:0:
234,122,236103,5,0,3:0:0:0:
149,157,236246,1,2,0:0:0:0:
221,103,236389,1,0,0:0:0:0:
145,98,236532,1,2,0:0:0:0:
233,82,236675,1,8,1:0:0:0:
184,26,236818,1,2,0:0:0:0:
329,48,236960,1,0,0:0:0:0:
254,73,237103,2,0,L|262:122,1,45,2|0,0:0|0:0,0:0:0:0:
248,201,237246,6,0,B|298:190|298:190|355:198,1,90,6|0,3:1|0:0,0:0:0:0:
501,108,237532,2,0,B|494:91|494:91|430:160|430:160|433:186,1,135,2|0,0:1|0:0,0:0:0:0:
437,227,237818,1,12,1:0:0:0:
235,359,237960,2,0,B|259:366|259:366|328:325,2,90,2|0|2,0:0|0:0|0:0,0:0:0:0:
430,359,238389,5,0,3:0:0:0:
379,284,238532,1,2,0:0:0:0:
437,227,238675,2,0,B|483:255|483:255|441:285,1,90,0|2,0:0|0:0,0:0:0:0:
265,207,238960,2,0,B|312:219|333:192|325:187|354:157|401:162,1,135,8|0,1:0|0:0,0:0:0:0:
437,227,239246,2,0,P|391:212|365:177,1,90,2|0,0:0|0:0,0:0:0:0:
293,114,239460,1,0,0:0:0:0:
299,91,239532,5,0,3:0:0:0:
387,30,239674,2,0,B|407:24|407:24|476:72,2,90,2|0|2,0:0|0:0|0:0,0:0:0:0:
201,137,240103,1,8,1:0:0:0:
178,44,240246,2,0,B|163:23|163:23|255:44,1,90,2|0,0:0|0:0,0:0:0:0:
201,137,240532,1,2,0:0:0:0:
40,192,240674,5,0,3:0:0:0:
56,87,240817,2,0,L|86:231,1,135,2|0,0:0|0:0,0:0:0:0:
177,225,241103,2,0,L|146:361,1,135,2|0,0:0|0:0,0:0:0:0:
80,299,241389,2,0,B|63:248|63:248|83:219,1,90,2|0,0:0|0:0,0:0:0:0:
23,369,241674,1,2,0:0:0:0:
160,363,241817,6,0,P|245:318|305:314,1,135,0|0,3:0|0:0,0:0:0:0:
363,268,242103,2,0,P|422:319|484:341,1,135,0|0,0:0|0:0,0:0:0:0:
399,345,242389,1,8,1:0:0:0:
354,174,242532,2,0,P|385:139|438:130,2,90,2|0|2,0:0|0:0|0:0,0:0:0:0:
455,27,242960,5,0,3:0:0:0:
497,106,243103,1,2,0:0:0:0:
416,146,243246,1,8,0:0:0:0:
374,67,243389,1,2,0:0:0:0:
437,131,243532,1,8,1:0:0:0:
229,111,243674,1,2,0:0:0:0:
311,126,243817,1,0,0:0:0:0:
179,213,243960,6,0,L|45:182,1,135,4|0,0:2|0:0,0:0:0:0:
149,129,244246,2,0,B|103:132|81:165|92:168|73:192|28:201,1,135,2|0,0:0|0:0,0:0:0:0:
14,108,244532,1,2,0:0:0:0:
129,286,244674,2,0,P|118:321|68:315,2,90,12|0|2,1:0|0:0|0:0,0:0:0:0:
0,350,245103,1,0,0:0:0:0:
97,334,245246,6,0,P|143:342|186:367,1,90,0|2,3:0|0:0,0:0:0:0:
307,350,245532,1,0,0:0:0:0:
335,261,245674,1,2,0:0:0:0:
251,184,245817,1,8,1:0:0:0:
209,84,245960,1,2,0:0:0:0:
269,9,246103,1,0,0:0:0:0:
359,1,246246,2,0,P|383:3|405:12,1,45,2|0,0:0|0:0,0:0:0:0:
350,83,246389,6,0,P|291:82|227:41,1,135,6|0,3:1|0:0,0:0:0:0:
150,128,246674,2,0,P|70:136|20:168,1,135,2|0,0:1|0:0,0:0:0:0:
14,248,246960,1,8,1:0:0:0:
70,113,247103,2,0,B|75:87|90:71|90:71|68:64|51:43,2,90,0|8|0,0:0|0:0|0:0,0:0:0:0:
174,234,247532,5,0,3:0:0:0:
278,209,247674,1,2,0:0:0:0:
201,133,247817,1,0,0:0:0:0:
174,234,247960,1,2,0:0:0:0:
363,271,248103,1,8,1:0:0:0:
420,347,248246,2,0,B|439:349|439:349|505:312,2,89.9999976158143
323,360,248674,5,0,3:0:0:0:
363,271,248817,1,0,0:0:0:0:
421,362,248960,2,0,B|397:321|397:321|389:205,1,135,2|0,0:0|0:0,0:0:0:0:
417,161,249246,1,8,1:0:0:0:
273,270,249389,2,0,L|255:173,1,90,0|0,0:0|0:0,0:0:0:0:
278,75,249674,1,0,0:0:0:0:
76,175,249817,5,0,3:0:0:0:
151,205,249960,1,2,0:0:0:0:
142,124,250103,1,0,0:0:0:0:
76,175,250246,1,2,0:0:0:0:
231,241,250389,1,8,1:0:0:0:
188,310,250532,1,2,0:0:0:0:
111,286,250674,1,0,0:0:0:0:
61,350,250817,2,0,P|37:345|45:336,1,45,2|0,0:0|0:0,0:0:0:0:
27,260,250960,6,0,P|70:245|120:267,1,90,0|0,3:0|0:0,0:0:0:0:
328,305,251246,2,0,L|193:337,1,135,4|0,0:2|0:0,0:0:0:0:
168,365,251532,1,8,1:0:0:0:
391,322,251674,2,0,B|356:328|356:328|350:323|300:298,2,90,0|0|0,0:0|0:0|0:0,0:0:0:0:
379,82,252103,5,0,3:0:0:0:
470,44,252246,1,2,0:0:0:0:
464,142,252389,1,0,0:0:0:0:
379,82,252532,1,2,0:0:0:0:
160,31,252674,1,8,1:0:0:0:
233,71,252817,2,0,B|252:73|252:73|297:34|297:34|323:38,1,90,0|0,0:0|0:0,0:0:0:0:
179,142,253103,1,0,0:0:0:0:
30,81,253246,5,0,3:0:0:0:
247,85,253389,1,0,0:0:0:0:
65,169,253532,2,0,B|87:178|87:178|163:128|163:128|184:147,1,135,2|0,0:0|0:0,0:0:0:0:
209,221,253817,1,8,1:0:0:0:
168,311,253960,1,0,0:0:0:0:
72,338,254103,1,0,0:0:0:0:
255,365,254246,1,0,0:0:0:0:
398,224,254389,5,0,3:0:0:0:
473,195,254532,1,2,0:0:0:0:
462,274,254674,1,0,0:0:0:0:
398,224,254817,1,2,0:0:0:0:
463,362,254960,1,8,1:0:0:0:
382,366,255103,1,2,0:0:0:0:
338,297,255246,1,8,0:0:0:0:
269,254,255389,2,0,B|232:268|232:268|254:273,1,45,2|0,0:0|0:0,0:0:0:0:
338,297,255532,6,0,L|252:267,1,90,0|0,3:0|0:0,0:0:0:0:
31,196,255817,2,0,B|77:193|108:160|98:159|122:133|158:131,1,135,2|0,0:0|0:0,0:0:0:0:
223,141,256103,1,8,1:0:0:0:
102,255,256246,2,0,B|74:254|62:237|68:234|47:215|18:218,2,90,0|4|0,0:0|0:0|0:0,0:0:0:0:
21,57,256674,5,0,3:0:0:0:
88,132,256817,1,2,0:0:0:0:
118,38,256960,1,0,0:0:0:0:
21,57,257103,1,2,0:0:0:0:
199,86,257246,1,8,1:0:0:0:
192,165,257389,2,0,B|204:174|204:174|276:142,2,90,0|0|0,0:0|0:0|0:0,0:0:0:0:
449,136,257817,5,0,3:0:0:0:
371,197,257960,1,0,0:0:0:0:
279,37,258103,2,0,B|327:28|327:28|362:89|362:89|352:110,1,135,2|0,0:0|0:0,0:0:0:0:
334,148,258389,1,8,1:0:0:0:
401,296,258532,2,0,B|452:247|452:247|491:251,1,90,0|0,0:0|0:0,0:0:0:0:
474,348,258817,1,0,0:0:0:0:
231,307,258960,5,0,3:0:0:0:
300,349,259103,1,2,0:0:0:0:
304,268,259246,1,0,0:0:0:0:
231,307,259389,1,2,0:0:0:0:
68,246,259532,1,8,1:0:0:0:
96,170,259674,2,0,B|115:175|115:175|173:224,2,90,2|0|2,0:0|0:0|0:0,0:0:0:0:
21,354,260103,5,0,3:0:0:0:
147,338,260246,1,0,0:0:0:0:
8,214,260389,2,0,B|51:225|51:225|96:170|96:170|91:137,1,135,2|0,0:0|0:0,0:0:0:0:
83,111,260674,1,8,1:0:0:0:
258,183,260817,2,0,B|270:160|270:160|341:144,1,90,0|0,0:0|0:0,0:0:0:0:
398,194,261103,1,0,0:0:0:0:
279,29,261246,5,0,3:0:0:0:
217,106,261389,1,2,0:0:0:0:
180,13,261532,1,0,0:0:0:0:
279,29,261674,1,2,0:0:0:0:
253,272,261817,6,0,B|265:303|265:303|245:359,1,90,8|0,1:0|0:0,0:0:0:0:
253,272,262103,2,0,B|235:300|235:300|244:356,1,90,8|0,1:0|0:0,0:0:0:0:
273,172,262389,6,0,B|257:158|229:163|229:163|206:170|182:155,2,90,0|0|0,3:0|3:0|3:0,0:0:0:0:
51,283,262817,2,0,B|92:285|123:268|115:259|144:233|181:233,1,135,2|0,0:0|0:0,0:0:0:0:
273,172,263103,2,0,L|182:155,1,90,2|0,0:0|0:0,0:0:0:0:
378,113,263389,1,8,1:0:0:0:
345,28,263532,5,2,0:0:0:0:
260,78,263674,1,0,1:0:0:0:
273,176,263817,1,2,0:0:0:0:
361,219,263960,1,0,1:0:0:0:
393,215,264103,5,0,3:0:0:0:
357,307,264246,1,2,3:2:0:0:
264,272,264389,1,0,3:0:0:0:
265,371,264532,2,0,B|286:360|286:360|259:345,1,45,2|0,0:0|0:0,0:0:0:0:
195,341,264674,6,0,B|216:333|216:333|250:285|250:285|272:278,1,90,4|0,3:2|0:0,0:0:0:0:
36,159,264960,2,0,B|64:142|64:142|88:232|88:232|108:240,1,135,2|0,0:0|0:0,0:0:0:0:
109,283,265246,1,8,1:0:0:0:
225,128,265389,2,0,P|199:88|156:100,1,90,0|0,0:0|0:0,0:0:0:0:
184,219,265674,1,0,0:0:0:0:
375,58,265817,5,0,3:0:0:0:
285,16,265960,1,2,0:0:0:0:
308,112,266103,1,0,0:0:0:0:
308,211,266246,1,2,0:0:0:0:
479,124,266389,1,8,1:0:0:0:
417,201,266532,2,0,P|419:247|445:287,2,90,0|0|0,0:0|0:0|0:0,0:0:0:0:
470,350,266960,6,0,B|446:343|433:319|433:319|432:343|413:361,1,90,0|0,3:0|0:0,0:0:0:0:
205,320,267246,2,0,P|261:306|336:335,1,135,2|0,0:0|0:0,0:0:0:0:
341,380,267532,1,8,1:0:0:0:
480,217,267674,2,0,P|440:238|389:240,1,90,0|0,0:0|0:0,0:0:0:0:
234,126,267960,1,0,0:0:0:0:
330,148,268103,5,0,3:0:0:0:
401,92,268246,1,2,0:0:0:0:
366,26,268389,1,0,0:0:0:0:
334,21,268532,1,2,0:0:0:0:
183,51,268674,1,8,1:0:0:0:
234,126,268817,1,2,0:0:0:0:
195,218,268960,1,0,0:0:0:0:
69,225,269103,2,0,B|45:210|62:187,1,45,2|0,0:0|0:0,0:0:0:0:
11,128,269246,6,0,L|100:139,1,90,0|0,3:0|0:0,0:0:0:0:
58,19,269532,1,2,0:0:0:0:
58,19,269674,1,0,0:0:0:0:
69,225,269817,1,8,1:0:0:0:
181,105,269960,2,0,B|164:92|164:92|90:117,2,90,0|0|0,0:0|0:0|0:0,0:0:0:0:
10,146,270389,5,0,3:0:0:0:
69,225,270532,1,0,1:0:0:0:
69,225,270603,1,0,0:0:0:0:
69,225,270675,1,0,1:0:0:0:
39,299,270817,1,0,0:0:0:0:
25,246,270960,1,8,1:0:0:0:
130,314,271103,2,0,B|111:361|111:361|70:381,1,90,0|0,0:0|0:0,0:0:0:0:
39,299,271389,1,0,0:0:0:0:
245,244,271532,5,0,3:0:0:0:
168,219,271674,1,0,0:0:0:0:
257,357,271817,2,0,B|296:355|296:355|345:287|345:287|358:287,1,135,2|0,0:0|0:0,0:0:0:0:
417,340,272103,1,8,1:0:0:0:
489,167,272246,2,0,B|460:230|460:230|463:259,1,90,0|8,0:0|0:0,0:0:0:0:
390,140,272532,1,0,0:0:0:0:
336,57,272674,5,0,3:0:0:0:
425,14,272817,1,2,0:0:0:0:
491,59,272960,1,0,0:0:0:0:
492,95,273103,1,2,0:0:0:0:
374,228,273246,1,8,1:0:0:0:
338,154,273389,1,2,0:0:0:0:
424,143,273532,1,0,0:0:0:0:
486,229,273674,1,2,0:0:0:0:
407,334,273817,6,0,B|310:305,1,90,8|0,3:2|0:0,0:0:0:0:
490,312,274103,2,0,B|465:331|465:331|386:304|386:304|368:312,1,135,4|0,0:2|0:0,0:0:0:0:
303,353,274389,1,8,1:0:0:0:
96,237,274532,2,0,B|112:225|112:225|189:253,2,90,0|0|0,0:0|0:0|0:0,0:0:0:0:
254,191,274960,5,0,3:0:0:0:
169,138,275103,1,2,0:0:0:0:
252,84,275246,1,8,0:0:0:0:
350,89,275389,1,2,0:0:0:0:
186,8,275532,1,8,1:0:0:0:
115,77,275674,2,0,P|131:121|139:177,2,90,0|0|0,0:0|0:0|0:0,0:0:0:0:
77,329,276103,5,0,3:0:0:0:
139,250,276246,1,2,0:0:0:0:
68,203,276389,1,8,0:0:0:0:
25,227,276532,1,2,0:0:0:0:
22,260,276674,1,8,1:0:0:0:
179,337,276817,2,0,P|223:317|272:308,1,90,0|0,0:0|0:0,0:0:0:0:
356,346,277103,1,2,0:0:0:0:
379,130,277246,5,0,3:0:0:0:
466,121,277389,1,2,0:0:0:0:
460,204,277532,1,0,0:0:0:0:
374,229,277674,1,2,0:0:0:0:
351,211,277817,1,8,1:0:0:0:
248,41,277960,1,2,0:0:0:0:
314,12,278103,1,0,3:0:0:0:
370,78,278246,1,2,0:0:0:0:
294,142,278389,5,0,3:0:0:0:
174,105,278532,1,0,0:0:0:0:
370,78,278674,2,0,B|331:74|311:47|325:43|288:15|251:18,1,135,2|0,0:0|0:0,0:0:0:0:
192,78,278960,6,0,P|157:76|170:32,1,90,8|0,1:0|0:0,0:0:0:0:
88,202,279246,2,0,P|63:240|26:217,1,90,8|0,1:0|0:0,0:0:0:0:
37,125,279532,5,0,3:0:0:0:
83,38,279674,1,2,0:0:0:0:
172,62,279817,1,8,0:0:0:0:
174,123,279960,1,2,0:0:0:0:
200,139,280103,1,8,1:0:0:0:
389,50,280246,1,2,0:0:0:0:
320,6,280389,1,0,0:0:0:0:
253,75,280532,2,0,P|267:93|278:114,1,45,2|0,0:0|0:0,0:0:0:0:
315,183,280675,6,0,P|282:215|237:237,1,90,0|12,3:0|3:0,0:0:0:0:
182,343,280960,2,0,P|226:340|276:320,1,90,2|8,0:0|0:0,0:0:0:0:
426,154,281246,1,8,0:3:0:0:
497,260,281389,2,0,P|450:255|442:297,1,90,2|0,0:0|0:0,0:0:0:0:
372,372,281674,1,8,0:3:0:0:
365,251,281817,5,0,3:0:0:0:
329,288,281960,1,0,0:0:0:0:
372,372,282103,1,8,0:0:0:0:
299,177,282246,1,0,0:0:0:0:
175,141,282389,5,0,3:0:0:0:
146,177,282532,1,8,0:1:0:0:
194,265,282674,1,4,0:3:0:0:
260,64,282817,2,0,L|216:68,1,45,8|0,0:1|0:0,0:0:0:0:
192,40,282960,6,0,B|209:28|209:28|261:94|261:94|290:84,1,135,4|0,3:2|0:0,0:0:0:0:
374,113,283246,2,0,B|348:75|348:75|288:152,1,135,2|0,0:0|0:0,0:0:0:0:
308,222,283532,1,8,1:0:0:0:
478,102,283674,2,0,B|448:112|448:112|378:88,2,90,0|0|0,0:0|0:0|0:0,0:0:0:0:
333,17,284103,5,0,3:0:0:0:
279,89,284246,1,2,0:0:0:0:
189,94,284389,1,8,0:0:0:0:
141,170,284532,1,2,0:0:0:0:
15,59,284674,1,8,1:0:0:0:
93,14,284817,2,0,B|103:84|103:84|88:106,1,90,0|0,0:0|0:0,0:0:0:0:
17,268,285103,1,0,0:0:0:0:
17,268,285174,1,0,0:0:0:0:
17,268,285246,6,0,P|33:223|80:210,1,90,0|0,3:0|0:0,0:0:0:0:
74,362,285532,2,0,P|136:345|169:280,1,135,4|0,0:2|0:0,0:0:0:0:
221,228,285817,1,8,1:0:0:0:
280,348,285960,1,0,0:0:0:0:
397,328,286103,1,0,0:0:0:0:
341,262,286246,1,0,0:0:0:0:
270,318,286389,5,0,3:0:0:0:
326,247,286532,1,2,0:0:0:0:
221,228,286674,1,0,0:0:0:0:
323,220,286817,1,2,0:0:0:0:
213,122,286960,1,8,1:0:0:0:
336,197,287103,1,2,0:0:0:0:
438,97,287246,1,0,0:0:0:0:
314,54,287389,1,2,0:0:0:0:
358,188,287532,5,0,3:0:0:0:
449,219,287674,1,0,0:0:0:0:
503,117,287817,2,0,P|420:69|384:78,1,135,2|0,0:0|0:0,0:0:0:0:
320,39,288103,1,8,1:0:0:0:
215,90,288246,2,0,P|166:81|135:48,1,90,0|0,0:0|0:0,0:0:0:0:
35,58,288532,1,0,0:0:0:0:
37,249,288674,5,0,3:0:0:0:
89,175,288817,1,2,0:0:0:0:
172,209,288960,2,0,B|229:182|229:182|246:181|246:181|302:151,1,135,4|0,0:2|0:0,0:0:0:0:
339,157,289246,1,8,1:0:0:0:
250,282,289389,1,0,0:0:0:0:
217,102,289532,2,0,B|230:118|230:118|240:197,1,90,0|0,0:0|0:0,0:0:0:0:
111,368,289817,5,0,3:0:0:0:
118,278,289960,1,0,0:0:0:0:
43,227,290103,2,0,B|32:248|32:248|46:318,1,90,0|0,0:0|0:0,0:0:0:0:
250,282,290389,1,8,1:0:0:0:
335,252,290532,2,0,B|358:249|358:249|420:278,1,90,0|0,0:0|0:0,0:0:0:0:
494,228,290817,1,0,0:0:0:0:
402,65,290960,5,0,3:0:0:0:
479,111,291103,1,2,0:0:0:0:
387,80,291246,1,0,0:0:0:0:
404,184,291389,1,2,0:0:0:0:
365,82,291532,1,8,1:0:0:0:
283,161,291674,1,2,0:0:0:0:
348,65,291817,1,0,0:0:0:0:
219,20,291960,1,2,0:0:0:0:
428,27,292103,6,0,B|405:13|405:13|341:40,1,90,0|0,3:0|0:0,0:0:0:0:
117,138,292389,2,0,B|116:150|116:150|196:120|196:120|164:83,1,135,2|0,0:0|0:0,0:0:0:0:
133,27,292674,1,8,1:0:0:0:
30,185,292817,1,0,0:0:0:0:
100,241,292960,2,0,L|196:212,1,90,0|0,0:0|0:0,0:0:0:0:
341,363,293246,5,0,3:0:0:0:
312,287,293389,1,2,0:0:0:0:
231,296,293532,1,0,0:0:0:0:
260,372,293675,1,2,0:0:0:0:
377,230,293817,1,8,1:0:0:0:
348,154,293960,2,0,B|324:107|324:107|296:140,1,90,0|0,0:0|0:0,0:0:0:0:
243,207,294246,1,0,0:0:0:0:
465,161,294389,5,0,3:0:0:0:
427,79,294532,1,0,0:0:0:0:
494,29,294674,6,0,B|468:156|468:156|472:196,1,161.999995056153,4|0,0:2|0:0,0:0:0:0:
491,273,294960,1,8,1:0:0:0:
312,242,295103,2,0,B|318:271|318:271|466:299|466:299|491:273,1,215.999993408203,0|0,3:0|0:0,0:0:0:0:
321,155,295532,5,0,3:0:0:0:
312,242,295674,1,2,0:0:0:0:
218,188,295817,1,0,0:0:0:0:
299,264,295960,1,2,0:0:0:0:
176,306,296103,1,8,1:0:0:0:
303,286,296246,1,2,0:0:0:0:
271,383,296389,1,0,0:0:0:0:
326,298,296532,2,0,P|352:299|371:288,1,45,2|0,0:0|0:0,0:0:0:0:
427,242,296674,6,0,P|396:298|396:370,1,135,0|0,3:0|0:0,0:0:0:0:
474,315,296960,2,0,P|442:250|383:216,1,135,4|0,0:2|0:0,0:0:0:0:
322,172,297246,1,8,1:0:0:0:
151,181,297389,2,0,P|190:155|209:114,1,90,0|0,0:0|0:0,0:0:0:0:
119,99,297674,1,0,0:0:0:0:
285,66,297817,5,0,3:0:0:0:
208,117,297960,1,2,0:0:0:0:
193,28,298103,1,0,0:0:0:0:
186,117,298246,1,2,0:0:0:0:
83,66,298389,1,8,1:0:0:0:
170,132,298532,2,0,P|136:168|94:181,1,90,0|0,0:0|0:0,0:0:0:0:
14,355,298817,6,0,P|53:314|115:296,1,107.999996704102,4|0,0:2|3:0,0:0:0:0:
328,294,299103,2,0,B|293:304|272:339|272:339|222:301|231:234|284:207,1,215.999993408203,8|0,3:0|0:0,0:0:0:0:
477,119,299532,1,8,1:0:0:0:
372,144,299674,1,0,1:0:0:0:
313,45,299817,2,0,B|280:29|280:29|208:69,1,107.999996704102,0|0,0:0|0:0,0:0:0:0:
183,200,300103,5,0,1:0:0:0:
297,250,300246,1,0,0:0:0:0:
284,125,300389,1,0,0:0:0:0:
219,338,300532,1,0,1:0:0:0:
394,228,300674,5,0,1:0:0:0:
297,250,300817,1,0,0:0:0:0:
375,343,300960,1,0,0:0:0:0:
323,123,301103,2,0,L|313:63,1,53.9999983520508
311,0,301246,6,0,L|329:94,1,89.9999976158143,4|0,3:2|0:0,0:0:0:0:
104,60,301532,2,0,B|150:68|184:58|173:50|205:24|237:24,1,134.999996423721,2|0,0:0|0:0,0:0:0:0:
239,46,301817,1,0,3:0:0:0:
455,126,301960,2,0,P|472:88|436:62,1,89.9999976158143,8|0,0:0|0:0,0:0:0:0:
323,123,302246,1,0,0:0:0:0:
278,189,302389,5,0,3:0:0:0:
224,189,302532,1,2,0:0:0:0:
193,169,302675,1,4,0:2:0:0:
188,145,302817,1,2,0:0:0:0:
87,133,302960,1,0,3:0:0:0:
97,211,303103,2,0,L|112:297,1,71.9999980926514,8|0,0:0|0:0,0:0:0:0:
246,284,303389,6,0,B|234:276|234:276|105:302,1,143.999996185303,2|0,0:0|0:0,0:0:0:0:
315,351,303817,2,0,L|395:336,1,71.9999980926514,2|0,0:0|0:0,0:0:0:0:
219,369,304103,1,0,3:0:0:0:
392,323,304246,2,0,B|413:322|413:322|471:341,1,71.9999980926514,10|0,0:0|0:0,0:0:0:0:
332,261,304532,1,2,0:0:0:0:
377,190,304675,5,0,0:0:0:0:
430,182,304817,1,2,0:0:0:0:
458,203,304960,1,4,0:2:0:0:
451,182,305103,1,10,0:0:0:0:
466,157,305389,5,2,0:0:0:0:
400,111,305532,1,2,0:0:0:0:
412,32,305675,1,2,0:0:0:0:
341,25,305817,6,0,P|380:25|404:-5,1,71.9999980926514
473,98,306103,2,0,P|412:95|354:160,1,143.999996185303,10|0,0:0|3:0,0:0:0:0:
248,188,306532,2,0,P|211:192|177:175,1,71.9999980926514,2|0,0:0|0:0,0:0:0:0:
95,91,306817,1,0,0:0:0:0:
150,24,306960,5,0,0:0:0:0:
209,76,307103,1,2,0:0:0:0:
200,113,307246,5,2,0:3:0:0:
173,122,307389,1,2,0:0:0:0:
120,181,307532,1,0,3:0:0:0:
102,166,307675,1,10,0:0:0:0:
23,175,307817,1,0,0:0:0:0:
54,102,307960,1,2,0:0:0:0:
102,166,308103,6,0,P|100:204|79:233,1,71.9999980926514
54,102,308389,2,0,P|106:141|104:231,1,143.999996185303,10|0,0:0|0:0,0:0:0:0:
24,350,308817,2,0,P|26:314|59:314,1,71.9999980926514,2|0,0:0|0:0,0:0:0:0:
106,373,309103,1,0,0:0:0:0:
172,329,309246,5,0,0:0:0:0:
217,318,309389,1,2,0:0:0:0:
245,329,309532,1,2,0:3:0:0:
258,343,309675,1,10,0:0:0:0:
263,359,309960,5,2,0:0:0:0:
307,328,310103,1,2,0:0:0:0:
384,313,310246,2,0,P|431:310|492:342,1,107.999993843079,2|0,0:0|0:0,0:0:0:0:
328,251,310675,2,0,P|273:246|230:218,1,107.999993843079,2|0,0:3|0:0,0:0:0:0:
135,204,311103,2,0,B|125:200|125:200|71:212,2,53.9999969215394
10,137,311532,5,2,0:0:0:0:
72,134,311675,1,0,0:0:0:0:
105,109,311817,1,2,0:0:0:0:
111,81,311960,1,0,0:0:0:0:
27,6,312103,2,0,B|35:64,1,53.9999969215394,2|0,0:3|0:0,0:0:0:0:
182,60,312389,1,0,0:0:0:0:
182,60,312532,6,0,B|174:2,1,53.9999969215394,2|0,0:0|0:0,0:0:0:0:
274,109,312817,1,0,0:0:0:0:
308,33,312960,2,0,P|253:29|206:61,1,107.999993843079,2|0,0:0|0:0,0:0:0:0:
363,118,313389,1,2,0:0:0:0:
447,98,313532,2,0,P|467:78|475:48,1,53.9999969215394,0|2,0:0|0:0,0:0:0:0:
392,33,313817,5,0,0:0:0:0:
363,118,313960,1,2,0:0:0:0:
438,116,314103,1,2,0:3:0:0:
415,176,314246,1,2,0:0:0:0:
445,136,314389,1,0,0:0:0:0:
457,179,314532,1,2,0:0:0:0:
460,151,314675,2,0,L|450:207,1,53.9999969215394
459,317,314960,5,0,0:0:0:0:
471,314,315103,1,0,0:0:0:0:
483,302,315246,2,0,B|467:308|467:308|391:287|391:287|369:296,1,107.999993843079,2|0,0:0|0:0,0:0:0:0:
312,326,315675,1,2,0:0:0:0:
312,326,315817,2,0,L|322:388,1,53.9999969215394
221,278,316103,6,0,L|237:218,2,53.9999969215394,0|2|0,0:0|0:0|0:0,0:0:0:0:
286,168,316532,1,2,0:0:0:0:
177,174,316675,5,0,3:0:0:0:
177,174,316817,1,0,3:0:0:0:
156,93,316960,1,0,0:0:0:0:
86,57,317103,1,2,0:0:0:0:
37,137,317246,6,0,L|104:129,1,53.9999969215394,0|0,3:0|0:0,0:0:0:0:
200,39,317532,2,0,L|93:51,1,107.999993843079,2|0,0:0|3:0,0:0:0:0:
30,152,317960,1,10,0:0:0:0:
38,200,318103,1,0,0:0:0:0:
108,238,318246,1,2,0:0:0:0:
86,342,318389,5,0,0:0:0:0:
169,331,318532,1,2,0:0:0:0:
231,253,318675,1,8,0:0:0:0:
199,142,318817,2,0,P|173:136|176:155,1,53.9999969215394,2|2,0:0|0:3,0:0:0:0:
281,180,319103,5,0,0:0:0:0:
307,175,319246,1,0,0:0:0:0:
379,161,319389,1,2,0:0:0:0:
