osu file format v14

[General]
AudioFilename: audio.mp3
AudioLeadIn: 0
PreviewTime: 76688
Countdown: 0
SampleSet: Soft
StackLeniency: 0.2
Mode: 0
LetterboxInBreaks: 0
WidescreenStoryboard: 1

[Editor]
Bookmarks: 1786,11737,21103,30469,39835,49193,49201,58558,67930,77150,86656,96022,105388,114753,123973,133485,142851,154412,163924,173290,182656,192022,201388,210753,220119,229485,238851
DistanceSpacing: 1.3
BeatDivisor: 4
GridSize: 4
TimelineZoom: 1

[Metadata]
Title:Yakudou
TitleUnicode:躍動
Artist:Sakamoto Maaya
ArtistUnicode:坂本真綾
Creator:Nyukai
Version:Rebellion
Source:Fate/Grand Order -Cosmos in the Lostbelt-
Tags:TYPE-MOON FGO PROJECT f/go game videogame video game japanese jpop pop j-pop arc 2 part full version opening collab collaboration akareh thesea pikaqours
BeatmapID:2897630
BeatmapSetID:1405040

[Difficulty]
HPDrainRate:6
CircleSize:4.3
OverallDifficulty:8
ApproachRate:9
SliderMultiplier:1.6
SliderTickRate:1

[Events]
//Background and Video events
0,0,"bg.jpg",0,0
//Break Periods
//Storyboard Layer 0 (Background)
//Storyboard Layer 1 (Fail)
//Storyboard Layer 2 (Pass)
//Storyboard Layer 3 (Foreground)
//Storyboard Layer 4 (Overlay)
//Storyboard Sound Samples

[TimingPoints]
1176,292.682926829269,4,2,1,50,1,0
1761,-133.333333333333,4,2,1,50,0,0
18736,-133.333333333333,4,2,1,60,0,0
21078,-100,4,2,1,80,0,0
39810,-133.333333333333,4,2,1,60,0,0
44493,-117.647058823529,4,2,1,70,0,0
58541,-133.333333333333,4,2,1,60,0,0
67907,-105.263157894737,4,2,1,70,0,0
69883,-105.263157894737,4,2,1,5,0,0
69956,-105.263157894737,4,2,1,70,0,0
74932,-181.818181818181,4,2,1,70,0,0
76395,-181.818181818181,4,2,1,5,0,0
76688,-100,4,2,1,70,0,0
77127,-100,4,2,1,80,0,1
86566,-100,4,2,1,80,0,0
86639,-100,4,2,1,80,0,1
96005,-100,4,2,1,80,0,0
100615,-100,4,2,1,5,0,0
100688,-100,4,2,1,80,0,0
102956,-100,4,2,1,5,0,0
103029,-100,4,2,1,80,0,0
107639,-100,4,2,1,5,0,0
107712,-100,4,2,1,80,0,0
109980,-100,4,2,1,5,0,0
110054,-100,4,2,1,80,0,0
114590,-133.333333333333,4,2,1,70,0,0
117078,-117.647058823529,4,2,1,70,0,0
133468,-133.333333333333,4,2,1,50,0,0
141663,-181.818181818181,4,2,1,50,0,0
142249,-133.333333333333,4,2,1,50,0,0
142834,-117.647058823529,4,2,1,70,0,0
149858,-181.818181818181,4,2,1,50,0,0
153956,-100,4,2,1,60,0,0
154395,-100,4,2,1,80,0,1
163834,-100,4,2,1,80,0,0
163907,-100,4,2,1,80,0,1
173273,-100,4,2,1,80,0,0
182858,-100,4,2,1,5,0,0
182932,-100,4,2,1,80,0,0
183883,-100,4,2,1,5,0,0
183956,-100,4,2,1,80,0,0
184468,-100,4,2,1,5,0,0
184541,-100,4,2,1,80,0,0
192005,-133.333333333333,4,2,1,50,0,0
209566,-133.333333333333,4,2,1,60,0,0
210590,-100,4,2,1,80,0,1
220029,-100,4,2,1,80,0,0
220102,-100,4,2,1,80,0,1
229468,-133.333333333333,4,2,1,60,0,0
231810,-100,4,2,1,80,0,0
234151,-100,4,2,1,70,0,0

[Colours]
Combo1 : 255,210,240
Combo2 : 130,114,161
SliderBorder : 130,114,161
SliderTrackOverride : 255,210,240

[HitObjects]
256,120,1761,5,2,0:0:0:0:
272,124,2054,1,0,0:0:0:0:
288,128,2346,6,0,B|332:128|332:128|360:144|360:144|408:144,1,120.000004577637,2|0,0:0|0:0,0:0:0:0:
403,144,2932,1,0,0:0:0:0:
366,282,3224,2,0,P|254:322|142:282,1,240.000009155274,2|0,0:0|0:0,0:0:0:0:
32,192,4102,2,0,L|92:80,1,120.000004577637,2|0,0:0|0:0,0:0:0:0:
200,177,4688,2,0,L|140:289,1,120.000004577637,2|0,0:0|0:0,0:0:0:0:
208,312,5127,1,0,0:0:0:0:
272,344,5273,2,0,B|325:361|325:321|389:341,2,120.000004577637,0|2|0,0:0|0:0|0:0,0:0:0:0:
143,282,6151,1,0,0:0:0:0:
256,192,6444,5,2,0:0:0:0:
369,282,6736,1,0,0:0:0:0:
369,282,7029,2,0,B|393:226|393:226|369:170,1,120.000004577637,2|0,0:0|0:0,0:0:0:0:
256,80,7615,1,0,0:0:0:0:
256,80,7907,2,0,B|136:32|136:128|16:80,1,240.000009155274,2|2,0:0|0:0,0:0:0:0:
24,228,8785,2,0,P|4:283|24:339,1,120.000004577637,2|2,0:0|0:0,0:0:0:0:
156,276,9371,6,0,L|276:260,1,120.000004577637,2|0,0:0|0:0,0:0:0:0:
256,192,9810,2,0,L|136:208,1,120.000004577637,2|0,0:0|0:0,0:0:0:0:
68,192,10249,1,2,0:0:0:0:
136,64,10541,1,2,0:0:0:0:
136,64,10688,2,0,B|188:64|224:32|224:32|320:32,1,180.000006866455,2|2,0:0|0:0,0:0:0:0:
308,32,11419,1,0,0:0:0:0:
308,32,11712,6,0,P|325:94|307:152,1,120.000004577637,2|0,0:0|0:0,0:0:0:0:
344,286,12297,1,2,0:0:0:0:
344,287,12590,2,0,B|295:298|249:276|257:267|207:247|167:273,1,180.000006866455,2|0,0:0|0:0,0:0:0:0:
170,270,13176,2,0,P|131:298|51:285,1,120.000004577637,2|0,0:0|0:0,0:0:0:0:
42,148,13761,2,0,B|92:165|98:219|98:219|117:177|177:170,1,180.000006866455,2|0,0:0|0:0,0:0:0:0:
163,172,14346,2,0,L|294:169,1,120.000004577637,2|0,0:0|0:0,0:0:0:0:
410,100,14932,6,0,B|460:175|460:175|403:264,1,180.000006866455,2|0,0:0|0:0,0:0:0:0:
412,250,15517,1,0,0:0:0:0:
337,344,15810,2,0,P|277:316|216:328,1,120.000004577637,2|0,0:0|0:0,0:0:0:0:
154,288,16249,1,0,0:0:0:0:
154,288,16395,2,0,P|109:304|30:279,1,120.000004577637,2|0,0:0|0:0,0:0:0:0:
102,196,16834,6,0,L|115:62,1,120.000004577637,2|0,0:0|0:0,0:0:0:0:
113,76,17273,1,0,0:0:0:0:
201,45,17419,2,0,L|191:165,1,120.000004577637,2|0,0:0|0:0,0:0:0:0:
233,223,17858,1,0,0:0:0:0:
294,185,18005,2,0,P|337:174|416:205,1,120.000004577637,2|0,0:0|0:0,0:0:0:0:
469,327,18590,5,0,0:0:0:0:
469,327,18736,2,0,B|435:312|404:327|420:335|381:346|339:319,1,120.000004577637,2|0,0:0|0:0,0:0:0:0:
285,353,19176,2,0,P|233:331|164:333,1,120.000004577637,2|0,0:0|0:0,0:0:0:0:
40,312,19615,1,0,0:0:0:0:
20,221,19761,2,0,P|72:237|140:202,1,120.000004577637,2|0,0:0|0:0,0:0:0:0:
7,133,20200,1,0,0:0:0:0:
81,66,20346,6,0,P|99:115|99:146,1,60.0000022888184,2|0,0:0|0:0,0:0:0:0:
130,213,20639,2,0,P|112:254|105:287,1,60.0000022888184,2|0,0:0|0:0,0:0:0:0:
190,318,20932,1,2,0:0:0:0:
185,157,21078,6,0,P|256:127|327:159,1,160,4|8,3:2|0:0,0:0:0:0:
256,224,21517,1,0,0:0:0:0:
327,159,21663,2,0,P|342:123|327:87,1,80,2|0,3:2|3:0,0:0:0:0:
185,157,21956,2,0,P|169:121|184:85,1,80,8|0,0:0|3:0,0:0:0:0:
327,87,22249,6,0,B|399:123|399:123|471:87,1,160,2|8,3:2|0:0,0:0:0:0:
396,28,22688,1,0,0:0:0:0:
292,160,22834,2,0,L|380:204,1,80,2|0,3:2|3:0,0:0:0:0:
428,264,23127,2,0,L|356:299,1,80,8|0,0:0|0:0,0:0:0:0:
151,315,23419,6,0,B|101:303|75:271|75:271|3:271,1,160,4|8,3:2|0:0,0:0:0:0:
4,271,23858,1,0,0:0:0:0:
144,216,24005,2,0,P|180:231|216:216,1,80,2|0,3:2|3:0,0:0:0:0:
257,129,24297,1,8,0:0:0:0:
257,129,24444,1,0,3:0:0:0:
295,215,24590,6,0,L|392:360,1,160,2|8,3:2|0:0,0:0:0:0:
384,349,25029,1,0,0:0:0:0:
444,272,25176,2,0,L|396:196,1,80,2|0,3:2|3:0,0:0:0:0:
453,124,25468,2,0,L|496:192,1,80,10|0,0:0|0:0,0:0:0:0:
384,349,25761,6,0,B|344:349|312:317|312:317|280:349|240:349,1,160,4|8,3:2|0:0,0:0:0:0:
384,349,26200,1,0,0:0:0:0:
241,348,26346,2,0,B|221:312|221:312|239:278,1,80,0|0,3:2|3:0,0:0:0:0:
385,279,26639,2,0,B|403:312|403:312|383:348,1,80,8|0,0:0|3:0,0:0:0:0:
239,278,26932,6,0,L|75:270,1,160,2|8,3:2|0:0,0:0:0:0:
79,270,27371,1,0,0:0:0:0:
10,170,27517,2,0,B|46:190|46:190|80:172,1,80,2|0,3:2|3:0,0:0:0:0:
149,77,27810,2,0,B|113:57|113:57|80:76,1,80,10|0,0:0|0:0,0:0:0:0:
180,168,28102,6,0,B|257:191|257:143|337:167,1,160,4|8,3:2|0:0,0:0:0:0:
432,288,28541,1,2,0:0:0:0:
336,167,28688,1,2,3:2:0:0:
340,316,28834,1,0,3:0:0:0:
432,192,28980,1,8,0:0:0:0:
276,244,29127,1,0,3:0:0:0:
432,192,29273,6,0,P|447:155|432:119,1,80,2|0,3:2|3:0,0:0:0:0:
336,239,29566,2,0,P|320:203|336:167,1,80,8|0,0:0|0:0,0:0:0:0:
352,60,29858,2,0,L|300:56,1,40,2|0,3:2|3:2,3:2:0:0:
236,116,30005,2,0,L|276:120,1,40,8|0,3:2|3:2,3:2:0:0:
199,56,30151,2,0,L|160:60,1,40,8|0,3:2|3:2,3:2:0:0:
108,116,30297,1,10,3:2:0:0:
28,81,30444,6,0,B|0:133|30:176|45:169|52:206|29:252,1,160,4|8,3:2|0:0,0:0:0:0:
8,326,30883,1,0,0:0:0:0:
8,326,31029,2,0,L|93:320,1,80,2|0,3:2|3:0,0:0:0:0:
168,268,31322,2,0,P|186:311|180:352,1,80,8|0,0:0|3:0,0:0:0:0:
308,384,31615,2,0,P|306:344|323:308,1,80,2|0,3:2|0:0,0:0:0:0:
446,353,31907,2,0,B|463:337|463:337|402:333,1,80,8|2,0:0|0:0,0:0:0:0:
373,235,32200,6,0,P|363:182|368:155,1,80,0|0,3:2|3:0,0:0:0:0:
351,61,32493,2,0,P|316:89|260:94,1,80,10|0,0:0|0:0,0:0:0:0:
230,177,32785,2,0,B|184:171|184:171|141:193|141:193|56:159,1,160,6|8,3:2|0:0,0:0:0:0:
138,91,33224,1,0,3:0:0:0:
42,20,33371,2,0,L|52:110,1,80,2|0,3:2|3:2,3:2:0:0:
0,199,33663,5,10,3:2:0:0:
0,296,33810,2,0,L|109:282,1,80,8|2,3:2|0:0,0:0:0:0:
157,341,34102,1,0,3:2:0:0:
275,290,34249,2,0,L|270:398,1,80,12|0,0:0|0:0,0:0:0:0:
164,257,34541,2,0,L|167:177,1,80,2|0,3:2|3:0,0:0:0:0:
227,101,34834,2,0,P|283:127|320:115,1,80,10|0,0:0|0:0,0:0:0:0:
378,225,35127,6,0,P|439:210|414:295,1,160,6|8,3:2|0:0,0:0:0:0:
364,342,35566,1,0,0:0:0:0:
282,291,35712,2,0,P|272:341|285:387,2,80,2|0|0,3:2|3:0|3:2,0:0:0:0:
223,214,36151,6,0,P|173:224|127:211,1,80,8|2,0:0|0:0,0:0:0:0:
66,275,36444,1,0,3:0:0:0:
162,380,36590,2,0,L|150:274,1,80,10|0,0:0|0:0,0:0:0:0:
66,275,36883,2,0,L|50:162,1,80,2|0,3:2|3:0,0:0:0:0:
126,131,37176,2,0,L|112:49,1,80,8|0,0:0|0:0,0:0:0:0:
112,52,37468,5,4,3:2:0:0:
202,85,37615,1,0,3:0:0:0:
298,49,37761,2,0,L|291:137,1,80,10|0,0:0|0:0,0:0:0:0:
224,206,38054,5,2,3:2:0:0:
341,230,38200,1,0,3:0:0:0:
197,308,38346,1,2,0:0:0:0:
96,351,38493,2,0,L|91:254,1,80,10|2,0:0|0:0,0:0:0:0:
207,314,38785,5,8,3:2:0:0:
76,371,38932,1,8,0:0:0:0:
76,371,39078,2,0,L|68:278,1,80,10|0,0:0|0:0,0:0:0:0:
53,163,39371,1,0,3:2:0:0:
134,241,39517,1,10,3:2:0:0:
207,314,39663,1,8,3:2:0:0:
256,192,39810,6,0,L|301:69,1,120.000004577637,4|8,3:2|0:0,0:0:0:0:
369,110,40249,2,0,L|327:222,1,120.000004577637,2|0,0:0|3:0,0:0:0:0:
327,222,40834,1,8,0:0:0:0:
312,300,40980,2,0,B|256:324|256:324|200:300,1,120.000004577637,0|10,3:0|0:0,0:0:0:0:
144,244,41419,1,2,0:0:0:0:
144,244,41566,2,0,P|116:256|88:244,1,60.0000022888184,0|0,3:0|0:0,0:0:0:0:
89,138,41858,2,0,P|117:128|144:140,1,60.0000022888184,8|4,0:0|3:2,0:0:0:0:
211,223,42151,6,0,B|267:245|267:197|327:221,1,120.000004577637,2|8,3:2|0:0,0:0:0:0:
416,294,42590,2,0,B|356:270|356:318|300:296,1,120.000004577637,2|0,0:0|3:0,0:0:0:0:
211,223,43029,1,2,0:0:0:0:
160,164,43176,1,8,0:0:0:0:
211,105,43322,2,0,B|251:105|251:105|283:85|283:85|339:85,1,120.000004577637,2|8,3:2|0:0,0:0:0:0:
380,140,43761,1,2,0:0:0:0:
380,140,43907,2,0,B|408:128|408:128|436:140,1,60.0000022888184,0|0,3:0|0:0,0:0:0:0:
436,244,44200,2,0,B|408:256|408:256|380:244,1,60.0000022888184,10|0,0:0|0:0,0:0:0:0:
288,144,44493,6,0,P|256:132|224:144,1,68.0000012969971,4|0,3:2|3:0,0:0:0:0:
225,241,44785,2,0,P|256:251|288:240,1,68.0000012969971,8|0,0:0|0:0,0:0:0:0:
286,81,45078,2,0,P|276:112|288:144,1,68.0000012969971,2|0,3:2|3:0,0:0:0:0:
380,244,45371,2,0,P|390:212|378:181,1,68.0000012969971,0|8,3:0|0:0,0:0:0:0:
287,80,45663,6,0,L|209:85,1,68.0000012969971,2|0,3:2|3:0,0:0:0:0:
88,148,45956,2,0,L|156:144,1,68.0000012969971,8|0,0:0|0:0,0:0:0:0:
156,240,46249,2,0,L|88:235,1,68.0000012969971,2|0,3:2|3:0,0:0:0:0:
219,299,46541,2,0,L|287:304,1,68.0000012969971,8|4,0:0|3:2,0:0:0:0:
380,244,46834,6,0,B|380:204|400:180|400:180|380:156|380:116,1,136.000002593994,2|8,3:2|0:0,0:0:0:0:
320,52,47273,1,0,0:0:0:0:
256,116,47419,2,0,P|225:126|193:114,1,68.0000012969971,2|0,3:2|3:0,0:0:0:0:
320,52,47712,2,0,P|351:42|383:54,1,68.0000012969971,8|2,0:0|0:0,0:0:0:0:
400,180,48005,5,2,3:2:0:0:
372,264,48151,1,0,3:0:0:0:
288,236,48297,1,8,0:0:0:0:
312,152,48444,1,2,0:0:0:0:
400,180,48590,2,0,L|484:216,1,68.0000012969971,2|0,3:2|3:0,0:0:0:0:
288,236,48883,2,0,L|204:200,1,68.0000012969971,8|4,0:0|3:2,0:0:0:0:
150,175,49176,6,0,B|136:209|136:209|153:259,1,68.0000012969971,4|0,3:2|3:2,0:0:0:0:
216,326,49468,2,0,L|72:312,1,136.000002593994,8|0,0:0|3:2,0:0:0:0:
9,216,49907,1,0,3:0:0:0:
150,175,50054,1,2,0:0:0:0:
56,120,50200,2,0,P|56:77|125:108,1,136.000002593994,8|0,0:0|3:0,0:0:0:0:
150,175,50639,6,0,L|248:158,1,68.0000012969971,8|0,0:0|0:0,0:0:0:0:
306,125,50932,2,0,B|317:161|317:161|301:218,1,68.0000012969971,2|0,3:2|3:0,0:0:0:0:
241,306,51224,2,0,B|231:278|231:278|242:242,1,68.0000012969971,8|4,0:0|3:2,0:0:0:0:
327,364,51517,2,0,B|339:319|326:279|326:279|347:312|390:314,1,136.000002593994,2|8,3:2|0:0,0:0:0:0:
435,372,51956,1,0,0:0:0:0:
435,372,52102,2,0,P|454:312|448:292,2,68.0000012969971,0|0|2,3:2|3:0|0:0,0:0:0:0:
365,310,52541,6,0,L|356:233,1,68.0000012969971,8|2,0:0|0:0,0:0:0:0:
346,165,52834,1,0,3:0:0:0:
460,216,52980,2,0,L|451:139,1,68.0000012969971,8|0,0:0|0:0,0:0:0:0:
396,62,53273,2,0,P|339:89|310:88,1,68.0000012969971,2|0,3:2|3:0,0:0:0:0:
310,121,53493,1,2,0:0:0:0:
310,121,53566,2,0,L|231:112,1,68.0000012969971,10|4,0:0|3:2,0:0:0:0:
150,71,53858,6,0,B|138:105|138:105|150:154,1,68.0000012969971,2|0,3:2|3:0,0:0:0:0:
220,224,54151,2,0,L|78:236,1,136.000002593994,8|0,0:0|3:0,0:0:0:0:
35,335,54590,2,0,L|130:324,1,68.0000012969971,0|2,3:0|0:0,0:0:0:0:
190,373,54883,2,0,P|198:332|182:288,1,68.0000012969971,8|2,0:0|3:2,0:0:0:0:
220,224,55176,1,0,3:0:0:0:
220,224,55322,2,0,P|212:183|228:139,1,68.0000012969971,8|0,0:0|0:0,0:0:0:0:
305,279,55615,2,0,L|388:269,1,68.0000012969971,2|0,3:2|3:0,0:0:0:0:
441,163,55907,2,0,L|356:156,1,68.0000012969971,8|4,0:0|3:2,0:0:0:0:
283,55,56200,6,0,L|298:203,1,136.000002593994,2|8,3:2|0:0,0:0:0:0:
296,190,56639,1,0,0:0:0:0:
220,239,56785,2,0,L|134:232,1,68.0000012969971,2|0,3:2|3:0,0:0:0:0:
80,287,57078,1,0,0:0:0:0:
7,216,57224,2,0,P|21:151|101:123,1,136.000002593994,8|0,0:0|3:0,0:0:0:0:
143,58,57663,2,0,P|176:80|213:79,1,68.0000012969971,8|0,0:0|0:0,0:0:0:0:
247,270,57956,6,0,P|297:249|330:248,1,68.0000012969971,2|0,3:2|3:0,0:0:0:0:
415,288,58249,2,0,L|421:211,1,68.0000012969971,8|0,0:0|0:0,0:0:0:0:
312,120,58541,6,0,P|256:100|200:120,1,120.000004577637,4|0,3:2|3:0,0:0:0:0:
168,192,58980,1,2,0:0:0:0:
168,192,59127,2,0,L|76:88,1,120.000004577637,2|0,3:2|3:0,0:0:0:0:
228,32,59566,1,0,0:0:0:0:
228,32,59712,6,0,P|283:51|339:31,1,120.000004577637,2|0,3:2|3:0,0:0:0:0:
400,80,60151,1,2,0:0:0:0:
460,132,60297,2,0,P|470:159|458:186,1,60.0000022888184,0|0,3:0|0:0,0:0:0:0:
381,246,60590,2,0,P|369:219|380:192,1,60.0000022888184,2|0,3:2|0:0,0:0:0:0:
400,80,60883,6,0,B|372:40|332:40|332:40|284:40,1,120.000004577637,2|0,3:2|3:0,0:0:0:0:
217,40,61322,1,2,0:0:0:0:
256,108,61468,2,0,L|256:168,1,60.0000022888184,0|0,3:0|0:0,0:0:0:0:
336,224,61761,2,0,L|336:164,1,60.0000022888184,0|0,3:2|0:0,0:0:0:0:
256,108,62054,6,0,B|232:108|200:128|200:128|168:108|144:108,1,120.000004577637,2|0,3:2|3:0,0:0:0:0:
76,144,62493,1,0,0:0:0:0:
76,144,62566,1,2,0:0:0:0:
76,144,62639,2,0,L|40:200,1,60.0000022888184,2|0,3:2|0:0,0:0:0:0:
71,294,62932,2,0,L|104:244,1,60.0000022888184,0|0,3:0|0:0,0:0:0:0:
200,128,63224,6,0,B|224:128|256:108|256:108|288:128|312:128,1,120.000004577637,2|0,3:2|3:0,0:0:0:0:
376,172,63663,1,0,0:0:0:0:
444,208,63810,2,0,B|476:208|476:208|516:236,1,60.0000022888184,2|0,3:2|0:0,0:0:0:0:
476,300,64102,2,0,B|444:300|444:300|404:272,1,60.0000022888184,0|0,3:0|0:0,0:0:0:0:
376,172,64395,6,0,B|316:148|316:196|256:172,1,120.000004577637,2|0,3:2|3:0,0:0:0:0:
139,94,64834,1,0,0:0:0:0:
139,94,64980,2,0,B|199:70|199:118|256:96,1,120.000004577637,2|0,3:2|3:0,0:0:0:0:
332,80,65419,1,0,0:0:0:0:
408,64,65566,6,0,P|460:64|496:132,1,120.000004577637,2|0,3:2|3:0,0:0:0:0:
476,192,66005,1,2,0:0:0:0:
496,268,66151,2,0,P|465:317|408:320,1,120.000004577637,2|0,3:2|3:0,0:0:0:0:
256,284,66736,5,0,3:0:0:0:
77,68,67029,1,2,0:0:0:0:
77,68,67176,2,0,L|84:128,2,60.0000022888184,2|0|2,0:0|3:0|0:0,0:0:0:0:
156,64,67615,2,0,L|164:136,1,60.0000022888184,2|0,0:0|0:0,0:0:0:0:
228,211,67907,6,0,B|296:245|296:245|376:218,1,151.999995941162,4|8,3:2|0:0,0:0:0:0:
306,152,68346,1,0,0:0:0:0:
444,180,68493,2,0,P|455:234|449:255,1,75.9999979705811,2|0,3:2|0:0,0:0:0:0:
306,152,68785,1,0,0:0:0:0:
390,115,68932,2,0,P|401:61|395:40,1,75.9999979705811,8|2,0:0|0:0,0:0:0:0:
395,41,69224,1,0,3:0:0:0:
309,70,69371,2,0,L|226:70,1,75.9999979705811,8|0,0:0|0:0,0:0:0:0:
141,71,69663,6,0,B|145:122|145:122|156:133|156:133|164:208,1,113.999996955872,2|0,3:2|0:0,0:0:0:0:
191,204,69956,2,0,L|115:196,1,75.9999979705811,8|0,0:0|0:0,0:0:0:0:
30,319,70249,2,0,L|202:310,1,151.999995941162,6|8,3:2|0:0,0:0:0:0:
261,355,70688,1,2,0:0:0:0:
261,355,70834,2,0,P|272:301|265:275,1,75.9999979705811,0|0,3:0|3:0,0:0:0:0:
368,288,71127,1,2,0:0:0:0:
368,288,71273,2,0,P|357:234|364:208,1,75.9999979705811,8|2,0:0|3:2,0:0:0:0:
454,245,71566,1,0,3:0:0:0:
501,159,71712,6,0,L|419:158,1,75.9999979705811,8|0,0:0|0:0,0:0:0:0:
362,86,72005,2,0,L|280:85,1,75.9999979705811,2|0,3:2|3:0,0:0:0:0:
207,31,72297,1,8,0:0:0:0:
207,31,72444,1,0,0:0:0:0:
127,136,72590,6,0,P|147:188|148:217,1,75.9999979705811,6|0,3:2|0:0,0:0:0:0:
284,241,72883,2,0,P|264:293|263:322,1,75.9999979705811,8|0,0:0|0:0,0:0:0:0:
118,131,73176,6,0,P|138:183|139:212,1,75.9999979705811,2|0,3:2|3:0,0:0:0:0:
300,232,73469,2,0,P|280:284|279:313,1,75.9999979705811,8|8,0:0|0:0,0:0:0:0:
177,364,73761,6,0,L|77:354,1,75.9999979705811,2|0,0:0|3:0,0:0:0:0:
6,262,74054,2,0,L|81:269,1,75.9999979705811,8|0,0:0|0:0,0:0:0:0:
139,202,74346,1,2,3:2:0:0:
162,293,74493,1,0,3:0:0:0:
278,303,74639,1,8,0:0:0:0:
333,226,74785,1,0,3:0:0:0:
162,293,74932,5,4,3:2:0:0:
256,192,75005,12,0,76395,0:0:0:0:
491,228,76688,6,0,L|313:207,1,160,2|0,0:0|0:0,0:0:0:0:
256,128,77127,6,0,P|323:92|391:128,1,160,4|0,3:2|3:0,0:0:0:0:
492,156,77566,2,0,P|507:192|492:228,1,80,8|0,0:0|0:0,0:0:0:0:
391,327,77858,2,0,P|375:290|391:254,1,80,2|0,3:2|3:0,0:0:0:0:
391,128,78151,1,10,0:0:0:0:
391,128,78297,1,2,0:0:0:0:
256,192,78444,6,0,B|179:215|179:167|99:191,1,160,0|8,3:0|0:0,0:0:0:0:
20,121,78883,1,0,0:0:0:0:
20,263,79029,2,0,B|2:297|2:297|22:333,1,80,2|0,3:2|3:0,0:0:0:0:
99,190,79322,2,0,B|117:156|117:156|97:120,1,80,8|4,0:0|3:2,0:0:0:0:
184,60,79615,6,0,B|256:24|256:24|328:60,1,160,0|8,3:2|0:0,0:0:0:0:
256,136,80054,1,0,0:0:0:0:
184,60,80200,2,0,P|147:44|111:59,1,80,2|0,3:2|3:0,0:0:0:0:
39,163,80493,2,0,P|75:179|112:164,1,80,8|2,0:0|0:0,0:0:0:0:
256,136,80785,6,0,B|233:213|281:213|257:293,1,160,2|8,3:2|0:0,0:0:0:0:
328,180,81224,1,0,0:0:0:0:
184,248,81371,1,2,3:2:0:0:
128,112,81517,1,0,3:0:0:0:
264,56,81663,1,8,0:0:0:0:
264,56,81810,6,0,B|320:56|320:56|364:76|364:76|420:76,1,160,4|0,3:2|3:0,0:0:0:0:
484,158,82249,2,0,B|502:192|502:192|482:228,1,80,8|0,0:0|0:0,0:0:0:0:
374,298,82541,2,0,B|356:264|356:264|376:228,1,80,2|0,3:2|3:0,0:0:0:0:
368,80,82834,1,8,0:0:0:0:
256,192,82980,1,2,0:0:0:0:
144,80,83127,6,0,P|88:80|16:152,1,160,2|8,3:2|0:0,0:0:0:0:
16,149,83566,1,0,0:0:0:0:
112,316,83712,2,0,B|146:334|146:334|182:314,1,80,2|0,3:2|3:0,0:0:0:0:
291,218,84005,2,0,B|255:198|255:198|222:217,1,80,10|0,0:0|3:0,0:0:0:0:
329,313,84297,6,0,B|401:349|401:349|473:313,1,160,2|8,3:2|0:0,0:0:0:0:
472,313,84736,1,0,0:0:0:0:
291,218,84883,2,0,B|214:241|214:193|134:217,1,160,2|8,3:2|0:0,0:0:0:0:
256,152,85322,1,2,0:0:0:0:
176,284,85468,6,0,P|161:320|177:355,1,80,2|0,3:2|3:0,0:0:0:0:
334,355,85761,2,0,P|348:318|332:283,1,80,8|2,0:0|0:0,0:0:0:0:
256,152,86054,2,0,B|256:180|256:180|252:184|252:184|260:184|260:184|256:188|256:188|256:220,1,80,2|0,3:2|3:2,3:2:0:0:
180,212,86273,1,2,3:2:0:0:
180,212,86346,2,0,B|180:180|180:180|184:176|184:176|176:176|176:176|180:172|180:172|180:144,1,80,8|2,3:2|3:2,3:2:0:0:
136,84,86566,1,0,3:2:0:0:
136,84,86639,6,0,B|96:78|96:78|48:100,1,80,4|2,3:2|0:0,0:0:0:0:
0,224,86932,2,0,L|97:218,1,80,8|0,0:0|0:0,0:0:0:0:
180,212,87224,1,2,3:2:0:0:
85,304,87371,1,0,3:0:0:0:
256,336,87517,1,8,0:0:0:0:
163,369,87663,6,0,P|163:311|184:279,1,80,2|0,3:2|0:0,0:0:0:0:
289,243,87956,1,0,3:0:0:0:
408,278,88102,2,0,P|408:220|387:188,1,80,8|0,0:0|0:0,0:0:0:0:
313,143,88395,2,0,B|269:138|269:138|241:155|241:155|173:136,1,120,2|2,3:2|0:0,0:0:0:0:
199,143,88688,1,8,0:0:0:0:
327,64,88834,1,2,0:0:0:0:
225,73,88980,6,0,L|210:-9,1,80,4|0,3:2|0:0,0:0:0:0:
313,143,89273,2,0,L|328:61,1,80,8|0,0:0|0:0,0:0:0:0:
372,243,89566,1,2,3:2:0:0:
266,229,89712,1,0,3:0:0:0:
210,323,89858,1,8,0:0:0:0:
66,274,90005,6,0,L|170:267,1,80,2|0,3:2|0:0,0:0:0:0:
210,323,90297,1,0,3:0:0:0:
54,261,90444,2,0,L|158:254,1,80,8|0,0:0|0:0,0:0:0:0:
211,186,90736,2,0,P|219:137|200:88,1,80,2|0,3:2|3:0,0:0:0:0:
122,54,91029,2,0,L|123:157,1,80,8|0,0:0|0:0,0:0:0:0:
122,133,91249,1,2,0:0:0:0:
122,133,91322,6,0,P|70:145|36:126,1,80,4|0,3:2|3:0,0:0:0:0:
211,186,91615,2,0,L|290:180,1,80,8|2,0:0|0:0,0:0:0:0:
139,253,91907,1,0,3:0:0:0:
60,346,92054,2,0,B|89:333|108:344|106:348|124:359|160:341,1,80,0|8,3:0|0:0,0:0:0:0:
238,375,92346,2,0,P|238:328|211:289,1,80,8|2,0:0|0:0,0:0:0:0:
285,220,92639,1,0,3:0:0:0:
285,220,92785,2,0,P|285:173|312:134,1,80,8|0,0:0|0:0,0:0:0:0:
392,95,93078,5,2,3:2:0:0:
370,276,93224,1,0,3:0:0:0:
464,225,93371,1,10,0:0:0:0:
300,144,93517,1,0,3:0:0:0:
482,90,93663,6,0,B|467:46|480:6|480:6|446:32|387:6,1,160,4|8,3:2|0:0,0:0:0:0:
342,108,94102,1,0,0:0:0:0:
204,163,94249,2,0,B|253:184|285:172|285:172|250:196|232:245,1,160,2|2,3:2|0:0,0:0:0:0:
165,303,94688,1,8,0:0:0:0:
25,209,94834,6,0,L|105:217,1,80,2|0,0:0|3:0,0:0:0:0:
165,303,95127,2,0,L|260:293,1,80,12|0,0:0|0:0,0:0:0:0:
335,347,95419,6,0,L|383:357,3,40,2|0|8|0,3:2|3:2|3:2|3:2,3:2:0:0:
439,320,95712,2,0,P|434:288|437:259,1,40,8|0,3:2|3:2,3:2:0:0:
349,270,95858,2,0,P|354:238|351:209,1,40,8|2,3:2|3:2,3:2:0:0:
336,128,96005,5,4,3:2:0:0:
176,128,96151,1,0,0:0:0:0:
308,28,96297,1,8,0:0:0:0:
255,192,96444,1,0,0:0:0:0:
204,28,96590,2,0,P|167:12|131:28,1,80,2|0,3:2|3:0,0:0:0:0:
336,129,96883,2,0,P|372:143|408:128,1,80,8|8,0:0|0:0,0:0:0:0:
204,28,97176,5,2,3:2:0:0:
176,128,97322,1,0,3:0:0:0:
104,52,97468,1,8,0:0:0:0:
204,28,97615,1,0,0:0:0:0:
176,128,97761,2,0,L|200:216,1,80,2|0,3:2|3:0,0:0:0:0:
96,232,98054,2,0,L|74:154,1,80,8|0,0:0|0:0,0:0:0:0:
204,28,98346,6,0,B|281:51|281:3|361:27,1,160,4|8,3:2|0:0,0:0:0:0:
360,26,98785,1,0,0:0:0:0:
416,116,98932,2,0,P|453:100|489:116,1,80,2|0,3:2|3:0,0:0:0:0:
487,269,99224,2,0,P|450:285|414:269,1,80,8|0,0:0|3:0,0:0:0:0:
256,192,99517,5,2,3:2:0:0:
184,120,99663,1,0,3:0:0:0:
256,44,99810,1,8,0:0:0:0:
328,120,99956,1,0,0:0:0:0:
256,192,100102,2,0,L|204:260,1,80,2|0,3:2|3:0,0:0:0:0:
56,192,100395,2,0,B|64:152|64:152|52:116|52:116|64:72,1,120,8|0,0:0|0:0,0:0:0:0:
120,36,100688,6,0,B|154:18|154:18|190:38,1,80,4|0,3:2|0:0,0:0:0:0:
256,120,100980,1,8,0:0:0:0:
190,38,101127,1,2,0:0:0:0:
321,38,101273,1,0,3:0:0:0:
256,120,101419,1,0,3:0:0:0:
180,192,101566,2,0,P|165:228|181:263,1,80,2|8,0:0|0:0,0:0:0:0:
330,263,101858,6,0,P|346:228|332:192,1,80,2|0,3:2|3:0,0:0:0:0:
256,120,102151,1,8,0:0:0:0:
180,192,102297,1,0,0:0:0:0:
192,44,102444,1,2,3:2:0:0:
116,112,102590,1,0,3:0:0:0:
320,44,102736,2,0,P|372:44|432:88,1,120,8|0,0:0|0:0,0:0:0:0:
476,128,103029,6,0,L|428:208,1,80,4|0,3:2|0:0,0:0:0:0:
294,228,103322,2,0,L|336:160,1,80,8|0,0:0|0:0,0:0:0:0:
476,128,103615,1,2,3:2:0:0:
336,160,103761,1,0,3:0:0:0:
476,128,103907,2,0,P|491:92|477:56,1,80,2|8,0:0|0:0,0:0:0:0:
336,160,104200,2,0,P|321:196|337:231,1,80,2|0,3:2|3:0,0:0:0:0:
438,307,104493,2,0,P|454:272|440:236,1,80,8|0,0:0|0:0,0:0:0:0:
336,160,104785,6,0,L|296:120,1,40,2|0,3:2|3:2,3:2:0:0:
240,176,104932,2,0,L|268:204,1,40,8|0,3:2|3:2,3:2:0:0:
204,248,105078,2,0,L|164:208,1,40,10|0,3:2|3:2,3:2:0:0:
120,168,105224,1,8,3:2:0:0:
96,152,105297,1,8,0:0:0:0:
78,136,105371,6,0,P|46:145|-8:130,1,80,4|0,3:2|0:0,0:0:0:0:
24,236,105663,2,0,P|49:275|49:323,1,80,8|0,0:0|0:0,0:0:0:0:
144,362,105956,2,0,L|234:356,1,80,2|0,3:2|3:0,0:0:0:0:
328,351,106249,1,2,0:0:0:0:
212,264,106395,2,0,L|316:260,1,80,8|0,0:0|3:0,0:0:0:0:
396,257,106688,5,0,3:0:0:0:
245,173,106834,1,8,0:0:0:0:
352,138,106980,1,2,0:0:0:0:
396,257,107127,2,0,L|396:351,1,80,0|0,3:0|3:0,0:0:0:0:
507,360,107419,2,0,L|505:212,1,120,10|0,0:0|0:0,0:0:0:0:
504,223,107712,5,4,3:2:0:0:
396,242,107858,1,0,0:0:0:0:
505,138,108005,1,8,0:0:0:0:
388,146,108151,1,0,0:0:0:0:
318,74,108297,6,0,P|371:47|410:52,1,80,2|0,3:2|3:0,0:0:0:0:
388,146,108590,1,2,0:0:0:0:
306,210,108736,2,0,P|261:215|220:198,1,80,8|2,0:0|0:0,0:0:0:0:
134,159,109029,1,0,3:0:0:0:
61,233,109176,2,0,P|56:274|72:321,1,80,8|0,0:0|0:0,0:0:0:0:
154,365,109468,2,0,L|250:357,1,80,2|0,3:2|3:0,0:0:0:0:
149,274,109761,2,0,L|276:282,1,120,8|0,0:0|0:0,0:0:0:0:
290,298,110054,5,4,3:2:0:0:
372,361,110200,1,0,0:0:0:0:
454,298,110346,1,8,0:0:0:0:
410,203,110493,1,0,0:0:0:0:
317,207,110639,6,0,L|309:111,1,80,2|0,3:2|3:0,0:0:0:0:
303,23,110932,1,2,0:0:0:0:
229,180,111078,2,0,L|221:84,1,80,8|2,0:0|0:0,0:0:0:0:
139,36,111371,1,0,3:0:0:0:
34,149,111517,5,8,0:0:0:0:
141,168,111663,1,0,0:0:0:0:
93,281,111810,1,2,3:2:0:0:
219,260,111956,1,0,3:0:0:0:
310,349,112102,1,8,0:0:0:0:
436,373,112249,1,0,0:0:0:0:
436,373,112395,6,0,L|422:264,1,80,6|0,3:2|3:0,0:0:0:0:
330,274,112688,1,8,0:0:0:0:
462,221,112834,2,0,L|449:123,1,80,0|2,0:0|3:2,0:0:0:0:
425,293,113127,1,0,3:0:0:0:
283,202,113273,2,0,L|379:189,1,80,2|8,0:0|0:0,0:0:0:0:
234,135,113566,1,2,0:0:0:0:
295,57,113712,2,0,L|216:52,1,80,0|8,0:0|0:0,0:0:0:0:
135,115,114005,5,2,3:2:0:0:
76,192,114151,1,8,0:0:0:0:
177,214,114297,1,2,3:2:0:0:
177,214,114371,1,2,3:2:0:0:
177,214,114444,1,10,3:2:0:0:
256,144,114590,6,0,L|384:152,1,120.000004577637,4|0,3:2|3:0,0:0:0:0:
376,228,115029,2,0,L|256:220,1,120.000004577637,8|2,0:0|3:2,0:0:0:0:
100,192,115615,1,2,0:0:0:0:
100,192,115761,2,0,B|124:132|76:132|98:76,1,120.000004577637,8|0,0:0|3:0,0:0:0:0:
176,72,116200,2,0,B|152:132|200:132|178:188,1,120.000004577637,8|2,0:0|3:2,0:0:0:0:
220,256,116639,1,0,3:0:0:0:
292,256,116785,1,10,0:0:0:0:
333,187,116932,1,4,3:2:0:0:
333,187,117078,6,0,P|400:188|448:248,1,136.000002593994,2|8,3:2|0:0,0:0:0:0:
403,304,117517,1,0,0:0:0:0:
403,304,117663,2,0,P|336:303|288:243,1,136.000002593994,2|8,3:2|0:0,0:0:0:0:
256,180,118102,1,8,0:0:0:0:
256,180,118249,2,0,B|216:148|216:148|164:144|164:144|128:120,1,136.000002593994,2|8,3:2|0:0,0:0:0:0:
76,72,118688,1,2,3:2:0:0:
136,125,118834,2,0,L|105:185,1,68.0000012969971,0|0,3:0|3:0,0:0:0:0:
200,72,119127,1,8,0:0:0:0:
200,72,119273,6,0,B|248:72|276:48|276:48|352:48,1,136.000002593994,4|0,3:2|3:0,0:0:0:0:
430,100,119712,2,0,B|382:100|354:124|354:124|300:124,1,136.000002593994,8|2,0:0|3:2,0:0:0:0:
152,192,120297,1,2,0:0:0:0:
152,192,120444,2,0,P|132:255|152:319,1,136.000002593994,8|0,0:0|3:0,0:0:0:0:
256,348,120883,1,8,0:0:0:0:
256,348,121029,1,0,3:0:0:0:
359,319,121176,1,2,3:2:0:0:
359,319,121322,1,0,3:0:0:0:
256,348,121468,2,0,L|256:264,1,68.0000012969971,8|4,0:0|0:0,0:0:0:0:
256,104,121761,6,0,B|304:104|304:104|344:116|344:116|404:116,1,136.000002593994,2|8,3:2|0:0,0:0:0:0:
420,192,122200,1,0,0:0:0:0:
390,268,122346,2,0,B|344:268|344:268|304:280|304:280|256:280,1,136.000002593994,2|8,3:2|0:0,0:0:0:0:
184,240,122785,1,8,0:0:0:0:
184,240,122932,2,0,P|120:259|56:239,1,136.000002593994,2|8,3:2|0:0,0:0:0:0:
88,56,123371,1,0,0:0:0:0:
124,180,123517,1,2,3:2:0:0:
168,56,123663,1,0,3:0:0:0:
56,132,123810,1,8,0:0:0:0:
192,132,123956,6,0,P|237:139|328:102,1,136.000002593994,4|0,3:2|3:0,0:0:0:0:
388,52,124395,2,0,L|403:133,1,68.0000012969971,8|0,0:0|0:0,0:0:0:0:
307,41,124688,2,0,L|322:122,1,68.0000012969971,2|0,3:2|3:0,0:0:0:0:
341,197,124980,1,2,0:0:0:0:
426,285,125127,2,0,L|275:267,1,136.000002593994,8|0,0:0|3:0,0:0:0:0:
222,223,125566,6,0,P|208:263|212:296,1,68.0000012969971,8|0,0:0|0:0,0:0:0:0:
151,344,125858,2,0,P|118:331|72:333,1,68.0000012969971,0|0,3:0|3:0,0:0:0:0:
39,262,126151,2,0,L|26:164,1,68.0000012969971,8|6,0:0|3:2,0:0:0:0:
131,237,126444,2,0,L|113:97,1,136.000002593994,2|8,3:2|0:0,0:0:0:0:
164,37,126883,1,0,0:0:0:0:
164,37,127029,2,0,P|208:77|284:70,1,136.000002593994,2|0,3:2|0:0,0:0:0:0:
336,131,127468,1,8,0:0:0:0:
413,217,127615,6,0,L|259:200,1,136.000002593994,2|8,3:2|0:0,0:0:0:0:
201,232,128054,1,0,0:0:0:0:
201,232,128200,2,0,P|196:189|205:166,1,68.0000012969971,2|0,3:2|3:0,0:0:0:0:
271,281,128493,1,8,0:0:0:0:
271,281,128639,2,0,P|217:315|141:288,1,136.000002593994,6|0,3:2|3:0,0:0:0:0:
49,262,129078,6,0,L|58:346,1,68.0000012969971,8|0,0:0|0:0,0:0:0:0:
150,297,129371,2,0,L|142:229,1,68.0000012969971,2|0,0:0|3:0,0:0:0:0:
37,123,129663,1,2,0:0:0:0:
37,123,129810,2,0,P|74:145|164:122,1,136.000002593994,8|0,0:0|3:0,0:0:0:0:
231,86,130249,2,0,P|241:133|235:163,1,68.0000012969971,8|0,0:0|3:0,0:0:0:0:
319,151,130541,2,0,P|308:197|290:222,1,68.0000012969971,2|0,3:2|3:0,0:0:0:0:
327,290,130834,2,0,L|237:283,1,68.0000012969971,8|4,0:0|3:2,0:0:0:0:
165,227,131127,6,0,L|182:371,1,136.000002593994,2|8,3:2|0:0,0:0:0:0:
75,331,131566,1,0,0:0:0:0:
75,331,131712,2,0,L|59:195,1,136.000002593994,2|0,3:2|0:0,0:0:0:0:
124,108,132151,1,8,0:0:0:0:
124,108,132297,2,0,P|127:63|113:39,1,68.0000012969971,2|0,0:0|3:0,0:0:0:0:
43,87,132590,5,8,0:0:0:0:
58,197,132736,1,0,0:0:0:0:
170,274,132883,2,0,L|155:176,1,68.0000012969971,2|0,3:2|3:0,0:0:0:0:
240,89,133176,2,0,L|250:156,1,68.0000012969971,10|0,0:0|0:0,0:0:0:0:
356,248,133468,6,0,P|376:192|356:136,1,120.000004577637,4|0,3:2|3:0,0:0:0:0:
256,16,134054,1,0,3:0:0:0:
155,136,134346,2,0,P|136:192|156:248,1,120.000004577637,0|2,3:2|3:2,0:0:0:0:
256,368,134932,1,0,3:0:0:0:
312,316,135078,2,0,L|384:304,1,60.0000022888184,2|0,0:0|3:0,0:0:0:0:
448,288,135371,1,0,0:0:0:0:
356,228,135517,2,0,L|284:240,1,60.0000022888184,2|0,3:2|0:0,0:0:0:0:
155,247,135810,6,0,B|123:247|99:267|99:267|75:247|43:247,1,120.000004577637,2|0,3:2|3:0,0:0:0:0:
44,136,136249,1,0,0:0:0:0:
44,136,136395,2,0,B|75:137|99:117|99:117|123:137|155:137,1,120.000004577637,2|0,3:2|3:0,0:0:0:0:
300,192,136980,1,0,3:0:0:0:
256,340,137273,1,0,3:0:0:0:
212,192,137566,2,0,P|199:165|209:137,1,60.0000022888184,2|0,3:2|0:0,0:0:0:0:
302,137,137858,2,0,P|312:165|300:192,1,60.0000022888184,2|0,3:2|0:0,0:0:0:0:
256,256,138151,6,0,P|236:311|256:367,1,120.000004577637,2|0,3:2|3:0,0:0:0:0:
312,312,138590,1,2,0:0:0:0:
312,312,138736,2,0,B|372:288|372:336|429:314,1,120.000004577637,0|0,3:2|3:0,0:0:0:0:
316,208,139176,1,2,0:0:0:0:
316,208,139322,2,0,B|256:232|256:184|199:206,1,120.000004577637,0|0,3:2|3:0,0:0:0:0:
124,192,139761,2,0,P|97:204|69:194,1,60.0000022888184,2|0,0:0|3:0,0:0:0:0:
69,194,140054,1,0,0:0:0:0:
68,116,140200,2,0,P|94:103|122:113,1,60.0000022888184,2|0,3:2|0:0,0:0:0:0:
160,100,140419,1,2,0:0:0:0:
160,100,140493,6,0,P|208:100|272:56,1,120.000004577637,2|0,3:2|3:0,0:0:0:0:
344,40,140932,1,2,0:0:0:0:
344,40,141078,2,0,P|392:40|456:84,1,120.000004577637,2|0,3:2|3:0,0:0:0:0:
476,152,141517,1,0,0:0:0:0:
476,152,141663,6,0,L|420:272,1,132.00000402832,2|0,3:2|0:0,0:0:0:0:
372,336,142249,1,2,0:0:0:0:
256,232,142541,1,2,0:0:0:0:
100,317,142834,6,0,B|166:346|166:346|234:318,1,136.000002593994,4|8,3:2|0:0,0:0:0:0:
168,253,143273,1,0,0:0:0:0:
88,202,143419,2,0,L|88:122,1,68.0000012969971,2|0,3:2|3:0,0:0:0:0:
168,253,143712,1,0,0:0:0:0:
274,159,143858,2,0,L|274:79,1,68.0000012969971,8|2,0:0|0:0,0:0:0:0:
180,148,144151,1,0,3:0:0:0:
101,51,144297,2,0,P|152:61|191:43,1,68.0000012969971,8|0,0:0|0:0,0:0:0:0:
274,91,144590,6,0,P|308:78|355:83,1,68.0000012969971,2|0,3:2|3:0,0:0:0:0:
413,30,144883,2,0,P|430:68|425:105,1,68.0000012969971,8|0,0:0|0:0,0:0:0:0:
474,209,145176,2,0,L|326:204,1,136.000002593994,4|8,3:2|0:0,0:0:0:0:
405,293,145615,1,0,0:0:0:0:
405,293,145761,2,0,L|244:289,1,136.000002593994,2|0,3:2|0:0,0:0:0:0:
195,338,146200,5,8,0:0:0:0:
87,277,146346,2,0,P|157:288|198:357,1,136.000002593994,2|8,0:0|0:0,0:0:0:0:
87,277,146785,1,0,0:0:0:0:
181,213,146932,2,0,P|191:171|183:134,1,68.0000012969971,2|0,3:2|3:0,0:0:0:0:
95,171,147224,2,0,P|77:121|40:100,1,68.0000012969971,8|0,0:0|0:0,0:0:0:0:
6,33,147517,6,0,L|163:26,1,136.000002593994,4|8,3:2|0:0,0:0:0:0:
213,80,147956,1,0,0:0:0:0:
213,80,148102,2,0,L|370:73,1,136.000002593994,0|2,3:0|0:0,0:0:0:0:
408,139,148541,1,8,0:0:0:0:
408,139,148688,6,0,P|418:182|410:208,1,68.0000012969971,0|0,0:0|3:2,0:0:0:0:
447,306,148980,2,0,L|356:295,1,68.0000012969971,10|0,0:0|0:0,0:0:0:0:
320,206,149273,2,0,L|229:211,1,68.0000012969971,0|0,3:0|3:0,0:0:0:0:
193,302,149566,1,10,0:0:0:0:
106,289,149712,1,0,3:0:0:0:
27,341,149858,6,0,B|43:295|70:233|-62:197|-49:135|-5:57|97:55|119:136|119:136|191:79|275:167|239:241|187:281|136:239|95:301,1,704.000021484376,4|2,3:2|0:0,0:0:0:0:
210,341,152785,1,2,0:0:0:0:
350,319,153371,6,0,P|379:313|400:318,1,44.0000013427735,2|0,0:0|0:0,0:0:0:0:
464,254,153663,2,0,P|435:248|414:253,1,44.0000013427735
341,239,153956,6,0,L|350:322,1,80,2|0,0:0|0:0,0:0:0:0:
262,358,154249,1,2,0:0:0:0:
256,268,154395,6,0,B|279:191|231:191|255:111,1,160,4|0,3:2|3:0,0:0:0:0:
348,64,154834,2,0,P|384:48|420:63,1,80,8|0,0:0|0:0,0:0:0:0:
491,169,155126,2,0,P|455:183|420:168,1,80,2|0,3:2|3:0,0:0:0:0:
348,64,155419,1,10,0:0:0:0:
256,192,155565,1,2,0:0:0:0:
348,64,155712,6,0,L|392:248,1,160,2|8,3:2|0:0,0:0:0:0:
256,192,156151,1,0,0:0:0:0:
164,64,156297,2,0,B|124:64|124:64|88:92,1,80,2|0,3:2|3:0,0:0:0:0:
256,192,156590,1,8,0:0:0:0:
256,192,156736,6,0,B|292:120|292:120|256:48,1,160,4|0,3:2|3:0,0:0:0:0:
152,192,157176,2,0,B|134:226|134:226|154:262,1,80,8|0,0:0|0:0,0:0:0:0:
258,350,157469,2,0,B|276:316|276:316|256:280,1,80,2|0,3:2|3:0,0:0:0:0:
152,192,157761,1,8,0:0:0:0:
255,279,157907,1,2,0:0:0:0:
152,192,158054,6,0,L|120:24,1,160,0|8,3:2|0:0,0:0:0:0:
122,34,158493,1,0,0:0:0:0:
44,152,158639,2,0,L|60:252,1,80,2|0,3:2|3:0,0:0:0:0:
240,136,158932,1,8,0:0:0:0:
240,136,159078,6,0,P|307:100|375:136,1,160,4|0,3:2|3:0,0:0:0:0:
308,296,159517,2,0,L|308:216,1,80,8|0,0:0|0:0,0:0:0:0:
204,216,159810,2,0,L|204:296,1,80,2|0,3:2|3:0,0:0:0:0:
204,216,160102,1,8,0:0:0:0:
120,72,160249,1,2,0:0:0:0:
284,144,160395,5,0,3:0:0:0:
108,176,160541,1,0,3:0:0:0:
224,56,160688,1,8,0:0:0:0:
204,216,160834,1,0,0:0:0:0:
120,72,160980,2,0,P|83:56|47:71,1,80,2|0,3:2|3:0,0:0:0:0:
36,174,161273,2,0,P|72:190|109:175,1,80,8|0,0:0|3:0,0:0:0:0:
284,144,161566,6,0,B|325:144|353:112|353:112|381:144|425:144,1,160,2|8,3:2|0:0,0:0:0:0:
425,144,162005,1,0,0:0:0:0:
282,300,162151,2,0,B|259:223|307:223|283:143,1,160,2|8,3:2|0:0,0:0:0:0:
423,72,162590,1,0,0:0:0:0:
283,143,162736,6,0,P|267:106|282:70,1,80,2|0,3:2|3:0,0:0:0:0:
423,72,163029,2,0,P|439:108|424:145,1,80,8|0,0:0|0:0,0:0:0:0:
283,241,163322,2,0,P|267:278|282:314,1,80,2|0,3:2|3:2,3:2:0:0:
348,276,163541,1,2,3:2:0:0:
348,276,163615,2,0,B|380:276|380:276|400:284|400:284|440:284,1,80,8|0,3:2|3:2,3:2:0:0:
481,354,163834,5,0,3:2:0:0:
481,354,163907,2,0,B|449:354|449:354|429:362|429:362|389:362,1,80,4|0,3:2|0:0,0:0:0:0:
348,276,164200,2,0,L|353:182,1,80,8|0,0:0|0:0,0:0:0:0:
437,136,164493,1,2,3:2:0:0:
353,74,164639,1,0,3:0:0:0:
264,128,164785,5,8,0:0:0:0:
122,63,164932,2,0,L|240:57,1,80,2|0,3:2|0:0,0:0:0:0:
264,128,165224,1,0,3:0:0:0:
156,205,165371,2,0,P|144:242|150:281,1,80,8|0,0:0|0:0,0:0:0:0:
228,349,165663,2,0,L|351:331,1,120,2|2,3:2|0:0,0:0:0:0:
346,331,165956,1,8,0:0:0:0:
274,226,166102,1,0,0:0:0:0:
150,281,166249,6,0,L|38:264,1,80,6|0,3:2|0:0,0:0:0:0:
156,205,166541,1,8,0:0:0:0:
156,205,166688,1,0,0:0:0:0:
82,144,166834,2,0,P|70:92|78:62,1,80,2|0,3:2|3:0,0:0:0:0:
156,205,167127,1,8,0:0:0:0:
258,133,167273,6,0,B|296:110|296:110|167:106,1,160,2|0,3:2|3:0,0:0:0:0:
156,205,167712,2,0,L|255:208,1,80,8|0,0:0|0:0,0:0:0:0:
247,308,168005,2,0,L|346:311,1,80,2|0,3:2|3:0,0:0:0:0:
341,330,168224,1,2,0:0:0:0:
341,331,168297,2,0,P|350:289|336:252,1,80,8|0,0:0|0:0,0:0:0:0:
306,161,168590,6,0,L|401:162,1,80,4|0,3:2|0:0,0:0:0:0:
444,229,168883,1,8,0:0:0:0:
285,148,169029,2,0,L|380:149,1,80,2|0,0:0|3:2,0:0:0:0:
444,229,169322,1,0,3:0:0:0:
339,254,169468,1,8,0:0:0:0:
239,319,169615,6,0,L|238:208,1,80,8|0,0:0|0:0,0:0:0:0:
153,122,169907,1,0,3:0:0:0:
153,122,170054,2,0,L|153:201,1,80,10|0,0:0|0:0,0:0:0:0:
153,201,170273,1,2,0:0:0:0:
153,201,170346,2,0,P|101:218|55:193,1,80,2|0,3:2|3:0,0:0:0:0:
0,126,170639,2,0,L|88:125,1,80,8|0,0:0|0:0,0:0:0:0:
177,88,170932,6,0,P|187:36|162:-9,1,80,4|0,3:2|0:0,0:0:0:0:
235,143,171224,1,8,0:0:0:0:
235,143,171371,1,0,0:0:0:0:
329,100,171517,2,0,P|383:85|434:102,1,80,2|0,3:2|3:0,0:0:0:0:
466,173,171810,1,0,0:0:0:0:
369,212,171956,1,8,0:0:0:0:
461,295,172102,6,0,P|413:292|383:306,1,80,2|0,3:2|3:0,0:0:0:0:
288,275,172395,2,0,P|244:292|189:271,1,80,8|0,0:0|0:0,0:0:0:0:
104,200,172688,2,0,L|191:192,1,80,2|2,3:2|3:2,0:0:0:0:
224,128,172907,1,2,3:2:0:0:
224,128,172980,2,0,L|216:85,1,40,10|0,3:2|3:2,3:2:0:0:
288,20,173127,2,0,L|295:59,1,40,8|0,3:2|3:2,3:2:0:0:
316,140,173273,6,0,L|396:124,1,80,4|0,3:2|0:0,0:0:0:0:
412,228,173566,2,0,L|332:244,1,80,8|0,0:0|0:0,0:0:0:0:
176,276,173858,1,2,3:2:0:0:
243,138,174005,2,0,P|279:124|314:139,1,80,0|12,3:0|0:0,0:0:0:0:
333,243,174297,1,0,0:0:0:0:
176,276,174444,6,0,P|140:292|104:277,1,80,2|0,3:2|3:0,0:0:0:0:
104,106,174736,2,0,P|140:92|175:107,1,80,8|0,0:0|3:0,0:0:0:0:
256,192,175029,2,0,L|252:248,1,40,2|0,3:2|3:2,3:2:0:0:
330,282,175176,2,0,L|334:226,1,40,0|0,3:2|3:2,3:2:0:0:
332,144,175322,2,0,B|352:108|352:108|334:74,1,80,8|2,3:2|3:2,3:2:0:0:
292,20,175541,1,0,3:2:0:0:
292,20,175615,6,0,B|260:20|260:20|256:16|256:16|256:24|256:24|252:20|252:20|220:20,1,80,4|0,3:2|0:0,0:0:0:0:
155,124,175907,2,0,B|184:124|184:124|188:128|188:128|188:120|188:120|192:124|192:124|224:124,1,80,8|0,0:0|0:0,0:0:0:0:
336,240,176200,1,2,3:2:0:0:
168,212,176346,1,0,3:0:0:0:
332,144,176493,1,8,0:0:0:0:
240,284,176639,1,8,0:0:0:0:
224,124,176785,5,2,3:2:0:0:
336,240,176932,1,0,3:0:0:0:
168,212,177078,1,8,0:0:0:0:
332,144,177224,1,0,0:0:0:0:
164,284,177371,2,0,P|128:300|92:285,1,80,2|0,3:2|3:0,0:0:0:0:
20,178,177663,2,0,P|56:164|92:180,1,80,8|2,0:0|0:0,0:0:0:0:
256,320,177956,6,0,B|232:240|280:240|257:163,1,160,4|8,3:2|0:0,0:0:0:0:
192,80,178395,2,0,B|152:80|152:80|112:104,1,80,0|2,0:0|3:2,0:0:0:0:
41,225,178688,2,0,B|81:225|81:225|116:204,1,80,0|2,3:0|0:0,0:0:0:0:
256,192,178980,1,10,0:0:0:0:
192,80,179127,5,2,0:0:0:0:
320,80,179273,2,0,B|360:80|360:80|400:104,1,80,0|8,3:2|0:0,0:0:0:0:
471,225,179566,2,0,B|431:225|431:225|396:204,1,80,2|0,0:0|3:2,0:0:0:0:
256,192,179858,1,2,3:2:0:0:
256,192,180005,2,0,L|256:280,1,80,8|2,0:0|0:0,0:0:0:0:
188,112,180297,6,0,P|255:76|323:112,1,160,4|8,3:2|0:0,0:0:0:0:
256,192,180736,1,0,0:0:0:0:
188,112,180883,2,0,P|172:75|187:39,1,80,2|0,3:2|3:0,0:0:0:0:
323,112,181176,1,8,0:0:0:0:
323,112,181322,6,0,B|356:152|356:152|412:168|412:168|456:224,1,160,2|2,3:2|3:2,0:0:0:0:
400,304,181761,2,0,P|363:318|327:302,1,80,8|0,0:0|0:0,0:0:0:0:
183,302,182054,2,2,L|164:252,3,40,2|2|2|2,3:2|3:2|3:2|3:2,3:2:0:0:
224,212,182346,2,2,L|204:161,3,40,10|2|2|2,3:2|3:2|3:2|3:2,3:2:0:0:
100,193,182639,6,0,B|109:139|109:139|99:121|99:121|110:64,1,120,4|0,3:2|0:0,0:0:0:0:
73,50,182932,2,0,L|188:43,1,80,8|0,0:0|0:0,0:0:0:0:
247,87,183224,1,2,3:2:0:0:
193,182,183371,2,0,L|308:175,1,80,0|2,3:0|0:0,0:0:0:0:
376,134,183663,6,0,B|371:178|371:178|387:193|387:193|380:263,1,120,10|0,0:0|0:0,0:0:0:0:
400,278,183956,1,0,3:0:0:0:
302,243,184102,1,8,0:0:0:0:
193,327,184249,2,0,L|312:321,1,120,2|0,0:0|0:0,0:0:0:0:
312,320,184541,2,0,L|302:382,2,40,2|0|8,3:2|0:0|0:0,0:0:0:0:
193,327,184834,5,0,0:0:0:0:
101,355,184980,2,0,L|111:267,1,80,4|0,3:2|0:0,0:0:0:0:
207,243,185273,2,0,L|217:149,1,80,8|0,0:0|0:0,0:0:0:0:
307,212,185566,1,2,3:2:0:0:
207,243,185712,1,0,3:0:0:0:
310,311,185858,1,2,0:0:0:0:
402,358,186005,6,0,L|408:184,1,160,8|0,0:0|3:0,0:0:0:0:
494,272,186444,1,8,0:0:0:0:
334,182,186590,2,0,P|351:146|470:156,1,160,2|0,0:0|3:0,0:0:0:0:
486,43,187029,2,0,L|400:41,1,80,8|0,0:0|0:0,0:0:0:0:
334,182,187322,6,0,L|230:177,1,80,4|0,3:2|0:0,0:0:0:0:
163,128,187615,1,8,0:0:0:0:
295,258,187761,2,0,L|207:255,1,80,2|0,3:2|3:0,0:0:0:0:
111,203,188054,1,0,3:0:0:0:
254,178,188200,6,0,P|264:131|255:89,1,80,2|8,0:0|0:0,0:0:0:0:
201,13,188493,1,0,0:0:0:0:
163,128,188639,2,0,P|117:110|69:123,1,80,2|8,3:2|0:0,0:0:0:0:
111,203,188932,1,0,0:0:0:0:
16,320,189078,2,0,P|62:296|103:295,1,80,2|0,3:2|3:0,0:0:0:0:
188,248,189371,2,0,P|236:266|264:295,1,80,8|0,0:0|0:0,0:0:0:0:
348,352,189663,6,0,L|353:273,1,80,4|0,3:2|0:0,0:0:0:0:
452,312,189956,1,8,0:0:0:0:
332,364,190102,2,0,L|337:285,1,80,0|2,0:0|3:2,0:0:0:0:
444,228,190395,1,0,0:0:0:0:
503,136,190541,6,0,L|403:130,1,80,2|8,0:0|0:0,0:0:0:0:
274,110,190834,1,2,3:2:0:0:
423,131,190981,1,0,3:0:0:0:
315,26,191127,1,8,0:0:0:0:
342,176,191273,1,0,3:0:0:0:
408,39,191419,6,8,P|446:32|465:22,3,40,8|8|8|8,0:0|0:0|0:0|0:0,0:0:0:0:
315,26,191712,2,8,P|277:19|258:9,3,40
368,112,192005,6,0,B|340:192|404:192|372:288,1,180.000006866455,4|0,3:2|0:0,0:0:0:0:
316,328,192590,1,2,0:0:0:0:
172,328,192883,2,0,B|144:272|144:272|144:220|144:220|112:148,1,180.000006866455,2|0,0:0|0:0,0:0:0:0:
96,92,193468,2,0,B|124:60|160:60|160:60|208:60,1,120.000004577637,2|0,0:0|0:0,0:0:0:0:
344,100,194054,1,0,0:0:0:0:
256,216,194346,5,2,0:0:0:0:
164,328,194639,2,0,P|108:348|52:328,1,120.000004577637,0|2,0:0|0:0,0:0:0:0:
96,192,195224,1,2,0:0:0:0:
96,192,195517,2,0,B|136:192|184:152|184:152|276:152,1,180.000006866455
336,148,196102,2,0,P|380:148|448:200,1,120.000004577637,2|0,0:0|0:0,0:0:0:0:
361,309,196688,6,0,P|317:309|249:257,1,120.000004577637,2|0,0:0|0:0,0:0:0:0:
132,192,197273,1,0,0:0:0:0:
177,55,197566,2,0,B|223:55|255:19|255:19|287:55|335:55,1,180.000006866455,2|0,0:0|0:0,0:0:0:0:
388,104,198151,1,2,0:0:0:0:
256,164,198444,1,0,0:0:0:0:
124,104,198736,1,2,0:0:0:0:
124,104,199029,6,0,L|36:204,1,120.000004577637,2|0,0:0|0:0,0:0:0:0:
108,228,199468,2,0,L|187:137,1,120.000004577637,2|0,0:0|0:0,0:0:0:0:
236,84,199907,2,0,P|264:84|304:56,1,60.0000022888184,0|2,0:0|0:0,0:0:0:0:
364,56,200200,1,2,0:0:0:0:
364,56,200346,2,0,B|364:96|364:96|380:132|380:132|380:192,1,120.000004577637
388,244,200785,1,2,0:0:0:0:
256,300,201078,1,0,0:0:0:0:
115,235,201371,6,0,P|63:221|-10:238,1,120.000004577637,2|0,0:0|0:0,0:0:0:0:
142,151,201956,1,0,0:0:0:0:
142,151,202249,2,0,B|195:169|204:219|204:219|221:172|279:161,1,180.000006866455,2|0,0:0|0:0,0:0:0:0:
262,165,202834,2,0,L|330:158,1,60.0000022888184,2|0,0:0|0:0,0:0:0:0:
370,212,203127,2,0,L|434:204,1,60.0000022888184,2|0,0:0|0:0,0:0:0:0:
454,137,203419,1,0,0:0:0:0:
212,87,203712,6,0,L|216:209,1,120.000004577637,2|0,0:0|0:0,0:0:0:0:
92,206,204297,1,2,0:0:0:0:
26,326,204590,2,0,B|86:322|86:322|113:345|113:345|199:339,1,180.000006866455,2|0,0:0|0:0,0:0:0:0:
282,362,205176,1,0,0:0:0:0:
425,316,205468,6,0,L|415:178,1,120.000004577637,2|0,0:0|0:0,0:0:0:0:
336,250,205907,1,0,0:0:0:0:
336,250,206054,2,0,L|326:112,1,120.000004577637,2|0,0:0|0:0,0:0:0:0:
267,80,206493,2,0,P|225:102|148:92,1,120.000004577637,2|0,0:0|0:0,0:0:0:0:
117,164,206932,1,0,0:0:0:0:
47,198,207078,6,0,L|49:128,1,60.0000022888184,2|0,0:0|0:0,0:0:0:0:
117,164,207371,2,0,L|115:223,1,60.0000022888184
169,364,207663,2,0,P|139:370|96:359,1,60.0000022888184,2|0,0:0|0:0,0:0:0:0:
13,299,207956,2,0,L|144:291,1,120.000004577637,2|0,0:0|0:0,0:0:0:0:
207,248,208395,6,0,P|221:290|220:325,1,60.0000022888184,2|0,0:0|0:0,0:0:0:0:
305,350,208688,1,0,0:0:0:0:
305,350,208834,2,0,P|308:320|319:292,1,60.0000022888184,2|0,0:0|0:0,0:0:0:0:
359,212,209127,2,0,L|278:207,1,60.0000022888184,2|0,0:0|0:0,0:0:0:0:
206,247,209419,1,2,0:0:0:0:
207,248,209566,6,0,B|139:229|85:265|85:265|106:203|64:135|64:135|11:170|19:214,1,360.000013732911,2|0,0:0|0:0,0:0:0:0:
188,176,210590,6,0,B|229:176|257:144|257:144|285:176|329:176,1,160,4|0,3:2|3:0,0:0:0:0:
192,28,211029,2,0,P|176:64|191:100,1,80,8|0,0:0|0:0,0:0:0:0:
321,99,211322,2,0,P|335:63|320:28,1,80,2|0,3:2|3:0,0:0:0:0:
188,176,211615,1,8,0:0:0:0:
321,99,211761,1,2,0:0:0:0:
188,176,211907,6,0,B|165:253|213:253|189:333,1,160,0|8,3:2|0:0,0:0:0:0:
264,216,212346,1,0,0:0:0:0:
116,288,212493,2,0,P|80:304|44:290,1,80,2|0,3:2|3:0,0:0:0:0:
187,175,212785,1,8,0:0:0:0:
31,177,212932,6,0,B|111:201|111:153|188:176,1,160,4|0,3:2|3:0,0:0:0:0:
324,280,213371,2,0,B|342:314|342:314|322:350,1,80,8|0,0:0|0:0,0:0:0:0:
190,350,213664,2,0,B|172:316|172:316|192:280,1,80,2|0,3:2|3:0,0:0:0:0:
376,192,213956,1,8,0:0:0:0:
324,280,214102,1,2,0:0:0:0:
376,192,214249,6,0,L|332:24,1,160,2|8,3:2|0:0,0:0:0:0:
335,37,214688,1,0,0:0:0:0:
376,192,214834,1,2,3:2:0:0:
456,88,214980,1,0,3:0:0:0:
256,128,215127,1,8,0:0:0:0:
256,128,215273,6,0,B|184:92|184:92|112:128,1,160,4|0,3:2|3:0,0:0:0:0:
228,4,215712,2,0,L|300:36,1,80,8|0,0:0|0:0,0:0:0:0:
128,7,216005,2,0,L|56:40,1,80,2|0,3:2|3:0,0:0:0:0:
112,127,216297,1,8,0:0:0:0:
228,4,216444,1,2,0:0:0:0:
320,127,216590,6,0,B|364:127|364:127|420:155|420:155|484:155,1,160,0|8,3:0|0:0,0:0:0:0:
336,216,217029,1,0,0:0:0:0:
440,72,217176,2,0,B|484:72|484:72|528:36,1,80,2|0,3:2|3:0,0:0:0:0:
320,127,217468,2,0,B|276:127|276:127|232:163,1,80,8|0,0:0|3:0,0:0:0:0:
188,308,217761,6,0,B|229:308|257:340|257:340|285:308|329:308,1,160,2|8,3:2|0:0,0:0:0:0:
328,308,218200,1,0,0:0:0:0:
469,204,218346,2,0,B|428:204|400:172|400:172|372:204|328:204,1,160,2|8,3:2|0:0,0:0:0:0:
328,203,218785,1,0,0:0:0:0:
184,203,218932,6,0,L|128:119,1,80,2|0,3:2|3:0,0:0:0:0:
328,203,219224,2,0,L|384:119,1,80,8|0,0:0|0:0,0:0:0:0:
292,48,219517,2,0,P|256:34|221:49,1,80,2|0,3:2|3:2,3:2:0:0:
164,92,219736,1,2,3:2:0:0:
164,92,219810,2,0,P|128:106|93:91,1,80,8|0,3:2|3:2,3:2:0:0:
27,153,220029,5,0,3:2:0:0:
27,153,220102,2,0,P|48:197|46:240,1,80,4|0,3:2|0:0,0:0:0:0:
37,346,220395,2,0,P|97:305|127:307,1,80,8|0,0:0|0:0,0:0:0:0:
176,231,220688,1,2,3:2:0:0:
251,302,220834,1,0,3:0:0:0:
391,193,220980,5,8,0:0:0:0:
296,149,221127,2,0,P|287:191|311:247,1,80,2|0,3:2|0:0,0:0:0:0:
391,193,221419,1,0,3:0:0:0:
478,113,221566,2,0,L|399:108,1,80,8|0,0:0|0:0,0:0:0:0:
296,149,221858,6,0,B|244:146|244:146|238:134|238:134|171:131,1,120,2|2,3:2|0:0,0:0:0:0:
183,131,222151,1,8,0:0:0:0:
310,50,222297,1,0,0:0:0:0:
391,193,222444,2,0,P|398:255|376:288,1,80,4|0,3:2|0:0,0:0:0:0:
448,355,222736,2,0,L|331:361,1,80,8|0,0:0|0:0,0:0:0:0:
283,298,223029,1,2,3:2:0:0:
194,353,223176,1,0,3:0:0:0:
57,265,223322,5,8,0:0:0:0:
140,208,223468,2,0,L|140:296,1,80,2|0,3:2|0:0,0:0:0:0:
140,288,223761,1,0,3:0:0:0:
57,345,223907,2,0,L|57:265,1,80,8|0,0:0|0:0,0:0:0:0:
0,158,224200,2,0,P|54:173|84:163,1,80,2|0,3:2|3:0,0:0:0:0:
217,248,224493,2,0,P|271:233|301:243,1,80,8|0,0:0|0:0,0:0:0:0:
404,200,224785,6,0,L|415:293,1,80,4|0,3:2|0:0,0:0:0:0:
373,380,225078,1,0,3:0:0:0:
435,329,225224,2,0,L|425:249,1,80,8|2,0:0|0:0,0:0:0:0:
353,150,225517,1,0,3:0:0:0:
446,98,225663,1,8,0:0:0:0:
359,51,225810,6,0,P|314:67|252:49,1,80,4|0,3:2|0:0,0:0:0:0:
230,144,226102,1,2,0:0:0:0:
134,129,226249,1,8,0:0:0:0:
40,110,226395,1,4,3:2:0:0:
40,110,226541,2,0,L|57:210,1,80,2|8,0:0|0:0,0:0:0:0:
53,188,226761,1,2,0:0:0:0:
53,188,226834,2,0,P|102:177|139:188,1,80,8|0,0:0|3:0,0:0:0:0:
196,273,227127,6,0,L|291:262,1,80,4|0,3:2|0:0,0:0:0:0:
187,352,227419,1,0,3:0:0:0:
274,342,227566,2,0,L|369:331,1,80,10|0,0:0|0:0,0:0:0:0:
275,263,227858,1,0,3:0:0:0:
213,193,228005,2,0,L|300:182,1,80,10|4,0:0|3:2,0:0:0:0:
189,108,228297,5,0,0:0:0:0:
305,26,228444,1,2,0:0:0:0:
305,26,228590,2,0,L|297:134,1,80,8|0,0:0|3:0,0:0:0:0:
213,193,228883,2,0,B|210:259|210:259|225:278|225:278|220:360,1,160,2|8,0:0|0:0,0:0:0:0:
220,347,229322,1,0,3:0:0:0:
352,296,229468,6,0,P|404:192|352:88,1,240.000009155274,4|0,0:0|0:0,0:0:0:0:
352,88,230346,1,2,0:0:0:0:
284,108,230493,2,0,B|164:60|164:156|44:108,1,240.000009155274,2|0,0:0|0:0,0:0:0:0:
4,164,231224,2,0,L|24:224,1,60.0000022888184,2|0,0:0|0:0,0:0:0:0:
114,280,231517,2,0,L|96:224,1,60.0000022888184,2|0,0:0|0:0,0:0:0:0:
51,110,231810,6,0,P|95:62|215:62,1,160,2|0,3:2|3:0,0:0:0:0:
256,116,232249,1,0,3:0:0:0:
326,49,232395,2,0,P|404:55|461:110,1,160,2|0,3:2|3:0,0:0:0:0:
428,200,232834,1,0,3:0:0:0:
388,288,232980,6,0,P|404:323|390:359,1,80,2|0,3:2|0:0,0:0:0:0:
292,284,233273,2,0,P|275:248|289:212,1,80,0|0,3:2|0:0,0:0:0:0:
256,120,233566,2,0,L|208:128,3,40,2|0|0|0,3:2|3:2|3:2|3:2,3:2:0:0:
188,192,233858,2,0,L|148:198,3,40,2|0|0|0,3:2|3:2|3:2|3:2,3:2:0:0:
80,200,234151,6,0,B|60:164|60:164|78:130,1,80,6|0,3:2|0:0,0:0:0:0:
140,56,234444,1,0,0:0:0:0:
56,200,234590,6,0,B|36:164|36:164|54:130,1,80,2|0,3:2|0:0,0:0:0:0:
140,56,234883,1,0,0:0:0:0:
222,104,235029,2,0,B|256:122|256:122|292:102,1,80,2|0,3:2|0:0,0:0:0:0:
372,56,235322,1,0,0:0:0:0:
457,129,235468,6,0,L|444:220,1,80,2|0,3:2|0:0,0:0:0:0:
428,304,235761,1,0,0:0:0:0:
488,120,235907,6,0,L|474:210,1,80,2|0,3:2|0:0,0:0:0:0:
428,304,236200,1,0,0:0:0:0:
445,208,236346,1,2,0:0:0:0:
428,304,236493,6,0,P|392:320|356:306,1,80,6|0,3:2|3:0,0:0:0:0:
280,252,236785,1,0,0:0:0:0:
428,336,236932,6,0,P|392:352|356:338,1,80,2|0,3:2|3:0,0:0:0:0:
280,252,237224,1,0,0:0:0:0:
212,184,237371,6,0,P|195:148|209:112,1,80,2|0,3:2|3:0,0:0:0:0:
256,28,237663,1,0,0:0:0:0:
172,184,237810,6,0,P|155:148|169:112,1,80,2|0,3:2|3:0,0:0:0:0:
256,28,238102,1,0,0:0:0:0:
342,112,238249,6,0,P|356:148|340:184,1,80,2|0,3:2|0:0,0:0:0:0:
208,272,238541,1,0,3:0:0:0:
304,272,238688,1,2,0:0:0:0:
382,354,238834,6,0,L|285:348,1,80,6|0,3:2|0:0,0:0:0:0:
304,272,239127,1,0,0:0:0:0:
399,368,239273,6,0,L|302:362,1,80,2|0,3:2|0:0,0:0:0:0:
232,320,239566,1,0,0:0:0:0:
140,338,239712,6,0,B|102:348|102:348|46:317,1,80,2|0,3:2|0:0,0:0:0:0:
115,248,240005,1,0,0:0:0:0:
139,355,240151,6,0,B|101:365|101:365|45:334,1,80,2|0,3:2|0:0,0:0:0:0:
115,248,240444,1,0,0:0:0:0:
115,248,240590,6,0,L|106:151,1,80,2|0,3:2|0:0,0:0:0:0:
209,273,240883,2,0,L|200:176,1,80
278,134,241176,6,0,L|375:127,1,80,6|0,3:2|0:0,0:0:0:0:
424,196,241468,1,0,0:0:0:0:
263,125,241615,6,0,L|360:118,1,80,2|0,3:2|0:0,0:0:0:0:
429,181,241907,1,0,0:0:0:0:
443,65,242054,5,10,0:0:0:0:
485,240,242200,1,2,3:2:0:0:
