osu file format v14

[General]
AudioFilename: audio.mp3
AudioLeadIn: 0
PreviewTime: 191336
Countdown: 0
SampleSet: Soft
StackLeniency: 0.5
Mode: 0
LetterboxInBreaks: 0
WidescreenStoryboard: 1

[Editor]
Bookmarks: 18726,18873,19019,19165,19312,19458,19605,19751,19897,20044,20190,20336,20483,21068,39800,49165,58531,66726,67312,67458,67605,67751,67897,74922,75068,75214,75361,75507,75653,75800,75946,76092,76239,76385,76531,77117,95409,95483,95556,95629,95702,95775,95848,95922,95995,104848,104922,104995,105068,105141,105214,105287,105361,114141,114214,114287,114361,114434,114507,114580,133165,133312,133458,142239,142385,142531,142605,142678,142824,154385,173263,182629,191409,191507,191605,191800,191897,191995,199019,209556,209702,209848,209995,210141,210287,210434,210580,229458
DistanceSpacing: 1.3
BeatDivisor: 4
GridSize: 4
TimelineZoom: 2.1

[Metadata]
Title:Yakudou
TitleUnicode:躍動
Artist:Sakamoto Maaya
ArtistUnicode:坂本真綾
Creator:Big Sis
Version:Flame Haze's Extra
Source:Fate/Grand Order -Cosmos in the Lostbelt-
Tags:midorijeon flame haze shirahane suou asagi TYPE-MOON FGO PROJECT f/go part arc 2 opening op japanese jpop pop j-pop rock jrock j-rock videogame video game vaporfly red crewmate god haachama
BeatmapID:4084868
BeatmapSetID:1868330

[Difficulty]
HPDrainRate:5.8
CircleSize:4
OverallDifficulty:8.8
ApproachRate:9.4
SliderMultiplier:1.8
SliderTickRate:1

[Events]
//Background and Video events
0,0,"bg2.jpg",0,0
//Break Periods
2,229658,230674
//Storyboard Layer 0 (Background)
//Storyboard Layer 1 (Fail)
//Storyboard Layer 2 (Pass)
//Storyboard Layer 3 (Foreground)
//Storyboard Layer 4 (Overlay)
//Storyboard Sound Samples

[TimingPoints]
1166,292.682926829268,4,2,2,40,1,0
1751,-100,4,2,2,50,0,0
2336,-166.666666666667,4,2,2,50,0,0
10678,-153.846153846154,4,2,2,50,0,0
10970,-166.666666666667,4,2,2,50,0,0
16385,-142.857142857143,4,2,2,50,0,0
17702,-153.846153846154,4,2,2,50,0,0
18726,-153.846153846154,4,2,2,40,0,0
20483,-100,4,2,2,60,0,0
21068,-84.7457627118644,4,2,1,75,0,0
21141,-84.7457627118644,4,2,2,75,0,0
21361,-90.0900900900901,4,2,6,75,0,0
21434,-90.0900900900901,4,2,2,75,0,0
21653,-90.0900900900901,4,2,6,75,0,0
21726,-90.0900900900901,4,2,2,75,0,0
21946,-90.0900900900901,4,2,6,75,0,0
22019,-90.0900900900901,4,2,2,75,0,0
22239,-90.0900900900901,4,2,6,75,0,0
22312,-90.0900900900901,4,2,2,75,0,0
22531,-90.0900900900901,4,2,6,75,0,0
22604,-90.0900900900901,4,2,2,75,0,0
22824,-90.0900900900901,4,2,6,75,0,0
22897,-90.0900900900901,4,2,2,75,0,0
23117,-90.0900900900901,4,2,6,75,0,0
23190,-90.0900900900901,4,2,2,75,0,0
23409,-90.0900900900901,4,2,3,75,0,0
23702,-90.0900900900901,4,2,6,75,0,0
23775,-90.0900900900901,4,2,2,75,0,0
23995,-90.0900900900901,4,2,6,75,0,0
24068,-90.0900900900901,4,2,2,75,0,0
24287,-90.0900900900901,4,2,7,75,0,0
24360,-90.0900900900901,4,2,2,75,0,0
24580,-90.0900900900901,4,2,7,75,0,0
24653,-90.0900900900901,4,2,2,75,0,0
24873,-90.0900900900901,4,2,6,75,0,0
24946,-90.0900900900901,4,2,2,75,0,0
25165,-90.0900900900901,4,2,6,75,0,0
25238,-90.0900900900901,4,2,2,75,0,0
25458,-90.0900900900901,4,2,6,75,0,0
25531,-90.0900900900901,4,2,2,75,0,0
25751,-84.7457627118644,4,2,2,75,0,0
26044,-90.0900900900901,4,2,6,75,0,0
26117,-90.0900900900901,4,2,2,75,0,0
26336,-90.0900900900901,4,2,6,75,0,0
26409,-90.0900900900901,4,2,2,75,0,0
26629,-90.0900900900901,4,2,6,75,0,0
26702,-90.0900900900901,4,2,2,75,0,0
26922,-90.0900900900901,4,2,7,75,0,0
26995,-90.0900900900901,4,2,2,75,0,0
27214,-90.0900900900901,4,2,6,75,0,0
27287,-90.0900900900901,4,2,2,75,0,0
27507,-90.0900900900901,4,2,6,75,0,0
27580,-90.0900900900901,4,2,2,75,0,0
27800,-90.0900900900901,4,2,6,75,0,0
27873,-90.0900900900901,4,2,2,75,0,0
28092,-90.0900900900901,4,2,3,75,0,0
28385,-90.0900900900901,4,2,6,75,0,0
28458,-90.0900900900901,4,2,2,75,0,0
28678,-90.0900900900901,4,2,6,75,0,0
28751,-90.0900900900901,4,2,2,75,0,0
28970,-90.0900900900901,4,2,6,75,0,0
29043,-90.0900900900901,4,2,2,75,0,0
29263,-90.0900900900901,4,2,7,75,0,0
29336,-90.0900900900901,4,2,2,75,0,0
29556,-90.0900900900901,4,2,6,75,0,0
29629,-90.0900900900901,4,2,2,75,0,0
30434,-84.7457627118644,4,2,2,75,0,0
30726,-90.0900900900901,4,2,6,75,0,0
30799,-90.0900900900901,4,2,2,75,0,0
31019,-90.0900900900901,4,2,6,75,0,0
31092,-90.0900900900901,4,2,2,75,0,0
31312,-90.0900900900901,4,2,6,75,0,0
31385,-90.0900900900901,4,2,2,75,0,0
31605,-90.0900900900901,4,2,6,75,0,0
31678,-90.0900900900901,4,2,2,75,0,0
31897,-90.0900900900901,4,2,6,75,0,0
31970,-90.0900900900901,4,2,2,75,0,0
32190,-90.0900900900901,4,2,6,75,0,0
32263,-90.0900900900901,4,2,2,75,0,0
32483,-90.0900900900901,4,2,6,75,0,0
32556,-90.0900900900901,4,2,2,75,0,0
32775,-84.7457627118644,4,2,3,75,0,0
33068,-90.0900900900901,4,2,6,75,0,0
33141,-90.0900900900901,4,2,2,75,0,0
33361,-90.0900900900901,4,2,6,75,0,0
33434,-90.0900900900901,4,2,2,75,0,0
33653,-90.0900900900901,4,2,7,75,0,0
33726,-90.0900900900901,4,2,2,75,0,0
33946,-90.0900900900901,4,2,6,75,0,0
34019,-90.0900900900901,4,2,2,75,0,0
34239,-90.0900900900901,4,2,6,75,0,0
34312,-90.0900900900901,4,2,2,75,0,0
34531,-90.0900900900901,4,2,6,75,0,0
34604,-90.0900900900901,4,2,2,75,0,0
34824,-90.0900900900901,4,2,6,75,0,0
34897,-90.0900900900901,4,2,2,75,0,0
35117,-84.7457627118644,4,2,2,75,0,0
35409,-90.0900900900901,4,2,6,75,0,0
35482,-90.0900900900901,4,2,2,75,0,0
35702,-90.0900900900901,4,2,6,75,0,0
35775,-90.0900900900901,4,2,2,75,0,0
35995,-90.0900900900901,4,2,6,75,0,0
36068,-90.0900900900901,4,2,2,75,0,0
36287,-90.0900900900901,4,2,7,75,0,0
36360,-90.0900900900901,4,2,2,75,0,0
36580,-90.0900900900901,4,2,6,75,0,0
36653,-90.0900900900901,4,2,2,75,0,0
36873,-90.0900900900901,4,2,6,75,0,0
36946,-90.0900900900901,4,2,2,75,0,0
37165,-90.0900900900901,4,2,6,75,0,0
37238,-90.0900900900901,4,2,2,75,0,0
37458,-90.0900900900901,4,2,3,75,0,0
37751,-90.0900900900901,4,2,6,75,0,0
37824,-90.0900900900901,4,2,2,75,0,0
38044,-90.0900900900901,4,2,6,75,0,0
38117,-90.0900900900901,4,2,2,75,0,0
38336,-90.0900900900901,4,2,7,75,0,0
38409,-90.0900900900901,4,2,2,75,0,0
38629,-90.0900900900901,4,2,7,75,0,0
38702,-90.0900900900901,4,2,2,75,0,0
38922,-90.0900900900901,4,2,6,75,0,0
38995,-90.0900900900901,4,2,2,75,0,0
39214,-90.0900900900901,4,2,6,75,0,0
39287,-90.0900900900901,4,2,2,75,0,0
39653,-90.0900900900901,4,2,3,75,0,0
39800,-111.111111111111,4,2,1,60,0,0
39873,-111.111111111111,4,2,2,60,0,0
40092,-111.111111111111,4,2,8,60,0,0
40165,-111.111111111111,4,2,2,60,0,0
40385,-111.111111111111,4,2,8,60,0,0
40458,-111.111111111111,4,2,2,60,0,0
40678,-111.111111111111,4,2,8,60,0,0
40751,-111.111111111111,4,2,2,60,0,0
40824,-111.111111111111,4,2,12,60,0,0
40897,-111.111111111111,4,2,2,60,0,0
40970,-111.111111111111,4,2,8,60,0,0
41043,-111.111111111111,4,2,2,60,0,0
41263,-111.111111111111,4,2,12,60,0,0
41336,-111.111111111111,4,2,2,60,0,0
41556,-111.111111111111,4,2,8,60,0,0
41629,-111.111111111111,4,2,2,60,0,0
41848,-111.111111111111,4,2,8,60,0,0
41921,-111.111111111111,4,2,2,60,0,0
42434,-111.111111111111,4,2,8,60,0,0
42507,-111.111111111111,4,2,2,60,0,0
42726,-111.111111111111,4,2,8,60,0,0
42799,-111.111111111111,4,2,2,60,0,0
43019,-111.111111111111,4,2,9,60,0,0
43092,-111.111111111111,4,2,2,60,0,0
43165,-111.111111111111,4,2,12,60,0,0
43238,-111.111111111111,4,2,2,60,0,0
43312,-111.111111111111,4,2,8,60,0,0
43385,-111.111111111111,4,2,2,60,0,0
43605,-111.111111111111,4,2,12,60,0,0
43678,-111.111111111111,4,2,2,60,0,0
43897,-111.111111111111,4,2,8,60,0,0
43970,-111.111111111111,4,2,2,60,0,0
44190,-111.111111111111,4,2,8,60,0,0
44263,-111.111111111111,4,2,2,60,0,0
44483,-100,4,2,2,60,0,0
44775,-100,4,2,8,60,0,0
44848,-100,4,2,2,60,0,0
45067,-100,4,2,8,60,0,0
45140,-100,4,2,2,60,0,0
45360,-100,4,2,9,60,0,0
45433,-100,4,2,2,60,0,0
45506,-100,4,2,12,60,0,0
45579,-100,4,2,2,60,0,0
45653,-100,4,2,9,60,0,0
45726,-100,4,2,2,60,0,0
45946,-100,4,2,12,60,0,0
46019,-100,4,2,2,60,0,0
46238,-100,4,2,8,60,0,0
46311,-100,4,2,2,60,0,0
46531,-100,4,2,8,60,0,0
46604,-100,4,2,2,60,0,0
47117,-100,4,2,8,60,0,0
47190,-100,4,2,2,60,0,0
47409,-100,4,2,8,60,0,0
47482,-100,4,2,2,60,0,0
47702,-100,4,2,8,60,0,0
47775,-100,4,2,2,60,0,0
47848,-100,4,2,12,60,0,0
47921,-100,4,2,2,60,0,0
47995,-100,4,2,8,60,0,0
48068,-100,4,2,2,60,0,0
48288,-100,4,2,12,60,0,0
48361,-100,4,2,2,60,0,0
48580,-100,4,2,8,60,0,0
48653,-100,4,2,2,60,0,0
48873,-100,4,2,8,60,0,0
48946,-100,4,2,2,60,0,0
49458,-95.2380952380952,4,2,8,60,0,0
49531,-95.2380952380952,4,2,2,60,0,0
49751,-100,4,2,8,60,0,0
49823,-100,4,2,2,60,0,0
50043,-100,4,2,8,60,0,0
50116,-100,4,2,2,60,0,0
50189,-100,4,2,12,60,0,0
50262,-100,4,2,2,60,0,0
50336,-100,4,2,8,60,0,0
50409,-100,4,2,2,60,0,0
50629,-100,4,2,12,60,0,0
50702,-100,4,2,2,60,0,0
50921,-100,4,2,8,60,0,0
50994,-100,4,2,2,60,0,0
51214,-100,4,2,8,60,0,0
51287,-100,4,2,2,60,0,0
51507,-90.9090909090909,4,2,2,60,0,0
51800,-100,4,2,8,60,0,0
51873,-100,4,2,2,60,0,0
52092,-100,4,2,8,60,0,0
52165,-100,4,2,2,60,0,0
52385,-100,4,2,9,60,0,0
52458,-100,4,2,2,60,0,0
52531,-100,4,2,12,60,0,0
52604,-100,4,2,2,60,0,0
52678,-100,4,2,8,60,0,0
52751,-100,4,2,2,60,0,0
52971,-100,4,2,12,60,0,0
53044,-100,4,2,2,60,0,0
53263,-100,4,2,8,60,0,0
53336,-100,4,2,2,60,0,0
53556,-100,4,2,8,60,0,0
53629,-100,4,2,2,60,0,0
54141,-100,4,2,8,60,0,0
54214,-100,4,2,2,60,0,0
54433,-100,4,2,8,60,0,0
54506,-100,4,2,2,60,0,0
54726,-100,4,2,9,60,0,0
54799,-100,4,2,2,60,0,0
54872,-100,4,2,12,60,0,0
54945,-100,4,2,2,60,0,0
55019,-100,4,2,9,60,0,0
55092,-100,4,2,2,60,0,0
55312,-100,4,2,12,60,0,0
55385,-100,4,2,2,60,0,0
55604,-100,4,2,8,60,0,0
55677,-100,4,2,2,60,0,0
55897,-100,4,2,8,60,0,0
55970,-100,4,2,2,60,0,0
56483,-100,4,2,8,60,0,0
56556,-100,4,2,2,60,0,0
56775,-100,4,2,8,60,0,0
56848,-100,4,2,2,60,0,0
57068,-100,4,2,8,60,0,0
57141,-100,4,2,2,60,0,0
57214,-100,4,2,12,60,0,0
57287,-100,4,2,2,60,0,0
57361,-100,4,2,8,60,0,0
57434,-100,4,2,2,60,0,0
57654,-100,4,2,6,60,0,0
57727,-100,4,2,2,60,0,0
57946,-100,4,2,6,60,0,0
58019,-100,4,2,2,60,0,0
58239,-100,4,2,6,60,0,0
58312,-100,4,2,2,60,0,0
58531,-133.333333333333,4,2,1,60,0,0
58605,-133.333333333333,4,2,2,50,0,0
66726,-133.333333333333,4,2,2,50,0,0
67605,-222.222222222221,4,2,2,50,0,0
67751,-181.818181818181,4,2,2,50,0,0
67897,-86.9565217391303,4,2,1,60,0,0
67970,-86.9565217391303,4,2,2,60,0,0
68190,-93.4579439252336,4,2,6,60,0,0
68263,-93.4579439252336,4,2,2,60,0,0
68483,-93.4579439252336,4,2,6,60,0,0
68556,-93.4579439252336,4,2,2,60,0,0
68775,-93.4579439252336,4,2,6,60,0,0
68848,-93.4579439252336,4,2,2,60,0,0
69068,-93.4579439252336,4,2,6,60,0,0
69141,-93.4579439252336,4,2,2,60,0,0
69361,-93.4579439252336,4,2,6,60,0,0
69434,-93.4579439252336,4,2,2,60,0,0
69653,-93.4579439252336,4,2,6,60,0,0
69726,-93.4579439252336,4,2,2,60,0,0
69946,-93.4579439252336,4,2,6,60,0,0
70019,-93.4579439252336,4,2,2,60,0,0
70239,-93.4579439252336,4,2,3,60,0,0
70531,-93.4579439252336,4,2,6,60,0,0
70604,-93.4579439252336,4,2,2,60,0,0
70824,-93.4579439252336,4,2,6,60,0,0
70897,-93.4579439252336,4,2,2,60,0,0
71117,-93.4579439252336,4,2,7,60,0,0
71190,-93.4579439252336,4,2,2,60,0,0
71409,-93.4579439252336,4,2,6,60,0,0
71482,-93.4579439252336,4,2,2,60,0,0
71702,-93.4579439252336,4,2,6,60,0,0
71775,-93.4579439252336,4,2,2,60,0,0
71995,-93.4579439252336,4,2,6,60,0,0
72068,-93.4579439252336,4,2,2,60,0,0
72287,-93.4579439252336,4,2,6,60,0,0
72360,-93.4579439252336,4,2,2,60,0,0
72873,-93.4579439252336,4,2,6,60,0,0
72946,-93.4579439252336,4,2,2,60,0,0
73165,-93.4579439252336,4,2,6,60,0,0
73238,-93.4579439252336,4,2,2,60,0,0
73458,-93.4579439252336,4,2,7,60,0,0
73531,-93.4579439252336,4,2,2,60,0,0
73751,-93.4579439252336,4,2,7,60,0,0
73824,-93.4579439252336,4,2,2,60,0,0
74044,-93.4579439252336,4,2,6,60,0,0
74117,-93.4579439252336,4,2,2,60,0,0
74336,-93.4579439252336,4,2,6,60,0,0
74409,-93.4579439252336,4,2,2,60,0,0
74629,-93.4579439252336,4,2,6,60,0,0
74702,-93.4579439252336,4,2,2,60,0,0
74922,-93.4579439252336,4,2,1,60,0,0
74995,-93.4579439252336,4,2,2,60,0,0
76678,-147.058823529412,4,2,2,60,0,0
77117,-81.9672131147541,4,2,1,80,0,0
77190,-81.9672131147541,4,2,2,80,0,0
77409,-83.3333333333333,4,2,2,80,0,0
77556,-83.3333333333333,4,2,6,80,0,0
77629,-83.3333333333333,4,2,2,80,0,0
77848,-83.3333333333333,4,2,6,80,0,0
77921,-83.3333333333333,4,2,2,80,0,0
78141,-83.3333333333333,4,2,6,80,0,0
78214,-83.3333333333333,4,2,2,80,0,0
78287,-80,4,2,2,80,0,0
78434,-80,4,2,6,80,0,0
78507,-80,4,2,2,80,0,0
78580,-83.3333333333333,4,2,2,80,0,0
78726,-83.3333333333333,4,2,6,80,0,0
78799,-83.3333333333333,4,2,2,80,0,0
79019,-83.3333333333333,4,2,6,80,0,0
79092,-83.3333333333333,4,2,2,80,0,0
79312,-83.3333333333333,4,2,6,80,0,0
79385,-83.3333333333333,4,2,2,80,0,0
79458,-80,4,2,3,80,0,0
79751,-83.3333333333333,4,2,3,80,0,0
79897,-83.3333333333333,4,2,6,80,0,0
79970,-83.3333333333333,4,2,2,80,0,0
80190,-83.3333333333333,4,2,6,80,0,0
80263,-83.3333333333333,4,2,2,80,0,0
80483,-83.3333333333333,4,2,6,80,0,0
80556,-83.3333333333333,4,2,2,80,0,0
80775,-83.3333333333333,4,2,6,80,0,0
80848,-83.3333333333333,4,2,2,80,0,0
81068,-83.3333333333333,4,2,6,80,0,0
81141,-83.3333333333333,4,2,2,80,0,0
81361,-83.3333333333333,4,2,6,80,0,0
81434,-83.3333333333333,4,2,2,80,0,0
81653,-83.3333333333333,4,2,6,80,0,0
81726,-83.3333333333333,4,2,2,80,0,0
81800,-80,4,2,2,80,0,0
82093,-83.3333333333333,4,2,2,80,0,0
82239,-83.3333333333333,4,2,6,80,0,0
82312,-83.3333333333333,4,2,2,80,0,0
82531,-83.3333333333333,4,2,6,80,0,0
82604,-83.3333333333333,4,2,2,80,0,0
82824,-83.3333333333333,4,2,6,80,0,0
82897,-83.3333333333333,4,2,2,80,0,0
83117,-83.3333333333333,4,2,6,80,0,0
83190,-83.3333333333333,4,2,2,80,0,0
83409,-83.3333333333333,4,2,6,80,0,0
83482,-83.3333333333333,4,2,2,80,0,0
83702,-83.3333333333333,4,2,6,80,0,0
83775,-83.3333333333333,4,2,2,80,0,0
83995,-83.3333333333333,4,2,6,80,0,0
84068,-83.3333333333333,4,2,2,80,0,0
84287,-83.3333333333333,4,2,7,80,0,0
84360,-83.3333333333333,4,2,2,80,0,0
84580,-83.3333333333333,4,2,6,80,0,0
84653,-83.3333333333333,4,2,2,80,0,0
84873,-83.3333333333333,4,2,6,80,0,0
84946,-83.3333333333333,4,2,2,80,0,0
85165,-83.3333333333333,4,2,6,80,0,0
85238,-83.3333333333333,4,2,2,80,0,0
85458,-83.3333333333333,4,2,6,80,0,0
85531,-83.3333333333333,4,2,2,80,0,0
85751,-83.3333333333333,4,2,6,80,0,0
85824,-83.3333333333333,4,2,2,80,0,0
86044,-83.3333333333333,4,2,5,80,0,0
86629,-80,4,2,3,80,0,0
86922,-83.3333333333333,4,2,6,80,0,0
86995,-83.3333333333333,4,2,2,80,0,0
87214,-83.3333333333333,4,2,6,80,0,0
87287,-83.3333333333333,4,2,2,80,0,0
87507,-83.3333333333333,4,2,6,80,0,0
87580,-83.3333333333333,4,2,2,80,0,0
87800,-83.3333333333333,4,2,6,80,0,0
87873,-83.3333333333333,4,2,2,80,0,0
88092,-83.3333333333333,4,2,6,80,0,0
88165,-83.3333333333333,4,2,2,80,0,0
88385,-83.3333333333333,4,2,6,80,0,0
88458,-83.3333333333333,4,2,2,80,0,0
88678,-83.3333333333333,4,2,6,80,0,0
88751,-83.3333333333333,4,2,2,80,0,0
88970,-80,4,2,2,80,0,0
89263,-83.3333333333333,4,2,6,80,0,0
89336,-83.3333333333333,4,2,2,80,0,0
89556,-83.3333333333333,4,2,6,80,0,0
89629,-83.3333333333333,4,2,2,80,0,0
89848,-83.3333333333333,4,2,6,80,0,0
89921,-83.3333333333333,4,2,2,80,0,0
90141,-83.3333333333333,4,2,6,80,0,0
90214,-83.3333333333333,4,2,2,80,0,0
90434,-83.3333333333333,4,2,6,80,0,0
90507,-83.3333333333333,4,2,2,80,0,0
90726,-83.3333333333333,4,2,6,80,0,0
90799,-83.3333333333333,4,2,2,80,0,0
91019,-83.3333333333333,4,2,6,80,0,0
91092,-83.3333333333333,4,2,2,80,0,0
91312,-76.9230769230769,4,2,3,80,0,0
91605,-83.3333333333333,4,2,6,80,0,0
91678,-83.3333333333333,4,2,2,80,0,0
91897,-83.3333333333333,4,2,6,80,0,0
91970,-83.3333333333333,4,2,2,80,0,0
92190,-83.3333333333333,4,2,7,80,0,0
92263,-83.3333333333333,4,2,2,80,0,0
92483,-83.3333333333333,4,2,6,80,0,0
92556,-83.3333333333333,4,2,2,80,0,0
92775,-83.3333333333333,4,2,6,80,0,0
92848,-83.3333333333333,4,2,2,80,0,0
93068,-83.3333333333333,4,2,6,80,0,0
93141,-83.3333333333333,4,2,2,80,0,0
93361,-83.3333333333333,4,2,6,80,0,0
93434,-83.3333333333333,4,2,2,80,0,0
93653,-76.9230769230769,4,2,2,80,0,0
93946,-83.3333333333333,4,2,6,80,0,0
94019,-83.3333333333333,4,2,2,80,0,0
94239,-83.3333333333333,4,2,6,80,0,0
94312,-83.3333333333333,4,2,2,80,0,0
94531,-83.3333333333333,4,2,6,80,0,0
94604,-83.3333333333333,4,2,2,80,0,0
94824,-83.3333333333333,4,2,7,80,0,0
94897,-83.3333333333333,4,2,2,80,0,0
95117,-83.3333333333333,4,2,6,80,0,0
95190,-83.3333333333333,4,2,2,80,0,0
95409,-83.3333333333333,4,2,5,80,0,0
95995,-90.0900900900901,4,2,1,75,0,0
96068,-90.0900900900901,4,2,2,75,0,0
96287,-90.0900900900901,4,2,6,75,0,0
96361,-90.0900900900901,4,2,2,75,0,0
96580,-90.0900900900901,4,2,6,75,0,0
96654,-90.0900900900901,4,2,2,75,0,0
96873,-90.0900900900901,4,2,7,75,0,0
96947,-90.0900900900901,4,2,2,75,0,0
97165,-90.0900900900901,4,2,6,75,0,0
97239,-90.0900900900901,4,2,2,75,0,0
97458,-90.0900900900901,4,2,6,75,0,0
97532,-90.0900900900901,4,2,2,75,0,0
97751,-90.0900900900901,4,2,6,75,0,0
97825,-90.0900900900901,4,2,2,75,0,0
98044,-90.0900900900901,4,2,6,75,0,0
98118,-90.0900900900901,4,2,2,75,0,0
98336,-90.0900900900901,4,2,3,75,0,0
98629,-90.0900900900901,4,2,6,75,0,0
98703,-90.0900900900901,4,2,2,75,0,0
98922,-90.0900900900901,4,2,6,75,0,0
98996,-90.0900900900901,4,2,2,75,0,0
99214,-90.0900900900901,4,2,7,75,0,0
99288,-90.0900900900901,4,2,2,75,0,0
99507,-90.0900900900901,4,2,6,75,0,0
99581,-90.0900900900901,4,2,2,75,0,0
99800,-90.0900900900901,4,2,6,75,0,0
99874,-90.0900900900901,4,2,2,75,0,0
100092,-90.0900900900901,4,2,6,75,0,0
100166,-90.0900900900901,4,2,2,75,0,0
100385,-98.0392156862745,4,2,6,75,0,0
100459,-98.0392156862745,4,2,2,75,0,0
100678,-90.0900900900901,4,2,3,75,0,0
100970,-90.0900900900901,4,2,6,75,0,0
101044,-90.0900900900901,4,2,2,75,0,0
101263,-90.0900900900901,4,2,6,75,0,0
101337,-90.0900900900901,4,2,2,75,0,0
101556,-90.0900900900901,4,2,7,75,0,0
101630,-90.0900900900901,4,2,2,75,0,0
101848,-90.0900900900901,4,2,6,75,0,0
101922,-90.0900900900901,4,2,2,75,0,0
102141,-90.0900900900901,4,2,6,75,0,0
102215,-90.0900900900901,4,2,2,75,0,0
102434,-90.0900900900901,4,2,6,75,0,0
102508,-90.0900900900901,4,2,2,75,0,0
102727,-90.0900900900901,4,2,6,75,0,0
102801,-90.0900900900901,4,2,2,75,0,0
103019,-86.2068965517241,4,2,2,75,0,0
103312,-90.0900900900901,4,2,6,75,0,0
103386,-90.0900900900901,4,2,2,75,0,0
103605,-90.0900900900901,4,2,6,75,0,0
103679,-90.0900900900901,4,2,2,75,0,0
103898,-90.0900900900901,4,2,7,75,0,0
103972,-90.0900900900901,4,2,2,75,0,0
104190,-90.0900900900901,4,2,6,75,0,0
104264,-90.0900900900901,4,2,2,75,0,0
104483,-90.0900900900901,4,2,6,75,0,0
104557,-90.0900900900901,4,2,2,75,0,0
105361,-90.0900900900901,4,2,3,75,0,0
105653,-90.0900900900901,4,2,6,75,0,0
105727,-90.0900900900901,4,2,2,75,0,0
105946,-90.0900900900901,4,2,6,75,0,0
106020,-90.0900900900901,4,2,2,75,0,0
106239,-90.0900900900901,4,2,7,75,0,0
106313,-90.0900900900901,4,2,2,75,0,0
106531,-90.0900900900901,4,2,6,75,0,0
106605,-90.0900900900901,4,2,2,75,0,0
106824,-90.0900900900901,4,2,6,75,0,0
106898,-90.0900900900901,4,2,2,75,0,0
107117,-90.0900900900901,4,2,6,75,0,0
107191,-90.0900900900901,4,2,2,75,0,0
107410,-90.0900900900901,4,2,6,75,0,0
107484,-90.0900900900901,4,2,2,75,0,0
107995,-90.0900900900901,4,2,6,75,0,0
108069,-90.0900900900901,4,2,2,75,0,0
108288,-90.0900900900901,4,2,6,75,0,0
108362,-90.0900900900901,4,2,2,75,0,0
108581,-90.0900900900901,4,2,7,75,0,0
108655,-90.0900900900901,4,2,2,75,0,0
108873,-90.0900900900901,4,2,6,75,0,0
108947,-90.0900900900901,4,2,2,75,0,0
109166,-90.0900900900901,4,2,6,75,0,0
109240,-90.0900900900901,4,2,2,75,0,0
109459,-90.0900900900901,4,2,6,75,0,0
109533,-90.0900900900901,4,2,2,75,0,0
109751,-96.1538461538461,4,2,6,75,0,0
109826,-96.1538461538461,4,2,2,75,0,0
110044,-90.0900900900901,4,2,3,75,0,0
110336,-90.0900900900901,4,2,6,75,0,0
110410,-90.0900900900901,4,2,2,75,0,0
110629,-90.0900900900901,4,2,6,75,0,0
110703,-90.0900900900901,4,2,2,75,0,0
110922,-90.0900900900901,4,2,7,75,0,0
110996,-90.0900900900901,4,2,2,75,0,0
111214,-90.0900900900901,4,2,6,75,0,0
111288,-90.0900900900901,4,2,2,75,0,0
111507,-90.0900900900901,4,2,6,75,0,0
111581,-90.0900900900901,4,2,2,75,0,0
111800,-90.0900900900901,4,2,6,75,0,0
111874,-90.0900900900901,4,2,2,75,0,0
112093,-90.0900900900901,4,2,6,75,0,0
112167,-90.0900900900901,4,2,2,75,0,0
112385,-90.0900900900901,4,2,3,75,0,0
112678,-90.0900900900901,4,2,6,75,0,0
112752,-90.0900900900901,4,2,2,75,0,0
112971,-90.0900900900901,4,2,6,75,0,0
113045,-90.0900900900901,4,2,2,75,0,0
113264,-90.0900900900901,4,2,7,75,0,0
113338,-90.0900900900901,4,2,2,75,0,0
113556,-90.0900900900901,4,2,6,75,0,0
113630,-90.0900900900901,4,2,2,75,0,0
113849,-90.0900900900901,4,2,6,75,0,0
113923,-90.0900900900901,4,2,2,75,0,0
114580,-99.9999999999999,4,2,1,65,0,0
114653,-99.9999999999999,4,2,2,65,0,0
115019,-133.333333333333,4,2,8,65,0,0
115092,-133.333333333333,4,2,2,65,0,0
115312,-133.333333333333,4,2,8,65,0,0
115385,-133.333333333333,4,2,2,65,0,0
115605,-133.333333333333,4,2,9,65,0,0
115678,-133.333333333333,4,2,2,65,0,0
115751,-133.333333333333,4,2,12,65,0,0
115824,-133.333333333333,4,2,2,65,0,0
115897,-133.333333333333,4,2,8,65,0,0
115970,-133.333333333333,4,2,2,65,0,0
116190,-133.333333333333,4,2,12,65,0,0
116263,-133.333333333333,4,2,2,65,0,0
116483,-133.333333333333,4,2,8,65,0,0
116556,-133.333333333333,4,2,2,65,0,0
116775,-133.333333333333,4,2,8,65,0,0
116848,-133.333333333333,4,2,2,65,0,0
117361,-133.333333333333,4,2,8,65,0,0
117434,-133.333333333333,4,2,2,65,0,0
117654,-133.333333333333,4,2,8,65,0,0
117727,-133.333333333333,4,2,2,65,0,0
117947,-133.333333333333,4,2,8,65,0,0
118020,-133.333333333333,4,2,2,65,0,0
118093,-133.333333333333,4,2,12,65,0,0
118166,-133.333333333333,4,2,2,65,0,0
118239,-133.333333333333,4,2,9,65,0,0
118312,-133.333333333333,4,2,2,65,0,0
118532,-133.333333333333,4,2,12,65,0,0
118605,-133.333333333333,4,2,2,65,0,0
118825,-133.333333333333,4,2,8,65,0,0
118898,-133.333333333333,4,2,2,65,0,0
119117,-133.333333333333,4,2,8,65,0,0
119190,-133.333333333333,4,2,2,65,0,0
119702,-133.333333333333,4,2,8,65,0,0
119775,-133.333333333333,4,2,2,65,0,0
119995,-133.333333333333,4,2,8,65,0,0
120068,-133.333333333333,4,2,2,65,0,0
120288,-133.333333333333,4,2,9,65,0,0
120361,-133.333333333333,4,2,2,65,0,0
120434,-133.333333333333,4,2,12,65,0,0
120507,-133.333333333333,4,2,2,65,0,0
120580,-133.333333333333,4,2,8,65,0,0
120653,-133.333333333333,4,2,2,65,0,0
120873,-133.333333333333,4,2,12,65,0,0
120946,-133.333333333333,4,2,2,65,0,0
121166,-133.333333333333,4,2,8,65,0,0
121239,-133.333333333333,4,2,2,65,0,0
121458,-133.333333333333,4,2,8,65,0,0
121531,-133.333333333333,4,2,2,65,0,0
122044,-133.333333333333,4,2,8,65,0,0
122117,-133.333333333333,4,2,2,65,0,0
122337,-133.333333333333,4,2,8,65,0,0
122410,-133.333333333333,4,2,2,65,0,0
122630,-133.333333333333,4,2,8,65,0,0
122703,-133.333333333333,4,2,2,65,0,0
122776,-133.333333333333,4,2,12,65,0,0
122849,-133.333333333333,4,2,2,65,0,0
122922,-133.333333333333,4,2,9,65,0,0
122995,-133.333333333333,4,2,2,65,0,0
123215,-133.333333333333,4,2,12,65,0,0
123288,-133.333333333333,4,2,2,65,0,0
123508,-133.333333333333,4,2,8,65,0,0
123581,-133.333333333333,4,2,2,65,0,0
123800,-133.333333333333,4,2,8,65,0,0
123873,-133.333333333333,4,2,2,65,0,0
124385,-133.333333333333,4,2,8,65,0,0
124458,-133.333333333333,4,2,2,65,0,0
124678,-133.333333333333,4,2,8,65,0,0
124751,-133.333333333333,4,2,2,65,0,0
124971,-133.333333333333,4,2,9,65,0,0
125044,-133.333333333333,4,2,2,65,0,0
125117,-133.333333333333,4,2,12,65,0,0
125190,-133.333333333333,4,2,2,65,0,0
125263,-133.333333333333,4,2,8,65,0,0
125336,-133.333333333333,4,2,2,65,0,0
125556,-133.333333333333,4,2,12,65,0,0
125629,-133.333333333333,4,2,2,65,0,0
125849,-133.333333333333,4,2,8,65,0,0
125922,-133.333333333333,4,2,2,65,0,0
126141,-133.333333333333,4,2,8,65,0,0
126214,-133.333333333333,4,2,2,65,0,0
126726,-133.333333333333,4,2,8,65,0,0
126799,-133.333333333333,4,2,2,65,0,0
127019,-133.333333333333,4,2,8,65,0,0
127092,-133.333333333333,4,2,2,65,0,0
127312,-133.333333333333,4,2,8,65,0,0
127385,-133.333333333333,4,2,2,65,0,0
127458,-133.333333333333,4,2,12,65,0,0
127531,-133.333333333333,4,2,2,65,0,0
127604,-133.333333333333,4,2,9,65,0,0
127677,-133.333333333333,4,2,2,65,0,0
127897,-133.333333333333,4,2,12,65,0,0
127970,-133.333333333333,4,2,2,65,0,0
128190,-133.333333333333,4,2,8,65,0,0
128263,-133.333333333333,4,2,2,65,0,0
128482,-133.333333333333,4,2,8,65,0,0
128555,-133.333333333333,4,2,2,65,0,0
129068,-133.333333333333,4,2,8,65,0,0
129141,-133.333333333333,4,2,2,65,0,0
129361,-133.333333333333,4,2,8,65,0,0
129434,-133.333333333333,4,2,2,65,0,0
129654,-133.333333333333,4,2,9,65,0,0
129727,-133.333333333333,4,2,2,65,0,0
129800,-133.333333333333,4,2,12,65,0,0
129873,-133.333333333333,4,2,2,65,0,0
129946,-133.333333333333,4,2,8,65,0,0
130019,-133.333333333333,4,2,2,65,0,0
130239,-133.333333333333,4,2,12,65,0,0
130312,-133.333333333333,4,2,2,65,0,0
130532,-133.333333333333,4,2,8,65,0,0
130605,-133.333333333333,4,2,2,65,0,0
130824,-133.333333333333,4,2,8,65,0,0
130897,-133.333333333333,4,2,2,65,0,0
131409,-133.333333333333,4,2,8,65,0,0
131482,-133.333333333333,4,2,2,65,0,0
131702,-133.333333333333,4,2,8,65,0,0
131775,-133.333333333333,4,2,2,65,0,0
131995,-133.333333333333,4,2,8,65,0,0
132068,-133.333333333333,4,2,2,65,0,0
132141,-133.333333333333,4,2,12,65,0,0
132214,-133.333333333333,4,2,2,65,0,0
132287,-121.951219512195,4,2,9,65,0,0
132360,-121.951219512195,4,2,2,65,0,0
132580,-121.951219512195,4,2,6,65,0,0
132653,-121.951219512195,4,2,2,65,0,0
132873,-113.636363636364,4,2,6,65,0,0
132946,-113.636363636364,4,2,2,65,0,0
133165,-100,4,2,6,65,0,0
133238,-100,4,2,2,65,0,0
133458,-153.846153846153,4,2,1,65,0,0
133531,-153.846153846153,4,2,2,50,0,0
142824,-100,4,2,1,65,0,0
142897,-100,4,2,2,65,0,0
143117,-100,4,2,6,65,0,0
143190,-100,4,2,2,65,0,0
143409,-100,4,2,6,65,0,0
143482,-100,4,2,2,65,0,0
143702,-100,4,2,6,65,0,0
143775,-100,4,2,2,65,0,0
143995,-100,4,2,6,65,0,0
144068,-100,4,2,2,65,0,0
144287,-100,4,2,6,65,0,0
144360,-100,4,2,2,65,0,0
144580,-100,4,2,6,65,0,0
144653,-100,4,2,2,65,0,0
144873,-100,4,2,6,65,0,0
144946,-100,4,2,2,65,0,0
145165,-100,4,2,3,65,0,0
145458,-100,4,2,6,65,0,0
145531,-100,4,2,2,65,0,0
145751,-100,4,2,6,65,0,0
145824,-100,4,2,2,65,0,0
146044,-100,4,2,6,65,0,0
146117,-100,4,2,2,65,0,0
146336,-100,4,2,7,65,0,0
146409,-100,4,2,2,65,0,0
146629,-100,4,2,6,65,0,0
146702,-100,4,2,2,65,0,0
146922,-100,4,2,6,65,0,0
146995,-100,4,2,2,65,0,0
147214,-100,4,2,6,65,0,0
147287,-100,4,2,2,65,0,0
147800,-100,4,2,6,65,0,0
147873,-100,4,2,2,65,0,0
148092,-100,4,2,6,65,0,0
148165,-100,4,2,2,65,0,0
148385,-100,4,2,6,65,0,0
148458,-100,4,2,2,65,0,0
148678,-100,4,2,7,65,0,0
148751,-100,4,2,2,65,0,0
148970,-100,4,2,6,65,0,0
149043,-100,4,2,2,65,0,0
149263,-100,4,2,6,65,0,0
149336,-100,4,2,2,65,0,0
149556,-100,4,2,6,65,0,0
149629,-100,4,2,2,65,0,0
149848,-100,4,2,1,65,0,0
149922,-100,4,2,2,50,0,0
152117,-100,4,2,2,5,0,0
152190,-100,4,2,2,50,0,0
153946,-100,4,2,2,65,0,0
154385,-81.9672131147541,4,2,1,80,0,0
154458,-81.9672131147541,4,2,2,80,0,0
154824,-83.3333333333333,4,2,6,80,0,0
154897,-83.3333333333333,4,2,2,80,0,0
155116,-83.3333333333333,4,2,6,80,0,0
155189,-83.3333333333333,4,2,2,80,0,0
155409,-83.3333333333333,4,2,6,80,0,0
155482,-83.3333333333333,4,2,2,80,0,0
155702,-83.3333333333333,4,2,6,80,0,0
155775,-83.3333333333333,4,2,2,80,0,0
155994,-83.3333333333333,4,2,6,80,0,0
156067,-83.3333333333333,4,2,2,80,0,0
156287,-83.3333333333333,4,2,6,80,0,0
156360,-83.3333333333333,4,2,2,80,0,0
156580,-83.3333333333333,4,2,6,80,0,0
156653,-83.3333333333333,4,2,2,80,0,0
156726,-80,4,2,3,80,0,0
157165,-83.3333333333333,4,2,6,80,0,0
157238,-83.3333333333333,4,2,2,80,0,0
157458,-83.3333333333333,4,2,6,80,0,0
157531,-83.3333333333333,4,2,2,80,0,0
157751,-83.3333333333333,4,2,6,80,0,0
157824,-83.3333333333333,4,2,2,80,0,0
158043,-83.3333333333333,4,2,6,80,0,0
158116,-83.3333333333333,4,2,2,80,0,0
158336,-83.3333333333333,4,2,6,80,0,0
158409,-83.3333333333333,4,2,2,80,0,0
158629,-83.3333333333333,4,2,6,80,0,0
158702,-83.3333333333333,4,2,2,80,0,0
158921,-83.3333333333333,4,2,6,80,0,0
158994,-83.3333333333333,4,2,2,80,0,0
159068,-76.9230769230769,4,2,2,80,0,0
159361,-83.3333333333333,4,2,2,80,0,0
159507,-83.3333333333333,4,2,6,80,0,0
159580,-83.3333333333333,4,2,2,80,0,0
159799,-83.3333333333333,4,2,6,80,0,0
159872,-83.3333333333333,4,2,2,80,0,0
160092,-83.3333333333333,4,2,6,80,0,0
160165,-83.3333333333333,4,2,2,80,0,0
160385,-83.3333333333333,4,2,6,80,0,0
160458,-83.3333333333333,4,2,2,80,0,0
160677,-83.3333333333333,4,2,6,80,0,0
160750,-83.3333333333333,4,2,2,80,0,0
160970,-83.3333333333333,4,2,6,80,0,0
161043,-83.3333333333333,4,2,2,80,0,0
161263,-83.3333333333333,4,2,6,80,0,0
161336,-83.3333333333333,4,2,2,80,0,0
161556,-80,4,2,7,80,0,0
161628,-80,4,2,2,80,0,0
161848,-83.3333333333333,4,2,6,80,0,0
161921,-83.3333333333333,4,2,2,80,0,0
162141,-83.3333333333333,4,2,6,80,0,0
162214,-83.3333333333333,4,2,2,80,0,0
162433,-83.3333333333333,4,2,6,80,0,0
162506,-83.3333333333333,4,2,2,80,0,0
162726,-83.3333333333333,4,2,6,80,0,0
162799,-83.3333333333333,4,2,2,80,0,0
163019,-83.3333333333333,4,2,6,80,0,0
163092,-83.3333333333333,4,2,2,80,0,0
163312,-83.3333333333333,4,2,5,80,0,0
163897,-78.7401574803149,4,2,3,80,0,0
164190,-83.3333333333333,4,2,6,80,0,0
164263,-83.3333333333333,4,2,2,80,0,0
164482,-83.3333333333333,4,2,6,80,0,0
164555,-83.3333333333333,4,2,2,80,0,0
164775,-83.3333333333333,4,2,6,80,0,0
164848,-83.3333333333333,4,2,2,80,0,0
165068,-83.3333333333333,4,2,6,80,0,0
165141,-83.3333333333333,4,2,2,80,0,0
165360,-83.3333333333333,4,2,6,80,0,0
165433,-83.3333333333333,4,2,2,80,0,0
165653,-83.3333333333333,4,2,6,80,0,0
165726,-83.3333333333333,4,2,2,80,0,0
165946,-83.3333333333333,4,2,6,80,0,0
166019,-83.3333333333333,4,2,2,80,0,0
166239,-76.9230769230769,4,2,2,80,0,0
166531,-83.3333333333333,4,2,6,80,0,0
166604,-83.3333333333333,4,2,2,80,0,0
166824,-83.3333333333333,4,2,6,80,0,0
166897,-83.3333333333333,4,2,2,80,0,0
167116,-83.3333333333333,4,2,6,80,0,0
167189,-83.3333333333333,4,2,2,80,0,0
167409,-83.3333333333333,4,2,6,80,0,0
167482,-83.3333333333333,4,2,2,80,0,0
167702,-83.3333333333333,4,2,6,80,0,0
167775,-83.3333333333333,4,2,2,80,0,0
167994,-83.3333333333333,4,2,6,80,0,0
168067,-83.3333333333333,4,2,2,80,0,0
168287,-83.3333333333333,4,2,6,80,0,0
168360,-83.3333333333333,4,2,2,80,0,0
168580,-83.3333333333333,4,2,3,80,0,0
168873,-83.3333333333333,4,2,6,80,0,0
168946,-83.3333333333333,4,2,2,80,0,0
169165,-83.3333333333333,4,2,6,80,0,0
169238,-83.3333333333333,4,2,2,80,0,0
169458,-83.3333333333333,4,2,7,80,0,0
169531,-83.3333333333333,4,2,2,80,0,0
169751,-83.3333333333333,4,2,6,80,0,0
169824,-83.3333333333333,4,2,2,80,0,0
170043,-83.3333333333333,4,2,6,80,0,0
170116,-83.3333333333333,4,2,2,80,0,0
170336,-83.3333333333333,4,2,6,80,0,0
170409,-83.3333333333333,4,2,2,80,0,0
170629,-83.3333333333333,4,2,6,80,0,0
170702,-83.3333333333333,4,2,2,80,0,0
170922,-80,4,2,2,80,0,0
171214,-83.3333333333333,4,2,6,80,0,0
171287,-83.3333333333333,4,2,2,80,0,0
171507,-83.3333333333333,4,2,6,80,0,0
171580,-83.3333333333333,4,2,2,80,0,0
171799,-83.3333333333333,4,2,6,80,0,0
171872,-83.3333333333333,4,2,2,80,0,0
172092,-83.3333333333333,4,2,7,80,0,0
172165,-83.3333333333333,4,2,2,80,0,0
172385,-83.3333333333333,4,2,6,80,0,0
172458,-83.3333333333333,4,2,2,80,0,0
172677,-83.3333333333333,4,2,5,80,0,0
173263,-87.719298245614,4,2,2,75,0,0
173556,-75.7575757575758,4,2,6,75,0,0
173629,-75.7575757575758,4,2,2,75,0,0
173848,-87.719298245614,4,2,6,75,0,0
173921,-87.719298245614,4,2,2,75,0,0
174141,-78.125,4,2,3,75,0,0
174434,-87.719298245614,4,2,6,75,0,0
174507,-87.719298245614,4,2,2,75,0,0
175312,-87.719298245614,4,2,3,75,0,0
175458,-87.719298245614,4,2,4,75,0,0
175605,-74.6268656716418,4,2,2,75,0,0
175897,-87.719298245614,4,2,6,75,0,0
175970,-87.719298245614,4,2,2,75,0,0
176190,-87.719298245614,4,2,6,75,0,0
176263,-87.719298245614,4,2,2,75,0,0
176483,-87.719298245614,4,2,6,75,0,0
176556,-87.719298245614,4,2,2,75,0,0
176775,-87.719298245614,4,2,7,75,0,0
176848,-87.719298245614,4,2,2,75,0,0
177068,-87.719298245614,4,2,6,75,0,0
177141,-87.719298245614,4,2,2,75,0,0
177361,-87.719298245614,4,2,6,75,0,0
177434,-87.719298245614,4,2,2,75,0,0
177653,-87.719298245614,4,2,6,75,0,0
177726,-87.719298245614,4,2,2,75,0,0
177946,-74.6268656716418,4,2,3,75,0,0
178239,-87.719298245614,4,2,6,75,0,0
178312,-87.719298245614,4,2,2,75,0,0
178531,-87.719298245614,4,2,6,75,0,0
178604,-87.719298245614,4,2,2,75,0,0
178678,-81.9672131147541,4,2,2,75,0,0
178824,-81.9672131147541,4,2,6,75,0,0
178897,-81.9672131147541,4,2,2,75,0,0
178970,-90.9090909090909,4,2,2,75,0,0
179117,-90.9090909090909,4,2,7,75,0,0
179190,-90.9090909090909,4,2,2,75,0,0
179409,-90.9090909090909,4,2,6,75,0,0
179482,-90.9090909090909,4,2,2,75,0,0
179702,-90.9090909090909,4,2,6,75,0,0
179775,-90.9090909090909,4,2,2,75,0,0
179995,-90.9090909090909,4,2,6,75,0,0
180068,-90.9090909090909,4,2,2,75,0,0
180287,-80,4,2,2,75,0,0
180580,-90.9090909090909,4,2,6,75,0,0
180653,-90.9090909090909,4,2,2,75,0,0
180873,-90.9090909090909,4,2,6,75,0,0
180946,-90.9090909090909,4,2,2,75,0,0
181165,-90.9090909090909,4,2,7,75,0,0
181238,-90.9090909090909,4,2,2,75,0,0
181312,-86.2068965517241,4,2,2,75,0,0
181458,-86.2068965517241,4,2,6,75,0,0
181531,-86.2068965517241,4,2,2,75,0,0
181751,-86.2068965517241,4,2,6,75,0,0
181824,-86.2068965517241,4,2,2,75,0,0
182629,-84.7457627118644,4,2,3,75,0,0
182922,-73.5294117647059,4,2,6,75,0,0
182995,-73.5294117647059,4,2,2,75,0,0
183214,-86.9565217391304,4,2,6,75,0,0
183287,-86.9565217391304,4,2,2,75,0,0
183507,-86.9565217391304,4,2,6,75,0,0
183580,-86.9565217391304,4,2,2,75,0,0
183800,-86.9565217391304,4,2,6,75,0,0
183873,-86.9565217391304,4,2,2,75,0,0
184092,-86.9565217391304,4,2,6,75,0,0
184165,-86.9565217391304,4,2,2,75,0,0
184385,-86.9565217391304,4,2,6,75,0,0
184458,-86.9565217391304,4,2,2,75,0,0
184678,-86.9565217391304,4,2,6,75,0,0
184751,-86.9565217391304,4,2,2,75,0,0
185263,-73.5294117647059,4,2,6,75,0,0
185336,-73.5294117647059,4,2,2,75,0,0
185556,-86.9565217391304,4,2,6,75,0,0
185629,-86.9565217391304,4,2,2,75,0,0
185848,-86.9565217391304,4,2,7,75,0,0
185921,-86.9565217391304,4,2,2,75,0,0
186141,-86.9565217391304,4,2,6,75,0,0
186214,-86.9565217391304,4,2,2,75,0,0
186434,-86.9565217391304,4,2,6,75,0,0
186507,-86.9565217391304,4,2,2,75,0,0
186726,-86.9565217391304,4,2,6,75,0,0
186799,-86.9565217391304,4,2,2,75,0,0
187019,-86.9565217391304,4,2,6,75,0,0
187092,-86.9565217391304,4,2,2,75,0,0
187312,-75.7575757575758,4,2,3,75,0,0
187605,-75.7575757575758,4,2,6,75,0,0
187678,-75.7575757575758,4,2,2,75,0,0
187751,-84.7457627118644,4,2,2,75,0,0
187897,-84.7457627118644,4,2,6,75,0,0
187970,-84.7457627118644,4,2,2,75,0,0
188190,-84.7457627118644,4,2,7,75,0,0
188263,-84.7457627118644,4,2,2,75,0,0
188483,-84.7457627118644,4,2,6,75,0,0
188556,-84.7457627118644,4,2,2,75,0,0
188775,-84.7457627118644,4,2,6,75,0,0
188848,-84.7457627118644,4,2,2,75,0,0
189068,-84.7457627118644,4,2,6,75,0,0
189141,-84.7457627118644,4,2,2,75,0,0
189361,-84.7457627118644,4,2,6,75,0,0
189434,-84.7457627118644,4,2,2,75,0,0
189653,-72.463768115942,4,2,3,75,0,0
189946,-84.7457627118644,4,2,6,75,0,0
190019,-84.7457627118644,4,2,2,75,0,0
190239,-84.7457627118644,4,2,6,75,0,0
190312,-84.7457627118644,4,2,2,75,0,0
190531,-84.7457627118644,4,2,7,75,0,0
190604,-84.7457627118644,4,2,2,75,0,0
190824,-84.7457627118644,4,2,6,75,0,0
190897,-84.7457627118644,4,2,2,75,0,0
191117,-84.7457627118644,4,2,5,75,0,0
191702,-84.7457627118644,4,2,2,75,0,0
191800,-84.7457627118644,4,2,3,75,0,0
191897,-84.7457627118644,4,2,4,75,0,0
191995,-181.818181818181,4,2,1,75,0,0
192068,-181.818181818181,4,2,2,50,0,0
208385,-142.857142857143,4,2,2,50,0,0
210141,-142.857142857143,4,2,2,70,0,0
210580,-75.7575757575758,4,2,1,80,0,0
210653,-75.7575757575758,4,2,2,80,0,0
210799,-83.3333333333333,4,2,2,80,0,0
210873,-83.3333333333333,4,2,2,80,0,0
211019,-83.3333333333333,4,2,6,80,0,0
211092,-83.3333333333333,4,2,2,80,0,0
211311,-83.3333333333333,4,2,6,80,0,0
211384,-83.3333333333333,4,2,2,80,0,0
211604,-83.3333333333333,4,2,6,80,0,0
211677,-83.3333333333333,4,2,2,80,0,0
211751,-80,4,2,2,80,0,0
211897,-80,4,2,6,80,0,0
211970,-80,4,2,2,80,0,0
212044,-83.3333333333333,4,2,2,80,0,0
212189,-83.3333333333333,4,2,6,80,0,0
212262,-83.3333333333333,4,2,2,80,0,0
212482,-83.3333333333333,4,2,6,80,0,0
212555,-83.3333333333333,4,2,2,80,0,0
212775,-83.3333333333333,4,2,6,80,0,0
212848,-83.3333333333333,4,2,2,80,0,0
212922,-76.9230769230769,4,2,3,80,0,0
213214,-83.3333333333333,4,2,3,80,0,0
213360,-83.3333333333333,4,2,6,80,0,0
213433,-83.3333333333333,4,2,2,80,0,0
213653,-83.3333333333333,4,2,6,80,0,0
213726,-83.3333333333333,4,2,2,80,0,0
213946,-83.3333333333333,4,2,6,80,0,0
214019,-83.3333333333333,4,2,2,80,0,0
214238,-83.3333333333333,4,2,6,80,0,0
214311,-83.3333333333333,4,2,2,80,0,0
214531,-83.3333333333333,4,2,6,80,0,0
214604,-83.3333333333333,4,2,2,80,0,0
214824,-83.3333333333333,4,2,6,80,0,0
214897,-83.3333333333333,4,2,2,80,0,0
215116,-83.3333333333333,4,2,6,80,0,0
215189,-83.3333333333333,4,2,2,80,0,0
215263,-80,4,2,2,80,0,0
215556,-83.3333333333333,4,2,2,80,0,0
215702,-83.3333333333333,4,2,6,80,0,0
215775,-83.3333333333333,4,2,2,80,0,0
215994,-83.3333333333333,4,2,6,80,0,0
216067,-83.3333333333333,4,2,2,80,0,0
216287,-83.3333333333333,4,2,6,80,0,0
216360,-83.3333333333333,4,2,2,80,0,0
216434,-81.9672131147541,4,2,2,80,0,0
216580,-81.9672131147541,4,2,6,80,0,0
216653,-81.9672131147541,4,2,2,80,0,0
216726,-83.3333333333333,4,2,2,80,0,0
216872,-83.3333333333333,4,2,6,80,0,0
216945,-83.3333333333333,4,2,2,80,0,0
217165,-83.3333333333333,4,2,6,80,0,0
217238,-83.3333333333333,4,2,2,80,0,0
217458,-83.3333333333333,4,2,6,80,0,0
217531,-83.3333333333333,4,2,2,80,0,0
217751,-76.9230769230769,4,2,7,80,0,0
217823,-76.9230769230769,4,2,2,80,0,0
218044,-83.3333333333333,4,2,6,80,0,0
218116,-83.3333333333333,4,2,2,80,0,0
218336,-83.3333333333333,4,2,6,80,0,0
218409,-83.3333333333333,4,2,2,80,0,0
218628,-83.3333333333333,4,2,6,80,0,0
218701,-83.3333333333333,4,2,2,80,0,0
218921,-83.3333333333333,4,2,6,80,0,0
218994,-83.3333333333333,4,2,2,80,0,0
219214,-83.3333333333333,4,2,6,80,0,0
219287,-83.3333333333333,4,2,2,80,0,0
219507,-83.3333333333333,4,2,5,80,0,0
220092,-75.187969924812,4,2,3,80,0,0
220385,-83.3333333333333,4,2,6,80,0,0
220458,-83.3333333333333,4,2,2,80,0,0
220677,-83.3333333333333,4,2,6,80,0,0
220750,-83.3333333333333,4,2,2,80,0,0
220970,-83.3333333333333,4,2,6,80,0,0
221043,-83.3333333333333,4,2,2,80,0,0
221263,-83.3333333333333,4,2,6,80,0,0
221336,-83.3333333333333,4,2,2,80,0,0
221555,-83.3333333333333,4,2,6,80,0,0
221628,-83.3333333333333,4,2,2,80,0,0
221848,-83.3333333333333,4,2,6,80,0,0
221921,-83.3333333333333,4,2,2,80,0,0
222141,-83.3333333333333,4,2,6,80,0,0
222214,-83.3333333333333,4,2,2,80,0,0
222434,-76.9230769230769,4,2,2,80,0,0
222726,-83.3333333333333,4,2,6,80,0,0
222799,-83.3333333333333,4,2,2,80,0,0
223019,-83.3333333333333,4,2,6,80,0,0
223092,-83.3333333333333,4,2,2,80,0,0
223311,-83.3333333333333,4,2,6,80,0,0
223384,-83.3333333333333,4,2,2,80,0,0
223604,-83.3333333333333,4,2,6,80,0,0
223677,-83.3333333333333,4,2,2,80,0,0
223897,-83.3333333333333,4,2,6,80,0,0
223970,-83.3333333333333,4,2,2,80,0,0
224189,-83.3333333333333,4,2,6,80,0,0
224262,-83.3333333333333,4,2,2,80,0,0
224482,-83.3333333333333,4,2,6,80,0,0
224555,-83.3333333333333,4,2,2,80,0,0
224775,-74.0740740740741,4,2,2,80,0,0
225068,-74.0740740740741,4,2,6,80,0,0
225141,-74.0740740740741,4,2,2,80,0,0
225361,-74.0740740740741,4,2,6,80,0,0
225434,-74.0740740740741,4,2,2,80,0,0
225653,-74.0740740740741,4,2,6,80,0,0
225726,-74.0740740740741,4,2,2,80,0,0
225800,-76.9230769230769,4,2,3,80,0,0
226239,-76.9230769230769,4,2,6,80,0,0
226312,-76.9230769230769,4,2,2,80,0,0
226531,-76.9230769230769,4,2,7,80,0,0
226604,-76.9230769230769,4,2,2,80,0,0
226678,-76.9230769230769,4,2,1,80,0,0
226824,-76.9230769230769,4,2,2,80,0,0
226970,-76.9230769230769,4,2,3,80,0,0
227117,-71.4285714285714,4,2,2,80,0,0
227409,-76.9230769230769,4,2,6,80,0,0
227482,-76.9230769230769,4,2,2,80,0,0
227702,-76.9230769230769,4,2,6,80,0,0
227775,-76.9230769230769,4,2,2,80,0,0
227995,-76.9230769230769,4,2,6,80,0,0
228068,-76.9230769230769,4,2,2,80,0,0
228141,-76.9230769230769,4,2,3,80,0,0
228726,-76.9230769230769,4,2,2,80,0,0
229312,-76.9230769230769,4,2,3,80,0,0
229458,-76.9230769230769,4,2,1,80,0,0
229531,-76.9230769230769,4,2,2,60,0,0
231800,-100,4,2,2,75,0,0
231873,-100,4,2,5,75,0,0
232239,-90.9090909090909,4,2,3,75,0,0
232312,-90.9090909090909,4,2,5,75,0,0
232678,-83.3333333333333,4,2,2,75,0,0
232751,-83.3333333333333,4,2,5,75,0,0
233117,-83.3333333333333,4,2,3,75,0,0
233190,-83.3333333333333,4,2,5,75,0,0
234141,-83.3333333333333,4,2,2,75,0,0
234214,-83.3333333333333,4,2,5,75,0,0
234580,-83.3333333333333,4,2,3,75,0,0
234653,-83.3333333333333,4,2,5,75,0,0
235019,-83.3333333333333,4,2,2,75,0,0
235092,-83.3333333333333,4,2,5,75,0,0
235458,-83.3333333333333,4,2,3,75,0,0
235531,-83.3333333333333,4,2,5,75,0,0
236483,-83.3333333333333,4,2,2,75,0,0
236556,-83.3333333333333,4,2,5,75,0,0
236922,-83.3333333333333,4,2,3,75,0,0
236995,-83.3333333333333,4,2,5,75,0,0
237361,-83.3333333333333,4,2,2,75,0,0
237434,-83.3333333333333,4,2,5,75,0,0
237800,-83.3333333333333,4,2,3,75,0,0
237873,-83.3333333333333,4,2,5,75,0,0
238824,-83.3333333333333,4,2,2,75,0,0
238897,-83.3333333333333,4,2,5,75,0,0
239263,-83.3333333333333,4,2,3,75,0,0
239336,-83.3333333333333,4,2,5,75,0,0
239702,-83.3333333333333,4,2,2,75,0,0
239775,-83.3333333333333,4,2,5,75,0,0
240141,-83.3333333333333,4,2,3,75,0,0
240214,-83.3333333333333,4,2,5,75,0,0
241165,-83.3333333333333,4,2,2,75,0,0
241238,-83.3333333333333,4,2,5,75,0,0
241604,-83.3333333333333,4,2,3,75,0,0
241677,-83.3333333333333,4,2,5,75,0,0
242190,-83.3333333333333,4,2,4,75,0,0

[Colours]
Combo1 : 170,255,170
Combo2 : 255,255,164

[HitObjects]
166,375,2336,6,0,P|113:369|85:326,2,107.999996704102,2|2|2,0:0|0:0|0:0,0:0:0:0:
232,334,3214,1,2,0:0:0:0:
240,340,3800,6,0,P|255:301|272:274,1,53.9999983520508,2|0,0:0|0:0,0:0:0:0:
142,160,4092,2,0,P|163:204|182:278,2,107.999996704102,2|2|0,0:0|0:0|0:0,0:0:0:0:
9,20,4970,6,0,P|42:37|100:43,1,80.9999975280763,2|0,0:0|0:0,0:0:0:0:
99,53,5263,1,2,0:0:0:0:
144,161,5556,2,0,B|176:81|262:106|262:106|279:150|328:151,1,215.999993408203,2|0,0:0|0:0,0:0:0:0:
512,284,6434,2,0,P|479:267|397:253,1,107.999996704102,2|2,0:0|0:0,0:0:0:0:
224,333,7019,6,0,P|241:364|314:367,2,107.999996704102,2|2|2,0:0|0:0|0:0,0:0:0:0:
314,273,7897,1,2,0:0:0:0:
126,151,8483,2,0,P|78:160|14:192,2,107.999996704102,2|2|2,0:0|0:0|0:0,0:0:0:0:
248,213,9361,6,0,P|305:200|323:138,1,107.999996704102,2|0,0:0|0:0,0:0:0:0:
245,24,9800,2,0,P|229:61|210:130,1,107.999996704102,2|0,0:0|0:0,0:0:0:0:
249,198,10239,1,2,0:0:0:0:
154,282,10385,2,0,P|128:273|102:267,1,53.9999983520508
164,370,10678,2,0,B|231:360|204:328|273:326,1,116.999994644165,2|0,0:0|0:0,0:0:0:0:
480,204,11117,6,0,P|447:221|389:227,1,80.9999975280763,2|0,0:0|0:0,0:0:0:0:
390,237,11409,1,2,0:0:0:0:
256,73,11702,6,0,P|299:72|336:135,2,107.999996704102,2|2|2,0:0|0:0|0:0,0:0:0:0:
137,3,12580,2,0,B|126:54|157:77|157:77|154:108|154:108|192:122|183:192,1,188.999994232178,2|0,0:0|0:0,0:0:0:0:
176,185,13165,2,0,P|138:194|89:130,2,107.999996704102,2|2|2,0:0|0:0|0:0,0:0:0:0:
277,276,14044,6,0,P|325:252|381:242,1,107.999996704102,0|2,0:0|0:0,0:0:0:0:
452,288,14483,2,0,P|446:335|378:348,1,107.999996704102
275,263,14922,2,0,B|241:222|183:240|162:304|193:364|268:368,1,215.999993408203,2|0,0:0|0:0,0:0:0:0:
388,238,15800,5,2,0:0:0:0:
394,244,16092,1,2,0:0:0:0:
342,140,16239,1,2,0:0:0:0:
400,69,16385,6,0,P|426:73|467:82,2,62.9999980773926,2|0|2,0:0|0:0|0:0,0:0:0:0:
346,4,16824,1,2,0:0:0:0:
235,154,17117,6,0,P|278:138|344:128,1,94.499997116089,2|0,0:0|0:0,0:0:0:0:
342,140,17409,1,2,0:0:0:0:
199,280,17702,6,0,P|149:282|117:220,2,116.999994644165,0|2|2,0:0|0:0|0:0,0:0:0:0:
353,143,18434,2,0,L|306:130,1,29.2499986610413
276,77,18580,1,2,0:0:0:0:
383,285,18726,5,2,0:0:0:0:
234,367,20483,6,0,P|212:361|190:357,1,45,2|2,0:0|0:0,0:0:0:0:
66,171,20629,1,2,0:0:0:0:
17,190,20702,1,2,0:0:0:0:
4,240,20775,1,2,0:0:0:0:
32,283,20848,1,2,0:0:0:0:
67,304,20922,2,0,P|98:295|122:289,1,45,2|2,0:0|0:0,0:0:0:0:
229,181,21068,6,0,B|292:194|292:194|311:223|311:223|379:237,1,159.299994409332,14|0,0:1|0:0,0:0:0:0:
420,294,21361,2,0,P|409:351|357:363,1,99.9000024389649,8|0,0:2|0:0,0:0:0:0:
140,196,21653,1,8,0:1:0:0:
110,291,21800,2,0,P|158:279|208:266,2,99.9000024389649,8|2|8,0:1|0:3|0:2,0:0:0:0:
239,367,22239,1,2,0:3:0:0:
239,367,22385,1,8,0:1:0:0:
130,186,22531,6,0,P|148:117|169:29,1,149.850003658447,10|0,0:2|0:0,0:0:0:0:
156,31,22824,2,0,P|172:92|185:141,1,99.9000024389649,10|8,0:1|0:1,0:0:0:0:
57,230,23117,1,10,0:2:0:0:
159,320,23263,1,0,0:0:0:0:
159,320,23336,1,0,0:0:0:0:
159,320,23409,6,0,B|74:321|111:370|12:380,1,149.850003658447,14|0,0:1|0:0,0:0:0:0:
12,372,23702,2,0,P|-17:327|4:284,1,99.9000024389649,8|0,0:2|0:0,0:0:0:0:
193,130,23995,2,0,P|200:177|165:210,1,99.9000024389649,8|8,0:1|0:1,0:0:0:0:
26,67,24287,1,2,0:2:0:0:
80,0,24434,1,10,0:2:0:0:
105,133,24580,6,0,P|48:147|5:158,1,99.9000024389649,2|8,0:2|0:1,0:0:0:0:
180,4,24873,2,0,B|272:9|220:56|328:60,1,149.850003658447,8|0,0:2|0:0,0:0:0:0:
379,17,25165,5,10,0:1:0:0:
274,150,25312,1,10,0:1:0:0:
438,225,25458,1,10,0:2:0:0:
389,113,25605,1,2,0:2:0:0:
243,357,25751,6,0,B|303:340|303:340|322:311|322:311|396:295,1,159.299994409332,14|0,0:1|0:0,0:0:0:0:
459,323,26044,2,0,P|439:380|395:380,1,99.9000024389649,8|0,0:2|0:0,0:0:0:0:
256,160,26336,1,8,0:1:0:0:
378,115,26483,2,0,P|361:161|345:209,2,99.9000024389649,8|2|8,0:1|0:3|0:2,0:0:0:0:
309,10,26922,5,2,0:2:0:0:
309,10,27068,1,8,0:1:0:0:
483,168,27214,2,0,P|468:120|440:20,1,149.850003658447,10|0,0:2|0:0,0:0:0:0:
448,5,27507,1,10,0:1:0:0:
300,130,27653,1,8,0:1:0:0:
355,267,27800,2,0,P|370:219|384:171,1,99.9000024389649,10|0,0:2|0:0,0:0:0:0:
256,35,28092,6,0,P|164:21|128:107,2,199.80000487793,14|8|8,0:1|0:2|0:1,0:0:0:0:
264,281,28824,2,0,P|250:233|216:133,1,149.850003658447,8|0,0:1|0:0,0:0:0:0:
227,125,29117,1,8,0:2:0:0:
446,216,29263,6,0,P|397:206|349:189,1,99.9000024389649,2|8,0:2|0:1,0:0:0:0:
127,337,29556,2,0,P|190:298|263:280,1,149.850003658447,10|0,0:2|0:0,0:0:0:0:
323,331,29848,5,10,0:1:0:0:
289,360,29922,1,8,0:2:0:0:
234,359,29995,1,10,0:2:0:0:
200,327,30068,1,8,0:2:0:0:
192,281,30141,5,10,0:2:0:0:
160,226,30214,1,8,0:2:0:0:
99,210,30287,1,10,0:2:0:0:
45,244,30361,1,8,0:2:0:0:
25,297,30434,6,0,P|60:342|123:332,1,106.199996272888,12|0,0:1|0:0,0:0:0:0:
208,163,30726,2,0,P|189:108|157:11,1,149.850003658447,8|0,0:2|0:0,0:0:0:0:
168,0,31019,1,8,0:1:0:0:
2,92,31165,2,0,P|51:101|99:115,2,99.9000024389649,8|2|8,0:1|0:3|0:2,0:0:0:0:
74,209,31605,1,2,0:3:0:0:
74,209,31751,1,8,0:1:0:0:
217,87,31897,6,0,B|301:100|259:154|374:162,1,149.850003658447,10|0,0:2|0:0,0:0:0:0:
361,155,32190,2,0,P|402:120|393:64,1,99.9000024389649,10|8,0:1|0:1,0:0:0:0:
225,201,32483,1,10,0:2:0:0:
302,308,32629,1,2,0:2:0:0:
302,308,32702,1,0,0:0:0:0:
302,308,32775,6,0,B|360:292|360:292|379:268|379:268|458:250,1,159.299994409332,14|0,0:1|0:0,0:0:0:0:
512,296,33068,2,0,P|501:342|456:362,1,99.9000024389649,8|0,0:2|0:0,0:0:0:0:
332,191,33361,1,8,0:1:0:0:
414,126,33507,2,0,P|462:139|510:151,1,99.9000024389649,8|2,0:1|0:2,0:0:0:0:
405,10,33800,6,0,B|320:11|361:70|246:69,1,149.850003658447,8|0,0:2|0:0,0:0:0:0:
251,62,34092,1,8,0:1:0:0:
48,142,34239,6,0,P|117:156|207:172,1,149.850003658447,8|0,0:2|0:0,0:0:0:0:
211,164,34531,2,0,P|150:180|101:193,1,99.9000024389649,10|8,0:1|0:1,0:0:0:0:
3,58,34824,1,10,0:2:0:0:
127,38,34970,1,0,0:0:0:0:
127,38,35044,1,0,0:0:0:0:
127,38,35117,6,0,B|113:93|113:93|130:122|130:122|112:198,1,159.299994409332,14|0,0:1|0:0,0:0:0:0:
55,243,35409,2,0,L|3:228,2,49.9500012194825,8|0|0,0:2|0:0|0:0,0:0:0:0:
205,379,35702,5,8,0:1:0:0:
50,351,35848,2,0,P|98:337|148:320,1,99.9000024389649,8|2,0:1|0:3,0:0:0:0:
279,151,36141,1,8,0:2:0:0:
209,213,36287,2,0,P|195:165|179:116,1,99.9000024389649,2|8,0:2|0:1,0:0:0:0:
374,4,36580,2,0,P|355:67|345:108,1,99.9000024389649,8|0,0:2|0:0,0:0:0:0:
461,271,36873,1,10,0:1:0:0:
461,271,37019,1,8,0:1:0:0:
338,212,37165,2,0,P|399:194|450:177,1,99.9000024389649,8|0,0:2|0:0,0:0:0:0:
354,372,37458,5,14,0:1:0:0:
286,295,37605,1,8,0:1:0:0:
433,182,37751,2,0,P|385:198|338:212,1,99.9000024389649,8|0,0:2|0:0,0:0:0:0:
176,68,38044,1,8,0:1:0:0:
252,11,38190,2,0,B|338:23|295:72|397:78,1,149.850003658447,8|0,0:1|0:0,0:0:0:0:
401,75,38483,1,8,0:2:0:0:
268,153,38629,6,0,P|240:146|211:140,1,49.9500012194825,2|0,0:2|0:0,0:0:0:0:
170,79,38775,1,8,0:1:0:0:
0,288,38922,6,0,P|27:281|56:275,1,49.9500012194825,2|0,0:3|0:0,0:0:0:0:
96,218,39068,1,8,0:2:0:0:
283,384,39214,6,0,P|255:377|226:371,1,49.9500012194825,2|0,0:3|0:0,0:0:0:0:
187,314,39361,1,8,0:2:0:0:
334,107,39507,1,8,0:3:0:0:
360,146,39580,1,8,0:3:0:0:
357,195,39653,1,8,0:3:0:0:
327,233,39726,1,8,0:3:0:0:
282,252,39800,6,0,P|221:223|139:206,1,121.499996292114,12|0,0:1|0:0,0:0:0:0:
158,199,40092,1,8,0:2:0:0:
54,44,40239,1,2,0:2:0:0:
157,0,40385,2,0,P|141:46|129:86,1,80.9999975280763,8|8,0:1|0:1,0:0:0:0:
7,286,40824,5,8,0:2:0:0:
144,384,40970,2,0,P|105:371|64:359,1,80.9999975280763,2|8,0:3|0:1,0:0:0:0:
0,277,41263,2,0,P|38:264|76:251,1,80.9999975280763,8|2,0:2|0:2,0:0:0:0:
188,109,41556,1,10,0:1:0:0:
156,176,41702,1,10,0:1:0:0:
239,345,41848,1,10,0:2:0:0:
209,274,41995,1,14,0:1:0:0:
395,309,42141,6,0,P|372:248|273:251,1,161.999995056153,2|8,0:2|0:2,0:0:0:0:
418,152,42580,1,2,0:2:0:0:
512,198,42726,2,0,P|472:187|433:178,1,80.9999975280763,8|8,0:1|0:1,0:0:0:0:
419,24,43165,5,8,0:2:0:0:
283,111,43312,2,0,P|322:102|361:94,2,80.9999975280763,2|8|8,0:3|0:1|0:2,0:0:0:0:
195,25,43751,1,2,0:2:0:0:
296,123,43897,5,10,0:1:0:0:
310,148,43970,1,8,0:1:0:0:
302,187,44044,1,8,0:1:0:0:
278,220,44117,1,8,0:1:0:0:
235,235,44190,5,10,0:2:0:0:
195,279,44263,1,8,0:1:0:0:
193,334,44336,1,12,0:1:0:0:
229,373,44409,1,8,0:1:0:0:
278,368,44483,6,0,P|325:352|416:331,1,135,2|0,0:2|0:0,0:0:0:0:
421,337,44775,2,0,P|450:300|444:251,1,90,10|0,0:2|0:0,0:0:0:0:
258,120,45068,2,0,P|257:159|289:198,2,90,10|8|2,0:1|0:1|0:2,0:0:0:0:
411,0,45507,6,0,P|390:62|361:143,1,135,8|0,0:2|0:0,0:0:0:0:
373,144,45800,1,8,0:1:0:0:
504,315,45946,6,0,P|483:253|456:167,1,135,10|0,0:2|0:0,0:0:0:0:
472,171,46239,1,10,0:1:0:0:
403,335,46385,1,8,0:1:0:0:
288,280,46531,2,0,P|328:268|378:251,1,90,10|12,0:2|0:1,0:0:0:0:
256,372,46824,6,0,B|141:362|204:294|78:297,1,180,2|8,0:2|0:2,0:0:0:0:
15,192,47263,1,2,0:2:0:0:
136,129,47409,2,0,P|119:177|104:224,2,90,10|8|2,0:1|0:1|0:3,0:0:0:0:
47,17,47848,1,8,0:2:0:0:
166,28,47995,6,0,P|145:35|119:44,1,45,2|0,0:3|0:0,0:0:0:0:
2,102,48141,2,0,P|25:106|47:111,1,45,8|0,0:1|0:0,0:0:0:0:
122,221,48287,1,8,0:2:0:0:
33,308,48434,1,0,0:0:0:0:
108,377,48580,5,10,0:1:0:0:
119,383,48653,1,8,0:1:0:0:
131,379,48726,2,0,P|164:361|175:340,1,45,8|8,0:1|0:1,0:0:0:0:
246,258,48873,5,10,0:2:0:0:
257,252,48946,1,8,0:1:0:0:
269,256,49019,2,0,P|302:273|313:294,1,45,12|0,0:1|0:0,0:0:0:0:
370,379,49165,5,2,0:2:0:0:
275,250,49312,1,8,0:1:0:0:
420,114,49458,2,0,B|414:143|403:170|403:170|414:195|414:195|400:222|396:263,1,141.749995674133,8|0,0:2|0:0,0:0:0:0:
440,313,49751,1,8,0:1:0:0:
284,146,49897,2,0,P|327:157|371:168,1,90,8|2,0:1|0:3,0:0:0:0:
209,320,50190,6,0,B|129:329|172:379|54:386,1,135,8|0,0:2|0:0,0:0:0:0:
77,377,50483,1,8,0:1:0:0:
181,226,50629,1,8,0:2:0:0:
49,175,50775,1,2,0:2:0:0:
49,175,50848,1,0,0:0:0:0:
49,175,50922,2,0,P|66:220|84:269,2,90,10|8|10,0:1|0:1|0:2,0:0:0:0:
140,17,51361,1,14,0:1:0:0:
15,57,51507,6,0,B|100:60|62:109|146:117,1,148.50000453186,2|0,0:2|0:0,0:0:0:0:
163,113,51800,1,8,0:2:0:0:
270,309,51946,1,2,0:2:0:0:
325,227,52092,1,8,0:1:0:0:
156,207,52239,2,0,P|199:196|243:186,1,90,8|2,0:1|0:2,0:0:0:0:
459,76,52531,6,0,P|435:21|354:23,1,135,8|0,0:2|0:0,0:0:0:0:
352,25,52824,1,8,0:1:0:0:
246,87,52970,2,0,P|310:106|375:126,1,135,8|0,0:2|0:0,0:0:0:0:
417,206,53263,5,10,0:1:0:0:
428,205,53336,1,8,0:1:0:0:
439,198,53409,2,0,P|461:167|460:143,1,45,8|8,0:1|0:1,0:0:0:0:
336,261,53556,5,10,0:2:0:0:
335,274,53629,1,8,0:1:0:0:
343,284,53702,2,0,P|373:306|396:306,1,45,12|0,0:1|0:0,0:0:0:0:
295,186,53848,6,0,P|251:198|207:207,1,90,2|8,0:2|0:1,0:0:0:0:
73,299,54141,2,0,P|96:353|178:352,1,135,8|0,0:2|0:0,0:0:0:0:
180,350,54434,1,8,0:1:0:0:
31,216,54580,1,8,0:1:0:0:
141,127,54726,2,0,P|125:185|116:225,1,90,2|8,0:2|0:2,0:0:0:0:
279,371,55019,6,0,P|263:313|254:273,1,90,2|8,0:2|0:1,0:0:0:0:
341,111,55312,2,0,P|412:121|427:197,1,135,10|0,0:2|0:0,0:0:0:0:
425,198,55605,1,10,0:1:0:0:
425,198,55751,1,8,0:1:0:0:
258,100,55897,1,10,0:2:0:0:
327,238,56044,2,0,P|339:198|345:182,1,45,12|0,0:1|0:0,0:0:0:0:
248,93,56190,6,0,P|236:48|215:-1,2,90,2|8|8,0:2|0:1|0:2,0:0:0:0:
207,162,56629,1,2,0:2:0:0:
303,327,56775,1,10,0:1:0:0:
412,266,56922,2,0,P|368:254|326:237,1,90,8|2,0:1|0:3,0:0:0:0:
509,134,57214,1,8,0:2:0:0:
449,3,57361,6,0,P|427:28|416:52,1,45,2|0,0:3|0:0,0:0:0:0:
361,94,57507,6,0,P|367:115|378:135,1,45,8|0,0:1|0:0,0:0:0:0:
443,176,57653,5,8,0:2:0:0:
348,342,57800,1,0,0:0:0:0:
439,384,57946,5,10,0:1:0:0:
337,232,58092,1,10,0:1:0:0:
451,173,58239,5,10,0:2:0:0:
340,346,58385,2,0,P|379:334|408:327,1,45,2|0,0:2|0:0,0:0:0:0:
454,273,58531,5,14,0:1:0:0:
454,273,58824,5,8,0:1:0:0:
454,273,59117,5,10,0:1:0:0:
454,273,59409,5,8,0:1:0:0:
454,273,59702,5,8,0:1:0:0:
454,273,59995,5,8,0:1:0:0:
498,207,60141,1,2,0:2:0:0:
458,138,60287,6,0,P|408:148|359:161,1,101.250003862381,10|0,0:1|0:0,0:0:0:0:
357,172,60580,2,0,P|308:185|259:196,1,101.250003862381,10|0,0:1|0:0,0:0:0:0:
189,157,60873,5,10,0:1:0:0:
189,157,61165,5,8,0:1:0:0:
189,157,61458,5,10,0:1:0:0:
189,157,61751,5,8,0:1:0:0:
189,157,62044,5,8,0:1:0:0:
189,157,62336,5,8,0:1:0:0:
189,157,62629,5,10,0:1:0:0:
137,98,62775,1,0,0:0:0:0:
170,28,62922,1,10,0:1:0:0:
257,190,63214,6,0,P|240:256|226:322,1,135.000005149842,10|10,0:1|0:1,0:0:0:0:
281,381,63653,1,0,0:0:0:0:
226,322,63800,6,0,P|159:335|94:352,1,135.000005149842,10|10,0:1|0:1,0:0:0:0:
26,313,64239,1,0,0:0:0:0:
94,352,64385,6,0,P|159:335|226:322,1,135.000005149842,10|10,0:1|0:1,0:0:0:0:
279,257,64824,1,0,0:0:0:0:
411,288,64970,6,0,P|345:271|279:257,1,135.000005149842,10|10,0:1|0:1,0:0:0:0:
279,257,65409,1,0,0:0:0:0:
232,196,65556,5,10,0:1:0:0:
232,196,65848,5,8,0:1:0:0:
232,196,66141,5,10,0:1:0:0:
232,196,66434,5,8,0:1:0:0:
190,326,66726,5,8,0:1:0:0:
190,326,66873,1,0,0:0:0:0:
327,290,67019,2,0,P|294:282|261:275,1,67.5000025749208,0|2,0:0|0:2,0:0:0:0:
407,243,67312,5,2,0:2:0:0:
356,109,67458,1,2,0:2:0:0:
433,62,67605,6,0,L|406:54,1,20.2499993820191,2|0,0:2|0:0,0:0:0:0:
290,182,67751,6,0,L|319:175,1,24.7500007553101,2|0,0:2|0:0,0:0:0:0:
479,191,67897,6,0,P|504:261|466:327,1,155.250002961159,14|0,0:1|0:0,0:0:0:0:
453,328,68190,2,0,P|402:331|353:350,1,96.2999970611573,8|2,0:2|0:2,0:0:0:0:
215,174,68483,1,10,0:1:0:0:
315,132,68629,2,0,P|296:188|284:237,1,96.2999970611573,8|2,0:1|0:3,0:0:0:0:
154,376,68922,6,0,B|67:369|106:323|12:324,1,144.449995591736,8|0,0:2|0:0,0:0:0:0:
7,328,69214,1,8,0:1:0:0:
126,201,69361,2,0,P|157:236|158:283,1,96.2999970611573,8|0,0:2|0:0,0:0:0:0:
10,172,69653,2,0,P|11:124|42:89,1,96.2999970611573,10|8,0:1|0:1,0:0:0:0:
271,18,69946,2,0,P|245:77|148:83,1,144.449995591736,10|0,0:2|0:0,0:0:0:0:
156,90,70239,6,0,B|213:78|253:123|229:123|265:175|339:149,2,192.599994122315,14|8|8,0:1|0:2|0:1,0:0:0:0:
28,232,70970,2,0,P|74:219|121:208,1,96.2999970611573,8|2,0:1|0:2,0:0:0:0:
240,290,71263,6,0,P|216:348|129:347,1,144.449995591736,8|0,0:2|0:0,0:0:0:0:
130,341,71556,1,10,0:1:0:0:
221,172,71702,2,0,P|267:184|317:195,1,96.2999970611573,10|0,0:2|0:0,0:0:0:0:
420,384,71995,5,10,0:1:0:0:
365,308,72141,1,8,0:1:0:0:
480,190,72287,2,0,P|475:243|432:275,1,96.2999970611573,10|0,0:2|0:0,0:0:0:0:
308,187,72580,6,0,P|292:119|271:23,1,144.449995591736,14|0,0:1|0:0,0:0:0:0:
340,0,72873,2,0,P|387:10|434:17,1,96.2999970611573,10|0,0:2|0:0,0:0:0:0:
254,129,73165,1,10,0:1:0:0:
374,252,73312,2,0,P|326:259|279:269,1,96.2999970611573,8|2,0:1|0:2,0:0:0:0:
356,113,73605,6,0,B|446:123|399:170|518:179,1,144.449995591736,8|0,0:2|0:0,0:0:0:0:
500,176,73897,1,8,0:1:0:0:
365,259,74044,6,0,B|277:267|325:313|206:324,1,144.449995591736,10|0,0:2|0:0,0:0:0:0:
223,318,74336,1,10,0:1:0:0:
92,180,74483,1,8,0:1:0:0:
188,194,74629,5,10,0:2:0:0:
92,377,74775,1,8,0:1:0:0:
18,302,74922,5,14,0:1:0:0:
256,192,74995,12,0,76531,0:0:0:0:
478,283,76678,6,0,P|489:328|443:382,1,122.40000074707,2|2,0:2|0:2,0:0:0:0:
302,192,77117,6,0,P|276:115|314:44,1,164.699993214569,14|0,0:1|0:0,0:0:0:0:
386,25,77409,1,8,0:1:0:0:
503,195,77556,2,0,P|443:205|383:222,1,107.999996704102,8|0,0:2|0:0,0:0:0:0:
217,4,77848,1,8,0:1:0:0:
425,92,77995,1,8,0:1:0:0:
259,270,78141,1,10,0:2:0:0:
172,176,78287,6,0,B|77:175|125:242|6:236,1,168.75,2|0,0:2|0:0,0:0:0:0:
0,227,78580,1,8,0:1:0:0:
144,384,78726,2,0,P|153:330|166:278,1,107.999996704102,8|0,0:2|0:0,0:0:0:0:
42,49,79019,1,10,0:1:0:0:
180,184,79165,1,10,0:1:0:0:
47,330,79312,1,10,0:2:0:0:
188,58,79458,6,0,B|251:71|251:71|270:102|270:102|336:118,1,168.75,14|0,0:1|0:0,0:0:0:0:
356,110,79751,1,8,0:1:0:0:
499,265,79897,2,0,P|483:331|423:335,1,107.999996704102,8|0,0:2|0:0,0:0:0:0:
316,222,80190,1,8,0:1:0:0:
469,81,80336,1,8,0:1:0:0:
387,0,80483,1,10,0:2:0:0:
414,181,80629,6,0,P|392:258|372:337,1,161.999995056153,2|0,0:2|0:0,0:0:0:0:
366,355,80922,1,8,0:1:0:0:
174,163,81068,2,0,P|227:149|278:133,1,107.999996704102,8|0,0:2|0:0,0:0:0:0:
236,266,81361,1,10,0:1:0:0:
273,38,81507,1,10,0:1:0:0:
438,167,81653,1,10,0:2:0:0:
247,364,81800,6,0,B|183:348|183:348|164:316|164:316|97:303,1,168.75,14|0,0:1|0:0,0:0:0:0:
81,314,82092,1,8,0:1:0:0:
0,180,82239,2,0,P|52:166|103:150,1,107.999996704102,8|0,0:2|0:0,0:0:0:0:
245,270,82531,1,8,0:1:0:0:
67,327,82678,1,8,0:1:0:0:
204,173,82824,1,10,0:2:0:0:
146,0,82970,6,0,P|89:54|91:133,1,161.999995056153,2|0,0:2|0:0,0:0:0:0:
103,149,83263,1,8,0:1:0:0:
214,365,83409,2,0,P|249:308|234:251,1,107.999996704102,8|0,0:2|0:0,0:0:0:0:
325,130,83702,6,0,P|268:147|216:161,1,107.999996704102,10|8,0:1|0:1,0:0:0:0:
212,166,83922,1,8,0:1:0:0:
204,173,83995,1,10,0:2:0:0:
316,7,84141,1,8,0:1:0:0:
316,7,84214,1,2,0:0:0:0:
316,7,84287,6,0,B|411:10|367:65|465:76,1,161.999995056153,2|0,0:2|0:0,0:0:0:0:
478,73,84580,1,8,0:2:0:0:
349,226,84726,1,2,0:2:0:0:
232,89,84873,2,0,P|283:103|336:116,1,107.999996704102,10|8,0:1|0:1,0:0:0:0:
512,263,85165,2,0,P|436:257|391:340,1,161.999995056153,8|0,0:2|0:0,0:0:0:0:
390,334,85458,5,10,0:1:0:0:
496,378,85605,1,8,0:1:0:0:
349,226,85751,2,0,P|287:241|238:250,1,107.999996704102,8|0,0:2|0:0,0:0:0:0:
66,377,86044,5,14,0:1:0:0:
19,330,86117,1,8,0:2:0:0:
19,268,86190,1,8,0:2:0:0:
67,231,86263,1,8,0:2:0:0:
105,234,86336,1,10,0:2:0:0:
130,248,86409,1,8,0:2:0:0:
146,272,86483,1,10,0:2:0:0:
140,296,86556,1,8,0:2:0:0:
126,304,86629,6,0,P|83:229|87:137,1,168.75,14|0,0:1|0:0,0:0:0:0:
135,89,86922,2,0,P|188:103|241:110,1,107.999996704102,8|0,0:2|0:0,0:0:0:0:
326,333,87214,1,8,0:1:0:0:
213,214,87361,1,8,0:1:0:0:
388,27,87507,1,10,0:2:0:0:
300,21,87653,6,0,B|321:85|321:85|351:103|351:103|376:191,1,161.999995056153,10|0,0:1|0:0,0:0:0:0:
356,174,87946,1,8,0:1:0:0:
445,375,88092,2,0,P|384:360|331:348,1,107.999996704102,8|0,0:2|0:0,0:0:0:0:
464,214,88385,1,10,0:1:0:0:
311,100,88531,1,8,0:1:0:0:
311,100,88605,1,2,0:2:0:0:
311,100,88678,2,0,P|269:141|279:203,1,107.999996704102,8|2,0:2|0:2,0:0:0:0:
341,267,88970,6,0,B|236:268|288:336|153:323,1,168.75,14|0,0:1|0:0,0:0:0:0:
169,316,89263,1,8,0:2:0:0:
25,154,89409,1,0,0:0:0:0:
159,98,89556,2,0,P|138:157|124:204,1,107.999996704102,8|8,0:1|0:1,0:0:0:0:
2,355,89848,1,10,0:2:0:0:
88,372,89995,6,0,B|102:304|52:259|46:281|-17:261|9:152,1,215.999993408203,10|8,0:1|0:1,0:0:0:0:
264,118,90434,2,0,P|211:107|158:97,1,107.999996704102,10|0,0:2|0:0,0:0:0:0:
55,12,90726,1,10,0:1:0:0:
137,195,90873,1,8,0:1:0:0:
63,246,91019,1,10,0:2:0:0:
169,90,91165,1,0,0:0:0:0:
314,38,91312,6,0,P|366:104|283:221,1,233.999989288331,14|8,0:1|0:2,0:0:0:0:
350,334,91751,1,2,0:2:0:0:
214,235,91897,1,8,0:1:0:0:
140,360,92044,2,0,P|200:340|253:326,1,107.999996704102,8|2,0:1|0:2,0:0:0:0:
360,154,92336,6,0,B|455:160|410:216|500:224,1,161.999995056153,8|0,0:2|0:0,0:0:0:0:
512,216,92629,1,10,0:1:0:0:
398,354,92775,2,0,P|357:307|358:255,1,107.999996704102,8|0,0:2|0:0,0:0:0:0:
498,110,93068,1,10,0:1:0:0:
498,110,93214,1,10,0:1:0:0:
343,9,93361,2,0,P|402:25|460:39,1,107.999996704102,10|0,0:2|0:0,0:0:0:0:
313,109,93653,6,0,B|209:118|268:177|146:187,1,175.499991966248,14|0,0:1|0:0,0:0:0:0:
92,146,93946,2,0,P|68:89|93:46,1,107.999996704102,8|2,0:2|0:2,0:0:0:0:
308,207,94239,2,0,P|322:257|292:301,1,107.999996704102,10|8,0:1|0:1,0:0:0:0:
119,263,94531,1,2,0:3:0:0:
161,185,94678,1,10,0:2:0:0:
115,275,94824,6,0,P|132:326|147:378,1,107.999996704102,2|8,0:2|0:1,0:0:0:0:
243,148,95117,2,0,P|258:96|275:45,1,107.999996704102,10|0,0:2|0:0,0:0:0:0:
344,15,95409,5,14,0:1:0:0:
392,37,95483,1,8,0:2:0:0:
417,83,95556,1,8,0:2:0:0:
411,136,95629,1,8,0:2:0:0:
375,175,95702,1,10,0:2:0:0:
335,210,95775,1,8,0:2:0:0:
322,264,95848,1,8,0:2:0:0:
352,309,95922,1,8,0:2:0:0:
400,333,95995,5,14,0:1:0:0:
468,293,96141,1,2,0:2:0:0:
240,224,96287,5,10,0:2:0:0:
173,264,96434,1,0,0:0:0:0:
331,97,96580,5,10,0:1:0:0:
399,136,96726,1,10,0:1:0:0:
467,97,96873,1,2,0:2:0:0:
404,0,97019,6,0,B|321:17|321:17|308:25|308:25|208:47,1,199.80000487793,10|10,0:2|0:1,0:0:0:0:
69,172,97458,2,0,P|17:143|38:34,1,149.850003658447,10|0,0:2|0:0,0:0:0:0:
28,42,97751,5,10,0:1:0:0:
106,75,97897,1,10,0:1:0:0:
33,288,98044,2,0,P|81:273|129:261,1,99.9000024389649,10|0,0:2|0:0,0:0:0:0:
299,385,98336,6,0,P|349:333|331:264,1,149.850003658447,14|0,0:1|0:0,0:0:0:0:
270,220,98629,1,10,0:2:0:0:
270,220,98775,1,0,0:0:0:0:
190,0,98922,5,10,0:1:0:0:
138,60,99068,1,10,0:1:0:0:
179,128,99214,1,2,0:2:0:0:
398,225,99361,6,0,B|315:242|315:242|302:250|302:250|202:272,1,199.80000487793,10|10,0:2|0:1,0:0:0:0:
365,383,99800,5,10,0:2:0:0:
407,318,99946,1,0,0:0:0:0:
280,96,100092,5,10,0:1:0:0:
317,160,100239,1,10,0:1:0:0:
275,88,100385,2,0,P|290:40|307:-6,1,91.8000005603027,10|0,0:2|0:0,0:0:0:0:
447,209,100678,6,0,P|462:275|484:370,1,149.850003658447,14|0,0:1|0:0,0:0:0:0:
475,365,100970,2,0,P|492:310|512:253,1,99.9000024389649,10|0,0:2|0:0,0:0:0:0:
397,149,101263,1,10,0:1:0:0:
481,99,101409,1,10,0:1:0:0:
391,154,101556,1,2,0:2:0:0:
400,287,101702,6,0,B|314:268|314:268|301:260|301:260|199:239,1,199.80000487793,10|10,0:2|0:1,0:0:0:0:
82,82,102141,2,0,P|29:110|28:199,1,149.850003658447,10|0,0:2|0:0,0:0:0:0:
36,204,102434,5,10,0:1:0:0:
124,176,102580,1,10,0:1:0:0:
18,331,102726,2,0,P|67:341|117:352,1,99.9000024389649,10|0,0:2|0:0,0:0:0:0:
289,238,103019,6,0,B|275:179|275:179|239:158|239:158|219:84,1,156.600004779053,14|0,0:1|0:0,0:0:0:0:
268,38,103312,2,0,P|317:49|365:60,1,99.9000024389649,10|0,0:2|0:0,0:0:0:0:
507,232,103605,5,10,0:1:0:0:
430,213,103751,1,10,0:1:0:0:
379,267,103897,1,2,0:2:0:0:
271,384,104044,6,0,B|357:365|357:365|370:357|370:357|472:336,1,199.80000487793,10|10,0:2|0:1,0:0:0:0:
216,238,104483,2,0,P|181:285|192:326,1,99.9000024389649,10|0,0:2|0:0,0:0:0:0:
304,221,104775,5,10,0:1:0:0:
319,167,104848,1,8,0:2:0:0:
301,126,104922,1,10,0:2:0:0:
269,108,104995,1,8,0:2:0:0:
227,96,105068,1,10,0:2:0:0:
200,67,105141,1,8,0:2:0:0:
198,33,105214,1,10,0:2:0:0:
224,3,105287,1,8,0:2:0:0:
240,0,105361,5,12,0:1:0:0:
311,32,105507,1,2,0:2:0:0:
412,141,105653,5,10,0:2:0:0:
483,109,105800,1,0,0:0:0:0:
316,249,105946,5,10,0:1:0:0:
244,216,106092,1,10,0:1:0:0:
183,266,106239,1,2,0:2:0:0:
47,334,106385,6,0,B|134:349|134:349|147:357|147:357|248:375,1,199.80000487793,10|10,0:2|0:1,0:0:0:0:
440,255,106824,2,0,P|491:291|478:372,1,149.850003658447,10|0,0:2|0:0,0:0:0:0:
463,374,107117,5,10,0:1:0:0:
373,342,107263,1,10,0:1:0:0:
430,171,107409,2,0,P|378:184|323:196,1,99.9000024389649,10|0,0:2|0:0,0:0:0:0:
179,154,107702,6,0,P|136:96|164:30,1,149.850003658447,14|0,0:1|0:0,0:0:0:0:
235,0,107995,1,10,0:2:0:0:
235,0,108141,1,0,0:0:0:0:
332,193,108287,5,10,0:1:0:0:
347,269,108434,1,10,0:1:0:0:
278,309,108580,1,2,0:2:0:0:
75,148,108726,6,0,B|163:127|163:127|176:119|176:119|278:98,1,199.80000487793,10|10,0:2|0:1,0:0:0:0:
68,13,109165,5,10,0:2:0:0:
24,77,109312,1,0,0:0:0:0:
198,281,109458,5,10,0:1:0:0:
162,211,109605,1,10,0:1:0:0:
4,381,109751,2,0,P|47:367|101:351,1,93.5999994287109,10|0,0:2|0:0,0:0:0:0:
263,173,110044,6,0,P|223:105|137:116,1,149.850003658447,14|0,0:1|0:0,0:0:0:0:
96,149,110336,2,0,P|47:136|0:124,1,99.9000024389649,10|0,0:2|0:0,0:0:0:0:
230,3,110629,1,10,0:1:0:0:
302,28,110775,1,10,0:1:0:0:
302,103,110922,1,2,0:2:0:0:
152,284,111068,6,0,B|238:303|238:303|251:311|251:311|353:332,1,199.80000487793,10|10,0:2|0:1,0:0:0:0:
477,274,111507,2,0,P|518:220|477:142,1,149.850003658447,10|0,0:2|0:0,0:0:0:0:
467,153,111800,5,10,0:1:0:0:
377,211,111946,1,10,0:1:0:0:
392,63,112092,2,0,P|343:51|295:36,1,99.9000024389649,10|0,0:2|0:0,0:0:0:0:
203,183,112385,5,14,0:1:0:0:
249,266,112531,1,2,0:2:0:0:
110,164,112678,2,0,B|128:102|128:102|153:86|153:86|175:14,1,149.850003658447,10|0,0:2|0:0,0:0:0:0:
162,15,112970,1,10,0:1:0:0:
300,162,113117,2,0,P|245:173|198:183,1,99.9000024389649,10|2,0:1|0:2,0:0:0:0:
23,289,113409,6,0,B|111:301|70:346|177:356,1,149.850003658447,10|0,0:2|0:0,0:0:0:0:
173,347,113702,1,10,0:1:0:0:
342,281,113848,2,0,P|287:270|240:260,1,99.9000024389649,10|8,0:2|0:2,0:0:0:0:
382,372,114141,5,10,0:2:0:0:
430,374,114214,1,8,0:2:0:0:
470,345,114287,1,10,0:2:0:0:
482,298,114361,1,8,0:2:0:0:
461,254,114434,2,0,P|438:235|424:208,1,49.9500012194825,10|8,0:1|0:1,0:0:0:0:
277,180,114580,6,0,B|381:172|329:111|440:100,1,180,14|8,0:1|0:1,0:0:0:0:
339,115,115019,2,0,P|304:106|262:94,1,67.5000025749208,10|0,0:2|0:0,0:0:0:0:
137,2,115312,6,0,P|101:23|94:118,1,135.000005149842,10|2,0:1|0:2,0:0:0:0:
107,257,115751,2,0,B|123:174|158:217|178:126,1,135.000005149842,10|10,0:2|0:1,0:0:0:0:
174,217,116190,2,0,P|184:249|194:281,1,67.5000025749208,10|0,0:2|0:0,0:0:0:0:
268,324,116483,5,10,0:1:0:0:
268,324,116629,1,10,0:1:0:0:
166,361,116775,1,10,0:2:0:0:
260,230,116922,1,14,0:1:0:0:
389,364,117068,6,0,P|334:325|267:323,1,135.000005149842,2|8,0:2|0:2,0:0:0:0:
267,323,117507,1,2,0:2:0:0:
175,177,117653,2,0,P|139:204|37:220,1,135.000005149842,10|2,0:1|0:3,0:0:0:0:
52,222,118092,1,10,0:2:0:0:
172,93,118239,6,0,B|252:97|214:140|315:142,1,135.000005149842,2|8,0:2|0:2,0:0:0:0:
368,92,118678,1,2,0:2:0:0:
267,0,118824,1,10,0:1:0:0:
273,15,118897,1,8,0:1:0:0:
278,31,118970,1,8,0:1:0:0:
283,47,119044,1,8,0:1:0:0:
289,62,119117,1,8,0:2:0:0:
355,281,119263,6,0,P|369:231|448:177,1,135.000005149842,14|8,0:1|0:1,0:0:0:0:
349,203,119702,2,0,P|304:213|270:219,1,67.5000025749208,10|0,0:2|0:0,0:0:0:0:
132,324,119995,2,0,P|184:333|257:346,1,101.250003862381,10|0,0:1|0:0,0:0:0:0:
247,337,120287,1,2,0:2:0:0:
423,384,120434,6,0,P|415:335|355:279,1,135.000005149842,10|10,0:2|0:1,0:0:0:0:
486,209,120873,1,10,0:2:0:0:
433,294,121019,1,0,0:0:0:0:
492,200,121165,1,10,0:1:0:0:
389,104,121312,2,0,P|407:148|417:176,2,67.5000025749208,8|10|14,0:1|0:2|0:1,0:0:0:0:
430,15,121751,6,0,P|400:52|292:72,1,135.000005149842,2|8,0:2|0:2,0:0:0:0:
318,77,122190,1,2,0:2:0:0:
292,228,122336,2,0,B|276:145|241:188|221:97,1,135.000005149842,10|2,0:1|0:3,0:0:0:0:
270,0,122775,1,10,0:2:0:0:
137,23,122922,6,0,P|174:33|208:43,2,67.5000025749208,2|8|8,0:2|0:1|0:2,0:0:0:0:
69,55,123361,1,2,0:2:0:0:
135,186,123507,1,10,0:1:0:0:
141,170,123580,1,8,0:1:0:0:
146,154,123653,1,8,0:1:0:0:
151,138,123726,1,8,0:1:0:0:
157,123,123800,1,8,0:2:0:0:
0,204,123946,6,0,P|60:230|81:292,1,135.000005149842,14|8,0:1|0:1,0:0:0:0:
0,384,124385,2,0,P|32:375|66:367,1,67.5000025749208,10|0,0:2|0:0,0:0:0:0:
221,222,124678,2,0,P|208:269|194:323,1,101.250003862381,10|0,0:1|0:0,0:0:0:0:
205,332,124970,1,2,0:2:0:0:
132,198,125117,6,0,B|117:125|82:168|66:85,1,135.000005149842,10|10,0:2|0:1,0:0:0:0:
192,5,125556,1,10,0:2:0:0:
145,70,125702,1,0,0:0:0:0:
194,134,125848,5,10,0:1:0:0:
336,57,125995,1,10,0:1:0:0:
190,141,126141,1,10,0:2:0:0:
339,49,126287,1,14,0:1:0:0:
273,0,126434,6,0,P|289:50|317:140,1,135.000005149842,2|8,0:2|0:2,0:0:0:0:
386,159,126873,1,2,0:2:0:0:
276,333,127019,2,0,P|237:302|249:215,1,135.000005149842,10|2,0:1|0:3,0:0:0:0:
241,222,127458,1,10,0:2:0:0:
361,250,127605,6,0,B|434:265|391:300|474:316,1,135.000005149842,2|8,0:2|0:2,0:0:0:0:
473,315,128044,1,2,0:2:0:0:
381,380,128190,1,10,0:1:0:0:
364,373,128263,1,8,0:1:0:0:
348,368,128336,1,8,0:1:0:0:
331,363,128409,1,8,0:1:0:0:
314,359,128483,1,8,0:2:0:0:
118,383,128629,6,0,P|142:322|204:305,1,135.000005149842,14|8,0:1|0:1,0:0:0:0:
241,169,129068,2,0,B|256:242|291:199|307:282,2,135.000005149842,10|10|2,0:2|0:1|0:2,0:0:0:0:
318,103,129800,6,0,P|305:55|216:23,1,135.000005149842,10|10,0:2|0:1,0:0:0:0:
115,83,130239,2,0,P|149:89|182:96,1,67.5000025749208,10|0,0:2|0:0,0:0:0:0:
82,200,130531,1,10,0:1:0:0:
46,133,130678,1,10,0:1:0:0:
159,234,130824,1,10,0:2:0:0:
124,300,130970,1,14,0:1:0:0:
70,379,131117,6,0,P|110:355|203:342,1,135.000005149842,2|8,0:2|0:2,0:0:0:0:
254,291,131556,1,2,0:2:0:0:
396,384,131702,2,0,P|358:344|364:244,1,135.000005149842,10|2,0:1|0:3,0:0:0:0:
352,267,132141,1,8,0:2:0:0:
509,110,132287,6,0,B|488:185|446:146|432:236,1,147.600002252197,2|8,0:2|0:2,0:0:0:0:
493,284,132726,1,2,0:2:0:0:
416,151,132873,2,0,P|375:159|333:169,1,79.2000024169922,10|8,0:1|0:1,0:0:0:0:
200,16,133165,6,0,P|266:30|332:44,1,135,10|0,0:2|0:0,0:0:0:0:
403,11,133458,5,14,0:1:0:0:
403,11,133751,5,8,0:1:0:0:
403,11,134044,5,8,0:1:0:0:
403,11,134336,5,8,0:1:0:0:
403,11,134629,5,8,0:1:0:0:
403,11,134922,5,8,0:1:0:0:
460,70,135068,2,0,P|440:125|420:180,1,116.999994644165,2|2,0:2|0:2,0:0:0:0:
512,304,135507,1,10,0:1:0:0:
488,225,135653,1,2,0:2:0:0:
369,378,135800,5,10,0:1:0:0:
369,378,136092,5,8,0:1:0:0:
369,378,136385,5,10,0:1:0:0:
369,378,136678,5,8,0:1:0:0:
369,378,136970,5,8,0:1:0:0:
369,378,137263,5,8,0:1:0:0:
307,327,137556,6,0,B|278:331|269:336|228:347,1,58.4999973220826,10|0,0:1|0:0,0:0:0:0:
170,224,137848,2,0,B|141:222|131:211|91:204,1,58.4999973220826,10|0,0:1|0:0,0:0:0:0:
0,298,138141,5,10,0:1:0:0:
0,298,138434,5,8,0:1:0:0:
0,298,138726,5,8,0:1:0:0:
0,298,139019,5,8,0:1:0:0:
0,298,139312,5,8,0:1:0:0:
0,298,139605,5,8,0:1:0:0:
56,240,139751,2,0,P|41:183|24:124,1,116.999994644165,2|2,0:2|0:2,0:0:0:0:
84,0,140190,1,10,0:1:0:0:
4,33,140336,1,2,0:2:0:0:
116,103,140483,6,0,P|172:89|242:73,1,116.999994644165,10|8,0:1|0:1,0:0:0:0:
291,123,140922,1,2,0:2:0:0:
432,246,141068,6,0,P|376:232|306:216,1,116.999994644165,10|8,0:1|0:1,0:0:0:0:
250,256,141507,1,2,0:2:0:0:
123,384,141653,6,0,P|161:373|192:366,2,58.4999973220826,10|0|0,0:1|0:0|0:0,0:0:0:0:
250,256,142239,6,0,P|270:260|303:266,1,29.2499986610413,2|0,0:2|0:0,0:0:0:0:
359,367,142385,2,0,P|379:363|412:357,1,29.2499986610413
450,314,142531,5,2,0:2:0:0:
438,271,142605,1,0,0:0:0:0:
425,229,142678,1,0,0:0:0:0:
412,187,142751,1,0,0:0:0:0:
397,145,142824,6,0,P|378:81|361:15,1,135,12|0,0:1|0:0,0:0:0:0:
374,3,143117,2,0,P|360:46|349:89,1,90,8|0,0:2|0:0,0:0:0:0:
189,189,143409,1,8,0:1:0:0:
299,283,143556,2,0,P|284:237|266:178,1,90,8|2,0:1|0:3,0:0:0:0:
75,45,143848,6,0,P|116:94|199:97,1,135,8|0,0:2|0:0,0:0:0:0:
196,96,144141,1,8,0:1:0:0:
156,20,144287,1,8,0:2:0:0:
18,160,144434,1,2,0:2:0:0:
18,160,144580,2,0,P|71:172|117:181,1,90,10|10,0:1|0:1,0:0:0:0:
99,366,144873,1,10,0:2:0:0:
48,309,145019,1,2,0:2:0:0:
153,257,145165,6,0,B|209:246|247:286|226:289|253:339|340:320,1,180,14|8,0:1|0:2,0:0:0:0:
469,215,145605,1,2,0:2:0:0:
365,192,145751,2,0,P|384:241|399:288,2,90,10|8|2,0:1|0:1|0:3,0:0:0:0:
474,78,146190,6,0,P|455:33|362:21,1,135,10|0,0:2|0:0,0:0:0:0:
363,24,146483,1,8,0:1:0:0:
239,93,146629,2,0,P|297:103|339:112,1,90,8|2,0:2|0:2,0:0:0:0:
190,0,146922,1,10,0:1:0:0:
142,60,147068,1,8,0:1:0:0:
240,183,147214,2,0,P|195:191|152:201,1,90,8|2,0:2|0:2,0:0:0:0:
6,384,147507,6,0,P|10:323|113:279,1,180,14|8,0:1|0:2,0:0:0:0:
33,189,147946,1,2,0:2:0:0:
161,340,148092,1,10,0:1:0:0:
26,179,148239,2,0,P|40:135|53:93,1,90,8|2,0:1|0:3,0:0:0:0:
17,13,148531,1,10,0:2:0:0:
138,122,148678,6,0,B|186:108|186:108|204:85|204:85|282:68,1,135,2|0,0:2|0:0,0:0:0:0:
320,22,148970,2,0,P|364:56|361:100,1,90,10|0,0:2|0:0,0:0:0:0:
290,243,149263,5,10,0:1:0:0:
251,175,149409,1,8,0:1:0:0:
319,335,149556,5,10,0:2:0:0:
240,310,149702,1,8,0:1:0:0:
393,384,149848,5,14,0:1:0:0:
256,192,149922,12,0,152117,0:0:0:0:
256,180,152190,5,2,0:2:0:0:
256,180,152775,5,2,0:2:0:0:
241,210,153361,5,2,0:2:0:0:
283,146,153507,1,0,0:0:0:0:
285,278,153653,5,0,0:0:0:0:
224,90,153800,1,0,0:0:0:0:
355,246,153946,5,2,0:2:0:0:
168,187,154092,1,0,0:0:0:0:
338,55,154239,1,2,0:2:0:0:
279,135,154385,6,0,B|214:120|214:120|196:96|196:96|105:81,1,164.699993214569,14|0,0:1|0:0,0:0:0:0:
106,90,154678,1,8,0:1:0:0:
4,300,154824,2,0,P|56:284|107:269,1,107.999996704102,8|0,0:2|0:0,0:0:0:0:
190,333,155117,1,8,0:1:0:0:
28,175,155263,1,8,0:1:0:0:
210,22,155409,1,10,0:2:0:0:
0,21,155556,6,0,P|35:72|134:82,1,161.999995056153,2|0,0:2|0:0,0:0:0:0:
142,75,155848,1,8,0:1:0:0:
337,206,155995,2,0,P|284:217|231:231,1,107.999996704102,8|0,0:2|0:0,0:0:0:0:
322,76,156287,1,10,0:1:0:0:
428,253,156434,1,10,0:1:0:0:
365,377,156580,1,10,0:2:0:0:
501,297,156726,6,0,B|483:233|483:233|452:215|452:215|431:138,1,168.75,14|0,0:1|0:0,0:0:0:0:
445,135,157019,1,8,0:1:0:0:
278,0,157165,2,0,P|329:15|382:28,1,107.999996704102,8|0,0:2|0:0,0:0:0:0:
487,15,157458,1,8,0:1:0:0:
350,207,157605,1,8,0:1:0:0:
419,311,157751,1,10,0:2:0:0:
322,380,157897,6,0,B|225:372|271:318|172:313,1,161.999995056153,2|0,0:2|0:0,0:0:0:0:
165,321,158190,1,8,0:1:0:0:
365,130,158336,2,0,P|418:160|423:223,1,107.999996704102,8|0,0:2|0:0,0:0:0:0:
216,174,158629,1,10,0:1:0:0:
363,18,158775,1,10,0:1:0:0:
207,180,158922,1,10,0:2:0:0:
309,225,159068,6,0,P|286:141|262:56,1,175.499991966248,14|0,0:1|0:0,0:0:0:0:
272,42,159361,1,8,0:1:0:0:
84,168,159507,2,0,P|136:181|192:197,1,107.999996704102,8|0,0:2|0:0,0:0:0:0:
99,27,159800,2,0,P|34:41|21:93,1,107.999996704102,8|8,0:1|0:1,0:0:0:0:
125,286,160092,1,10,0:2:0:0:
41,384,160239,6,0,P|85:339|196:340,1,161.999995056153,2|0,0:2|0:0,0:0:0:0:
196,342,160531,1,8,0:1:0:0:
404,194,160678,2,0,P|413:246|378:284,1,107.999996704102,8|0,0:2|0:0,0:0:0:0:
296,383,160970,6,0,P|281:320|261:245,1,107.999996704102,10|8,0:1|0:1,0:0:0:0:
261,270,161190,1,0,0:0:0:0:
252,263,161263,1,10,0:2:0:0:
418,37,161409,1,8,0:1:0:0:
418,37,161483,1,0,0:0:0:0:
418,37,161556,6,0,B|454:80|454:80|433:134|415:202,1,168.75,2|0,0:2|0:0,0:0:0:0:
404,194,161848,1,8,0:2:0:0:
290,14,161995,1,2,0:2:0:0:
213,129,162141,2,0,P|275:111|337:97,1,107.999996704102,10|8,0:1|0:1,0:0:0:0:
256,278,162434,2,0,B|167:271|212:220|112:212,1,161.999995056153,8|0,0:2|0:0,0:0:0:0:
98,219,162726,5,10,0:1:0:0:
187,368,162873,1,8,0:1:0:0:
3,299,163019,2,0,P|55:310|108:324,1,107.999996704102,8|0,0:2|0:0,0:0:0:0:
276,375,163312,5,14,0:1:0:0:
322,348,163385,1,8,0:2:0:0:
346,301,163458,1,8,0:2:0:0:
340,248,163531,1,8,0:2:0:0:
306,207,163605,1,10,0:2:0:0:
272,165,163678,1,8,0:2:0:0:
269,112,163751,1,10,0:2:0:0:
296,66,163824,1,8,0:2:0:0:
344,44,163897,6,0,P|401:60|527:91,1,171.44999869194,14|0,0:1|0:0,0:0:0:0:
457,1,164190,2,0,P|433:52|408:108,1,107.999996704102,8|0,0:2|0:0,0:0:0:0:
512,244,164483,1,8,0:1:0:0:
315,370,164629,1,8,0:1:0:0:
409,206,164775,1,10,0:2:0:0:
469,347,164922,6,0,B|409:331|409:331|388:297|388:297|323:279,1,161.999995056153,10|0,0:1|0:0,0:0:0:0:
308,283,165214,1,8,0:1:0:0:
143,179,165361,2,0,P|118:130|134:80,1,107.999996704102,8|0,0:2|0:0,0:0:0:0:
80,268,165653,5,10,0:1:0:0:
254,151,165800,1,8,0:1:0:0:
254,151,165873,1,2,0:2:0:0:
254,151,165946,2,0,P|230:210|212:267,1,107.999996704102,8|2,0:2|0:2,0:0:0:0:
83,371,166239,6,0,B|65:304|65:304|25:282|25:282|2:200,1,175.499991966248,14|0,0:1|0:0,0:0:0:0:
29,205,166531,1,8,0:2:0:0:
153,73,166678,1,0,0:0:0:0:
28,8,166824,2,0,P|52:68|72:120,1,107.999996704102,8|8,0:1|0:1,0:0:0:0:
12,318,167117,1,10,0:2:0:0:
129,255,167263,6,0,B|197:244|240:295|218:301|236:364|346:342,1,215.999993408203,10|8,0:1|0:1,0:0:0:0:
482,237,167702,2,0,P|467:182|405:162,1,107.999996704102,10|0,0:2|0:0,0:0:0:0:
268,109,167995,1,10,0:1:0:0:
378,275,168141,1,8,0:1:0:0:
275,220,168287,1,10,0:2:0:0:
373,24,168434,1,2,0:2:0:0:
469,49,168580,6,0,B|402:30|353:77|375:84|350:146|244:112,1,215.999993408203,14|8,0:1|0:2,0:0:0:0:
59,12,169019,1,2,0:2:0:0:
201,153,169165,1,8,0:1:0:0:
152,2,169312,2,0,P|132:65|114:112,1,107.999996704102,8|2,0:1|0:2,0:0:0:0:
7,349,169605,6,0,P|53:319|168:294,1,161.999995056153,8|0,0:2|0:0,0:0:0:0:
170,300,169897,1,10,0:1:0:0:
3,124,170044,2,0,P|25:173|40:226,1,107.999996704102,8|0,0:2|0:0,0:0:0:0:
169,384,170336,5,10,0:1:0:0:
245,258,170483,1,10,0:1:0:0:
141,189,170629,5,10,0:2:0:0:
104,111,170775,1,2,0:2:0:0:
200,5,170922,6,0,B|304:16|238:82|389:80,1,168.75,14|0,0:1|0:0,0:0:0:0:
415,45,171214,1,8,0:2:0:0:
269,156,171361,1,2,0:2:0:0:
351,271,171507,2,0,P|363:218|380:167,2,107.999996704102,10|8|2,0:1|0:1|0:3,0:0:0:0:
409,328,171946,1,10,0:2:0:0:
307,384,172092,6,0,P|257:347|272:294,1,107.999996704102,2|8,0:2|0:1,0:0:0:0:
498,150,172385,2,0,P|499:201|455:229,1,107.999996704102,10|0,0:2|0:0,0:0:0:0:
276,148,172678,5,14,0:1:0:0:
236,94,172751,1,8,0:2:0:0:
241,32,172824,1,8,0:2:0:0:
292,0,172897,1,8,0:2:0:0:
329,5,172970,1,10,0:2:0:0:
353,20,173044,1,8,0:2:0:0:
365,43,173117,1,8,0:2:0:0:
361,62,173190,1,8,0:2:0:0:
350,73,173263,6,0,B|317:105|337:191,1,102.599998747559,14|2,0:1|0:2,0:0:0:0:
502,328,173556,2,0,B|483:332|462:345|462:345|387:314|316:299,1,178.199999456177,10|0,0:2|0:0,0:0:0:0:
312,316,173848,2,0,P|380:334|424:351,1,102.599998747559,10|10,0:1|0:1,0:0:0:0:
250,227,174141,2,0,B|144:242|201:284|77:303,1,172.8,12|0,0:2|0:0,0:0:0:0:
75,313,174434,2,0,P|144:325|194:345,1,102.599998747559,10|10,0:1|0:1,0:0:0:0:
4,172,174726,2,0,P|70:150|117:123,1,102.599998747559,14|0,0:2|0:0,0:0:0:0:
179,16,175019,5,10,0:1:0:0:
237,0,175092,1,8,0:2:0:0:
280,24,175165,1,10,0:2:0:0:
292,77,175239,1,8,0:2:0:0:
280,111,175312,5,10,0:3:0:0:
270,129,175385,1,8,0:3:0:0:
260,150,175458,5,10,0:3:0:0:
270,168,175531,1,8,0:3:0:0:
281,188,175605,6,0,B|264:246|264:246|282:286|282:286|260:363,1,180.899991443024,14|0,0:1|0:0,0:0:0:0:
190,384,175897,2,0,B|162:338|162:338|196:290,1,102.599998747559,10|2,0:2|0:2,0:0:0:0:
362,163,176190,1,10,0:1:0:0:
454,298,176336,2,0,B|414:284|414:284|398:267|398:267|357:257,2,102.599998747559,10|2|10,0:1|0:3|0:2,0:0:0:0:
512,233,176775,5,2,0:2:0:0:
338,330,176922,1,10,0:1:0:0:
415,384,177068,5,10,0:2:0:0:
348,247,177214,1,2,0:2:0:0:
484,74,177361,5,10,0:1:0:0:
435,184,177507,1,10,0:1:0:0:
337,238,177653,5,10,0:2:0:0:
250,15,177800,1,2,0:2:0:0:
227,121,177946,6,0,B|285:110|367:75|367:75|390:90|411:94,1,180.899991443024,12|0,0:1|0:0,0:0:0:0:
412,100,178239,2,0,P|447:39|415:12,1,102.599998747559,10|2,0:2|0:2,0:0:0:0:
256,206,178531,1,8,0:1:0:0:
313,127,178678,6,0,P|241:103|150:81,1,164.699993214569,10|0,0:1|0:0,0:0:0:0:
136,66,178970,1,10,0:2:0:0:
7,9,179117,2,0,P|27:67|43:114,2,99.0000030212403,2|10|8,0:2|0:1|0:2,0:0:0:0:
235,67,179556,6,0,B|229:178|146:133|150:247,1,198.000006042481,2|10,0:2|0:1,0:0:0:0:
246,366,179995,1,10,0:2:0:0:
84,340,180141,1,2,0:2:0:0:
84,340,180214,1,2,0:2:0:0:
84,340,180287,6,0,P|165:309|310:272,1,225,14|8,0:1|0:2,0:0:0:0:
464,193,180726,2,0,P|445:246|430:296,1,99.0000030212403,2|10,0:2|0:1,0:0:0:0:
474,356,181019,1,10,0:1:0:0:
366,184,181165,1,2,0:2:0:0:
503,40,181312,6,0,P|466:78|348:83,1,156.600004779053,10|0,0:2|0:0,0:0:0:0:
325,29,181605,1,10,0:1:0:0:
454,114,181751,1,10,0:2:0:0:
301,247,181897,1,2,0:2:0:0:
228,182,182044,1,10,0:1:0:0:
192,177,182117,1,8,0:2:0:0:
159,191,182190,1,10,0:2:0:0:
139,221,182263,1,8,0:2:0:0:
138,257,182336,6,0,P|151:282|164:311,1,52.2000015930176,10|8,0:2|0:2,0:0:0:0:
220,384,182483,2,0,P|230:360|243:337,1,52.2000015930176,10|8,0:2|0:2,0:0:0:0:
386,89,182629,6,0,P|408:147|430:203,1,106.199996272888,12|0,0:1|0:0,0:0:0:0:
487,284,182922,2,0,B|468:288|447:301|447:301|372:270|296:255,1,183.600001120605,10|0,0:2|0:0,0:0:0:0:
301,247,183214,1,10,0:1:0:0:
349,384,183361,2,0,P|399:348|399:307,1,103.500001974106,10|2,0:1|0:3,0:0:0:0:
301,114,183653,6,0,P|307:39|373:4,1,155.250002961159,10|0,0:2|0:0,0:0:0:0:
389,9,183946,1,10,0:1:0:0:
500,144,184092,1,10,0:2:0:0:
505,49,184239,2,0,P|451:70|400:86,1,103.500001974106,2|8,0:2|0:1,0:0:0:0:
269,256,184531,1,10,0:1:0:0:
414,219,184678,2,0,P|363:206|314:191,1,103.500001974106,8|0,0:2|0:0,0:0:0:0:
46,14,184970,6,0,P|93:28|114:75,1,103.500001974106,14|2,0:1|0:2,0:0:0:0:
108,245,185263,2,0,B|132:140|178:195|208:89,1,183.600001120605,10|0,0:2|0:0,0:0:0:0:
200,84,185556,1,10,0:1:0:0:
0,135,185702,2,0,P|48:153|98:166,1,103.500001974106,10|2,0:1|0:2,0:0:0:0:
197,288,185995,6,0,P|119:291|58:359,1,155.250002961159,10|0,0:2|0:0,0:0:0:0:
68,359,186287,1,10,0:1:0:0:
209,196,186434,1,10,0:2:0:0:
305,338,186580,2,0,P|255:351|206:369,2,103.500001974106,2|8|10,0:2|0:1|0:1,0:0:0:0:
412,258,187019,2,0,P|460:276|510:289,1,103.500001974106,10|0,0:2|0:0,0:0:0:0:
411,379,187312,6,0,B|396:330|391:295|391:295|343:268|343:268|335:215|313:164,1,237.599999274902,14|8,0:1|0:2,0:0:0:0:
500,0,187751,2,0,B|483:85|435:63|421:148,1,159.299994409332,2|0,0:2|0:0,0:0:0:0:
430,151,188044,1,8,0:1:0:0:
290,11,188190,1,2,0:2:0:0:
196,122,188336,2,0,P|246:106|302:91,2,106.199996272888,10|2|10,0:2|0:3|0:1,0:0:0:0:
12,329,188775,6,0,B|29:244|76:265|91:181,1,159.299994409332,10|0,0:2|0:0,0:0:0:0:
82,178,189068,1,10,0:1:0:0:
153,255,189214,1,10,0:1:0:0:
0,57,189361,2,0,P|50:73|105:88,1,106.199996272888,10|2,0:2|0:2,0:0:0:0:
322,384,189653,6,0,B|312:344|305:313|305:313|267:292|267:292|261:260|250:224,1,186.300000284271,14|0,0:1|0:0,0:0:0:0:
258,204,189946,1,10,0:2:0:0:
393,24,190092,2,0,P|471:34|479:170,1,212.399992545777,2|10,0:2|0:1,0:0:0:0:
365,240,190531,2,0,P|381:189|399:139,1,106.199996272888,2|10,0:2|0:2,0:0:0:0:
236,0,190824,5,2,0:3:0:0:
312,85,190970,1,10,0:1:0:0:
135,176,191117,2,0,P|118:125|101:75,1,106.199996272888,14|10,0:2|0:1,0:0:0:0:
217,126,191409,5,10,0:2:0:0:
243,201,191507,5,8,0:2:0:0:
195,260,191605,5,8,0:2:0:0:
124,282,191702,5,10,0:3:0:0:
100,305,191800,5,8,0:3:0:0:
99,323,191897,5,8,0:3:0:0:
106,335,191995,5,14,0:1:0:0:
106,335,194336,5,0,0:0:0:0:
418,197,196678,5,2,0:2:0:0:
418,197,199019,5,2,0:2:0:0:
94,15,200190,5,0,0:0:0:0:
56,82,200775,1,2,0:2:0:0:
105,143,201361,1,2,0:2:0:0:
105,143,203702,5,0,0:0:0:0:
154,214,204141,1,0,0:0:0:0:
106,285,204580,1,2,0:2:0:0:
106,285,205458,5,2,0:2:0:0:
56,224,205751,1,2,0:2:0:0:
106,285,205897,1,2,0:2:0:0:
196,176,206044,6,0,P|147:167|100:152,1,99.0000030212403,2|2,0:2|0:2,0:0:0:0:
100,152,206483,1,2,0:2:0:0:
302,348,206775,6,0,P|349:333|398:326,2,99.0000030212403,2|2|2,0:2|0:2|0:2,0:0:0:0:
404,214,207653,2,0,P|453:230|513:239,1,99.0000030212403,2|2,0:2|0:2,0:0:0:0:
499,237,208092,1,0,0:0:0:0:
419,100,208239,1,2,0:2:0:0:
419,100,208385,2,0,B|343:105|376:145|288:151,1,125.999996154785,2|2,0:2|0:2,0:0:0:0:
205,214,208824,6,0,P|175:202|145:194,1,62.9999980773926,2|0,0:2|0:0,0:0:0:0:
96,97,209117,2,0,P|66:106|35:113,2,62.9999980773926,2|0|2,0:2|0:0|0:2,0:0:0:0:
256,0,209556,5,2,0:2:0:0:
256,192,209629,12,2,210434,0:2:0:0:
206,340,210580,6,0,B|221:252|297:280|304:192,1,178.199999456177,14|0,0:1|0:0,0:0:0:0:
294,181,210873,1,8,0:1:0:0:
147,31,211019,2,0,P|161:83|176:137,1,107.999996704102,8|0,0:2|0:0,0:0:0:0:
348,370,211312,1,8,0:1:0:0:
228,239,211458,1,8,0:1:0:0:
326,85,211605,1,10,0:2:0:0:
446,59,211751,6,0,P|358:52|289:10,1,168.75,2|0,0:2|0:0,0:0:0:0:
283,0,212044,1,8,0:1:0:0:
370,236,212190,2,0,P|418:213|472:205,1,107.999996704102,8|0,0:2|0:0,0:0:0:0:
275,155,212483,5,10,0:1:0:0:
189,384,212629,1,10,0:1:0:0:
319,299,212775,1,10,0:2:0:0:
171,188,212922,6,0,B|103:205|103:205|84:236|84:236|2:259,1,175.499991966248,14|0,0:1|0:0,0:0:0:0:
0,249,213214,1,8,0:1:0:0:
174,383,213361,2,0,P|189:331|205:279,1,107.999996704102,8|0,0:2|0:0,0:0:0:0:
61,100,213653,1,8,0:1:0:0:
200,22,213800,1,8,0:1:0:0:
109,263,213946,1,10,0:2:0:0:
388,245,214092,6,0,P|349:177|272:166,1,161.999995056153,2|0,0:2|0:0,0:0:0:0:
259,178,214385,1,8,0:1:0:0:
372,379,214531,2,0,P|424:366|480:356,1,107.999996704102,8|0,0:2|0:0,0:0:0:0:
444,117,214824,1,10,0:1:0:0:
309,313,214970,1,10,0:1:0:0:
512,210,215117,1,10,0:2:0:0:
302,2,215263,6,0,P|327:82|351:163,1,168.75,14|0,0:1|0:0,0:0:0:0:
363,174,215556,1,8,0:1:0:0:
229,356,215702,2,0,P|170:329|165:272,1,107.999996704102,8|0,0:2|0:0,0:0:0:0:
386,262,215995,1,8,0:1:0:0:
246,86,216141,1,8,0:1:0:0:
387,0,216287,1,10,0:2:0:0:
237,212,216434,6,0,B|136:211|191:138|59:145,1,164.699993214569,2|0,0:2|0:0,0:0:0:0:
73,150,216726,1,8,0:1:0:0:
324,56,216873,2,0,P|331:115|295:152,1,107.999996704102,8|0,0:2|0:0,0:0:0:0:
144,34,217165,1,10,0:1:0:0:
54,256,217312,1,8,0:1:0:0:
54,256,217385,1,0,0:0:0:0:
54,256,217458,2,0,P|139:232|182:222,1,107.999996704102,10|8,0:2|0:1,0:0:0:0:
352,383,217751,6,0,B|340:358|320:338|320:338|374:204,1,175.499991966248,2|0,0:2|0:0,0:0:0:0:
381,220,218044,1,8,0:2:0:0:
479,370,218190,1,2,0:2:0:0:
303,294,218336,2,0,P|248:309|196:325,1,107.999996704102,10|8,0:1|0:1,0:0:0:0:
339,129,218629,2,0,P|395:177|489:180,1,161.999995056153,8|0,0:2|0:0,0:0:0:0:
491,169,218922,1,10,0:1:0:0:
373,16,219068,1,8,0:1:0:0:
477,0,219214,2,0,P|454:53|435:104,1,107.999996704102,8|0,0:2|0:0,0:0:0:0:
475,310,219507,5,14,0:1:0:0:
460,258,219580,1,8,0:2:0:0:
419,224,219653,1,8,0:2:0:0:
366,218,219726,1,8,0:2:0:0:
319,242,219800,1,10,0:2:0:0:
272,268,219873,1,8,0:2:0:0:
219,263,219946,1,10,0:2:0:0:
178,229,220019,1,8,0:2:0:0:
164,178,220092,6,0,P|247:129|338:82,1,179.549992602768,14|0,0:1|0:0,0:0:0:0:
334,84,220385,2,0,P|270:66|209:46,1,107.999996704102,8|0,0:2|0:0,0:0:0:0:
50,290,220678,1,8,0:1:0:0:
262,179,220824,1,8,0:1:0:0:
41,35,220970,1,10,0:2:0:0:
151,10,221117,6,0,B|132:71|132:71|102:87|102:87|83:149,1,161.999995056153,10|0,0:1|0:0,0:0:0:0:
92,169,221409,1,8,0:1:0:0:
212,356,221556,2,0,P|196:295|180:231,1,107.999996704102,8|0,0:2|0:0,0:0:0:0:
369,116,221848,5,10,0:1:0:0:
255,4,221995,1,8,0:1:0:0:
255,4,222068,1,2,0:2:0:0:
255,4,222141,2,0,P|240:61|226:120,1,107.999996704102,8|2,0:2|0:2,0:0:0:0:
402,354,222434,6,0,P|367:295|266:303,1,175.499991966248,14|0,0:1|0:0,0:0:0:0:
212,356,222726,2,0,P|158:345|93:333,1,107.999996704102,8|0,0:2|0:0,0:0:0:0:
11,113,223019,1,8,0:1:0:0:
180,236,223165,1,8,0:1:0:0:
35,380,223312,1,10,0:2:0:0:
106,335,223458,6,0,B|117:266|66:223|60:245|-2:227|19:117,1,215.999993408203,10|8,0:1|0:1,0:0:0:0:
185,2,223897,2,0,P|171:54|159:106,1,107.999996704102,10|0,0:2|0:0,0:0:0:0:
293,258,224190,1,10,0:1:0:0:
211,384,224336,1,8,0:1:0:0:
310,355,224483,1,10,0:2:0:0:
208,201,224629,1,0,0:0:0:0:
400,0,224775,6,0,B|389:97|309:57|302:174,1,182.250000695229,14|0,0:1|0:0,0:0:0:0:
315,166,225068,1,8,0:1:0:0:
211,384,225214,6,0,B|200:287|120:327|113:210,1,182.250000695229,10|0,0:2|0:0,0:0:0:0:
126,218,225507,1,8,0:1:0:0:
29,366,225653,1,10,0:2:0:0:
197,292,225800,6,0,P|289:297|414:376,1,233.999989288331,12|10,0:1|0:1,0:0:0:0:
482,343,226239,1,8,0:2:0:0:
512,132,226385,2,0,P|416:196|300:209,1,233.999989288331,8|10,0:1|0:3,0:0:0:0:
162,117,226824,5,10,0:3:0:0:
168,94,226897,1,8,0:3:0:0:
175,71,226970,1,8,0:3:0:0:
182,48,227044,1,8,0:3:0:0:
189,26,227117,6,0,B|220:23|240:0|240:0|332:36|279:138,1,188.999994232178,14|0,0:1|0:0,0:0:0:0:
282,119,227409,1,8,0:1:0:0:
153,369,227556,6,0,P|71:338|75:237,1,175.499991966248,10|0,0:2|0:0,0:0:0:0:
78,247,227848,1,8,0:1:0:0:
275,133,227995,1,10,0:2:0:0:
121,55,228141,6,0,P|156:140|216:306,1,233.999989288331,12|8,0:1|0:3,0:0:0:0:
179,121,228580,1,10,0:2:0:0:
303,381,228726,6,0,B|310:247|425:334|425:156,1,233.999989288331,12|8,0:1|0:2,0:0:0:0:
512,308,229165,1,10,0:3:0:0:
490,360,229239,1,8,0:3:0:0:
446,376,229312,1,8,0:3:0:0:
403,362,229385,1,8,0:3:0:0:
387,333,229458,1,14,0:1:0:0:
1,240,231214,5,2,0:2:0:0:
18,167,231361,5,2,0:2:0:0:
88,127,231507,5,2,0:2:0:0:
164,151,231653,5,2,0:2:0:0:
215,230,231800,5,14,0:1:0:0:
211,247,231873,1,8,0:3:0:0:
206,264,231946,1,8,0:3:0:0:
201,281,232019,1,8,0:3:0:0:
196,298,232092,1,8,0:3:0:0:
191,315,232165,1,8,0:3:0:0:
187,334,232239,5,14,0:1:0:0:
214,368,232312,1,8,0:3:0:0:
258,370,232385,1,8,0:3:0:0:
296,348,232458,1,8,0:3:0:0:
309,305,232531,1,8,0:3:0:0:
295,262,232605,1,8,0:3:0:0:
260,232,232678,1,14,0:1:0:0:
234,191,232751,1,8,0:3:0:0:
236,143,232824,1,8,0:3:0:0:
266,106,232897,1,8,0:3:0:0:
313,93,232970,5,8,0:3:0:0:
313,93,233044,1,8,0:3:0:0:
313,93,233117,2,0,P|344:103|377:110,1,53.9999983520508,14|8,0:1|0:3,0:0:0:0:
438,191,233263,5,8,0:3:0:0:
438,191,233337,1,8,0:3:0:0:
438,191,233410,2,0,P|469:181|502:174,1,53.9999983520508,8|8,0:3|0:3,0:0:0:0:
508,56,233556,5,14,0:1:0:0:
508,56,233629,1,8,0:3:0:0:
508,56,233702,2,0,P|473:65|444:73,1,53.9999983520508,8|8,0:3|0:3,0:0:0:0:
329,198,233848,5,14,0:1:0:0:
329,198,233922,1,8,0:3:0:0:
329,198,233995,2,0,P|294:188|265:180,1,53.9999983520508,8|8,0:3|0:3,0:0:0:0:
182,105,234141,5,14,0:1:0:0:
140,114,234214,1,8,0:3:0:0:
98,126,234287,1,8,0:3:0:0:
56,137,234361,1,8,0:3:0:0:
17,156,234434,6,0,L|69:178,1,53.9999983520508,8|8,0:3|0:3,0:0:0:0:
146,243,234580,2,0,L|200:229,5,53.9999983520508,14|8|8|8|8|8,0:1|0:3|0:3|0:3|0:3|0:3,0:0:0:0:
277,183,235019,5,14,0:1:0:0:
318,193,235092,1,8,0:3:0:0:
360,205,235165,1,8,0:3:0:0:
402,217,235239,1,8,0:3:0:0:
441,236,235312,6,0,L|389:257,1,53.9999983520508,8|8,0:3|0:3,0:0:0:0:
315,302,235458,2,0,L|263:286,5,53.9999983520508,14|8|8|8|8|8,0:1|0:3|0:3|0:3|0:3|0:3,0:0:0:0:
198,229,235897,5,14,0:1:0:0:
198,229,235970,1,8,0:3:0:0:
198,229,236044,2,0,L|130:249,1,53.9999983520508,8|8,0:3|0:3,0:0:0:0:
76,298,236190,5,14,0:1:0:0:
76,298,236263,1,8,0:3:0:0:
76,298,236336,2,0,L|8:278,1,53.9999983520508,8|8,0:3|0:3,0:0:0:0:
156,384,236483,5,14,0:1:0:0:
170,331,236556,1,8,0:3:0:0:
184,279,236629,1,8,0:3:0:0:
198,227,236702,1,8,0:3:0:0:
212,175,236775,6,0,L|195:124,1,53.9999983520508,8|8,0:3|0:3,0:0:0:0:
159,6,236922,2,0,L|142:57,5,53.9999983520508,14|8|8|8|8|8,0:1|0:3|0:3|0:3|0:3|0:3,0:0:0:0:
89,151,237361,5,14,0:1:0:0:
142,137,237434,1,8,0:3:0:0:
194,123,237507,1,8,0:3:0:0:
246,109,237580,1,8,0:3:0:0:
298,95,237653,6,0,L|349:112,1,53.9999983520508,8|8,0:3|0:3,0:0:0:0:
410,168,237800,2,0,L|461:151,5,53.9999983520508,14|8|8|8|8|8,0:1|0:3|0:3|0:3|0:3|0:3,0:0:0:0:
400,60,238239,5,14,0:1:0:0:
344,74,238312,1,8,0:3:0:0:
309,112,238385,1,8,0:3:0:0:
303,166,238458,1,8,0:3:0:0:
323,206,238531,1,14,0:1:0:0:
362,229,238605,1,8,0:3:0:0:
387,253,238678,1,8,0:3:0:0:
386,273,238751,1,8,0:3:0:0:
376,284,238824,5,14,0:1:0:0:
339,294,238897,1,8,0:3:0:0:
303,305,238970,1,8,0:3:0:0:
267,316,239044,1,8,0:3:0:0:
231,327,239117,6,0,L|179:313,1,53.9999983520508,8|8,0:3|0:3,0:0:0:0:
66,270,239263,2,0,L|118:256,5,53.9999983520508,14|8|8|8|8|8,0:1|0:3|0:3|0:3|0:3|0:3,0:0:0:0:
186,198,239702,5,14,0:1:0:0:
223,208,239775,1,8,0:3:0:0:
259,219,239848,1,8,0:3:0:0:
295,230,239922,1,8,0:3:0:0:
331,241,239995,6,0,L|383:227,1,53.9999983520508,8|8,0:3|0:3,0:0:0:0:
502,185,240141,2,0,L|450:171,5,53.9999983520508,14|8|8|8|8|8,0:1|0:3|0:3|0:3|0:3|0:3,0:0:0:0:
388,107,240580,5,14,0:1:0:0:
388,107,240653,1,8,0:3:0:0:
388,107,240726,2,0,L|319:125,1,53.9999983520508,8|8,0:3|0:3,0:0:0:0:
271,189,240873,5,14,0:1:0:0:
271,189,240946,1,8,0:3:0:0:
271,189,241019,2,0,L|202:171,1,53.9999983520508,8|8,0:3|0:3,0:0:0:0:
172,88,241165,5,14,0:1:0:0:
109,75,241239,1,8,0:3:0:0:
54,111,241312,1,8,0:3:0:0:
46,168,241385,1,8,0:3:0:0:
79,219,241458,1,8,0:3:0:0:
118,231,241531,1,8,0:3:0:0:
163,251,241605,5,14,0:1:0:0:
182,292,241678,1,8,0:3:0:0:
180,327,241751,1,8,0:3:0:0:
164,350,241824,1,8,0:3:0:0:
146,358,241897,1,8,0:3:0:0:
131,358,241970,1,8,0:3:0:0:
122,352,242044,5,10,0:2:0:0:
281,68,242190,1,14,0:1:0:0:
