osu file format v14

[General]
AudioFilename: audio.mp3
AudioLeadIn: 0
PreviewTime: 191336
Countdown: 0
SampleSet: Soft
StackLeniency: 0.7
Mode: 0
LetterboxInBreaks: 0
WidescreenStoryboard: 0

[Editor]
DistanceSpacing: 1.3
BeatDivisor: 4
GridSize: 4
TimelineZoom: 1.4

[Metadata]
Title:Yakudou
TitleUnicode:躍動
Artist:Sakamoto Maaya
ArtistUnicode:坂本真綾
Creator:Big Sis
Version:Benevolence
Source:Fate/Grand Order -Cosmos in the Lostbelt-
Tags:midorijeon flame haze shirahane suou asagi TYPE-MOON FGO PROJECT f/go part arc 2 opening op japanese jpop pop j-pop rock jrock j-rock videogame video game vaporfly red crewmate god haachama
BeatmapID:3843326
BeatmapSetID:1868330

[Difficulty]
HPDrainRate:5.5
CircleSize:4.2
OverallDifficulty:9
ApproachRate:9.5
SliderMultiplier:1.8
SliderTickRate:1

[Events]
//Background and Video events
0,0,"bg1.jpg",0,0
//Break Periods
//Storyboard Layer 0 (Background)
//Storyboard Layer 1 (Fail)
//Storyboard Layer 2 (Pass)
//Storyboard Layer 3 (Foreground)
//Storyboard Layer 4 (Overlay)
//Storyboard Sound Samples

[TimingPoints]
1166,292.682926829268,4,2,2,40,1,0
1751,-333.333333333333,4,2,2,50,0,0
2336,-142.857142857143,4,2,2,50,0,0
3214,-200,4,2,2,50,0,0
3800,-142.857142857143,4,2,2,50,0,0
6434,-333.333333333334,4,2,2,50,0,0
7019,-142.857142857143,4,2,2,50,0,0
7897,-200,4,2,2,50,0,0
8483,-142.857142857143,4,2,2,50,0,0
9361,-166.666666666667,4,2,2,50,0,0
9726,-166.666666666667,4,2,2,5,0,0
9800,-166.666666666667,4,2,2,50,0,0
11702,-142.857142857143,4,2,2,50,0,0
12580,-200,4,2,2,50,0,0
14336,-142.857142857143,4,2,2,50,0,0
18726,-142.857142857143,4,2,2,40,0,0
20483,-142.857142857143,4,2,2,60,0,0
21068,-100,4,2,1,75,0,0
21141,-100,4,2,2,75,0,0
21361,-100,4,2,6,75,0,0
21434,-100,4,2,2,75,0,0
21653,-100,4,2,6,75,0,0
21726,-100,4,2,2,75,0,0
21946,-100,4,2,6,75,0,0
22019,-100,4,2,2,75,0,0
22239,-100,4,2,6,75,0,0
22312,-100,4,2,2,75,0,0
22531,-100,4,2,6,75,0,0
22604,-100,4,2,2,75,0,0
22824,-100,4,2,6,75,0,0
22897,-100,4,2,2,75,0,0
23117,-100,4,2,6,75,0,0
23190,-100,4,2,2,75,0,0
23409,-100,4,2,3,75,0,0
23702,-100,4,2,6,75,0,0
23775,-100,4,2,2,75,0,0
23995,-100,4,2,6,75,0,0
24068,-100,4,2,2,75,0,0
24287,-100,4,2,7,75,0,0
24360,-100,4,2,2,75,0,0
24580,-100,4,2,7,75,0,0
24653,-100,4,2,2,75,0,0
24873,-100,4,2,6,75,0,0
24946,-100,4,2,2,75,0,0
25165,-100,4,2,6,75,0,0
25238,-100,4,2,2,75,0,0
25458,-100,4,2,6,75,0,0
25531,-100,4,2,2,75,0,0
26044,-100,4,2,6,75,0,0
26117,-100,4,2,2,75,0,0
26336,-100,4,2,6,75,0,0
26409,-100,4,2,2,75,0,0
26629,-100,4,2,6,75,0,0
26702,-100,4,2,2,75,0,0
26922,-100,4,2,7,75,0,0
26995,-100,4,2,2,75,0,0
27214,-100,4,2,6,75,0,0
27287,-100,4,2,2,75,0,0
27507,-100,4,2,6,75,0,0
27580,-100,4,2,2,75,0,0
27800,-100,4,2,6,75,0,0
27873,-100,4,2,2,75,0,0
28092,-100,4,2,3,75,0,0
28385,-100,4,2,6,75,0,0
28458,-100,4,2,2,75,0,0
28678,-100,4,2,6,75,0,0
28751,-100,4,2,2,75,0,0
28970,-100,4,2,6,75,0,0
29043,-100,4,2,2,75,0,0
29263,-100,4,2,7,75,0,0
29336,-100,4,2,2,75,0,0
29556,-100,4,2,6,75,0,0
29629,-100,4,2,2,75,0,0
30726,-100,4,2,6,75,0,0
30799,-100,4,2,2,75,0,0
31019,-100,4,2,6,75,0,0
31092,-100,4,2,2,75,0,0
31312,-100,4,2,6,75,0,0
31385,-100,4,2,2,75,0,0
31605,-100,4,2,6,75,0,0
31678,-100,4,2,2,75,0,0
31897,-100,4,2,6,75,0,0
31970,-100,4,2,2,75,0,0
32190,-100,4,2,6,75,0,0
32263,-100,4,2,2,75,0,0
32483,-100,4,2,6,75,0,0
32556,-100,4,2,2,75,0,0
32775,-100,4,2,3,75,0,0
33068,-100,4,2,6,75,0,0
33141,-100,4,2,2,75,0,0
33361,-100,4,2,6,75,0,0
33434,-100,4,2,2,75,0,0
33653,-100,4,2,7,75,0,0
33726,-100,4,2,2,75,0,0
33946,-100,4,2,6,75,0,0
34019,-100,4,2,2,75,0,0
34239,-100,4,2,6,75,0,0
34312,-100,4,2,2,75,0,0
34531,-100,4,2,6,75,0,0
34604,-100,4,2,2,75,0,0
34824,-100,4,2,6,75,0,0
34897,-100,4,2,2,75,0,0
35409,-100,4,2,6,75,0,0
35482,-100,4,2,2,75,0,0
35702,-100,4,2,6,75,0,0
35775,-100,4,2,2,75,0,0
35995,-100,4,2,6,75,0,0
36068,-100,4,2,2,75,0,0
36287,-100,4,2,7,75,0,0
36360,-100,4,2,2,75,0,0
36580,-100,4,2,6,75,0,0
36653,-100,4,2,2,75,0,0
36873,-100,4,2,6,75,0,0
36946,-100,4,2,2,75,0,0
37165,-100,4,2,6,75,0,0
37238,-100,4,2,2,75,0,0
37458,-100,4,2,3,75,0,0
37751,-100,4,2,6,75,0,0
37824,-100,4,2,2,75,0,0
38044,-100,4,2,6,75,0,0
38117,-100,4,2,2,75,0,0
38336,-100,4,2,7,75,0,0
38409,-100,4,2,2,75,0,0
38629,-100,4,2,7,75,0,0
38702,-100,4,2,2,75,0,0
38922,-100,4,2,6,75,0,0
38995,-100,4,2,2,75,0,0
39214,-100,4,2,6,75,0,0
39287,-100,4,2,2,75,0,0
39653,-100,4,2,3,75,0,0
39800,-125,4,2,1,60,0,0
39873,-125,4,2,2,60,0,0
40092,-125,4,2,8,60,0,0
40165,-125,4,2,2,60,0,0
40385,-125,4,2,8,60,0,0
40458,-125,4,2,2,60,0,0
40678,-125,4,2,8,60,0,0
40751,-125,4,2,2,60,0,0
40824,-125,4,2,12,60,0,0
40897,-125,4,2,2,60,0,0
40970,-125,4,2,8,60,0,0
41043,-125,4,2,2,60,0,0
41263,-125,4,2,12,60,0,0
41336,-125,4,2,2,60,0,0
41556,-125,4,2,8,60,0,0
41629,-125,4,2,2,60,0,0
41848,-125,4,2,8,60,0,0
41921,-125,4,2,2,60,0,0
42434,-125,4,2,8,60,0,0
42507,-125,4,2,2,60,0,0
42726,-125,4,2,8,60,0,0
42799,-125,4,2,2,60,0,0
43019,-125,4,2,9,60,0,0
43092,-125,4,2,2,60,0,0
43165,-125,4,2,12,60,0,0
43238,-125,4,2,2,60,0,0
43312,-125,4,2,8,60,0,0
43385,-125,4,2,2,60,0,0
43605,-125,4,2,12,60,0,0
43678,-125,4,2,2,60,0,0
43897,-125,4,2,8,60,0,0
43970,-125,4,2,2,60,0,0
44190,-125,4,2,8,60,0,0
44263,-125,4,2,2,60,0,0
44483,-111.111111111111,4,2,2,60,0,0
44775,-111.111111111111,4,2,8,60,0,0
44848,-111.111111111111,4,2,2,60,0,0
45067,-111.111111111111,4,2,8,60,0,0
45140,-111.111111111111,4,2,2,60,0,0
45360,-111.111111111111,4,2,9,60,0,0
45433,-111.111111111111,4,2,2,60,0,0
45506,-111.111111111111,4,2,12,60,0,0
45579,-111.111111111111,4,2,2,60,0,0
45653,-111.111111111111,4,2,9,60,0,0
45726,-111.111111111111,4,2,2,60,0,0
45946,-111.111111111111,4,2,12,60,0,0
46019,-111.111111111111,4,2,2,60,0,0
46238,-111.111111111111,4,2,8,60,0,0
46311,-111.111111111111,4,2,2,60,0,0
46531,-111.111111111111,4,2,8,60,0,0
46604,-111.111111111111,4,2,2,60,0,0
47117,-111.111111111111,4,2,8,60,0,0
47190,-111.111111111111,4,2,2,60,0,0
47409,-111.111111111111,4,2,8,60,0,0
47482,-111.111111111111,4,2,2,60,0,0
47702,-111.111111111111,4,2,8,60,0,0
47775,-111.111111111111,4,2,2,60,0,0
47848,-111.111111111111,4,2,12,60,0,0
47921,-111.111111111111,4,2,2,60,0,0
47995,-111.111111111111,4,2,8,60,0,0
48068,-111.111111111111,4,2,2,60,0,0
48288,-111.111111111111,4,2,12,60,0,0
48361,-111.111111111111,4,2,2,60,0,0
48580,-111.111111111111,4,2,8,60,0,0
48653,-111.111111111111,4,2,2,60,0,0
48873,-111.111111111111,4,2,8,60,0,0
48946,-111.111111111111,4,2,2,60,0,0
49458,-111.111111111111,4,2,8,60,0,0
49531,-111.111111111111,4,2,2,60,0,0
49750,-111.111111111111,4,2,8,60,0,0
49823,-111.111111111111,4,2,2,60,0,0
50043,-111.111111111111,4,2,8,60,0,0
50116,-111.111111111111,4,2,2,60,0,0
50189,-111.111111111111,4,2,12,60,0,0
50262,-111.111111111111,4,2,2,60,0,0
50336,-111.111111111111,4,2,8,60,0,0
50409,-111.111111111111,4,2,2,60,0,0
50629,-111.111111111111,4,2,12,60,0,0
50702,-111.111111111111,4,2,2,60,0,0
50921,-111.111111111111,4,2,8,60,0,0
50994,-111.111111111111,4,2,2,60,0,0
51214,-111.111111111111,4,2,8,60,0,0
51287,-111.111111111111,4,2,2,60,0,0
51800,-111.111111111111,4,2,8,60,0,0
51873,-111.111111111111,4,2,2,60,0,0
52092,-111.111111111111,4,2,8,60,0,0
52165,-111.111111111111,4,2,2,60,0,0
52385,-111.111111111111,4,2,9,60,0,0
52458,-111.111111111111,4,2,2,60,0,0
52531,-111.111111111111,4,2,12,60,0,0
52604,-111.111111111111,4,2,2,60,0,0
52678,-111.111111111111,4,2,8,60,0,0
52751,-111.111111111111,4,2,2,60,0,0
52971,-111.111111111111,4,2,12,60,0,0
53044,-111.111111111111,4,2,2,60,0,0
53263,-111.111111111111,4,2,8,60,0,0
53336,-111.111111111111,4,2,2,60,0,0
53556,-111.111111111111,4,2,8,60,0,0
53629,-111.111111111111,4,2,2,60,0,0
54141,-111.111111111111,4,2,8,60,0,0
54214,-111.111111111111,4,2,2,60,0,0
54433,-111.111111111111,4,2,8,60,0,0
54506,-111.111111111111,4,2,2,60,0,0
54726,-111.111111111111,4,2,9,60,0,0
54799,-111.111111111111,4,2,2,60,0,0
54872,-111.111111111111,4,2,12,60,0,0
54945,-111.111111111111,4,2,2,60,0,0
55019,-111.111111111111,4,2,9,60,0,0
55092,-111.111111111111,4,2,2,60,0,0
55312,-111.111111111111,4,2,12,60,0,0
55385,-111.111111111111,4,2,2,60,0,0
55604,-111.111111111111,4,2,8,60,0,0
55677,-111.111111111111,4,2,2,60,0,0
55897,-111.111111111111,4,2,8,60,0,0
55970,-111.111111111111,4,2,2,60,0,0
56483,-111.111111111111,4,2,8,60,0,0
56556,-111.111111111111,4,2,2,60,0,0
56775,-111.111111111111,4,2,8,60,0,0
56848,-111.111111111111,4,2,2,60,0,0
57068,-111.111111111111,4,2,8,60,0,0
57141,-111.111111111111,4,2,2,60,0,0
57214,-111.111111111111,4,2,12,60,0,0
57287,-111.111111111111,4,2,2,60,0,0
57361,-111.111111111111,4,2,8,60,0,0
57434,-111.111111111111,4,2,2,60,0,0
57654,-111.111111111111,4,2,6,60,0,0
57727,-111.111111111111,4,2,2,60,0,0
57946,-111.111111111111,4,2,6,60,0,0
58019,-111.111111111111,4,2,2,60,0,0
58239,-111.111111111111,4,2,6,60,0,0
58312,-111.111111111111,4,2,2,60,0,0
58531,-142.857142857143,4,2,1,60,0,0
58605,-142.857142857143,4,2,2,50,0,0
67897,-111.111111111111,4,2,1,60,0,0
67970,-111.111111111111,4,2,2,60,0,0
68190,-111.111111111111,4,2,6,60,0,0
68263,-111.111111111111,4,2,2,60,0,0
68483,-111.111111111111,4,2,6,60,0,0
68556,-111.111111111111,4,2,2,60,0,0
68775,-111.111111111111,4,2,6,60,0,0
68848,-111.111111111111,4,2,2,60,0,0
69068,-111.111111111111,4,2,6,60,0,0
69141,-111.111111111111,4,2,2,60,0,0
69361,-111.111111111111,4,2,6,60,0,0
69434,-111.111111111111,4,2,2,60,0,0
69653,-111.111111111111,4,2,6,60,0,0
69726,-111.111111111111,4,2,2,60,0,0
69946,-111.111111111111,4,2,6,60,0,0
70019,-111.111111111111,4,2,2,60,0,0
70239,-111.111111111111,4,2,3,60,0,0
70531,-111.111111111111,4,2,6,60,0,0
70604,-111.111111111111,4,2,2,60,0,0
70824,-111.111111111111,4,2,6,60,0,0
70897,-111.111111111111,4,2,2,60,0,0
71117,-111.111111111111,4,2,7,60,0,0
71190,-111.111111111111,4,2,2,60,0,0
71409,-111.111111111111,4,2,6,60,0,0
71482,-111.111111111111,4,2,2,60,0,0
71702,-111.111111111111,4,2,6,60,0,0
71775,-111.111111111111,4,2,2,60,0,0
71995,-111.111111111111,4,2,6,60,0,0
72068,-111.111111111111,4,2,2,60,0,0
72287,-111.111111111111,4,2,6,60,0,0
72360,-111.111111111111,4,2,2,60,0,0
72873,-111.111111111111,4,2,6,60,0,0
72946,-111.111111111111,4,2,2,60,0,0
73165,-111.111111111111,4,2,6,60,0,0
73238,-111.111111111111,4,2,2,60,0,0
73458,-111.111111111111,4,2,7,60,0,0
73531,-111.111111111111,4,2,2,60,0,0
73751,-111.111111111111,4,2,7,60,0,0
73824,-111.111111111111,4,2,2,60,0,0
74044,-111.111111111111,4,2,6,60,0,0
74117,-111.111111111111,4,2,2,60,0,0
74336,-111.111111111111,4,2,6,60,0,0
74409,-111.111111111111,4,2,2,60,0,0
74629,-111.111111111111,4,2,6,60,0,0
74702,-111.111111111111,4,2,2,60,0,0
74922,-111.111111111111,4,2,1,60,0,0
74995,-111.111111111111,4,2,2,60,0,0
76678,-111.111111111111,4,2,2,60,0,0
76970,-99.9999999999999,4,2,2,60,0,0
77117,-90.9090909090909,4,2,1,80,0,0
77190,-90.9090909090909,4,2,2,80,0,0
77556,-90.9090909090909,4,2,6,80,0,0
77629,-90.9090909090909,4,2,2,80,0,0
77848,-90.9090909090909,4,2,6,80,0,0
77921,-90.9090909090909,4,2,2,80,0,0
78141,-90.9090909090909,4,2,6,80,0,0
78214,-90.9090909090909,4,2,2,80,0,0
78434,-90.9090909090909,4,2,6,80,0,0
78507,-90.9090909090909,4,2,2,80,0,0
78726,-90.9090909090909,4,2,6,80,0,0
78799,-90.9090909090909,4,2,2,80,0,0
79019,-90.9090909090909,4,2,6,80,0,0
79092,-90.9090909090909,4,2,2,80,0,0
79312,-90.9090909090909,4,2,6,80,0,0
79385,-90.9090909090909,4,2,2,80,0,0
79458,-90.9090909090909,4,2,3,80,0,0
79897,-90.9090909090909,4,2,6,80,0,0
79970,-90.9090909090909,4,2,2,80,0,0
80190,-90.9090909090909,4,2,6,80,0,0
80263,-90.9090909090909,4,2,2,80,0,0
80483,-90.9090909090909,4,2,6,80,0,0
80556,-90.9090909090909,4,2,2,80,0,0
80775,-90.9090909090909,4,2,6,80,0,0
80848,-90.9090909090909,4,2,2,80,0,0
81068,-90.9090909090909,4,2,6,80,0,0
81141,-90.9090909090909,4,2,2,80,0,0
81361,-90.9090909090909,4,2,6,80,0,0
81434,-90.9090909090909,4,2,2,80,0,0
81653,-90.9090909090909,4,2,6,80,0,0
81726,-90.9090909090909,4,2,2,80,0,0
82239,-90.9090909090909,4,2,6,80,0,0
82312,-90.9090909090909,4,2,2,80,0,0
82531,-90.9090909090909,4,2,6,80,0,0
82604,-90.9090909090909,4,2,2,80,0,0
82824,-90.9090909090909,4,2,6,80,0,0
82897,-90.9090909090909,4,2,2,80,0,0
83117,-90.9090909090909,4,2,6,80,0,0
83190,-90.9090909090909,4,2,2,80,0,0
83409,-90.9090909090909,4,2,6,80,0,0
83482,-90.9090909090909,4,2,2,80,0,0
83702,-90.9090909090909,4,2,6,80,0,0
83775,-90.9090909090909,4,2,2,80,0,0
83995,-90.9090909090909,4,2,6,80,0,0
84068,-90.9090909090909,4,2,2,80,0,0
84287,-90.9090909090909,4,2,7,80,0,0
84360,-90.9090909090909,4,2,2,80,0,0
84580,-90.9090909090909,4,2,6,80,0,0
84653,-90.9090909090909,4,2,2,80,0,0
84873,-90.9090909090909,4,2,6,80,0,0
84946,-90.9090909090909,4,2,2,80,0,0
85165,-90.9090909090909,4,2,6,80,0,0
85238,-90.9090909090909,4,2,2,80,0,0
85458,-90.9090909090909,4,2,6,80,0,0
85531,-90.9090909090909,4,2,2,80,0,0
85751,-90.9090909090909,4,2,6,80,0,0
85824,-90.9090909090909,4,2,2,80,0,0
86044,-90.9090909090909,4,2,5,80,0,0
86629,-90.9090909090909,4,2,3,80,0,0
86922,-90.9090909090909,4,2,6,80,0,0
86995,-90.9090909090909,4,2,2,80,0,0
87214,-90.9090909090909,4,2,6,80,0,0
87287,-90.9090909090909,4,2,2,80,0,0
87507,-90.9090909090909,4,2,6,80,0,0
87580,-90.9090909090909,4,2,2,80,0,0
87800,-90.9090909090909,4,2,6,80,0,0
87873,-90.9090909090909,4,2,2,80,0,0
88092,-90.9090909090909,4,2,6,80,0,0
88165,-90.9090909090909,4,2,2,80,0,0
88385,-90.9090909090909,4,2,6,80,0,0
88458,-90.9090909090909,4,2,2,80,0,0
88678,-90.9090909090909,4,2,6,80,0,0
88751,-90.9090909090909,4,2,2,80,0,0
89263,-90.9090909090909,4,2,6,80,0,0
89336,-90.9090909090909,4,2,2,80,0,0
89556,-90.9090909090909,4,2,6,80,0,0
89629,-90.9090909090909,4,2,2,80,0,0
89848,-90.9090909090909,4,2,6,80,0,0
89921,-90.9090909090909,4,2,2,80,0,0
90141,-90.9090909090909,4,2,6,80,0,0
90214,-90.9090909090909,4,2,2,80,0,0
90434,-90.9090909090909,4,2,6,80,0,0
90507,-90.9090909090909,4,2,2,80,0,0
90726,-90.9090909090909,4,2,6,80,0,0
90799,-90.9090909090909,4,2,2,80,0,0
91019,-90.9090909090909,4,2,6,80,0,0
91092,-90.9090909090909,4,2,2,80,0,0
91312,-90.9090909090909,4,2,3,80,0,0
91605,-90.9090909090909,4,2,6,80,0,0
91678,-90.9090909090909,4,2,2,80,0,0
91897,-90.9090909090909,4,2,6,80,0,0
91970,-90.9090909090909,4,2,2,80,0,0
92190,-90.9090909090909,4,2,7,80,0,0
92263,-90.9090909090909,4,2,2,80,0,0
92483,-90.9090909090909,4,2,6,80,0,0
92556,-90.9090909090909,4,2,2,80,0,0
92775,-90.9090909090909,4,2,6,80,0,0
92848,-90.9090909090909,4,2,2,80,0,0
93068,-90.9090909090909,4,2,6,80,0,0
93141,-90.9090909090909,4,2,2,80,0,0
93361,-90.9090909090909,4,2,6,80,0,0
93434,-90.9090909090909,4,2,2,80,0,0
93946,-90.9090909090909,4,2,6,80,0,0
94019,-90.9090909090909,4,2,2,80,0,0
94239,-90.9090909090909,4,2,6,80,0,0
94312,-90.9090909090909,4,2,2,80,0,0
94531,-90.9090909090909,4,2,6,80,0,0
94604,-90.9090909090909,4,2,2,80,0,0
94824,-90.9090909090909,4,2,7,80,0,0
94897,-90.9090909090909,4,2,2,80,0,0
95117,-90.9090909090909,4,2,6,80,0,0
95190,-90.9090909090909,4,2,2,80,0,0
95409,-90.9090909090909,4,2,5,80,0,0
95995,-90.9090909090909,4,2,1,75,0,0
96068,-90.9090909090909,4,2,2,75,0,0
96287,-90.9090909090909,4,2,6,75,0,0
96361,-90.9090909090909,4,2,2,75,0,0
96580,-90.9090909090909,4,2,6,75,0,0
96654,-90.9090909090909,4,2,2,75,0,0
96873,-90.9090909090909,4,2,7,75,0,0
96947,-90.9090909090909,4,2,2,75,0,0
97165,-90.9090909090909,4,2,6,75,0,0
97239,-90.9090909090909,4,2,2,75,0,0
97458,-100,4,2,6,75,0,0
97532,-100,4,2,2,75,0,0
97751,-100,4,2,6,75,0,0
97825,-100,4,2,2,75,0,0
98044,-100,4,2,6,75,0,0
98118,-100,4,2,2,75,0,0
98336,-100,4,2,3,75,0,0
98629,-100,4,2,6,75,0,0
98703,-100,4,2,2,75,0,0
98922,-100,4,2,6,75,0,0
98996,-100,4,2,2,75,0,0
99214,-100,4,2,7,75,0,0
99288,-100,4,2,2,75,0,0
99507,-100,4,2,6,75,0,0
99581,-100,4,2,2,75,0,0
99800,-100,4,2,6,75,0,0
99874,-100,4,2,2,75,0,0
100092,-100,4,2,6,75,0,0
100166,-100,4,2,2,75,0,0
100385,-100,4,2,6,75,0,0
100459,-100,4,2,2,75,0,0
100678,-100,4,2,3,75,0,0
100970,-100,4,2,6,75,0,0
101044,-100,4,2,2,75,0,0
101263,-100,4,2,6,75,0,0
101337,-100,4,2,2,75,0,0
101556,-100,4,2,7,75,0,0
101630,-100,4,2,2,75,0,0
101848,-100,4,2,6,75,0,0
101922,-100,4,2,2,75,0,0
102141,-100,4,2,6,75,0,0
102215,-100,4,2,2,75,0,0
102434,-100,4,2,6,75,0,0
102508,-100,4,2,2,75,0,0
102727,-100,4,2,6,75,0,0
102801,-100,4,2,2,75,0,0
103312,-100,4,2,6,75,0,0
103386,-100,4,2,2,75,0,0
103605,-100,4,2,6,75,0,0
103679,-100,4,2,2,75,0,0
103898,-100,4,2,7,75,0,0
103972,-100,4,2,2,75,0,0
104190,-100,4,2,6,75,0,0
104264,-100,4,2,2,75,0,0
104483,-100,4,2,6,75,0,0
104557,-100,4,2,2,75,0,0
105361,-100,4,2,3,75,0,0
105653,-100,4,2,6,75,0,0
105727,-100,4,2,2,75,0,0
105946,-100,4,2,6,75,0,0
106020,-100,4,2,2,75,0,0
106239,-100,4,2,7,75,0,0
106313,-100,4,2,2,75,0,0
106531,-100,4,2,6,75,0,0
106605,-100,4,2,2,75,0,0
106824,-100,4,2,6,75,0,0
106898,-100,4,2,2,75,0,0
107117,-100,4,2,6,75,0,0
107191,-100,4,2,2,75,0,0
107410,-100,4,2,6,75,0,0
107484,-100,4,2,2,75,0,0
107995,-100,4,2,6,75,0,0
108069,-100,4,2,2,75,0,0
108288,-100,4,2,6,75,0,0
108362,-100,4,2,2,75,0,0
108581,-100,4,2,7,75,0,0
108655,-100,4,2,2,75,0,0
108873,-100,4,2,6,75,0,0
108947,-100,4,2,2,75,0,0
109166,-100,4,2,6,75,0,0
109240,-100,4,2,2,75,0,0
109459,-100,4,2,6,75,0,0
109533,-100,4,2,2,75,0,0
109752,-100,4,2,6,75,0,0
109826,-100,4,2,2,75,0,0
110044,-100,4,2,3,75,0,0
110336,-100,4,2,6,75,0,0
110410,-100,4,2,2,75,0,0
110629,-100,4,2,6,75,0,0
110703,-100,4,2,2,75,0,0
110922,-100,4,2,7,75,0,0
110996,-100,4,2,2,75,0,0
111214,-100,4,2,6,75,0,0
111288,-100,4,2,2,75,0,0
111507,-100,4,2,6,75,0,0
111581,-100,4,2,2,75,0,0
111800,-100,4,2,6,75,0,0
111874,-100,4,2,2,75,0,0
112093,-100,4,2,6,75,0,0
112167,-100,4,2,2,75,0,0
112385,-100,4,2,3,75,0,0
112678,-100,4,2,6,75,0,0
112752,-100,4,2,2,75,0,0
112971,-100,4,2,6,75,0,0
113045,-100,4,2,2,75,0,0
113264,-100,4,2,7,75,0,0
113338,-100,4,2,2,75,0,0
113556,-100,4,2,6,75,0,0
113630,-100,4,2,2,75,0,0
113849,-100,4,2,6,75,0,0
113923,-100,4,2,2,75,0,0
114580,-142.857142857143,4,2,1,65,0,0
114653,-142.857142857143,4,2,2,65,0,0
115019,-142.857142857143,4,2,8,65,0,0
115092,-142.857142857143,4,2,2,65,0,0
115312,-142.857142857143,4,2,8,65,0,0
115385,-142.857142857143,4,2,2,65,0,0
115605,-142.857142857143,4,2,9,65,0,0
115678,-142.857142857143,4,2,2,65,0,0
115751,-142.857142857143,4,2,12,65,0,0
115824,-142.857142857143,4,2,2,65,0,0
115897,-142.857142857143,4,2,8,65,0,0
115970,-142.857142857143,4,2,2,65,0,0
116190,-142.857142857143,4,2,12,65,0,0
116263,-142.857142857143,4,2,2,65,0,0
116483,-142.857142857143,4,2,8,65,0,0
116556,-142.857142857143,4,2,2,65,0,0
116775,-142.857142857143,4,2,8,65,0,0
116848,-142.857142857143,4,2,2,65,0,0
117361,-142.857142857143,4,2,8,65,0,0
117434,-142.857142857143,4,2,2,65,0,0
117654,-142.857142857143,4,2,8,65,0,0
117727,-142.857142857143,4,2,2,65,0,0
117947,-142.857142857143,4,2,8,65,0,0
118020,-142.857142857143,4,2,2,65,0,0
118093,-142.857142857143,4,2,12,65,0,0
118166,-142.857142857143,4,2,2,65,0,0
118239,-142.857142857143,4,2,9,65,0,0
118312,-142.857142857143,4,2,2,65,0,0
118532,-142.857142857143,4,2,12,65,0,0
118605,-142.857142857143,4,2,2,65,0,0
118825,-142.857142857143,4,2,8,65,0,0
118898,-142.857142857143,4,2,2,65,0,0
119117,-142.857142857143,4,2,8,65,0,0
119190,-142.857142857143,4,2,2,65,0,0
119702,-142.857142857143,4,2,8,65,0,0
119775,-142.857142857143,4,2,2,65,0,0
119995,-142.857142857143,4,2,8,65,0,0
120068,-142.857142857143,4,2,2,65,0,0
120288,-142.857142857143,4,2,9,65,0,0
120361,-142.857142857143,4,2,2,65,0,0
120434,-142.857142857143,4,2,12,65,0,0
120507,-142.857142857143,4,2,2,65,0,0
120580,-142.857142857143,4,2,8,65,0,0
120653,-142.857142857143,4,2,2,65,0,0
120873,-142.857142857143,4,2,12,65,0,0
120946,-142.857142857143,4,2,2,65,0,0
121166,-142.857142857143,4,2,8,65,0,0
121239,-142.857142857143,4,2,2,65,0,0
121458,-142.857142857143,4,2,8,65,0,0
121531,-142.857142857143,4,2,2,65,0,0
122044,-142.857142857143,4,2,8,65,0,0
122117,-142.857142857143,4,2,2,65,0,0
122337,-142.857142857143,4,2,8,65,0,0
122410,-142.857142857143,4,2,2,65,0,0
122630,-142.857142857143,4,2,8,65,0,0
122703,-142.857142857143,4,2,2,65,0,0
122776,-142.857142857143,4,2,12,65,0,0
122849,-142.857142857143,4,2,2,65,0,0
122922,-142.857142857143,4,2,9,65,0,0
122995,-142.857142857143,4,2,2,65,0,0
123215,-142.857142857143,4,2,12,65,0,0
123288,-142.857142857143,4,2,2,65,0,0
123508,-142.857142857143,4,2,8,65,0,0
123581,-142.857142857143,4,2,2,65,0,0
123800,-142.857142857143,4,2,8,65,0,0
123873,-142.857142857143,4,2,2,65,0,0
123946,-125,4,2,2,65,0,0
124385,-125,4,2,8,65,0,0
124458,-125,4,2,2,65,0,0
124678,-125,4,2,8,65,0,0
124751,-125,4,2,2,65,0,0
124971,-125,4,2,9,65,0,0
125044,-125,4,2,2,65,0,0
125117,-125,4,2,12,65,0,0
125190,-125,4,2,2,65,0,0
125263,-125,4,2,8,65,0,0
125336,-125,4,2,2,65,0,0
125556,-125,4,2,12,65,0,0
125629,-125,4,2,2,65,0,0
125849,-125,4,2,8,65,0,0
125922,-125,4,2,2,65,0,0
126141,-125,4,2,8,65,0,0
126214,-125,4,2,2,65,0,0
126726,-125,4,2,8,65,0,0
126799,-125,4,2,2,65,0,0
127019,-125,4,2,8,65,0,0
127092,-125,4,2,2,65,0,0
127312,-125,4,2,8,65,0,0
127385,-125,4,2,2,65,0,0
127458,-125,4,2,12,65,0,0
127531,-125,4,2,2,65,0,0
127604,-125,4,2,9,65,0,0
127677,-125,4,2,2,65,0,0
127897,-125,4,2,12,65,0,0
127970,-125,4,2,2,65,0,0
128190,-125,4,2,8,65,0,0
128263,-125,4,2,2,65,0,0
128482,-125,4,2,8,65,0,0
128555,-125,4,2,2,65,0,0
129068,-125,4,2,8,65,0,0
129141,-125,4,2,2,65,0,0
129361,-125,4,2,8,65,0,0
129434,-125,4,2,2,65,0,0
129654,-125,4,2,9,65,0,0
129727,-125,4,2,2,65,0,0
129800,-125,4,2,12,65,0,0
129873,-125,4,2,2,65,0,0
129946,-125,4,2,8,65,0,0
130019,-125,4,2,2,65,0,0
130239,-125,4,2,12,65,0,0
130312,-125,4,2,2,65,0,0
130532,-125,4,2,8,65,0,0
130605,-125,4,2,2,65,0,0
130824,-125,4,2,8,65,0,0
130897,-125,4,2,2,65,0,0
131409,-125,4,2,8,65,0,0
131482,-125,4,2,2,65,0,0
131702,-125,4,2,8,65,0,0
131775,-125,4,2,2,65,0,0
131995,-125,4,2,8,65,0,0
132068,-125,4,2,2,65,0,0
132141,-125,4,2,12,65,0,0
132214,-125,4,2,2,65,0,0
132287,-125,4,2,9,65,0,0
132360,-125,4,2,2,65,0,0
132580,-125,4,2,6,65,0,0
132653,-125,4,2,2,65,0,0
132873,-125,4,2,6,65,0,0
132946,-125,4,2,2,65,0,0
133165,-125,4,2,6,65,0,0
133238,-125,4,2,2,65,0,0
133458,-142.857142857143,4,2,1,65,0,0
133531,-142.857142857143,4,2,2,50,0,0
142531,-111.111111111111,4,2,2,50,0,0
142824,-111.111111111111,4,2,1,65,0,0
142897,-111.111111111111,4,2,2,65,0,0
143117,-111.111111111111,4,2,6,65,0,0
143190,-111.111111111111,4,2,2,65,0,0
143409,-111.111111111111,4,2,6,65,0,0
143482,-111.111111111111,4,2,2,65,0,0
143702,-111.111111111111,4,2,6,65,0,0
143775,-111.111111111111,4,2,2,65,0,0
143995,-111.111111111111,4,2,6,65,0,0
144068,-111.111111111111,4,2,2,65,0,0
144287,-111.111111111111,4,2,6,65,0,0
144360,-111.111111111111,4,2,2,65,0,0
144580,-111.111111111111,4,2,6,65,0,0
144653,-111.111111111111,4,2,2,65,0,0
144873,-111.111111111111,4,2,6,65,0,0
144946,-111.111111111111,4,2,2,65,0,0
145165,-111.111111111111,4,2,3,65,0,0
145458,-111.111111111111,4,2,6,65,0,0
145531,-111.111111111111,4,2,2,65,0,0
145751,-111.111111111111,4,2,6,65,0,0
145824,-111.111111111111,4,2,2,65,0,0
146044,-111.111111111111,4,2,6,65,0,0
146117,-111.111111111111,4,2,2,65,0,0
146336,-111.111111111111,4,2,7,65,0,0
146409,-111.111111111111,4,2,2,65,0,0
146629,-111.111111111111,4,2,6,65,0,0
146702,-111.111111111111,4,2,2,65,0,0
146922,-111.111111111111,4,2,6,65,0,0
146995,-111.111111111111,4,2,2,65,0,0
147214,-111.111111111111,4,2,6,65,0,0
147287,-111.111111111111,4,2,2,65,0,0
147800,-111.111111111111,4,2,6,65,0,0
147873,-111.111111111111,4,2,2,65,0,0
148092,-111.111111111111,4,2,6,65,0,0
148165,-111.111111111111,4,2,2,65,0,0
148385,-111.111111111111,4,2,6,65,0,0
148458,-111.111111111111,4,2,2,65,0,0
148678,-111.111111111111,4,2,7,65,0,0
148751,-111.111111111111,4,2,2,65,0,0
148970,-111.111111111111,4,2,6,65,0,0
149043,-111.111111111111,4,2,2,65,0,0
149263,-111.111111111111,4,2,6,65,0,0
149336,-111.111111111111,4,2,2,65,0,0
149556,-111.111111111111,4,2,6,65,0,0
149629,-111.111111111111,4,2,2,65,0,0
149848,-172.413793103448,4,2,1,65,0,0
149922,-172.413793103448,4,2,2,50,0,0
152190,-250,4,2,2,50,0,0
153946,-200,4,2,2,65,0,0
154239,-166.666666666667,4,2,2,65,0,0
154385,-90.9090909090909,4,2,1,80,0,0
154458,-90.9090909090909,4,2,2,80,0,0
154824,-90.9090909090909,4,2,6,80,0,0
154897,-90.9090909090909,4,2,2,80,0,0
155116,-90.9090909090909,4,2,6,80,0,0
155189,-90.9090909090909,4,2,2,80,0,0
155409,-90.9090909090909,4,2,6,80,0,0
155482,-90.9090909090909,4,2,2,80,0,0
155702,-90.9090909090909,4,2,6,80,0,0
155775,-90.9090909090909,4,2,2,80,0,0
155994,-90.9090909090909,4,2,6,80,0,0
156067,-90.9090909090909,4,2,2,80,0,0
156287,-90.9090909090909,4,2,6,80,0,0
156360,-90.9090909090909,4,2,2,80,0,0
156580,-90.9090909090909,4,2,6,80,0,0
156653,-90.9090909090909,4,2,2,80,0,0
156726,-90.9090909090909,4,2,3,80,0,0
157165,-90.9090909090909,4,2,6,80,0,0
157238,-90.9090909090909,4,2,2,80,0,0
157458,-90.9090909090909,4,2,6,80,0,0
157531,-90.9090909090909,4,2,2,80,0,0
157751,-90.9090909090909,4,2,6,80,0,0
157824,-90.9090909090909,4,2,2,80,0,0
158043,-90.9090909090909,4,2,6,80,0,0
158116,-90.9090909090909,4,2,2,80,0,0
158336,-90.9090909090909,4,2,6,80,0,0
158409,-90.9090909090909,4,2,2,80,0,0
158629,-90.9090909090909,4,2,6,80,0,0
158702,-90.9090909090909,4,2,2,80,0,0
158921,-90.9090909090909,4,2,6,80,0,0
158994,-90.9090909090909,4,2,2,80,0,0
159507,-90.9090909090909,4,2,6,80,0,0
159580,-90.9090909090909,4,2,2,80,0,0
159799,-90.9090909090909,4,2,6,80,0,0
159872,-90.9090909090909,4,2,2,80,0,0
160092,-90.9090909090909,4,2,6,80,0,0
160165,-90.9090909090909,4,2,2,80,0,0
160385,-90.9090909090909,4,2,6,80,0,0
160458,-90.9090909090909,4,2,2,80,0,0
160677,-90.9090909090909,4,2,6,80,0,0
160750,-90.9090909090909,4,2,2,80,0,0
160970,-90.9090909090909,4,2,6,80,0,0
161043,-90.9090909090909,4,2,2,80,0,0
161263,-90.9090909090909,4,2,6,80,0,0
161336,-90.9090909090909,4,2,2,80,0,0
161555,-90.9090909090909,4,2,7,80,0,0
161628,-90.9090909090909,4,2,2,80,0,0
161848,-90.9090909090909,4,2,6,80,0,0
161921,-90.9090909090909,4,2,2,80,0,0
162141,-90.9090909090909,4,2,6,80,0,0
162214,-90.9090909090909,4,2,2,80,0,0
162433,-90.9090909090909,4,2,6,80,0,0
162506,-90.9090909090909,4,2,2,80,0,0
162726,-90.9090909090909,4,2,6,80,0,0
162799,-90.9090909090909,4,2,2,80,0,0
163019,-90.9090909090909,4,2,6,80,0,0
163092,-90.9090909090909,4,2,2,80,0,0
163312,-90.9090909090909,4,2,5,80,0,0
163897,-90.9090909090909,4,2,3,80,0,0
164190,-90.9090909090909,4,2,6,80,0,0
164263,-90.9090909090909,4,2,2,80,0,0
164482,-90.9090909090909,4,2,6,80,0,0
164555,-90.9090909090909,4,2,2,80,0,0
164775,-90.9090909090909,4,2,6,80,0,0
164848,-90.9090909090909,4,2,2,80,0,0
165068,-90.9090909090909,4,2,6,80,0,0
165141,-90.9090909090909,4,2,2,80,0,0
165360,-90.9090909090909,4,2,6,80,0,0
165433,-90.9090909090909,4,2,2,80,0,0
165653,-90.9090909090909,4,2,6,80,0,0
165726,-90.9090909090909,4,2,2,80,0,0
165946,-90.9090909090909,4,2,6,80,0,0
166019,-90.9090909090909,4,2,2,80,0,0
166531,-90.9090909090909,4,2,6,80,0,0
166604,-90.9090909090909,4,2,2,80,0,0
166824,-90.9090909090909,4,2,6,80,0,0
166897,-90.9090909090909,4,2,2,80,0,0
167116,-90.9090909090909,4,2,6,80,0,0
167189,-90.9090909090909,4,2,2,80,0,0
167409,-90.9090909090909,4,2,6,80,0,0
167482,-90.9090909090909,4,2,2,80,0,0
167702,-90.9090909090909,4,2,6,80,0,0
167775,-90.9090909090909,4,2,2,80,0,0
167994,-90.9090909090909,4,2,6,80,0,0
168067,-90.9090909090909,4,2,2,80,0,0
168287,-90.9090909090909,4,2,6,80,0,0
168360,-90.9090909090909,4,2,2,80,0,0
168580,-90.9090909090909,4,2,3,80,0,0
168873,-90.9090909090909,4,2,6,80,0,0
168946,-90.9090909090909,4,2,2,80,0,0
169165,-90.9090909090909,4,2,6,80,0,0
169238,-90.9090909090909,4,2,2,80,0,0
169458,-90.9090909090909,4,2,7,80,0,0
169531,-90.9090909090909,4,2,2,80,0,0
169751,-90.9090909090909,4,2,6,80,0,0
169824,-90.9090909090909,4,2,2,80,0,0
170043,-90.9090909090909,4,2,6,80,0,0
170116,-90.9090909090909,4,2,2,80,0,0
170336,-90.9090909090909,4,2,6,80,0,0
170409,-90.9090909090909,4,2,2,80,0,0
170629,-90.9090909090909,4,2,6,80,0,0
170702,-90.9090909090909,4,2,2,80,0,0
171214,-90.9090909090909,4,2,6,80,0,0
171287,-90.9090909090909,4,2,2,80,0,0
171507,-90.9090909090909,4,2,6,80,0,0
171580,-90.9090909090909,4,2,2,80,0,0
171799,-90.9090909090909,4,2,6,80,0,0
171872,-90.9090909090909,4,2,2,80,0,0
172092,-90.9090909090909,4,2,7,80,0,0
172165,-90.9090909090909,4,2,2,80,0,0
172385,-90.9090909090909,4,2,6,80,0,0
172458,-90.9090909090909,4,2,2,80,0,0
172677,-90.9090909090909,4,2,5,80,0,0
173263,-100,4,2,2,75,0,0
173556,-100,4,2,6,75,0,0
173629,-100,4,2,2,75,0,0
173848,-100,4,2,6,75,0,0
173921,-100,4,2,2,75,0,0
174141,-100,4,2,3,75,0,0
174434,-100,4,2,6,75,0,0
174507,-100,4,2,2,75,0,0
175312,-100,4,2,3,75,0,0
175458,-100,4,2,4,75,0,0
175605,-100,4,2,2,75,0,0
175897,-100,4,2,6,75,0,0
175970,-100,4,2,2,75,0,0
176190,-100,4,2,6,75,0,0
176263,-100,4,2,2,75,0,0
176483,-100,4,2,6,75,0,0
176556,-100,4,2,2,75,0,0
176775,-100,4,2,7,75,0,0
176848,-100,4,2,2,75,0,0
177068,-100,4,2,6,75,0,0
177141,-100,4,2,2,75,0,0
177361,-100,4,2,6,75,0,0
177434,-100,4,2,2,75,0,0
177653,-100,4,2,6,75,0,0
177726,-100,4,2,2,75,0,0
177946,-100,4,2,3,75,0,0
178239,-100,4,2,6,75,0,0
178312,-100,4,2,2,75,0,0
178531,-100,4,2,6,75,0,0
178604,-100,4,2,2,75,0,0
178824,-100,4,2,6,75,0,0
178897,-100,4,2,2,75,0,0
179117,-100,4,2,7,75,0,0
179190,-100,4,2,2,75,0,0
179409,-100,4,2,6,75,0,0
179482,-100,4,2,2,75,0,0
179702,-100,4,2,6,75,0,0
179775,-100,4,2,2,75,0,0
179995,-100,4,2,6,75,0,0
180068,-100,4,2,2,75,0,0
180580,-100,4,2,6,75,0,0
180653,-100,4,2,2,75,0,0
180873,-100,4,2,6,75,0,0
180946,-100,4,2,2,75,0,0
181165,-100,4,2,7,75,0,0
181238,-100,4,2,2,75,0,0
181458,-100,4,2,6,75,0,0
181531,-100,4,2,2,75,0,0
181751,-100,4,2,6,75,0,0
181824,-100,4,2,2,75,0,0
182629,-100,4,2,3,75,0,0
182922,-100,4,2,6,75,0,0
182995,-100,4,2,2,75,0,0
183214,-100,4,2,6,75,0,0
183287,-100,4,2,2,75,0,0
183507,-100,4,2,6,75,0,0
183580,-100,4,2,2,75,0,0
183800,-100,4,2,6,75,0,0
183873,-100,4,2,2,75,0,0
184092,-100,4,2,6,75,0,0
184165,-100,4,2,2,75,0,0
184385,-100,4,2,6,75,0,0
184458,-100,4,2,2,75,0,0
184678,-100,4,2,6,75,0,0
184751,-100,4,2,2,75,0,0
185263,-100,4,2,6,75,0,0
185336,-100,4,2,2,75,0,0
185556,-100,4,2,6,75,0,0
185629,-100,4,2,2,75,0,0
185848,-100,4,2,7,75,0,0
185921,-100,4,2,2,75,0,0
186141,-100,4,2,6,75,0,0
186214,-100,4,2,2,75,0,0
186434,-100,4,2,6,75,0,0
186507,-100,4,2,2,75,0,0
186726,-100,4,2,6,75,0,0
186799,-100,4,2,2,75,0,0
187019,-100,4,2,6,75,0,0
187092,-100,4,2,2,75,0,0
187312,-100,4,2,3,75,0,0
187605,-100,4,2,6,75,0,0
187678,-100,4,2,2,75,0,0
187897,-100,4,2,6,75,0,0
187970,-100,4,2,2,75,0,0
188190,-100,4,2,7,75,0,0
188263,-100,4,2,2,75,0,0
188483,-100,4,2,6,75,0,0
188556,-100,4,2,2,75,0,0
188775,-100,4,2,6,75,0,0
188848,-100,4,2,2,75,0,0
189068,-100,4,2,6,75,0,0
189141,-100,4,2,2,75,0,0
189361,-100,4,2,6,75,0,0
189434,-100,4,2,2,75,0,0
189653,-100,4,2,3,75,0,0
189946,-100,4,2,6,75,0,0
190019,-100,4,2,2,75,0,0
190239,-100,4,2,6,75,0,0
190312,-100,4,2,2,75,0,0
190531,-100,4,2,7,75,0,0
190604,-100,4,2,2,75,0,0
190824,-100,4,2,6,75,0,0
190897,-100,4,2,2,75,0,0
191117,-100,4,2,5,75,0,0
191702,-100,4,2,2,75,0,0
191800,-100,4,2,3,75,0,0
191897,-100,4,2,4,75,0,0
191995,-333.333333333333,4,2,1,75,0,1
192068,-333.333333333333,4,2,2,50,0,0
206044,-250,4,2,2,50,0,0
208385,-250,4,2,2,50,0,0
209556,-250,4,2,2,50,0,0
210141,-250,4,2,2,70,0,0
210434,-100,4,2,2,70,0,0
210580,-90.9090909090909,4,2,1,80,0,0
210653,-90.9090909090909,4,2,2,80,0,0
211019,-90.9090909090909,4,2,6,80,0,0
211092,-90.9090909090909,4,2,2,80,0,0
211311,-90.9090909090909,4,2,6,80,0,0
211384,-90.9090909090909,4,2,2,80,0,0
211604,-90.9090909090909,4,2,6,80,0,0
211677,-90.9090909090909,4,2,2,80,0,0
211897,-90.9090909090909,4,2,6,80,0,0
211970,-90.9090909090909,4,2,2,80,0,0
212189,-90.9090909090909,4,2,6,80,0,0
212262,-90.9090909090909,4,2,2,80,0,0
212482,-90.9090909090909,4,2,6,80,0,0
212555,-90.9090909090909,4,2,2,80,0,0
212775,-90.9090909090909,4,2,6,80,0,0
212848,-90.9090909090909,4,2,2,80,0,0
212921,-90.9090909090909,4,2,3,80,0,0
213360,-90.9090909090909,4,2,6,80,0,0
213433,-90.9090909090909,4,2,2,80,0,0
213653,-90.9090909090909,4,2,6,80,0,0
213726,-90.9090909090909,4,2,2,80,0,0
213946,-90.9090909090909,4,2,6,80,0,0
214019,-90.9090909090909,4,2,2,80,0,0
214238,-90.9090909090909,4,2,6,80,0,0
214311,-90.9090909090909,4,2,2,80,0,0
214531,-90.9090909090909,4,2,6,80,0,0
214604,-90.9090909090909,4,2,2,80,0,0
214824,-90.9090909090909,4,2,6,80,0,0
214897,-90.9090909090909,4,2,2,80,0,0
215116,-90.9090909090909,4,2,6,80,0,0
215189,-90.9090909090909,4,2,2,80,0,0
215702,-90.9090909090909,4,2,6,80,0,0
215775,-90.9090909090909,4,2,2,80,0,0
215994,-90.9090909090909,4,2,6,80,0,0
216067,-90.9090909090909,4,2,2,80,0,0
216287,-90.9090909090909,4,2,6,80,0,0
216360,-90.9090909090909,4,2,2,80,0,0
216580,-90.9090909090909,4,2,6,80,0,0
216653,-90.9090909090909,4,2,2,80,0,0
216872,-90.9090909090909,4,2,6,80,0,0
216945,-90.9090909090909,4,2,2,80,0,0
217165,-90.9090909090909,4,2,6,80,0,0
217238,-90.9090909090909,4,2,2,80,0,0
217458,-90.9090909090909,4,2,6,80,0,0
217531,-90.9090909090909,4,2,2,80,0,0
217750,-90.9090909090909,4,2,7,80,0,0
217823,-90.9090909090909,4,2,2,80,0,0
218043,-90.9090909090909,4,2,6,80,0,0
218116,-90.9090909090909,4,2,2,80,0,0
218336,-90.9090909090909,4,2,6,80,0,0
218409,-90.9090909090909,4,2,2,80,0,0
218628,-90.9090909090909,4,2,6,80,0,0
218701,-90.9090909090909,4,2,2,80,0,0
218921,-90.9090909090909,4,2,6,80,0,0
218994,-90.9090909090909,4,2,2,80,0,0
219214,-90.9090909090909,4,2,6,80,0,0
219287,-90.9090909090909,4,2,2,80,0,0
219507,-90.9090909090909,4,2,5,80,0,0
220092,-90.9090909090909,4,2,3,80,0,0
220385,-90.9090909090909,4,2,6,80,0,0
220458,-90.9090909090909,4,2,2,80,0,0
220677,-90.9090909090909,4,2,6,80,0,0
220750,-90.9090909090909,4,2,2,80,0,0
220970,-90.9090909090909,4,2,6,80,0,0
221043,-90.9090909090909,4,2,2,80,0,0
221263,-90.9090909090909,4,2,6,80,0,0
221336,-90.9090909090909,4,2,2,80,0,0
221555,-90.9090909090909,4,2,6,80,0,0
221628,-90.9090909090909,4,2,2,80,0,0
221848,-90.9090909090909,4,2,6,80,0,0
221921,-90.9090909090909,4,2,2,80,0,0
222141,-90.9090909090909,4,2,6,80,0,0
222214,-90.9090909090909,4,2,2,80,0,0
222726,-90.9090909090909,4,2,6,80,0,0
222799,-90.9090909090909,4,2,2,80,0,0
223019,-90.9090909090909,4,2,6,80,0,0
223092,-90.9090909090909,4,2,2,80,0,0
223311,-90.9090909090909,4,2,6,80,0,0
223384,-90.9090909090909,4,2,2,80,0,0
223604,-90.9090909090909,4,2,6,80,0,0
223677,-90.9090909090909,4,2,2,80,0,0
223897,-90.9090909090909,4,2,6,80,0,0
223970,-90.9090909090909,4,2,2,80,0,0
224189,-90.9090909090909,4,2,6,80,0,0
224262,-90.9090909090909,4,2,2,80,0,0
224482,-90.9090909090909,4,2,6,80,0,0
224555,-90.9090909090909,4,2,2,80,0,0
225068,-90.9090909090909,4,2,6,80,0,0
225141,-90.9090909090909,4,2,2,80,0,0
225361,-90.9090909090909,4,2,6,80,0,0
225434,-90.9090909090909,4,2,2,80,0,0
225653,-90.9090909090909,4,2,6,80,0,0
225726,-90.9090909090909,4,2,2,80,0,0
225800,-90.9090909090909,4,2,3,80,0,0
226239,-90.9090909090909,4,2,6,80,0,0
226312,-90.9090909090909,4,2,2,80,0,0
226531,-90.9090909090909,4,2,7,80,0,0
226604,-90.9090909090909,4,2,2,80,0,0
226678,-90.9090909090909,4,2,1,80,0,0
226824,-90.9090909090909,4,2,2,80,0,0
226970,-90.9090909090909,4,2,3,80,0,0
227117,-90.9090909090909,4,2,2,80,0,0
227409,-90.9090909090909,4,2,6,80,0,0
227482,-90.9090909090909,4,2,2,80,0,0
227702,-90.9090909090909,4,2,6,80,0,0
227775,-90.9090909090909,4,2,2,80,0,0
227995,-90.9090909090909,4,2,6,80,0,0
228068,-90.9090909090909,4,2,2,80,0,0
228141,-90.9090909090909,4,2,3,80,0,0
228726,-90.9090909090909,4,2,2,80,0,0
229312,-90.9090909090909,4,2,3,80,0,0
229458,-90.9090909090909,4,2,1,80,0,0
229531,-90.9090909090909,4,2,2,60,0,0
231800,-125,4,2,2,75,0,0
231873,-125,4,2,5,75,0,0
232239,-111.111111111111,4,2,3,75,0,0
232312,-111.111111111111,4,2,5,75,0,0
232678,-111.111111111111,4,2,2,75,0,0
232751,-111.111111111111,4,2,5,75,0,0
233117,-111.111111111111,4,2,3,75,0,0
233190,-111.111111111111,4,2,5,75,0,0
234141,-111.111111111111,4,2,2,75,0,0
234214,-111.111111111111,4,2,5,75,0,0
234580,-100,4,2,3,75,0,0
234653,-100,4,2,5,75,0,0
235019,-100,4,2,2,75,0,0
235092,-100,4,2,5,75,0,0
235458,-100,4,2,3,75,0,0
235531,-100,4,2,5,75,0,0
236483,-100,4,2,2,75,0,0
236556,-100,4,2,5,75,0,0
236922,-100,4,2,3,75,0,0
236995,-100,4,2,5,75,0,0
237361,-100,4,2,2,75,0,0
237434,-100,4,2,5,75,0,0
237800,-100,4,2,3,75,0,0
237873,-100,4,2,5,75,0,0
238824,-100,4,2,2,75,0,0
238897,-100,4,2,5,75,0,0
239263,-100,4,2,3,75,0,0
239336,-100,4,2,5,75,0,0
239702,-100,4,2,2,75,0,0
239775,-100,4,2,5,75,0,0
240141,-100,4,2,3,75,0,0
240214,-100,4,2,5,75,0,0
241165,-100,4,2,2,75,0,0
241238,-100,4,2,5,75,0,0
241604,-100,4,2,3,75,0,0
241677,-100,4,2,5,75,0,0
242190,-100,4,2,4,75,0,0

[Colours]
Combo1 : 170,255,170
Combo2 : 255,255,164

[HitObjects]
142,273,1751,6,0,B|126:257|126:257|133:238|138:216,1,54.0000000000001,2|2,0:0|0:0,0:0:0:0:
217,291,2336,6,0,B|184:281|157:308|157:308|156:313|156:313|133:348|84:350,2,126,2|2|2,0:0|0:0|0:0,0:0:0:0:
295,235,3214,6,0,P|362:259|434:279,1,135,2|0,0:0|0:0,0:0:0:0:
512,145,3800,6,0,P|461:133|408:198,2,126,2|2|2,0:0|0:0|0:0,0:0:0:0:
370,100,4678,5,0,0:0:0:0:
379,39,4970,2,0,B|358:68|358:68|370:105,1,62.9999999999999,2|0,0:0|0:0,0:0:0:0:
445,108,5263,2,0,B|466:79|466:79|454:42,1,62.9999999999999,2|0,0:0|0:0,0:0:0:0:
298,131,5556,6,0,B|343:143|343:143|364:167|364:167|411:179,1,126,2|0,0:0|0:0,0:0:0:0:
178,52,6434,6,0,P|154:59|121:66,1,53.9999999999999,2|2,0:0|0:0,0:0:0:0:
76,126,7019,6,0,P|39:102|48:10,2,126,2|2|2,0:0|0:0|0:0,0:0:0:0:
27,232,7897,6,0,P|68:217|170:194,1,135,2|0,0:0|0:0,0:0:0:0:
286,265,8483,6,0,P|316:303|284:379,2,126,2|2|2,0:0|0:0|0:0,0:0:0:0:
55,333,9361,6,0,B|110:351|110:351|121:364|121:364|179:383,1,135,2|0,0:0|0:0,0:0:0:0:
186,378,9800,2,0,B|209:352|209:352|188:275,1,108,2|0,0:0|0:0,0:0:0:0:
322,152,10239,6,0,P|287:145|249:213,1,108,2|0,0:0|0:0,0:0:0:0:
144,87,10678,2,0,P|191:105|269:124,1,108,2|0,0:0|0:0,0:0:0:0:
370,221,11117,5,2,0:0:0:0:
441,184,11409,1,2,0:0:0:0:
504,239,11702,6,0,P|491:278|483:313,1,62.9999999999999,2|0,0:0|0:0,0:0:0:0:
437,176,11995,2,0,P|429:145|418:115,1,62.9999999999999,2|0,0:0|0:0,0:0:0:0:
452,30,12287,2,0,P|481:40|512:48,1,62.9999999999999,2|0,0:0|0:0,0:0:0:0:
328,127,12580,6,0,B|269:142|269:142|260:150|260:150|187:170,1,135,2|0,0:0|0:0,0:0:0:0:
107,132,13165,5,2,0:0:0:0:
44,82,13458,1,2,0:0:0:0:
77,13,13751,1,2,0:0:0:0:
200,166,14044,5,0,0:0:0:0:
200,166,14336,2,0,P|191:197|177:232,1,62.9999999999999,2|0,0:0|0:0,0:0:0:0:
119,292,14629,2,0,P|130:321|139:351,1,62.9999999999999,2|0,0:0|0:0,0:0:0:0:
218,310,14922,2,0,P|261:299|337:367,1,126,2|0,0:0|0:0,0:0:0:0:
443,306,15800,6,0,B|387:323|387:323|387:329|387:329|323:348,1,126,2|2,0:0|0:0,0:0:0:0:
420,219,16239,1,2,0:0:0:0:
351,204,16385,2,0,L|421:226,1,62.9999999999999,2|0,0:0|0:0,0:0:0:0:
492,159,16678,1,2,0:0:0:0:
449,91,16824,2,0,L|388:109,1,62.9999999999999,2|0,0:0|0:0,0:0:0:0:
204,35,17117,2,0,P|249:22|299:64,1,94.4999999999999,2|0,0:0|0:0,0:0:0:0:
299,52,17409,6,0,L|280:112,1,62.9999999999999,2|2,0:0|0:0,0:0:0:0:
181,201,17702,2,0,B|135:218|141:227|77:252,1,94.4999999999999
82,237,17995,2,0,B|59:212|59:212|73:158,1,62.9999999999999,2|0,0:0|0:0,0:0:0:0:
8,113,18287,2,0,L|68:94,1,62.9999999999999,2|0,0:0|0:0,0:0:0:0:
184,206,18580,1,2,0:0:0:0:
299,52,18726,5,2,0:0:0:0:
489,244,20483,5,2,0:0:0:0:
455,233,20556,1,2,0:0:0:0:
412,252,20629,1,2,0:0:0:0:
398,293,20702,1,2,0:0:0:0:
406,305,20775,1,2,0:0:0:0:
377,343,20848,1,2,0:0:0:0:
330,348,20922,1,2,0:0:0:0:
293,323,20995,1,2,0:0:0:0:
293,323,21068,6,0,B|245:338|245:338|226:366|226:366|174:380,1,135,14|0,0:1|0:0,0:0:0:0:
110,346,21361,2,0,B|96:303|96:303|132:258,1,90,8|0,0:2|0:0,0:0:0:0:
233,114,21653,1,8,0:1:0:0:
104,161,21800,2,0,P|148:177|198:201,1,90,8|2,0:1|0:3,0:0:0:0:
386,81,22092,1,8,0:2:0:0:
328,26,22239,6,0,L|365:186,1,135,2|0,0:3|0:0,0:0:0:0:
428,196,22531,2,0,P|474:199|510:160,1,90,10|0,0:2|0:0,0:0:0:0:
303,286,22824,2,0,P|259:244|179:263,1,135,10|0,0:1|0:0,0:0:0:0:
190,261,23117,1,10,0:2:0:0:
353,162,23263,1,0,0:0:0:0:
230,345,23409,5,14,0:1:0:0:
235,350,23702,2,0,L|144:377,1,90,8|0,0:2|0:0,0:0:0:0:
52,245,23995,1,8,0:1:0:0:
52,245,24141,1,8,0:1:0:0:
10,327,24287,5,2,0:2:0:0:
162,177,24434,1,10,0:2:0:0:
116,112,24580,2,0,P|71:100|25:85,1,90,2|8,0:2|0:1,0:0:0:0:
209,243,24873,6,0,B|307:228|277:185|385:171,1,180,8|10,0:2|0:1,0:0:0:0:
235,132,25312,1,10,0:1:0:0:
431,243,25458,1,10,0:2:0:0:
467,220,25531,1,2,0:0:0:0:
483,177,25605,1,2,0:2:0:0:
464,137,25678,1,2,0:0:0:0:
464,137,25751,6,0,P|476:92|491:46,1,90,14|0,0:1|0:0,0:0:0:0:
329,318,26044,2,0,P|317:274|303:231,1,90,8|0,0:2|0:0,0:0:0:0:
431,243,26336,1,8,0:1:0:0:
228,357,26483,2,0,P|190:310|99:333,1,135,8|0,0:1|0:0,0:0:0:0:
117,321,26775,1,8,0:2:0:0:
62,174,26922,6,0,B|33:212|33:212|50:259,1,90,2|8,0:2|0:1,0:0:0:0:
224,361,27214,2,0,B|253:323|253:323|236:276,1,90,10|0,0:2|0:0,0:0:0:0:
187,117,27507,6,0,P|174:160|158:202,1,90,10|8,0:1|0:1,0:0:0:0:
329,351,27800,2,0,B|393:338|393:338|404:344|404:344|467:331,1,135,10|0,0:2|0:0,0:0:0:0:
512,275,28092,6,0,B|477:246|477:246|423:260,1,90,14|0,0:1|0:0,0:0:0:0:
327,194,28385,1,8,0:2:0:0:
312,109,28531,2,0,P|300:158|339:200,1,90,2|8,0:2|0:1,0:0:0:0:
422,47,28824,1,8,0:1:0:0:
502,159,28970,2,0,P|459:145|416:135,1,90,2|8,0:3|0:2,0:0:0:0:
243,33,29263,6,0,B|143:67|143:67|105:41|117:-3,1,180,2|10,0:2|0:2,0:0:0:0:
318,105,29702,1,0,0:0:0:0:
101,224,29848,1,10,0:1:0:0:
109,182,29922,1,8,0:2:0:0:
148,152,29995,1,10,0:2:0:0:
195,151,30068,1,8,0:2:0:0:
237,178,30141,6,0,L|225:227,1,45,10|8,0:2|0:2,0:0:0:0:
181,318,30287,2,0,B|165:303|165:303|168:274,1,45,10|8,0:2|0:2,0:0:0:0:
316,217,30434,6,0,B|387:239|366:260|449:290,1,135,12|0,0:1|0:0,0:0:0:0:
480,187,30726,2,0,P|438:200|374:216,1,90,8|0,0:2|0:0,0:0:0:0:
485,192,31019,1,8,0:1:0:0:
333,25,31165,2,0,B|303:60|303:60|315:111,1,90,8|2,0:1|0:3,0:0:0:0:
403,81,31458,1,8,0:2:0:0:
208,17,31605,6,0,B|144:33|144:33|141:38|141:38|72:54,1,135,2|0,0:3|0:0,0:0:0:0:
28,110,31897,2,0,B|-6:77|-6:77|6:15,1,90,10|0,0:2|0:0,0:0:0:0:
137,192,32190,2,0,P|169:153|263:161,1,135,10|0,0:1|0:0,0:0:0:0:
210,241,32483,2,0,B|128:222|128:222|114:246|87:273,1,135,10|0,0:2|0:0,0:0:0:0:
6,283,32775,6,0,B|42:264|86:295|86:295|88:300|88:300|108:343|163:345,1,180,14|8,0:1|0:2,0:0:0:0:
380,207,33214,1,0,0:0:0:0:
251,323,33361,1,8,0:1:0:0:
416,384,33507,1,8,0:1:0:0:
353,298,33653,2,0,P|340:342|324:387,1,90,2|8,0:2|0:2,0:0:0:0:
480,227,33946,6,0,P|524:174|492:99,1,135,2|0,0:3|0:0,0:0:0:0:
503,111,34239,1,8,0:2:0:0:
375,211,34385,1,0,0:0:0:0:
284,74,34531,2,0,P|297:118|307:162,1,90,10|8,0:1|0:1,0:0:0:0:
426,1,34824,2,0,P|412:44|403:88,1,90,10|0,0:2|0:0,0:0:0:0:
252,229,35117,6,0,B|201:246|201:246|185:270|185:270|120:292,1,135,14|0,0:1|0:0,0:0:0:0:
63,348,35409,2,0,P|108:360|154:378,1,90,8|0,0:2|0:0,0:0:0:0:
252,229,35702,1,8,0:1:0:0:
207,155,35848,2,0,P|163:143|121:127,1,90,8|2,0:1|0:3,0:0:0:0:
204,296,36141,1,8,0:2:0:0:
334,234,36287,6,0,P|365:197|361:148,1,90,2|8,0:2|0:1,0:0:0:0:
239,37,36580,2,0,P|190:94|207:160,1,135,8|0,0:2|0:0,0:0:0:0:
207,155,36873,1,10,0:1:0:0:
284,114,37019,1,8,0:1:0:0:
140,0,37165,2,0,P|97:15|54:27,1,90,8|0,0:2|0:0,0:0:0:0:
290,111,37458,6,0,B|380:123|358:162|466:180,1,180,14|8,0:1|0:2,0:0:0:0:
334,234,37897,1,0,0:0:0:0:
482,341,38044,1,8,0:1:0:0:
482,341,38190,1,8,0:1:0:0:
317,331,38336,6,0,L|404:306,1,90,2|8,0:2|0:2,0:0:0:0:
158,225,38629,2,0,L|71:199,1,90,2|8,0:2|0:1,0:0:0:0:
4,364,38922,2,0,P|32:322|128:325,1,135,2|0,0:3|0:0,0:0:0:0:
114,322,39214,5,2,0:3:0:0:
254,190,39361,1,8,0:2:0:0:
73,106,39507,1,8,0:3:0:0:
161,229,39653,1,8,0:3:0:0:
315,7,39800,6,0,B|277:0|257:33|257:33|271:71|276:107,1,144,12|8,0:1|0:2,0:0:0:0:
350,181,40239,2,0,B|426:197|404:230|487:249,1,144,2|8,0:2|0:1,0:0:0:0:
494,176,40824,2,0,P|483:210|476:246,1,72,8|2,0:2|0:3,0:0:0:0:
369,281,41117,1,8,0:1:0:0:
395,356,41263,2,0,P|386:318|372:276,1,72,8|2,0:2|0:2,0:0:0:0:
329,179,41556,1,10,0:1:0:0:
402,207,41702,2,0,P|366:199|332:188,1,72,10|10,0:1|0:2,0:0:0:0:
205,334,41995,1,14,0:1:0:0:
123,320,42141,6,0,B|176:307|176:307|192:280|192:280|248:266,1,144,2|8,0:2|0:2,0:0:0:0:
115,230,42580,1,2,0:2:0:0:
115,230,42726,2,0,P|101:191|82:156,1,72,8|8,0:1|0:1,0:0:0:0:
225,116,43019,2,0,B|251:90|251:90|244:43,1,72,2|8,0:2|0:2,0:0:0:0:
29,23,43312,6,0,B|109:29|83:53|171:65,1,144,2|8,0:3|0:2,0:0:0:0:
296,164,43751,1,2,0:2:0:0:
367,55,43897,2,0,P|384:85|377:119,1,72,10|8,0:1|0:1,0:0:0:0:
296,164,44117,1,8,0:1:0:0:
296,164,44190,2,0,P|275:195|276:233,1,72,10|12,0:2|0:1,0:0:0:0:
344,365,44483,6,0,P|390:321|460:342,1,121.5,2|0,0:2|0:0,0:0:0:0:
485,252,44775,2,0,P|446:242|407:229,1,81.0000000000001,10|0,0:2|0:0,0:0:0:0:
279,323,45068,1,10,0:1:0:0:
344,288,45214,1,8,0:1:0:0:
219,193,45361,2,0,P|180:206|141:215,1,81.0000000000001,2|8,0:2|0:2,0:0:0:0:
54,361,45653,6,0,P|41:309|20:241,1,121.5,2|0,0:2|0:0,0:0:0:0:
60,166,45946,2,0,P|46:204|37:243,1,81.0000000000001,10|0,0:2|0:0,0:0:0:0:
39,48,46239,2,0,P|5:80|3:127,1,81.0000000000001,10|8,0:1|0:1,0:0:0:0:
144,220,46531,2,0,P|182:208|222:198,1,81.0000000000001,10|12,0:2|0:1,0:0:0:0:
269,27,46824,6,0,P|282:65|292:105,1,81.0000000000001,2|8,0:2|0:1,0:0:0:0:
463,142,47117,1,8,0:2:0:0:
375,84,47263,1,2,0:2:0:0:
318,210,47409,2,0,B|407:198|377:161|470:149,1,162,10|2,0:1|0:3,0:0:0:0:
299,112,47848,1,8,0:2:0:0:
460,244,47995,5,2,0:3:0:0:
460,244,48141,1,8,0:1:0:0:
411,308,48287,2,0,P|372:318|335:333,1,81.0000000000001,8|0,0:2|0:0,0:0:0:0:
106,268,48580,5,10,0:1:0:0:
130,228,48653,1,8,0:1:0:0:
175,216,48726,1,8,0:1:0:0:
217,242,48800,1,8,0:1:0:0:
222,248,48873,2,0,L|280:267,1,40.5,10|8,0:2|0:1,0:0:0:0:
318,210,49019,2,0,L|376:191,1,40.5,12|0,0:1|0:0,0:0:0:0:
166,337,49165,6,0,B|80:321|104:294|8:279,1,162,2|8,0:2|0:2,0:0:0:0:
222,248,49605,2,0,B|242:212|242:212|220:165,1,81.0000000000001,2|8,0:2|0:1,0:0:0:0:
43,81,49897,2,0,L|64:159,1,81.0000000000001,8|2,0:1|0:3,0:0:0:0:
207,54,50190,1,8,0:2:0:0:
145,118,50336,6,0,B|231:102|207:75|295:61,1,162,2|8,0:3|0:2,0:0:0:0:
478,169,50775,1,2,0:2:0:0:
415,26,50922,2,0,L|393:104,1,81.0000000000001,10|8,0:1|0:1,0:0:0:0:
420,32,51214,1,10,0:2:0:0:
293,163,51361,1,14,0:1:0:0:
472,286,51507,6,0,P|417:234|319:258,1,162,2|8,0:2|0:2,0:0:0:0:
478,169,51946,1,2,0:2:0:0:
375,346,52092,2,0,L|453:367,1,81.0000000000001,8|8,0:1|0:1,0:0:0:0:
252,261,52385,2,0,L|331:240,1,81.0000000000001,2|8,0:2|0:2,0:0:0:0:
104,379,52678,6,0,P|60:343|85:255,1,121.5,2|0,0:3|0:0,0:0:0:0:
115,212,52970,2,0,P|75:202|36:190,1,81.0000000000001,8|0,0:2|0:0,0:0:0:0:
211,9,53263,5,10,0:1:0:0:
238,43,53336,1,8,0:1:0:0:
241,88,53409,1,8,0:1:0:0:
214,123,53483,1,8,0:1:0:0:
207,128,53556,2,0,L|166:112,1,40.5,10|8,0:2|0:1,0:0:0:0:
114,62,53702,2,0,L|76:76,1,40.5,12|0,0:1|0:0,0:0:0:0:
321,121,53848,6,0,B|404:147|404:147|446:123|437:75,1,162,2|8,0:2|0:2,0:0:0:0:
269,211,54287,1,0,0:0:0:0:
316,278,54434,2,0,P|355:287|393:300,1,81.0000000000001,8|8,0:1|0:1,0:0:0:0:
435,226,54726,2,0,P|474:216|512:203,1,81.0000000000001,2|8,0:2|0:2,0:0:0:0:
230,289,55019,6,0,B|142:308|168:341|56:366,1,162,2|10,0:2|0:2,0:0:0:0:
177,358,55458,1,0,0:0:0:0:
8,290,55605,2,0,B|42:263|42:263|89:270,1,81.0000000000001,10|8,0:1|0:1,0:0:0:0:
201,132,55897,2,0,P|190:172|180:217,1,81.0000000000001,10|12,0:2|0:1,0:0:0:0:
46,89,56190,5,2,0:2:0:0:
107,145,56336,1,8,0:1:0:0:
29,172,56483,1,8,0:2:0:0:
128,63,56629,1,2,0:2:0:0:
181,210,56775,5,10,0:1:0:0:
46,89,56922,2,0,P|37:46|25:4,1,81.0000000000001,8|2,0:1|0:3,0:0:0:0:
46,89,57214,1,8,0:2:0:0:
271,76,57361,6,0,P|227:38|127:64,1,162,2|8,0:3|0:2,0:0:0:0:
268,193,57800,1,0,0:0:0:0:
344,140,57946,6,0,P|356:99|376:46,1,81.0000000000001,10|10,0:1|0:1,0:0:0:0:
188,214,58239,2,0,P|186:253|209:286,1,81.0000000000001,10|2,0:2|0:2,0:0:0:0:
249,350,58531,6,0,B|184:340|199:319|128:307,3,126,14|8|10|8,0:1|0:1|0:1|0:1,0:0:0:0:
343,260,59702,6,0,P|371:301|463:292,1,126,8|8,0:1|0:1,0:0:0:0:
442,306,60141,1,2,0:2:0:0:
413,216,60287,2,0,P|407:185|397:156,1,62.9999980773926,10|0,0:1|0:0,0:0:0:0:
421,222,60580,2,0,P|451:211|482:206,1,62.9999980773926,10|0,0:1|0:0,0:0:0:0:
256,190,60873,6,0,B|196:205|196:205|192:211|192:211|124:227,3,126,10|8|10|8,0:1|0:1|0:1|0:1,0:0:0:0:
7,100,62044,6,0,B|43:92|62:76|62:76|74:96|113:120,1,126,8|8,0:1|0:1,0:0:0:0:
83,306,62629,6,0,P|61:279|64:245,1,62.9999999999999,10|0,0:1|0:0,0:0:0:0:
136,224,62922,2,0,P|158:251|154:284,1,62.9999999999999,10|0,0:1|0:0,0:0:0:0:
236,339,63214,6,0,P|178:356|105:386,1,126,10|10,0:1|0:1,0:0:0:0:
307,252,63800,2,0,P|358:254|403:307,1,94.4999999999999,10|0,0:1|0:0,0:0:0:0:
467,269,64092,2,0,P|496:242|495:201,1,62.9999999999999,10|0,0:1|0:0,0:0:0:0:
398,63,64385,6,0,B|383:83|383:83|411:186,1,126,10|10,0:1|0:1,0:0:0:0:
409,181,64970,1,10,0:1:0:0:
503,106,65263,1,10,0:1:0:0:
289,30,65556,6,0,L|221:52,1,62.9999999999999,10|0,0:1|0:0,0:0:0:0:
170,126,65848,2,0,L|110:146,1,62.9999999999999,8|2,0:1|0:2,0:0:0:0:
48,38,66141,6,0,L|108:58,1,62.9999999999999,10|0,0:1|0:0,0:0:0:0:
230,180,66434,2,0,L|290:200,1,62.9999999999999,8|0,0:1|0:0,0:0:0:0:
298,195,66726,5,8,0:1:0:0:
298,195,67165,5,2,0:2:0:0:
374,140,67312,2,0,P|363:110|357:79,1,62.9999999999999,2|2,0:2|0:2,0:0:0:0:
215,257,67605,2,0,P|226:292|233:325,1,62.9999999999999,2|2,0:2|0:2,0:0:0:0:
484,304,67897,6,0,B|400:316|429:357|325:374,1,162,14|8,0:1|0:2,0:0:0:0:
441,216,68336,1,2,0:2:0:0:
324,283,68483,2,0,P|366:291|411:307,1,81.0000000000001,10|8,0:1|0:1,0:0:0:0:
298,195,68775,1,2,0:3:0:0:
150,292,68922,2,0,P|162:330|170:370,1,81.0000000000001,8|2,0:2|0:3,0:0:0:0:
230,245,69214,1,8,0:1:0:0:
121,211,69361,2,0,P|164:253|226:243,1,121.5,8|0,0:2|0:0,0:0:0:0:
230,245,69653,6,0,P|217:206|209:166,1,81.0000000000001,10|8,0:1|0:1,0:0:0:0:
76,74,69946,2,0,P|115:86|155:93,1,81.0000000000001,10|0,0:2|0:0,0:0:0:0:
298,195,70239,6,0,B|374:180|361:149|445:130,1,162,14|8,0:1|0:2,0:0:0:0:
321,36,70678,2,0,P|294:72|307:112,1,81.0000000000001,2|8,0:2|0:1,0:0:0:0:
421,277,70970,1,8,0:1:0:0:
512,162,71117,2,0,P|520:201|500:235,1,81.0000000000001,2|8,0:2|0:2,0:0:0:0:
294,384,71409,5,2,0:3:0:0:
334,277,71556,1,10,0:1:0:0:
452,374,71702,2,0,P|414:359|374:351,1,81.0000000000001,10|0,0:2|0:0,0:0:0:0:
205,197,71995,6,0,P|220:235|231:289,1,80.9999975280763,10|8,0:1|0:1,0:0:0:0:
110,373,72287,2,0,P|144:352|184:356,1,80.9999975280763,10|0,0:2|0:0,0:0:0:0:
305,198,72580,6,0,P|358:236|436:211,1,121.499996292114,14|0,0:1|0:0,0:0:0:0:
470,296,72873,2,0,P|481:257|495:219,1,80.9999975280763,10|0,0:2|0:0,0:0:0:0:
351,27,73165,2,0,P|342:66|329:104,1,80.9999975280763,10|8,0:1|0:1,0:0:0:0:
512,93,73458,2,0,P|480:69|430:78,1,80.9999975280763,2|8,0:2|0:2,0:0:0:0:
231,150,73751,6,0,B|166:169|186:187|108:209,1,121.499996292114,2|0,0:2|0:0,0:0:0:0:
69,256,74044,2,0,B|39:227|39:227|49:177,1,80.9999975280763,10|0,0:2|0:0,0:0:0:0:
324,302,74336,5,10,0:1:0:0:
252,272,74483,1,8,0:1:0:0:
193,376,74629,1,10,0:2:0:0:
264,347,74775,1,8,0:1:0:0:
123,204,74922,5,14,0:1:0:0:
256,192,74995,12,2,76678,0:2:0:0:
369,163,76970,6,0,L|410:179,1,45,2|0,0:2|0:0,0:0:0:0:
483,147,77117,6,0,B|427:131|390:164|390:164|392:172|392:172|352:230|284:214,1,198,14|8,0:1|0:1,0:0:0:0:
483,47,77556,2,0,P|426:30|382:11,1,99,8|0,0:2|0:0,0:0:0:0:
446,268,77848,1,8,0:1:0:0:
446,268,77995,1,8,0:1:0:0:
258,144,78141,1,10,0:2:0:0:
350,374,78287,2,0,P|402:316|515:335,1,198,2|8,0:2|0:1,0:0:0:0:
317,217,78726,2,0,P|271:235|223:248,1,99,8|0,0:2|0:0,0:0:0:0:
85,366,79019,5,10,0:1:0:0:
117,255,79165,1,10,0:1:0:0:
149,144,79312,1,10,0:2:0:0:
31,39,79458,6,0,P|-11:106|76:188,1,198,14|8,0:1|0:1,0:0:0:0:
225,14,79897,2,0,P|179:32|131:45,1,99,8|0,0:2|0:0,0:0:0:0:
350,184,80190,1,8,0:1:0:0:
350,184,80336,1,8,0:1:0:0:
417,54,80483,1,10,0:2:0:0:
245,152,80629,1,2,0:2:0:0:
433,253,80775,5,8,0:1:0:0:
495,202,80922,1,8,0:1:0:0:
318,90,81068,2,0,P|336:135|349:183,1,99,8|0,0:2|0:0,0:0:0:0:
253,327,81361,5,10,0:1:0:0:
353,354,81507,1,10,0:1:0:0:
453,381,81653,1,10,0:2:0:0:
211,236,81800,6,0,B|140:252|140:252|114:299|114:299|38:318,1,198,14|8,0:1|0:1,0:0:0:0:
97,149,82239,2,0,B|131:188|131:188|111:246,1,99,8|0,0:2|0:0,0:0:0:0:
28,211,82531,1,8,0:1:0:0:
28,211,82678,1,8,0:1:0:0:
202,47,82824,1,10,0:2:0:0:
98,12,82970,1,2,0:2:0:0:
235,153,83117,6,0,B|320:169|293:203|384:220,1,148.5,8|0,0:1|0:0,0:0:0:0:
376,215,83409,2,0,B|412:179|412:179|392:124,1,99,8|0,0:2|0:0,0:0:0:0:
502,310,83702,6,0,P|442:294|369:368,1,148.5,10|0,0:1|0:0,0:0:0:0:
379,348,83995,1,10,0:2:0:0:
190,277,84141,1,8,0:1:0:0:
286,289,84287,6,0,P|270:336|258:383,1,99,2|8,0:2|0:1,0:0:0:0:
376,215,84580,2,0,P|423:201|470:186,1,99,8|2,0:2|0:2,0:0:0:0:
190,277,84873,6,0,B|105:293|132:327|41:344,1,148.5,10|0,0:1|0:0,0:0:0:0:
51,337,85165,1,8,0:2:0:0:
258,384,85312,1,2,0:2:0:0:
118,190,85458,2,0,B|101:212|83:232|83:232|106:288,1,99,10|8,0:1|0:1,0:0:0:0:
283,187,85751,2,0,P|297:140|312:93,1,99,8|0,0:2|0:0,0:0:0:0:
52,3,86044,5,14,0:1:0:0:
21,51,86117,1,8,0:2:0:0:
46,103,86190,1,8,0:2:0:0:
101,109,86263,1,8,0:2:0:0:
113,97,86336,5,10,0:2:0:0:
141,53,86409,1,8,0:2:0:0:
191,40,86483,1,10,0:2:0:0:
236,73,86556,1,8,0:2:0:0:
312,92,86629,6,0,B|259:104|259:104|237:141|237:141|181:153,1,148.5,14|0,0:1|0:0,0:0:0:0:
101,109,86922,2,0,B|65:71|65:71|83:11,1,99,8|0,0:2|0:0,0:0:0:0:
260,169,87214,1,8,0:1:0:0:
260,169,87361,1,8,0:1:0:0:
388,4,87507,1,10,0:2:0:0:
236,73,87653,1,10,0:1:0:0:
410,201,87800,6,0,P|460:179|516:167,1,99,2|8,0:3|0:1,0:0:0:0:
322,283,88092,2,0,P|310:330|289:376,1,99,8|0,0:2|0:0,0:0:0:0:
434,318,88385,1,10,0:1:0:0:
260,169,88531,1,8,0:1:0:0:
260,169,88605,1,2,0:2:0:0:
260,169,88678,2,0,P|210:191|154:203,1,99,8|2,0:2|0:2,0:0:0:0:
0,375,88970,6,0,P|49:323|119:334,1,148.5,14|0,0:1|0:0,0:0:0:0:
28,205,89263,2,0,P|8:250|38:304,1,99,8|0,0:2|0:0,0:0:0:0:
194,76,89556,1,8,0:1:0:0:
77,20,89702,1,8,0:1:0:0:
166,201,89848,5,10,0:2:0:0:
323,79,89995,2,0,B|433:95|398:142|520:158,1,198,10|8,0:1|0:1,0:0:0:0:
380,272,90434,2,0,P|363:220|339:175,1,99,10|0,0:2|0:0,0:0:0:0:
447,0,90726,2,0,P|424:44|409:91,1,99,10|8,0:1|0:1,0:0:0:0:
271,276,91019,1,10,0:2:0:0:
429,171,91165,1,0,0:0:0:0:
335,384,91312,6,0,P|299:332|173:342,1,198,14|8,0:1|0:2,0:0:0:0:
3,311,91751,2,0,P|64:289|116:262,1,99,2|8,0:2|0:1,0:0:0:0:
0,218,92044,1,8,0:1:0:0:
176,339,92190,1,2,0:2:0:0:
148,94,92336,2,0,P|127:138|111:185,1,99,8|2,0:2|0:3,0:0:0:0:
262,124,92629,1,10,0:1:0:0:
63,57,92775,2,0,P|146:49|187:-24,1,148.5,8|0,0:2|0:0,0:0:0:0:
182,1,93068,5,10,0:1:0:0:
370,186,93214,1,10,0:1:0:0:
459,39,93361,2,0,P|414:59|366:74,1,99,10|0,0:2|0:0,0:0:0:0:
232,280,93653,6,0,B|280:247|329:285|329:285|331:290|331:290|352:340|406:349,1,198,14|8,0:1|0:2,0:0:0:0:
265,384,94092,1,2,0:2:0:0:
420,257,94239,2,0,P|465:277|512:291,1,99,10|8,0:1|0:1,0:0:0:0:
370,186,94531,1,2,0:3:0:0:
512,291,94678,1,10,0:2:0:0:
370,186,94824,6,0,P|322:171|277:151,1,99,2|8,0:2|0:1,0:0:0:0:
48,309,95117,2,0,P|93:289|141:276,1,99,10|0,0:2|0:0,0:0:0:0:
117,44,95409,5,14,0:1:0:0:
137,74,95483,1,8,0:2:0:0:
159,106,95556,1,8,0:2:0:0:
181,145,95629,1,8,0:2:0:0:
202,190,95702,1,10,0:2:0:0:
222,240,95775,1,8,0:2:0:0:
240,295,95848,1,8,0:2:0:0:
254,356,95922,1,8,0:2:0:0:
252,362,95995,5,14,0:1:0:0:
423,248,96141,1,2,0:2:0:0:
345,338,96287,1,10,0:2:0:0:
503,297,96434,1,0,0:0:0:0:
293,151,96580,5,10,0:1:0:0:
415,255,96726,1,10,0:1:0:0:
483,82,96873,1,2,0:2:0:0:
385,168,97019,1,10,0:2:0:0:
475,192,97165,5,2,0:3:0:0:
322,11,97312,1,10,0:1:0:0:
265,65,97458,2,0,P|279:106|297:170,1,90,10|0,0:2|0:0,0:0:0:0:
30,103,97751,5,10,0:1:0:0:
78,166,97897,1,10,0:1:0:0:
149,137,98044,2,0,P|161:93|176:51,1,90,10|0,0:2|0:0,0:0:0:0:
23,277,98336,5,14,0:1:0:0:
151,369,98483,1,2,0:2:0:0:
136,253,98629,1,10,0:2:0:0:
65,355,98775,1,0,0:0:0:0:
228,246,98922,5,10,0:1:0:0:
305,373,99068,1,10,0:1:0:0:
225,328,99214,1,2,0:2:0:0:
390,217,99361,1,10,0:2:0:0:
316,281,99507,5,2,0:3:0:0:
418,384,99653,1,10,0:1:0:0:
497,272,99800,2,0,P|454:286|411:299,1,90,10|0,0:2|0:0,0:0:0:0:
228,246,100092,5,10,0:1:0:0:
301,185,100239,1,10,0:1:0:0:
188,68,100385,2,0,P|202:108|215:153,1,90,10|0,0:2|0:0,0:0:0:0:
421,27,100678,5,14,0:1:0:0:
348,52,100824,1,2,0:2:0:0:
483,110,100970,1,10,0:2:0:0:
343,63,101117,1,0,0:0:0:0:
296,193,101263,5,10,0:1:0:0:
402,128,101409,1,10,0:1:0:0:
298,203,101556,1,2,0:2:0:0:
188,68,101702,1,10,0:2:0:0:
281,116,101848,5,2,0:3:0:0:
120,203,101995,1,10,0:1:0:0:
170,269,102141,2,0,P|214:281|256:296,1,90,10|0,0:2|0:0,0:0:0:0:
74,129,102434,5,10,0:1:0:0:
204,187,102580,1,10,0:1:0:0:
89,281,102726,2,0,P|76:325|61:367,1,90,10|0,0:2|0:0,0:0:0:0:
366,293,103019,5,14,0:1:0:0:
423,241,103165,1,2,0:2:0:0:
396,169,103312,1,10,0:2:0:0:
396,162,103605,5,10,0:1:0:0:
425,241,103751,1,10,0:1:0:0:
363,298,103897,1,2,0:2:0:0:
332,220,104044,1,10,0:2:0:0:
512,322,104190,6,0,P|466:336|425:357,1,90,2|10,0:3|0:1,0:0:0:0:
243,249,104483,2,0,P|289:235|330:214,1,90,10|0,0:2|0:0,0:0:0:0:
129,380,104775,5,10,0:1:0:0:
80,352,104848,1,8,0:2:0:0:
73,292,104922,1,10,0:2:0:0:
106,247,104995,1,8,0:2:0:0:
116,250,105068,5,10,0:2:0:0:
160,222,105141,1,8,0:2:0:0:
179,167,105214,1,10,0:2:0:0:
149,116,105287,1,8,0:2:0:0:
139,121,105361,5,12,0:1:0:0:
243,249,105507,1,2,0:2:0:0:
43,156,105653,1,10,0:2:0:0:
332,220,105800,1,0,0:0:0:0:
173,310,105946,5,10,0:1:0:0:
262,101,106092,1,10,0:1:0:0:
243,249,106239,1,2,0:2:0:0:
179,167,106385,1,10,0:2:0:0:
308,382,106531,5,2,0:3:0:0:
456,276,106678,1,10,0:1:0:0:
332,220,106824,2,0,P|349:261|363:304,1,90,10|0,0:2|0:0,0:0:0:0:
510,180,107117,5,10,0:1:0:0:
347,63,107263,1,10,0:1:0:0:
483,1,107409,2,0,P|463:46|447:93,1,90,10|0,0:2|0:0,0:0:0:0:
243,249,107702,5,14,0:1:0:0:
371,140,107848,1,2,0:2:0:0:
190,49,107995,1,10,0:2:0:0:
362,144,108141,1,0,0:0:0:0:
113,272,108287,5,10,0:1:0:0:
223,133,108434,1,10,0:1:0:0:
121,278,108580,1,2,0:2:0:0:
46,182,108726,1,10,0:2:0:0:
183,371,108873,5,2,0:3:0:0:
22,309,109019,1,10,0:1:0:0:
152,193,109165,2,0,P|135:234|121:277,1,90,10|0,0:2|0:0,0:0:0:0:
46,182,109458,5,10,0:1:0:0:
192,46,109605,1,10,0:1:0:0:
53,0,109751,2,0,P|71:45|87:92,1,90,10|0,0:2|0:0,0:0:0:0:
183,371,110044,5,14,0:1:0:0:
386,288,110190,1,2,0:2:0:0:
226,145,110336,1,10,0:2:0:0:
259,261,110483,1,0,0:0:0:0:
426,121,110629,5,10,0:1:0:0:
480,227,110775,1,10,0:1:0:0:
315,135,110922,1,2,0:2:0:0:
472,24,111068,1,10,0:2:0:0:
386,288,111214,5,2,0:3:0:0:
226,145,111361,1,10,0:1:0:0:
401,194,111507,2,0,P|359:211|319:232,1,90,10|0,0:2|0:0,0:0:0:0:
98,172,111800,5,10,0:1:0:0:
244,21,111946,1,10,0:1:0:0:
66,68,112092,2,0,P|107:85|147:106,1,90,10|0,0:2|0:0,0:0:0:0:
84,338,112385,5,14,0:1:0:0:
46,247,112531,1,2,0:2:0:0:
175,367,112678,1,10,0:2:0:0:
91,168,112824,1,0,0:0:0:0:
313,334,112970,5,10,0:1:0:0:
397,135,113117,1,10,0:1:0:0:
404,305,113263,1,2,0:2:0:0:
442,214,113409,1,10,0:2:0:0:
153,271,113556,5,2,0:3:0:0:
336,210,113702,1,10,0:1:0:0:
197,105,113848,2,0,P|213:147|229:205,1,90,10|8,0:2|0:2,0:0:0:0:
303,37,114141,5,10,0:2:0:0:
256,26,114214,1,8,0:2:0:0:
213,55,114287,1,10,0:2:0:0:
197,105,114361,1,8,0:2:0:0:
159,133,114434,1,10,0:1:0:0:
112,131,114507,1,8,0:1:0:0:
87,92,114580,6,0,P|103:46|115:-5,1,94.4999999999999,14|0,0:1|0:0,0:0:0:0:
114,2,114873,1,8,0:1:0:0:
9,252,115019,2,0,P|41:220|109:224,1,94.4999999999999,10|0,0:2|0:0,0:0:0:0:
151,267,115312,2,0,L|215:289,1,62.9999999999999,10|8,0:1|0:1,0:0:0:0:
309,234,115605,2,0,P|292:229|279:223,1,31.4999990386963,2|0,0:2|0:0,0:0:0:0:
268,231,115751,6,0,B|254:255|237:271|237:271|256:303|277:342,1,126,10|10,0:2|0:1,0:0:0:0:
406,250,116190,2,0,L|428:186,1,62.9999999999999,10|0,0:2|0:0,0:0:0:0:
306,62,116483,1,10,0:1:0:0:
334,136,116629,1,10,0:1:0:0:
254,125,116775,1,10,0:2:0:0:
384,71,116922,1,14,0:1:0:0:
268,231,117068,6,0,P|209:246|159:211,1,126,2|8,0:2|0:2,0:0:0:0:
51,327,117507,1,2,0:2:0:0:
118,381,117653,2,0,P|126:350|136:320,1,62.9999999999999,10|8,0:1|0:1,0:0:0:0:
48,178,117946,2,0,P|58:208|67:239,1,62.9999999999999,2|10,0:3|0:2,0:0:0:0:
230,340,118239,6,0,B|297:329|282:299|364:283,1,126,2|8,0:2|0:2,0:0:0:0:
495,348,118678,1,2,0:2:0:0:
425,234,118824,1,10,0:1:0:0:
425,234,118897,1,8,0:1:0:0:
425,234,118970,2,0,L|434:263,1,31.5,8|8,0:1|0:1,0:0:0:0:
510,162,119117,2,0,L|500:191,1,31.5,8|8,0:2|0:1,0:0:0:0:
455,65,119263,6,0,P|413:50|343:113,1,126,14|8,0:1|0:1,0:0:0:0:
146,68,119702,2,0,P|138:31|122:-17,1,62.9999999999999,10|0,0:2|0:0,0:0:0:0:
250,72,119995,2,0,P|237:117|226:170,1,94.4999999999999,10|0,0:1|0:0,0:0:0:0:
221,167,120287,1,2,0:2:0:0:
80,272,120434,6,0,P|53:240|84:158,1,126,10|10,0:2|0:1,0:0:0:0:
221,295,120873,2,0,P|229:325|210:372,1,62.9999999999999,10|0,0:2|0:0,0:0:0:0:
137,341,121165,1,10,0:1:0:0:
296,247,121312,2,0,P|344:261|402:273,1,94.4999999999999,8|0,0:1|0:0,0:0:0:0:
393,278,121605,1,14,0:1:0:0:
304,103,121751,6,0,P|262:92|194:147,1,126,2|8,0:2|0:2,0:0:0:0:
45,69,122190,1,2,0:2:0:0:
83,0,122336,1,10,0:1:0:0:
133,65,122483,2,0,P|117:96|104:144,1,62.9999999999999,8|2,0:1|0:3,0:0:0:0:
55,246,122775,1,10,0:2:0:0:
133,227,122922,1,2,0:2:0:0:
12,182,123068,1,8,0:1:0:0:
34,354,123214,6,0,P|63:339|93:330,1,62.9999999999999,8|2,0:2|0:2,0:0:0:0:
187,242,123507,1,10,0:1:0:0:
173,239,123580,1,8,0:1:0:0:
160,236,123653,1,8,0:1:0:0:
145,232,123726,1,8,0:1:0:0:
133,227,123800,1,8,0:2:0:0:
274,374,123946,6,0,P|316:320|386:325,1,144,14|8,0:1|0:1,0:0:0:0:
473,300,124385,2,0,B|483:337|483:337|460:375,1,72,10|0,0:2|0:0,0:0:0:0:
301,291,124678,2,0,B|291:254|291:254|314:216,1,72,10|8,0:1|0:1,0:0:0:0:
386,325,124970,1,2,0:2:0:0:
504,198,125117,6,0,P|460:211|390:227,1,108,10|0,0:2|0:0,0:0:0:0:
398,231,125409,1,10,0:1:0:0:
252,68,125556,5,10,0:2:0:0:
279,148,125702,1,0,0:0:0:0:
244,66,125848,1,10,0:1:0:0:
274,154,125995,1,10,0:1:0:0:
336,79,126141,2,0,P|345:45|357:11,1,72,10|14,0:2|0:1,0:0:0:0:
182,137,126434,6,0,B|147:148|126:182|126:182|89:167|38:181,1,144,2|8,0:2|0:2,0:0:0:0:
198,229,126873,1,2,0:2:0:0:
53,170,127019,1,10,0:1:0:0:
186,303,127165,2,0,P|206:275|186:216,1,72,8|2,0:1|0:3,0:0:0:0:
94,267,127458,1,10,0:2:0:0:
257,365,127605,6,0,P|326:380|389:349,1,144,2|8,0:2|0:2,0:0:0:0:
457,238,128044,1,2,0:2:0:0:
391,179,128190,1,10,0:1:0:0:
376,173,128263,1,8,0:1:0:0:
360,171,128336,1,8,0:1:0:0:
347,178,128409,1,8,0:1:0:0:
339,188,128483,1,8,0:2:0:0:
490,137,128629,6,0,P|514:103|469:13,1,144,14|8,0:1|0:1,0:0:0:0:
328,68,129068,2,0,P|363:78|404:87,1,72,10|0,0:2|0:0,0:0:0:0:
250,136,129361,2,0,P|208:148|137:174,1,108,10|0,0:1|0:0,0:0:0:0:
147,178,129653,1,2,0:2:0:0:
29,113,129800,6,0,P|-10:169|21:243,1,144,10|10,0:2|0:1,0:0:0:0:
127,341,130239,1,10,0:2:0:0:
177,282,130385,1,0,0:0:0:0:
250,268,130531,1,10,0:1:0:0:
315,309,130678,1,10,0:1:0:0:
241,347,130824,1,10,0:2:0:0:
323,228,130970,1,14,0:1:0:0:
403,381,131117,6,0,P|416:313|440:242,1,144,2|8,0:2|0:2,0:0:0:0:
355,63,131556,1,2,0:2:0:0:
288,119,131702,1,10,0:1:0:0:
371,152,131848,2,0,P|414:135|449:128,1,72,8|2,0:1|0:3,0:0:0:0:
274,31,132141,1,8,0:2:0:0:
173,207,132287,5,2,0:2:0:0:
173,207,132434,1,8,0:1:0:0:
239,293,132580,5,8,0:2:0:0:
72,224,132726,1,2,0:2:0:0:
203,108,132873,1,10,0:1:0:0:
154,341,133019,1,8,0:1:0:0:
437,278,133165,6,0,P|393:269|357:313,1,108,10|0,0:2|0:0,0:0:0:0:
239,293,133458,6,0,P|300:307|363:326,3,126,14|8|8|8,0:1|0:1|0:1|0:1,0:0:0:0:
146,346,134629,6,0,P|105:309|129:228,1,126,8|8,0:1|0:1,0:0:0:0:
164,180,135068,2,0,P|134:171|106:159,1,62.9999999999999,2|8,0:2|0:1,0:0:0:0:
239,109,135361,2,0,P|269:99|297:87,1,62.9999999999999,2|10,0:2|0:1,0:0:0:0:
171,38,135653,1,2,0:2:0:0:
324,174,135800,6,0,B|387:190|369:206|438:224,3,126,10|8|10|8,0:1|0:1|0:1|0:1,0:0:0:0:
263,304,136970,6,0,B|199:320|217:336|148:354,1,126,8|8,0:1|0:1,0:0:0:0:
39,182,137556,6,0,P|32:212|21:251,1,62.9999999999999,10|0,0:1|0:0,0:0:0:0:
92,293,137848,2,0,P|98:262|110:224,1,62.9999999999999,10|0,0:1|0:0,0:0:0:0:
31,56,138141,6,0,P|65:103|149:95,3,126,10|8|8|8,0:1|0:1|0:1|0:1,0:0:0:0:
280,12,139312,6,0,P|242:32|229:113,1,126,8|8,0:1|0:1,0:0:0:0:
283,177,139751,2,0,P|314:184|347:194,1,62.9999999999999,2|10,0:2|0:1,0:0:0:0:
458,101,140044,1,2,0:2:0:0:
360,55,140190,2,0,P|368:85|375:115,1,62.9999999999999,10|2,0:1|0:2,0:0:0:0:
430,230,140483,6,0,P|444:168|464:108,3,126,10|8|10|8,0:1|0:1|0:1|0:1,0:0:0:0:
335,278,141653,5,10,0:1:0:0:
329,283,142239,6,0,L|283:295,3,31.5,2|0|0|0,0:2|0:0|0:0|0:0,0:0:0:0:
230,246,142531,6,0,L|225:265,7,20.25,2|0|0|0|0|0|0|0,0:2|0:0|0:0|0:0|0:0|0:0|0:0|0:0,0:0:0:0:
239,345,142824,6,0,P|176:386|102:366,1,121.5,12|0,0:1|0:0,0:0:0:0:
76,326,143117,2,0,P|64:288|89:237,1,81.0000000000001,8|0,0:2|0:0,0:0:0:0:
202,117,143409,1,8,0:1:0:0:
82,96,143556,2,0,P|97:135|113:178,1,81.0000000000001,8|2,0:1|0:3,0:0:0:0:
333,45,143848,6,0,P|272:30|205:5,1,121.5,8|0,0:2|0:0,0:0:0:0:
210,17,144141,1,8,0:1:0:0:
352,172,144287,2,0,P|302:188|270:204,1,81.0000000000001,8|2,0:2|0:2,0:0:0:0:
435,92,144580,1,10,0:1:0:0:
359,274,144726,1,10,0:1:0:0:
459,344,144873,1,10,0:2:0:0:
352,172,145019,1,2,0:2:0:0:
204,321,145165,6,0,B|243:300|278:326|278:326|280:333|280:333|306:372|362:372,1,162,14|8,0:1|0:2,0:0:0:0:
153,226,145605,1,2,0:2:0:0:
228,175,145751,5,10,0:1:0:0:
111,303,145897,2,0,P|84:342|91:379,1,81.0000000000001,8|2,0:1|0:3,0:0:0:0:
204,321,146190,1,10,0:2:0:0:
32,220,146336,6,0,P|77:221|143:131,1,162,2|8,0:2|0:2,0:0:0:0:
84,0,146775,1,2,0:2:0:0:
11,56,146922,2,0,P|27:92|39:131,1,81.0000000000001,10|8,0:1|0:1,0:0:0:0:
247,77,147214,2,0,B|256:39|256:39|231:5,1,81.0000000000001,8|2,0:2|0:2,0:0:0:0:
138,131,147507,6,0,B|196:149|196:149|221:185|221:185|285:203,1,162,14|8,0:1|0:2,0:0:0:0:
487,101,147946,1,2,0:2:0:0:
348,31,148092,1,10,0:1:0:0:
371,191,148239,2,0,P|382:152|399:115,1,81.0000000000001,8|2,0:1|0:3,0:0:0:0:
276,200,148531,1,10,0:2:0:0:
468,280,148678,6,0,P|412:285|369:352,1,121.5,2|0,0:2|0:0,0:0:0:0:
370,341,148970,2,0,P|408:352|445:369,1,81.0000000000001,10|0,0:2|0:0,0:0:0:0:
276,200,149263,5,10,0:1:0:0:
206,175,149409,1,8,0:1:0:0:
142,212,149556,1,10,0:2:0:0:
118,284,149702,1,8,0:1:0:0:
49,238,149848,6,0,B|105:217|187:280|187:280|246:287|309:257|283:177|258:108|168:139|107:183|141:253|187:280|187:280|275:383|372:339,1,730.800000000001,14|0,0:1|0:0,0:0:0:0:
482,183,152190,6,0,B|448:169|420:148|420:148|401:177|369:200,2,144,2|2|2,0:2|0:2|0:2,0:0:0:0:
218,0,153946,6,0,P|209:35|236:75,1,67.5,2|0,0:2|0:0,0:0:0:0:
174,139,154239,6,0,L|149:149,1,26.9999999999999,2|0,0:2|0:0,0:0:0:0:
64,143,154385,6,0,B|139:159|139:159|170:199|170:199|246:214,1,198,14|8,0:1|0:1,0:0:0:0:
417,129,154824,2,0,P|437:79|417:39,1,99,8|0,0:2|0:0,0:0:0:0:
318,163,155117,1,8,0:1:0:0:
338,245,155263,1,8,0:1:0:0:
404,323,155409,5,10,0:2:0:0:
236,220,155556,1,2,0:2:0:0:
417,129,155702,1,8,0:1:0:0:
417,129,155848,1,8,0:1:0:0:
305,364,155995,2,0,P|262:318|172:327,1,148.5,8|0,0:2|0:0,0:0:0:0:
80,279,156287,2,0,P|101:324|117:371,1,99,10|10,0:1|0:1,0:0:0:0:
163,96,156580,1,10,0:2:0:0:
0,162,156726,6,0,P|35:219|158:202,1,198,14|8,0:1|0:1,0:0:0:0:
101,0,157165,2,0,P|83:52|60:101,1,99,8|0,0:2|0:0,0:0:0:0:
261,197,157458,1,8,0:1:0:0:
312,137,157605,1,8,0:1:0:0:
233,59,157751,5,10,0:2:0:0:
339,295,157897,2,0,P|391:313|440:336,1,99,2|8,0:2|0:1,0:0:0:0:
340,215,158190,1,8,0:1:0:0:
512,112,158336,2,0,P|475:158|391:144,1,148.5,8|0,0:2|0:0,0:0:0:0:
396,141,158629,5,10,0:1:0:0:
298,0,158775,1,10,0:1:0:0:
434,42,158922,1,10,0:2:0:0:
253,194,159068,6,0,B|208:182|170:223|170:223|174:228|174:228|136:295|61:271,1,198,14|8,0:1|0:1,0:0:0:0:
8,223,159507,2,0,B|38:182|38:182|90:193,1,99,8|0,0:2|0:0,0:0:0:0:
291,272,159800,1,8,0:1:0:0:
259,196,159946,1,8,0:1:0:0:
221,346,160092,5,10,0:2:0:0:
382,240,160239,1,2,0:2:0:0:
235,110,160385,2,0,P|188:94|143:73,1,99,8|8,0:1|0:1,0:0:0:0:
382,240,160678,2,0,P|440:257|507:183,1,148.5,8|0,0:2|0:0,0:0:0:0:
512,112,160970,6,0,P|466:132|420:148,1,99,10|8,0:1|0:1,0:0:0:0:
282,282,161263,1,10,0:2:0:0:
423,368,161409,1,8,0:1:0:0:
264,192,161556,6,0,B|238:259|238:259|262:306|262:306|236:375,1,198,2|8,0:2|0:2,0:0:0:0:
66,269,161995,1,2,0:2:0:0:
154,319,162141,1,10,0:1:0:0:
25,366,162287,1,8,0:1:0:0:
109,180,162434,5,8,0:2:0:0:
160,321,162580,1,2,0:2:0:0:
9,196,162726,2,0,P|-21:139|31:63,1,148.5,10|0,0:1|0:0,0:0:0:0:
60,5,163019,2,0,P|110:6|147:57,1,99,8|0,0:2|0:0,0:0:0:0:
237,278,163312,5,14,0:1:0:0:
199,251,163385,1,8,0:2:0:0:
196,203,163458,1,8,0:2:0:0:
228,169,163531,1,8,0:2:0:0:
240,173,163605,5,10,0:2:0:0:
281,150,163678,1,8,0:2:0:0:
304,103,163751,1,10,0:2:0:0:
291,53,163824,1,8,0:2:0:0:
227,6,163897,6,0,B|245:71|245:71|250:73|250:73|270:145,1,148.5,14|0,0:1|0:0,0:0:0:0:
352,188,164190,2,0,P|400:183|436:151,1,99,8|0,0:2|0:0,0:0:0:0:
266,348,164483,1,8,0:1:0:0:
237,278,164629,1,8,0:1:0:0:
348,274,164775,5,10,0:2:0:0:
155,353,164922,2,0,P|83:357|34:304,1,148.5,10|0,0:1|0:0,0:0:0:0:
38,298,165214,1,8,0:1:0:0:
153,144,165361,2,0,P|133:189|116:236,1,99,8|0,0:2|0:0,0:0:0:0:
110,68,165653,6,0,P|70:31|17:31,1,99,10|8,0:1|0:1,0:0:0:0:
228,197,165873,1,2,0:2:0:0:
228,197,165946,2,0,P|273:177|320:160,1,99,8|2,0:2|0:2,0:0:0:0:
512,275,166239,6,0,P|481:322|388:307,1,148.5,14|0,0:1|0:0,0:0:0:0:
332,275,166531,2,0,P|373:237|423:247,1,99,8|0,0:2|0:0,0:0:0:0:
240,373,166824,2,0,P|191:374|159:338,1,99,8|8,0:1|0:1,0:0:0:0:
61,172,167117,5,10,0:2:0:0:
230,204,167263,2,0,B|120:220|155:267|33:283,1,198,10|8,0:1|0:1,0:0:0:0:
124,107,167702,2,0,B|159:146|159:146|144:204,1,99,10|0,0:2|0:0,0:0:0:0:
61,172,167995,1,10,0:1:0:0:
208,54,168141,1,8,0:1:0:0:
88,6,168287,2,0,P|30:10|-4:42,1,99.0000030212403,10|2,0:2|0:2,0:0:0:0:
282,135,168580,6,0,B|327:158|350:202|350:202|395:178|447:180,1,198,14|8,0:1|0:2,0:0:0:0:
286,318,169019,2,0,P|256:271|269:220,1,99,2|8,0:2|0:1,0:0:0:0:
401,293,169312,1,8,0:1:0:0:
190,384,169458,2,0,P|135:333|9:357,1,198,2|2,0:2|0:3,0:0:0:0:
160,308,169897,1,10,0:1:0:0:
69,152,170044,2,0,P|50:202|30:243,1,99,8|0,0:2|0:0,0:0:0:0:
258,27,170336,5,10,0:1:0:0:
182,167,170483,1,10,0:1:0:0:
290,135,170629,1,10,0:2:0:0:
151,59,170775,1,2,0:2:0:0:
512,107,170922,6,0,P|472:55|356:88,1,198,14|8,0:1|0:2,0:0:0:0:
425,270,171361,1,2,0:2:0:0:
330,224,171507,1,10,0:1:0:0:
419,163,171653,2,0,P|468:181|514:195,1,99,8|2,0:1|0:3,0:0:0:0:
343,328,171946,1,10,0:2:0:0:
237,277,172092,6,0,B|156:298|183:325|95:349,1,148.5,2|0,0:2|0:0,0:0:0:0:
71,263,172385,2,0,P|127:256|170:294,1,99,10|0,0:2|0:0,0:0:0:0:
261,91,172678,5,14,0:1:0:0:
286,122,172751,1,8,0:2:0:0:
274,152,172824,2,0,P|248:161|226:172,1,49.5,8|8,0:2|0:2,0:0:0:0:
65,18,172970,5,10,0:2:0:0:
89,12,173044,1,8,0:2:0:0:
114,14,173117,1,8,0:2:0:0:
136,25,173190,1,8,0:2:0:0:
154,43,173263,6,0,B|137:104|137:104|141:108|141:108|124:172,1,135,14|0,0:1|0:0,0:0:0:0:
131,180,173556,2,0,L|108:92,1,90,10|0,0:2|0:0,0:0:0:0:
309,276,173848,1,10,0:1:0:0:
450,75,173995,1,10,0:1:0:0:
277,159,174141,2,0,L|366:182,1,90,12|2,0:2|0:2,0:0:0:0:
438,242,174434,5,10,0:1:0:0:
325,51,174580,1,10,0:1:0:0:
212,294,174726,2,0,L|299:271,1,90,14|0,0:2|0:0,0:0:0:0:
90,105,175019,5,10,0:1:0:0:
78,100,175092,1,8,0:2:0:0:
66,97,175165,1,10,0:2:0:0:
27,122,175239,1,8,0:2:0:0:
22,172,175312,1,10,0:3:0:0:
62,210,175385,1,8,0:3:0:0:
112,237,175458,1,10,0:3:0:0:
113,293,175531,1,8,0:3:0:0:
48,337,175605,6,0,P|98:322|152:377,1,135,14|0,0:1|0:0,0:0:0:0:
147,382,175897,1,10,0:2:0:0:
309,276,176044,1,2,0:2:0:0:
204,228,176190,5,10,0:1:0:0:
258,379,176336,1,10,0:1:0:0:
409,325,176483,1,2,0:3:0:0:
355,174,176629,1,10,0:2:0:0:
309,276,176775,5,2,0:2:0:0:
411,73,176922,1,10,0:1:0:0:
309,276,177068,1,10,0:2:0:0:
180,141,177214,1,2,0:2:0:0:
353,182,177361,5,10,0:1:0:0:
191,321,177507,1,10,0:1:0:0:
71,187,177653,1,10,0:2:0:0:
204,228,177800,6,0,P|135:257|74:293,1,135,2|0,0:2|0:0,0:0:0:0:
82,297,178092,1,2,0:2:0:0:
180,141,178239,1,10,0:2:0:0:
322,264,178385,6,0,P|303:305|291:348,1,90,2|8,0:2|0:1,0:0:0:0:
173,134,178678,2,0,P|129:121|88:103,1,90,10|2,0:1|0:3,0:0:0:0:
322,264,178970,1,10,0:2:0:0:
188,384,179117,6,0,P|186:340|215:306,1,90,2|10,0:2|0:1,0:0:0:0:
368,184,179409,1,8,0:2:0:0:
248,60,179556,2,0,P|266:101|278:144,1,90,2|8,0:2|0:1,0:0:0:0:
451,246,179848,1,10,0:1:0:0:
398,99,179995,2,0,P|385:142|367:183,1,90,10|2,0:2|0:2,0:0:0:0:
367,183,180214,5,2,0:2:0:0:
367,183,180287,1,14,0:1:0:0:
323,360,180434,2,0,P|371:365|408:330,1,90,2|8,0:2|0:2,0:0:0:0:
196,218,180726,2,0,P|136:219|76:273,1,135,2|0,0:2|0:0,0:0:0:0:
69,265,181019,2,0,P|27:246|25:181,1,90,10|2,0:1|0:2,0:0:0:0:
149,11,181312,6,0,B|165:1|165:1|231:38|193:108,1,135,10|0,0:2|0:0,0:0:0:0:
200,106,181605,1,10,0:1:0:0:
118,193,181751,2,0,P|102:150|78:112,1,90,10|2,0:2|0:2,0:0:0:0:
291,33,182044,5,10,0:1:0:0:
330,16,182117,1,8,0:2:0:0:
371,30,182190,1,10,0:2:0:0:
392,70,182263,1,8,0:2:0:0:
388,78,182336,5,10,0:2:0:0:
414,118,182409,1,8,0:2:0:0:
462,129,182483,1,10,0:2:0:0:
506,107,182556,1,8,0:2:0:0:
506,107,182629,6,0,B|439:118|458:146|371:167,1,135,12|0,0:1|0:0,0:0:0:0:
319,220,182922,2,0,P|348:228|409:255,1,90,10|0,0:2|0:0,0:0:0:0:
303,133,183214,1,10,0:1:0:0:
447,323,183361,2,0,P|480:290|486:243,1,90,10|2,0:1|0:3,0:0:0:0:
214,243,183653,6,0,B|149:259|149:259|126:301|126:301|60:317,1,180,10|10,0:2|0:1,0:0:0:0:
207,330,184092,1,10,0:2:0:0:
84,155,184239,2,0,B|51:190|51:190|65:234,1,90,2|8,0:2|0:1,0:0:0:0:
167,166,184531,1,10,0:1:0:0:
0,0,184678,2,0,P|24:37|39:79,1,90,8|0,0:2|0:0,0:0:0:0:
167,166,184970,6,0,B|240:148|221:120|288:109,1,135,14|0,0:1|0:0,0:0:0:0:
364,137,185263,2,0,P|390:95|376:51,1,90,10|0,0:2|0:0,0:0:0:0:
259,217,185556,1,10,0:1:0:0:
389,283,185702,1,10,0:1:0:0:
339,213,185848,1,2,0:2:0:0:
227,326,185995,6,0,P|265:302|307:286,1,90,10|2,0:2|0:3,0:0:0:0:
442,351,186287,1,10,0:1:0:0:
512,156,186434,1,10,0:2:0:0:
420,208,186580,2,0,P|463:223|501:247,1,90,2|8,0:2|0:1,0:0:0:0:
332,120,186873,1,10,0:1:0:0:
381,57,187019,2,0,P|424:42|462:18,1,90,10|0,0:2|0:0,0:0:0:0:
177,244,187312,6,0,B|136:252|102:208|102:208|104:204|104:204|62:178|20:198,1,180,14|8,0:1|0:2,0:0:0:0:
249,209,187751,1,2,0:2:0:0:
74,361,187897,2,0,P|47:326|58:278,1,90,10|8,0:1|0:1,0:0:0:0:
183,163,188190,6,0,P|255:187|357:212,1,180,2|2,0:2|0:3,0:0:0:0:
225,72,188629,1,10,0:1:0:0:
314,315,188775,2,0,P|358:298|400:290,1,90,10|0,0:2|0:0,0:0:0:0:
491,156,189068,2,0,P|446:147|405:131,1,90,10|10,0:1|0:1,0:0:0:0:
177,244,189361,2,0,P|156:289|174:340,1,90,10|2,0:2|0:2,0:0:0:0:
308,154,189653,6,0,P|316:109|332:68,1,90,14|0,0:1|0:0,0:0:0:0:
408,21,189946,1,10,0:2:0:0:
183,163,190092,2,0,P|102:170|41:86,1,180,2|10,0:2|0:1,0:0:0:0:
161,0,190531,2,0,P|153:44|137:85,1,90,2|10,0:2|0:2,0:0:0:0:
48,282,190824,5,2,0:3:0:0:
249,209,190970,1,10,0:1:0:0:
42,99,191117,1,14,0:2:0:0:
171,328,191263,1,10,0:1:0:0:
397,151,191409,5,10,0:2:0:0:
357,145,191483,1,8,0:2:0:0:
333,175,191556,2,0,P|340:196|345:218,1,45,8|8,0:2|0:2,0:0:0:0:
481,339,191702,5,10,0:3:0:0:
494,329,191775,5,8,0:3:0:0:
502,314,191848,5,8,0:3:0:0:
504,298,191922,5,8,0:3:0:0:
499,281,191995,6,0,B|426:284|398:344|395:380|395:380|388:377|388:377|361:330|323:290|250:327|250:327|254:331|254:331|274:331|296:350,1,377.999988464356,14|2,0:1|0:2,0:0:0:0:
50,283,194336,6,0,B|53:240|83:193|144:180|172:204|194:229|194:229|162:239|133:270|122:294|122:294|126:292|126:292|115:320|125:352|151:364,1,377.999988464356,0|2,0:0|0:2,0:0:0:0:
469,96,196678,6,0,B|411:92|382:16|382:16|339:51|342:113|382:146|382:146|381:141|381:141|420:171|404:197|404:197|398:182|377:169,1,377.999988464356,2|2,0:2|0:2,0:0:0:0:
76,83,199019,6,0,B|57:48|71:7|71:7|18:49|14:125|82:154|80:123|135:161|135:161|142:118|191:99,1,377.999988464356,2|2,0:2|0:2,0:0:0:0:
437,266,201361,6,0,B|475:240|478:190|478:190|488:213|527:323|414:357|414:357|390:317|335:320,1,377.999988464356,2|2,0:2|0:2,0:0:0:0:
18,145,203702,6,0,B|51:216|123:208|123:208|121:213|121:213|55:243|26:282|34:333|34:333|39:336|39:336|64:308|108:312,1,377.999988464356,0|2,0:0|0:2,0:0:0:0:
256,192,206044,5,2,0:2:0:0:
256,192,206117,12,2,210141,0:2:0:0:
97,240,210434,6,0,B|112:224|112:224|104:190,1,45,2|0,0:2|0:0,0:0:0:0:
5,232,210580,6,0,B|55:214|93:266|93:266|88:270|88:270|111:323|178:321,1,198,14|8,0:1|0:1,0:0:0:0:
324,267,211019,2,0,B|352:228|352:228|339:179,1,99,8|0,0:2|0:0,0:0:0:0:
170,85,211312,1,8,0:1:0:0:
194,157,211458,1,8,0:1:0:0:
239,24,211605,5,10,0:2:0:0:
106,201,211751,1,2,0:2:0:0:
0,18,211897,1,8,0:1:0:0:
0,18,212044,1,8,0:1:0:0:
163,79,212190,2,0,P|116:98|62:113,1,99,8|0,0:2|0:0,0:0:0:0:
271,238,212483,5,10,0:1:0:0:
306,125,212629,1,10,0:1:0:0:
197,159,212775,1,10,0:2:0:0:
354,308,212922,6,0,P|416:329|514:250,1,198,14|8,0:1|0:1,0:0:0:0:
386,139,213361,2,0,P|404:184|418:232,1,99,8|0,0:2|0:0,0:0:0:0:
277,98,213653,1,8,0:1:0:0:
255,174,213800,1,8,0:1:0:0:
380,51,213946,5,10,0:2:0:0:
211,0,214092,1,2,0:2:0:0:
386,139,214239,1,8,0:1:0:0:
386,139,214385,1,8,0:1:0:0:
186,249,214531,2,0,B|112:270|140:304|57:329,1,148.5,8|0,0:2|0:0,0:0:0:0:
56,333,214824,5,10,0:1:0:0:
155,133,214970,2,0,P|202:152|256:167,1,99,10|10,0:1|0:2,0:0:0:0:
74,28,215263,6,0,B|46:47|8:65|8:65|34:121|55:188,1,198,14|8,0:1|0:1,0:0:0:0:
235,351,215702,2,0,P|188:332|134:317,1,99,8|0,0:2|0:0,0:0:0:0:
372,206,215995,1,8,0:1:0:0:
269,256,216141,1,8,0:1:0:0:
429,304,216287,5,10,0:2:0:0:
248,165,216434,1,2,0:2:0:0:
465,59,216580,2,0,P|473:111|432:152,1,99,8|8,0:1|0:1,0:0:0:0:
179,66,216873,2,0,P|214:27|311:48,1,148.5,8|0,0:2|0:0,0:0:0:0:
395,12,217165,6,0,P|376:58|363:106,1,99,10|8,0:1|0:1,0:0:0:0:
269,256,217458,1,10,0:2:0:0:
446,145,217605,1,8,0:1:0:0:
346,355,217751,6,0,P|252:371|189:301,1,198,2|8,0:2|0:2,0:0:0:0:
45,183,218190,1,2,0:2:0:0:
3,298,218336,2,0,P|48:279|96:265,1,99,10|8,0:1|0:1,0:0:0:0:
263,99,218629,1,8,0:2:0:0:
116,23,218775,1,2,0:2:0:0:
153,195,218922,6,0,B|187:158|187:158|178:111,1,99,10|8,0:1|0:1,0:0:0:0:
29,0,219214,2,0,B|-5:37|-5:37|4:84,1,99,8|0,0:2|0:0,0:0:0:0:
199,261,219507,5,14,0:1:0:0:
237,299,219580,1,8,0:2:0:0:
290,298,219653,1,8,0:2:0:0:
326,260,219726,1,8,0:2:0:0:
324,243,219800,5,10,0:2:0:0:
369,206,219873,1,8,0:2:0:0:
444,209,219946,1,10,0:2:0:0:
502,258,220019,1,8,0:2:0:0:
454,330,220092,6,0,B|433:312|410:296|410:296|426:262|450:194,1,148.5,14|0,0:1|0:0,0:0:0:0:
431,133,220385,2,0,P|479:135|512:170,1,99,8|0,0:2|0:0,0:0:0:0:
324,243,220678,1,8,0:1:0:0:
211,83,220824,1,8,0:1:0:0:
342,16,220970,5,10,0:2:0:0:
219,204,221117,2,0,B|153:227|153:227|149:236|149:236|76:261,1,148.5,10|0,0:1|0:0,0:0:0:0:
79,266,221409,1,8,0:1:0:0:
0,144,221556,2,0,B|49:132|49:132|87:168,1,99,8|0,0:2|0:0,0:0:0:0:
253,375,221848,6,0,P|218:337|230:279,1,99,10|8,0:1|0:1,0:0:0:0:
295,265,222068,1,2,0:2:0:0:
295,265,222141,2,0,P|330:303|318:361,1,99,8|2,0:2|0:2,0:0:0:0:
496,156,222434,6,0,P|440:137|375:206,1,148.5,14|0,0:1|0:0,0:0:0:0:
301,174,222726,2,0,P|263:132|273:74,1,99.0000030212403,8|0,0:2|0:0,0:0:0:0:
351,49,223019,1,8,0:1:0:0:
215,212,223165,1,8,0:1:0:0:
113,15,223312,5,10,0:2:0:0:
263,92,223458,2,0,B|165:115|197:160|85:188,1,198,10|8,0:1|0:1,0:0:0:0:
198,301,223897,2,0,P|229:257|217:212,1,99,10|0,0:2|0:0,0:0:0:0:
27,113,224190,2,0,B|-3:152|-3:152|8:202,1,99,10|8,0:1|0:1,0:0:0:0:
122,326,224483,2,0,P|73:278|-11:300,1,148.5,10|0,0:2|0:0,0:0:0:0:
52,361,224775,6,0,B|116:345|168:325|168:325|188:355|219:387,1,198,14|8,0:1|0:1,0:0:0:0:
496,278,225214,2,0,P|448:264|401:247,1,99,10|2,0:2|0:3,0:0:0:0:
311,184,225507,1,8,0:1:0:0:
370,375,225653,1,10,0:2:0:0:
198,301,225800,2,0,P|244:284|292:270,1,99,12|0,0:1|0:0,0:0:0:0:
443,97,226092,1,10,0:1:0:0:
380,19,226239,2,0,P|366:66|351:113,1,99.0000030212403,8|8,0:2|0:1,0:0:0:0:
365,297,226531,5,2,0:2:0:0:
489,165,226678,1,10,0:3:0:0:
382,218,226824,1,10,0:3:0:0:
458,236,226970,1,8,0:3:0:0:
240,67,227117,6,0,P|191:50|98:146,1,198,14|8,0:1|0:1,0:0:0:0:
164,297,227556,6,0,B|117:299|84:249|84:249|86:244|86:244|39:203|0:222,1,198.000006042481,10|8,0:2|0:1,0:0:0:0:
240,372,227995,1,10,0:2:0:0:
223,201,228141,6,0,B|204:235|174:263|174:263|214:311|235:364,1,198.000006042481,12|8,0:1|0:3,0:0:0:0:
449,196,228580,6,0,B|372:168|372:168|334:186|341:235,1,148.50000453186,10|0,0:2|0:0,0:0:0:0:
412,282,228873,2,0,P|451:252|449:200,1,99.0000030212403,2|8,0:2|0:2,0:0:0:0:
287,53,229165,5,10,0:3:0:0:
240,67,229238,1,8,0:3:0:0:
208,104,229311,1,8,0:3:0:0:
199,152,229384,1,8,0:3:0:0:
217,198,229458,1,14,0:1:0:0:
77,5,231800,6,0,L|91:49,5,36,14|8|8|8|8|8,0:1|0:3|0:3|0:3|0:3|0:3,0:0:0:0:
165,59,232239,6,0,L|144:114,5,40.5,14|8|8|8|8|8,0:1|0:3|0:3|0:3|0:3|0:3,0:0:0:0:
185,168,232678,5,14,0:1:0:0:
168,175,232751,1,8,0:3:0:0:
152,186,232824,1,8,0:3:0:0:
137,197,232897,1,8,0:3:0:0:
125,208,232970,1,8,0:3:0:0:
111,222,233044,1,8,0:3:0:0:
100,236,233117,5,14,0:1:0:0:
91,220,233190,1,8,0:3:0:0:
106,197,233263,1,8,0:3:0:0:
146,185,233336,1,8,0:3:0:0:
196,207,233409,1,8,0:3:0:0:
213,257,233483,1,8,0:3:0:0:
180,294,233556,5,14,0:1:0:0:
195,255,233629,1,8,0:3:0:0:
251,242,233702,1,8,0:3:0:0:
301,270,233775,1,8,0:3:0:0:
321,320,233848,1,14,0:1:0:0:
366,347,233922,1,8,0:3:0:0:
419,328,233995,1,8,0:3:0:0:
414,319,234068,1,8,0:3:0:0:
409,313,234141,5,14,0:1:0:0:
374,317,234214,1,8,0:3:0:0:
342,327,234287,1,8,0:3:0:0:
311,339,234361,1,8,0:3:0:0:
279,354,234434,1,8,0:3:0:0:
242,369,234507,1,8,0:3:0:0:
198,384,234580,2,0,P|174:368|167:337,1,45,14|8,0:1|0:3,0:0:0:0:
251,122,234726,5,8,0:3:0:0:
288,153,234800,1,8,0:3:0:0:
284,202,234873,1,8,0:3:0:0:
243,234,234946,1,8,0:3:0:0:
191,216,235019,2,0,P|185:185|176:158,1,45,14|8,0:1|0:3,0:0:0:0:
68,22,235165,5,8,0:3:0:0:
120,37,235239,1,8,0:3:0:0:
136,91,235312,1,8,0:3:0:0:
105,139,235385,1,8,0:3:0:0:
57,161,235458,1,14,0:1:0:0:
23,208,235531,1,8,0:3:0:0:
31,264,235605,1,8,0:3:0:0:
66,307,235678,1,8,0:3:0:0:
123,308,235751,1,8,0:3:0:0:
165,268,235824,1,8,0:3:0:0:
149,218,235897,2,0,P|114:229|100:232,1,45,14|8,0:1|0:3,0:0:0:0:
241,356,236044,5,8,0:3:0:0:
241,356,236117,1,8,0:3:0:0:
241,356,236190,2,0,P|262:361|284:368,1,45,14|8,0:1|0:3,0:0:0:0:
339,310,236336,2,0,P|360:304|382:297,1,45,8|8,0:3|0:3,0:0:0:0:
298,58,236483,5,14,0:1:0:0:
255,80,236556,1,8,0:3:0:0:
243,129,236629,1,8,0:3:0:0:
268,166,236702,1,8,0:3:0:0:
313,180,236775,1,8,0:3:0:0:
353,159,236848,1,8,0:3:0:0:
365,118,236922,5,14,0:1:0:0:
400,73,236995,1,8,0:3:0:0:
457,67,237068,1,8,0:3:0:0:
504,101,237141,1,8,0:3:0:0:
512,158,237214,1,8,0:3:0:0:
490,208,237287,1,8,0:3:0:0:
437,230,237361,2,0,P|415:223|393:217,1,45,14|8,0:1|0:3,0:0:0:0:
211,259,237507,5,8,0:3:0:0:
162,272,237580,1,8,0:3:0:0:
118,290,237653,1,8,0:3:0:0:
76,309,237726,1,8,0:3:0:0:
37,333,237800,2,0,P|14:318|5:289,1,45,14|8,0:1|0:3,0:0:0:0:
119,94,237946,5,8,0:3:0:0:
134,127,238019,1,8,0:3:0:0:
126,151,238092,1,8,0:3:0:0:
115,162,238165,1,8,0:3:0:0:
103,169,238239,5,14,0:1:0:0:
138,133,238312,1,8,0:3:0:0:
186,132,238385,1,8,0:3:0:0:
233,161,238458,1,8,0:3:0:0:
252,211,238531,1,14,0:1:0:0:
289,250,238605,1,8,0:3:0:0:
343,253,238678,1,8,0:3:0:0:
387,218,238751,1,8,0:3:0:0:
384,165,238824,5,14,0:1:0:0:
335,192,238897,1,8,0:3:0:0:
317,244,238970,1,8,0:3:0:0:
337,295,239044,1,8,0:3:0:0:
388,318,239117,1,8,0:3:0:0:
444,307,239190,1,8,0:3:0:0:
472,263,239263,2,0,B|479:240|479:240|464:217,1,45,14|8,0:1|0:3,0:0:0:0:
306,116,239409,5,8,0:3:0:0:
306,116,239483,1,8,0:3:0:0:
306,116,239556,2,0,L|292:64,1,45,8|8,0:3|0:3,0:0:0:0:
390,4,239702,2,0,L|379:48,1,45,14|8,0:1|0:3,0:0:0:0:
221,177,239848,5,8,0:3:0:0:
183,218,239922,1,8,0:3:0:0:
130,215,239995,1,8,0:3:0:0:
92,175,240068,1,8,0:3:0:0:
89,124,240141,2,0,L|147:104,1,45,14|8,0:1|0:3,0:0:0:0:
314,232,240287,5,8,0:3:0:0:
354,247,240361,1,8,0:3:0:0:
397,268,240434,1,8,0:3:0:0:
438,291,240507,1,8,0:3:0:0:
486,311,240580,5,14,0:1:0:0:
458,271,240653,1,8,0:3:0:0:
408,269,240726,1,8,0:3:0:0:
372,309,240800,1,8,0:3:0:0:
358,358,240873,1,14,0:1:0:0:
307,384,240946,1,8,0:3:0:0:
250,373,241019,1,8,0:3:0:0:
246,364,241092,1,8,0:3:0:0:
242,355,241165,2,0,L|255:312,1,45,14|8,0:1|0:3,0:0:0:0:
200,150,241312,5,8,0:3:0:0:
165,110,241385,1,8,0:3:0:0:
174,57,241458,1,8,0:3:0:0:
212,26,241531,1,8,0:3:0:0:
267,29,241605,1,14,0:1:0:0:
303,71,241678,1,8,0:3:0:0:
312,118,241751,1,8,0:3:0:0:
344,157,241824,1,8,0:3:0:0:
396,161,241897,1,8,0:3:0:0:
434,118,241970,1,8,0:3:0:0:
411,49,242044,5,10,0:2:0:0:
48,232,242190,1,14,0:1:0:0:
