osu file format v14

[General]
AudioFilename: audio.mp3
AudioLeadIn: 0
PreviewTime: 191336
Countdown: 0
SampleSet: Soft
StackLeniency: 0.7
Mode: 0
LetterboxInBreaks: 0
WidescreenStoryboard: 1

[Editor]
Bookmarks: 242346
DistanceSpacing: 1.3
BeatDivisor: 4
GridSize: 32
TimelineZoom: 3.499999

[Metadata]
Title:Yakudou
TitleUnicode:躍動
Artist:Sakamoto Maaya
ArtistUnicode:坂本真綾
Creator:Big Sis
Version:Asagi's Hard
Source:Fate/Grand Order -Cosmos in the Lostbelt-
Tags:midorijeon flame haze shirahane suou asagi TYPE-MOON FGO PROJECT f/go part arc 2 opening op japanese jpop pop j-pop rock jrock j-rock videogame video game vaporfly red crewmate god haachama
BeatmapID:3849802
BeatmapSetID:1868330

[Difficulty]
HPDrainRate:5
CircleSize:3.7
OverallDifficulty:6.3
ApproachRate:8
SliderMultiplier:1.45
SliderTickRate:1

[Events]
//Background and Video events
0,0,"bg1.jpg",0,0
//Break Periods
2,192195,205294
//Storyboard Layer 0 (Background)
//Storyboard Layer 1 (Fail)
//Storyboard Layer 2 (Pass)
//Storyboard Layer 3 (Foreground)
//Storyboard Layer 4 (Overlay)
//Storyboard Sound Samples

[TimingPoints]
1166,292.682926829268,4,2,2,40,1,0
1751,-166.666666666667,4,2,2,50,0,0
9726,-166.666666666667,4,2,2,50,0,0
9800,-166.666666666667,4,2,2,50,0,0
18726,-166.666666666667,4,2,2,40,0,0
20483,-125,4,2,2,60,0,0
21068,-100,4,2,1,75,0,0
21141,-100,4,2,2,75,0,0
21361,-100,4,2,6,75,0,0
21434,-100,4,2,2,75,0,0
21653,-100,4,2,6,75,0,0
21726,-100,4,2,2,75,0,0
21946,-100,4,2,6,75,0,0
22019,-100,4,2,2,75,0,0
22239,-100,4,2,6,75,0,0
22312,-100,4,2,2,75,0,0
22531,-100,4,2,6,75,0,0
22604,-100,4,2,2,75,0,0
22824,-100,4,2,6,75,0,0
22897,-100,4,2,2,75,0,0
23117,-100,4,2,6,75,0,0
23190,-100,4,2,2,75,0,0
23409,-100,4,2,3,75,0,0
23702,-100,4,2,6,75,0,0
23775,-100,4,2,2,75,0,0
23995,-100,4,2,6,75,0,0
24068,-100,4,2,2,75,0,0
24287,-100,4,2,7,75,0,0
24360,-100,4,2,2,75,0,0
24580,-100,4,2,7,75,0,0
24653,-100,4,2,2,75,0,0
24873,-100,4,2,6,75,0,0
24946,-100,4,2,2,75,0,0
25165,-100,4,2,6,75,0,0
25238,-100,4,2,2,75,0,0
25458,-100,4,2,6,75,0,0
25531,-100,4,2,2,75,0,0
26044,-100,4,2,6,75,0,0
26117,-100,4,2,2,75,0,0
26336,-100,4,2,6,75,0,0
26409,-100,4,2,2,75,0,0
26629,-100,4,2,6,75,0,0
26702,-100,4,2,2,75,0,0
26922,-100,4,2,7,75,0,0
26995,-100,4,2,2,75,0,0
27214,-100,4,2,6,75,0,0
27287,-100,4,2,2,75,0,0
27507,-100,4,2,6,75,0,0
27580,-100,4,2,2,75,0,0
27800,-100,4,2,6,75,0,0
27873,-100,4,2,2,75,0,0
28092,-100,4,2,3,75,0,0
28385,-100,4,2,6,75,0,0
28458,-100,4,2,2,75,0,0
28678,-100,4,2,6,75,0,0
28751,-100,4,2,2,75,0,0
28970,-100,4,2,6,75,0,0
29043,-100,4,2,2,75,0,0
29263,-100,4,2,7,75,0,0
29336,-100,4,2,2,75,0,0
29556,-100,4,2,6,75,0,0
29629,-100,4,2,2,75,0,0
30726,-100,4,2,6,75,0,0
30799,-100,4,2,2,75,0,0
31019,-100,4,2,6,75,0,0
31092,-100,4,2,2,75,0,0
31312,-100,4,2,6,75,0,0
31385,-100,4,2,2,75,0,0
31605,-100,4,2,6,75,0,0
31678,-100,4,2,2,75,0,0
31897,-100,4,2,6,75,0,0
31970,-100,4,2,2,75,0,0
32190,-100,4,2,6,75,0,0
32263,-100,4,2,2,75,0,0
32483,-100,4,2,6,75,0,0
32556,-100,4,2,2,75,0,0
32775,-100,4,2,3,75,0,0
33068,-100,4,2,6,75,0,0
33141,-100,4,2,2,75,0,0
33361,-100,4,2,6,75,0,0
33434,-100,4,2,2,75,0,0
33653,-100,4,2,7,75,0,0
33726,-100,4,2,2,75,0,0
33946,-100,4,2,6,75,0,0
34019,-100,4,2,2,75,0,0
34239,-100,4,2,6,75,0,0
34312,-100,4,2,2,75,0,0
34531,-100,4,2,6,75,0,0
34604,-100,4,2,2,75,0,0
34824,-100,4,2,6,75,0,0
34897,-100,4,2,2,75,0,0
35409,-100,4,2,6,75,0,0
35482,-100,4,2,2,75,0,0
35702,-100,4,2,6,75,0,0
35775,-100,4,2,2,75,0,0
35995,-100,4,2,6,75,0,0
36068,-100,4,2,2,75,0,0
36287,-100,4,2,7,75,0,0
36360,-100,4,2,2,75,0,0
36580,-100,4,2,6,75,0,0
36653,-100,4,2,2,75,0,0
36873,-100,4,2,6,75,0,0
36946,-100,4,2,2,75,0,0
37165,-100,4,2,6,75,0,0
37238,-100,4,2,2,75,0,0
37458,-100,4,2,3,75,0,0
37751,-100,4,2,6,75,0,0
37824,-100,4,2,2,75,0,0
38044,-100,4,2,6,75,0,0
38117,-100,4,2,2,75,0,0
38336,-100,4,2,7,75,0,0
38409,-100,4,2,2,75,0,0
38629,-100,4,2,7,75,0,0
38702,-100,4,2,2,75,0,0
38922,-100,4,2,6,75,0,0
38995,-100,4,2,2,75,0,0
39214,-100,4,2,6,75,0,0
39287,-100,4,2,2,75,0,0
39653,-100,4,2,3,75,0,0
39800,-125,4,2,1,60,0,0
39873,-125,4,2,2,60,0,0
40092,-125,4,2,8,60,0,0
40165,-125,4,2,2,60,0,0
40385,-125,4,2,8,60,0,0
40458,-125,4,2,2,60,0,0
40678,-125,4,2,8,60,0,0
40751,-125,4,2,2,60,0,0
40824,-125,4,2,12,60,0,0
40897,-125,4,2,2,60,0,0
40970,-125,4,2,8,60,0,0
41043,-125,4,2,2,60,0,0
41263,-125,4,2,12,60,0,0
41336,-125,4,2,2,60,0,0
41556,-125,4,2,8,60,0,0
41629,-125,4,2,2,60,0,0
41848,-125,4,2,8,60,0,0
41921,-125,4,2,2,60,0,0
42434,-125,4,2,8,60,0,0
42507,-125,4,2,2,60,0,0
42726,-125,4,2,8,60,0,0
42799,-125,4,2,2,60,0,0
43019,-125,4,2,9,60,0,0
43092,-125,4,2,2,60,0,0
43165,-125,4,2,12,60,0,0
43238,-125,4,2,2,60,0,0
43312,-125,4,2,8,60,0,0
43385,-125,4,2,2,60,0,0
43605,-125,4,2,12,60,0,0
43678,-125,4,2,2,60,0,0
43897,-125,4,2,8,60,0,0
43970,-125,4,2,2,60,0,0
44190,-125,4,2,8,60,0,0
44263,-125,4,2,2,60,0,0
44775,-125,4,2,8,60,0,0
44848,-125,4,2,2,60,0,0
45067,-125,4,2,8,60,0,0
45140,-125,4,2,2,60,0,0
45360,-125,4,2,9,60,0,0
45433,-125,4,2,2,60,0,0
45506,-125,4,2,12,60,0,0
45579,-125,4,2,2,60,0,0
45653,-125,4,2,9,60,0,0
45726,-125,4,2,2,60,0,0
45946,-125,4,2,12,60,0,0
46019,-125,4,2,2,60,0,0
46238,-125,4,2,8,60,0,0
46311,-125,4,2,2,60,0,0
46531,-125,4,2,8,60,0,0
46604,-125,4,2,2,60,0,0
47117,-125,4,2,8,60,0,0
47190,-125,4,2,2,60,0,0
47409,-125,4,2,8,60,0,0
47482,-125,4,2,2,60,0,0
47702,-125,4,2,8,60,0,0
47775,-125,4,2,2,60,0,0
47848,-125,4,2,12,60,0,0
47921,-125,4,2,2,60,0,0
47995,-125,4,2,8,60,0,0
48068,-125,4,2,2,60,0,0
48288,-125,4,2,12,60,0,0
48361,-125,4,2,2,60,0,0
48580,-125,4,2,8,60,0,0
48653,-125,4,2,2,60,0,0
48873,-125,4,2,8,60,0,0
48946,-125,4,2,2,60,0,0
49458,-125,4,2,8,60,0,0
49531,-125,4,2,2,60,0,0
49750,-125,4,2,8,60,0,0
49823,-125,4,2,2,60,0,0
50043,-125,4,2,8,60,0,0
50116,-125,4,2,2,60,0,0
50189,-125,4,2,12,60,0,0
50262,-125,4,2,2,60,0,0
50336,-125,4,2,8,60,0,0
50409,-125,4,2,2,60,0,0
50629,-125,4,2,12,60,0,0
50702,-125,4,2,2,60,0,0
50921,-125,4,2,8,60,0,0
50994,-125,4,2,2,60,0,0
51214,-125,4,2,8,60,0,0
51287,-125,4,2,2,60,0,0
51800,-125,4,2,8,60,0,0
51873,-125,4,2,2,60,0,0
52092,-125,4,2,8,60,0,0
52165,-125,4,2,2,60,0,0
52385,-125,4,2,9,60,0,0
52458,-125,4,2,2,60,0,0
52531,-125,4,2,12,60,0,0
52604,-125,4,2,2,60,0,0
52678,-125,4,2,8,60,0,0
52751,-125,4,2,2,60,0,0
52971,-125,4,2,12,60,0,0
53044,-125,4,2,2,60,0,0
53263,-125,4,2,8,60,0,0
53336,-125,4,2,2,60,0,0
53556,-125,4,2,8,60,0,0
53629,-125,4,2,2,60,0,0
54141,-125,4,2,8,60,0,0
54214,-125,4,2,2,60,0,0
54433,-125,4,2,8,60,0,0
54506,-125,4,2,2,60,0,0
54726,-125,4,2,9,60,0,0
54799,-125,4,2,2,60,0,0
54872,-125,4,2,12,60,0,0
54945,-125,4,2,2,60,0,0
55019,-125,4,2,9,60,0,0
55092,-125,4,2,2,60,0,0
55312,-125,4,2,12,60,0,0
55385,-125,4,2,2,60,0,0
55604,-125,4,2,8,60,0,0
55677,-125,4,2,2,60,0,0
55897,-125,4,2,8,60,0,0
55970,-125,4,2,2,60,0,0
56483,-125,4,2,8,60,0,0
56556,-125,4,2,2,60,0,0
56775,-125,4,2,8,60,0,0
56848,-125,4,2,2,60,0,0
57068,-125,4,2,8,60,0,0
57141,-125,4,2,2,60,0,0
57214,-125,4,2,12,60,0,0
57287,-125,4,2,2,60,0,0
57361,-125,4,2,8,60,0,0
57434,-125,4,2,2,60,0,0
57654,-125,4,2,6,60,0,0
57727,-125,4,2,2,60,0,0
57946,-125,4,2,6,60,0,0
58019,-125,4,2,2,60,0,0
58239,-125,4,2,6,60,0,0
58312,-125,4,2,2,60,0,0
58531,-166.666666666667,4,2,1,60,0,0
58605,-166.666666666667,4,2,2,50,0,0
67897,-111.111111111111,4,2,1,60,0,0
67970,-111.111111111111,4,2,2,60,0,0
68190,-111.111111111111,4,2,6,60,0,0
68263,-111.111111111111,4,2,2,60,0,0
68483,-111.111111111111,4,2,6,60,0,0
68556,-111.111111111111,4,2,2,60,0,0
68775,-111.111111111111,4,2,6,60,0,0
68848,-111.111111111111,4,2,2,60,0,0
69068,-111.111111111111,4,2,6,60,0,0
69141,-111.111111111111,4,2,2,60,0,0
69361,-111.111111111111,4,2,6,60,0,0
69434,-111.111111111111,4,2,2,60,0,0
69653,-111.111111111111,4,2,6,60,0,0
69726,-111.111111111111,4,2,2,60,0,0
69946,-111.111111111111,4,2,6,60,0,0
70019,-111.111111111111,4,2,2,60,0,0
70239,-111.111111111111,4,2,3,60,0,0
70531,-111.111111111111,4,2,6,60,0,0
70604,-111.111111111111,4,2,2,60,0,0
70824,-111.111111111111,4,2,6,60,0,0
70897,-111.111111111111,4,2,2,60,0,0
71117,-111.111111111111,4,2,7,60,0,0
71190,-111.111111111111,4,2,2,60,0,0
71409,-111.111111111111,4,2,6,60,0,0
71482,-111.111111111111,4,2,2,60,0,0
71702,-111.111111111111,4,2,6,60,0,0
71775,-111.111111111111,4,2,2,60,0,0
71995,-111.111111111111,4,2,6,60,0,0
72068,-111.111111111111,4,2,2,60,0,0
72287,-111.111111111111,4,2,6,60,0,0
72360,-111.111111111111,4,2,2,60,0,0
72873,-111.111111111111,4,2,6,60,0,0
72946,-111.111111111111,4,2,2,60,0,0
73165,-111.111111111111,4,2,6,60,0,0
73238,-111.111111111111,4,2,2,60,0,0
73458,-111.111111111111,4,2,7,60,0,0
73531,-111.111111111111,4,2,2,60,0,0
73751,-111.111111111111,4,2,7,60,0,0
73824,-111.111111111111,4,2,2,60,0,0
74044,-111.111111111111,4,2,6,60,0,0
74117,-111.111111111111,4,2,2,60,0,0
74336,-111.111111111111,4,2,6,60,0,0
74409,-111.111111111111,4,2,2,60,0,0
74629,-111.111111111111,4,2,6,60,0,0
74702,-111.111111111111,4,2,2,60,0,0
74922,-111.111111111111,4,2,1,60,0,0
74995,-111.111111111111,4,2,2,60,0,0
76678,-111.111111111111,4,2,2,60,0,0
76970,-90.9090909090908,4,2,2,60,0,0
77117,-90.9090909090908,4,2,1,80,0,0
77190,-90.9090909090908,4,2,2,80,0,0
77556,-90.9090909090908,4,2,6,80,0,0
77629,-90.9090909090908,4,2,2,80,0,0
77848,-90.9090909090908,4,2,6,80,0,0
77921,-90.9090909090908,4,2,2,80,0,0
78141,-90.9090909090908,4,2,6,80,0,0
78214,-90.9090909090908,4,2,2,80,0,0
78434,-90.9090909090908,4,2,6,80,0,0
78507,-90.9090909090908,4,2,2,80,0,0
78726,-90.9090909090908,4,2,6,80,0,0
78799,-90.9090909090908,4,2,2,80,0,0
79019,-90.9090909090908,4,2,6,80,0,0
79092,-90.9090909090908,4,2,2,80,0,0
79312,-90.9090909090908,4,2,6,80,0,0
79385,-90.9090909090908,4,2,2,80,0,0
79458,-90.9090909090908,4,2,3,80,0,0
79897,-90.9090909090908,4,2,6,80,0,0
79970,-90.9090909090908,4,2,2,80,0,0
80190,-90.9090909090908,4,2,6,80,0,0
80263,-90.9090909090908,4,2,2,80,0,0
80483,-90.9090909090908,4,2,6,80,0,0
80556,-90.9090909090908,4,2,2,80,0,0
80775,-90.9090909090908,4,2,6,80,0,0
80848,-90.9090909090908,4,2,2,80,0,0
81068,-90.9090909090908,4,2,6,80,0,0
81141,-90.9090909090908,4,2,2,80,0,0
81361,-90.9090909090908,4,2,6,80,0,0
81434,-90.9090909090908,4,2,2,80,0,0
81653,-90.9090909090908,4,2,6,80,0,0
81726,-90.9090909090908,4,2,2,80,0,0
82239,-90.9090909090908,4,2,6,80,0,0
82312,-90.9090909090908,4,2,2,80,0,0
82531,-90.9090909090908,4,2,6,80,0,0
82604,-90.9090909090908,4,2,2,80,0,0
82824,-90.9090909090908,4,2,6,80,0,0
82897,-90.9090909090908,4,2,2,80,0,0
83117,-90.9090909090908,4,2,6,80,0,0
83190,-90.9090909090908,4,2,2,80,0,0
83409,-90.9090909090908,4,2,6,80,0,0
83482,-90.9090909090908,4,2,2,80,0,0
83702,-90.9090909090908,4,2,6,80,0,0
83775,-90.9090909090908,4,2,2,80,0,0
83995,-90.9090909090908,4,2,6,80,0,0
84068,-90.9090909090908,4,2,2,80,0,0
84287,-90.9090909090908,4,2,7,80,0,0
84360,-90.9090909090908,4,2,2,80,0,0
84580,-90.9090909090908,4,2,6,80,0,0
84653,-90.9090909090908,4,2,2,80,0,0
84873,-90.9090909090908,4,2,6,80,0,0
84946,-90.9090909090908,4,2,2,80,0,0
85165,-90.9090909090908,4,2,6,80,0,0
85238,-90.9090909090908,4,2,2,80,0,0
85458,-90.9090909090908,4,2,6,80,0,0
85531,-90.9090909090908,4,2,2,80,0,0
85751,-90.9090909090908,4,2,6,80,0,0
85824,-90.9090909090908,4,2,2,80,0,0
86044,-90.9090909090908,4,2,5,80,0,0
86629,-90.9090909090908,4,2,3,80,0,0
86922,-90.9090909090908,4,2,6,80,0,0
86995,-90.9090909090908,4,2,2,80,0,0
87214,-90.9090909090908,4,2,6,80,0,0
87287,-90.9090909090908,4,2,2,80,0,0
87507,-90.9090909090908,4,2,6,80,0,0
87580,-90.9090909090908,4,2,2,80,0,0
87800,-90.9090909090908,4,2,6,80,0,0
87873,-90.9090909090908,4,2,2,80,0,0
88092,-90.9090909090908,4,2,6,80,0,0
88165,-90.9090909090908,4,2,2,80,0,0
88385,-90.9090909090908,4,2,6,80,0,0
88458,-90.9090909090908,4,2,2,80,0,0
88678,-90.9090909090908,4,2,6,80,0,0
88751,-90.9090909090908,4,2,2,80,0,0
89263,-90.9090909090908,4,2,6,80,0,0
89336,-90.9090909090908,4,2,2,80,0,0
89556,-90.9090909090908,4,2,6,80,0,0
89629,-90.9090909090908,4,2,2,80,0,0
89848,-90.9090909090908,4,2,6,80,0,0
89921,-90.9090909090908,4,2,2,80,0,0
90141,-90.9090909090908,4,2,6,80,0,0
90214,-90.9090909090908,4,2,2,80,0,0
90434,-90.9090909090908,4,2,6,80,0,0
90507,-90.9090909090908,4,2,2,80,0,0
90726,-90.9090909090908,4,2,6,80,0,0
90799,-90.9090909090908,4,2,2,80,0,0
91019,-90.9090909090908,4,2,6,80,0,0
91092,-90.9090909090908,4,2,2,80,0,0
91312,-90.9090909090908,4,2,3,80,0,0
91605,-90.9090909090908,4,2,6,80,0,0
91678,-90.9090909090908,4,2,2,80,0,0
91897,-90.9090909090908,4,2,6,80,0,0
91970,-90.9090909090908,4,2,2,80,0,0
92190,-90.9090909090908,4,2,7,80,0,0
92263,-90.9090909090908,4,2,2,80,0,0
92483,-90.9090909090908,4,2,6,80,0,0
92556,-90.9090909090908,4,2,2,80,0,0
92775,-90.9090909090908,4,2,6,80,0,0
92848,-90.9090909090908,4,2,2,80,0,0
93068,-90.9090909090908,4,2,6,80,0,0
93141,-90.9090909090908,4,2,2,80,0,0
93361,-90.9090909090908,4,2,6,80,0,0
93434,-90.9090909090908,4,2,2,80,0,0
93946,-90.9090909090908,4,2,6,80,0,0
94019,-90.9090909090908,4,2,2,80,0,0
94239,-90.9090909090908,4,2,6,80,0,0
94312,-90.9090909090908,4,2,2,80,0,0
94531,-90.9090909090908,4,2,6,80,0,0
94604,-90.9090909090908,4,2,2,80,0,0
94824,-90.9090909090908,4,2,7,80,0,0
94897,-90.9090909090908,4,2,2,80,0,0
95117,-90.9090909090908,4,2,6,80,0,0
95190,-90.9090909090908,4,2,2,80,0,0
95409,-90.9090909090908,4,2,5,80,0,0
95995,-90.9090909090908,4,2,1,75,0,0
96068,-90.9090909090908,4,2,2,75,0,0
96287,-90.9090909090908,4,2,6,75,0,0
96361,-90.9090909090908,4,2,2,75,0,0
96580,-90.9090909090908,4,2,6,75,0,0
96654,-90.9090909090908,4,2,2,75,0,0
96873,-90.9090909090908,4,2,7,75,0,0
96947,-90.9090909090908,4,2,2,75,0,0
97165,-90.9090909090908,4,2,6,75,0,0
97239,-90.9090909090908,4,2,2,75,0,0
97458,-90.9090909090908,4,2,6,75,0,0
97532,-90.9090909090908,4,2,2,75,0,0
97751,-90.9090909090908,4,2,6,75,0,0
97825,-90.9090909090908,4,2,2,75,0,0
98044,-90.9090909090908,4,2,6,75,0,0
98118,-90.9090909090908,4,2,2,75,0,0
98336,-90.9090909090908,4,2,3,75,0,0
98629,-90.9090909090908,4,2,6,75,0,0
98703,-90.9090909090908,4,2,2,75,0,0
98922,-90.9090909090908,4,2,6,75,0,0
98996,-90.9090909090908,4,2,2,75,0,0
99214,-90.9090909090908,4,2,7,75,0,0
99288,-90.9090909090908,4,2,2,75,0,0
99507,-90.9090909090908,4,2,6,75,0,0
99581,-90.9090909090908,4,2,2,75,0,0
99800,-90.9090909090908,4,2,6,75,0,0
99874,-90.9090909090908,4,2,2,75,0,0
100092,-90.9090909090908,4,2,6,75,0,0
100166,-90.9090909090908,4,2,2,75,0,0
100385,-90.9090909090908,4,2,6,75,0,0
100459,-90.9090909090908,4,2,2,75,0,0
100678,-90.9090909090908,4,2,3,75,0,0
100970,-90.9090909090908,4,2,6,75,0,0
101044,-90.9090909090908,4,2,2,75,0,0
101263,-90.9090909090908,4,2,6,75,0,0
101337,-90.9090909090908,4,2,2,75,0,0
101556,-90.9090909090908,4,2,7,75,0,0
101630,-90.9090909090908,4,2,2,75,0,0
101848,-90.9090909090908,4,2,6,75,0,0
101922,-90.9090909090908,4,2,2,75,0,0
102141,-90.9090909090908,4,2,6,75,0,0
102215,-90.9090909090908,4,2,2,75,0,0
102434,-90.9090909090908,4,2,6,75,0,0
102508,-90.9090909090908,4,2,2,75,0,0
102727,-90.9090909090908,4,2,6,75,0,0
102801,-90.9090909090908,4,2,2,75,0,0
103312,-90.9090909090908,4,2,6,75,0,0
103386,-90.9090909090908,4,2,2,75,0,0
103605,-90.9090909090908,4,2,6,75,0,0
103679,-90.9090909090908,4,2,2,75,0,0
103898,-90.9090909090908,4,2,7,75,0,0
103972,-90.9090909090908,4,2,2,75,0,0
104190,-90.9090909090908,4,2,6,75,0,0
104264,-90.9090909090908,4,2,2,75,0,0
104483,-90.9090909090908,4,2,6,75,0,0
104557,-90.9090909090908,4,2,2,75,0,0
105361,-90.9090909090908,4,2,3,75,0,0
105653,-90.9090909090908,4,2,6,75,0,0
105727,-90.9090909090908,4,2,2,75,0,0
105946,-90.9090909090908,4,2,6,75,0,0
106020,-90.9090909090908,4,2,2,75,0,0
106239,-90.9090909090908,4,2,7,75,0,0
106313,-90.9090909090908,4,2,2,75,0,0
106531,-90.9090909090908,4,2,6,75,0,0
106605,-90.9090909090908,4,2,2,75,0,0
106824,-90.9090909090908,4,2,6,75,0,0
106898,-90.9090909090908,4,2,2,75,0,0
107117,-90.9090909090908,4,2,6,75,0,0
107191,-90.9090909090908,4,2,2,75,0,0
107410,-90.9090909090908,4,2,6,75,0,0
107484,-90.9090909090908,4,2,2,75,0,0
107995,-90.9090909090908,4,2,6,75,0,0
108069,-90.9090909090908,4,2,2,75,0,0
108288,-90.9090909090908,4,2,6,75,0,0
108362,-90.9090909090908,4,2,2,75,0,0
108581,-90.9090909090908,4,2,7,75,0,0
108655,-90.9090909090908,4,2,2,75,0,0
108873,-90.9090909090908,4,2,6,75,0,0
108947,-90.9090909090908,4,2,2,75,0,0
109166,-90.9090909090908,4,2,6,75,0,0
109240,-90.9090909090908,4,2,2,75,0,0
109459,-90.9090909090908,4,2,6,75,0,0
109533,-90.9090909090908,4,2,2,75,0,0
109752,-90.9090909090908,4,2,6,75,0,0
109826,-90.9090909090908,4,2,2,75,0,0
110044,-90.9090909090908,4,2,3,75,0,0
110336,-90.9090909090908,4,2,6,75,0,0
110410,-90.9090909090908,4,2,2,75,0,0
110629,-90.9090909090908,4,2,6,75,0,0
110703,-90.9090909090908,4,2,2,75,0,0
110922,-90.9090909090908,4,2,7,75,0,0
110996,-90.9090909090908,4,2,2,75,0,0
111214,-90.9090909090908,4,2,6,75,0,0
111288,-90.9090909090908,4,2,2,75,0,0
111507,-90.9090909090908,4,2,6,75,0,0
111581,-90.9090909090908,4,2,2,75,0,0
111800,-90.9090909090908,4,2,6,75,0,0
111874,-90.9090909090908,4,2,2,75,0,0
112093,-90.9090909090908,4,2,6,75,0,0
112167,-90.9090909090908,4,2,2,75,0,0
112385,-90.9090909090908,4,2,3,75,0,0
112678,-90.9090909090908,4,2,6,75,0,0
112752,-90.9090909090908,4,2,2,75,0,0
112971,-90.9090909090908,4,2,6,75,0,0
113045,-90.9090909090908,4,2,2,75,0,0
113264,-90.9090909090908,4,2,7,75,0,0
113338,-90.9090909090908,4,2,2,75,0,0
113556,-90.9090909090908,4,2,6,75,0,0
113630,-90.9090909090908,4,2,2,75,0,0
113849,-90.9090909090908,4,2,6,75,0,0
113923,-90.9090909090908,4,2,2,75,0,0
114580,-125,4,2,1,65,0,0
114653,-125,4,2,2,65,0,0
115019,-125,4,2,8,65,0,0
115092,-125,4,2,2,65,0,0
115312,-125,4,2,8,65,0,0
115385,-125,4,2,2,65,0,0
115605,-125,4,2,9,65,0,0
115678,-125,4,2,2,65,0,0
115751,-125,4,2,12,65,0,0
115824,-125,4,2,2,65,0,0
115897,-125,4,2,8,65,0,0
115970,-125,4,2,2,65,0,0
116190,-125,4,2,12,65,0,0
116263,-125,4,2,2,65,0,0
116483,-125,4,2,8,65,0,0
116556,-125,4,2,2,65,0,0
116775,-125,4,2,8,65,0,0
116848,-125,4,2,2,65,0,0
117361,-125,4,2,8,65,0,0
117434,-125,4,2,2,65,0,0
117654,-125,4,2,8,65,0,0
117727,-125,4,2,2,65,0,0
117947,-125,4,2,8,65,0,0
118020,-125,4,2,2,65,0,0
118093,-125,4,2,12,65,0,0
118166,-125,4,2,2,65,0,0
118239,-125,4,2,9,65,0,0
118312,-125,4,2,2,65,0,0
118532,-125,4,2,12,65,0,0
118605,-125,4,2,2,65,0,0
118825,-125,4,2,8,65,0,0
118898,-125,4,2,2,65,0,0
119117,-125,4,2,8,65,0,0
119190,-125,4,2,2,65,0,0
119702,-125,4,2,8,65,0,0
119775,-125,4,2,2,65,0,0
119995,-125,4,2,8,65,0,0
120068,-125,4,2,2,65,0,0
120288,-125,4,2,9,65,0,0
120361,-125,4,2,2,65,0,0
120434,-125,4,2,12,65,0,0
120507,-125,4,2,2,65,0,0
120580,-125,4,2,8,65,0,0
120653,-125,4,2,2,65,0,0
120873,-125,4,2,12,65,0,0
120946,-125,4,2,2,65,0,0
121166,-125,4,2,8,65,0,0
121239,-125,4,2,2,65,0,0
121458,-125,4,2,8,65,0,0
121531,-125,4,2,2,65,0,0
122044,-125,4,2,8,65,0,0
122117,-125,4,2,2,65,0,0
122337,-125,4,2,8,65,0,0
122410,-125,4,2,2,65,0,0
122630,-125,4,2,8,65,0,0
122703,-125,4,2,2,65,0,0
122776,-125,4,2,12,65,0,0
122849,-125,4,2,2,65,0,0
122922,-125,4,2,9,65,0,0
122995,-125,4,2,2,65,0,0
123215,-125,4,2,12,65,0,0
123288,-125,4,2,2,65,0,0
123508,-125,4,2,8,65,0,0
123581,-125,4,2,2,65,0,0
123800,-125,4,2,8,65,0,0
123873,-125,4,2,2,65,0,0
124385,-125,4,2,8,65,0,0
124458,-125,4,2,2,65,0,0
124678,-125,4,2,8,65,0,0
124751,-125,4,2,2,65,0,0
124971,-125,4,2,9,65,0,0
125044,-125,4,2,2,65,0,0
125117,-125,4,2,12,65,0,0
125190,-125,4,2,2,65,0,0
125263,-125,4,2,8,65,0,0
125336,-125,4,2,2,65,0,0
125556,-125,4,2,12,65,0,0
125629,-125,4,2,2,65,0,0
125849,-125,4,2,8,65,0,0
125922,-125,4,2,2,65,0,0
126141,-125,4,2,8,65,0,0
126214,-125,4,2,2,65,0,0
126726,-125,4,2,8,65,0,0
126799,-125,4,2,2,65,0,0
127019,-125,4,2,8,65,0,0
127092,-125,4,2,2,65,0,0
127312,-125,4,2,8,65,0,0
127385,-125,4,2,2,65,0,0
127458,-125,4,2,12,65,0,0
127531,-125,4,2,2,65,0,0
127604,-125,4,2,9,65,0,0
127677,-125,4,2,2,65,0,0
127897,-125,4,2,12,65,0,0
127970,-125,4,2,2,65,0,0
128190,-125,4,2,8,65,0,0
128263,-125,4,2,2,65,0,0
128482,-125,4,2,8,65,0,0
128555,-125,4,2,2,65,0,0
129068,-125,4,2,8,65,0,0
129141,-125,4,2,2,65,0,0
129361,-125,4,2,8,65,0,0
129434,-125,4,2,2,65,0,0
129654,-125,4,2,9,65,0,0
129727,-125,4,2,2,65,0,0
129800,-125,4,2,12,65,0,0
129873,-125,4,2,2,65,0,0
129946,-125,4,2,8,65,0,0
130019,-125,4,2,2,65,0,0
130239,-125,4,2,12,65,0,0
130312,-125,4,2,2,65,0,0
130532,-125,4,2,8,65,0,0
130605,-125,4,2,2,65,0,0
130824,-125,4,2,8,65,0,0
130897,-125,4,2,2,65,0,0
131409,-125,4,2,8,65,0,0
131482,-125,4,2,2,65,0,0
131702,-125,4,2,8,65,0,0
131775,-125,4,2,2,65,0,0
131995,-125,4,2,8,65,0,0
132068,-125,4,2,2,65,0,0
132141,-125,4,2,12,65,0,0
132214,-125,4,2,2,65,0,0
132287,-125,4,2,9,65,0,0
132360,-125,4,2,2,65,0,0
132580,-125,4,2,6,65,0,0
132653,-125,4,2,2,65,0,0
132873,-125,4,2,6,65,0,0
132946,-125,4,2,2,65,0,0
133165,-83.3333333333333,4,2,6,65,0,0
133238,-83.3333333333333,4,2,2,65,0,0
133458,-166.666666666667,4,2,1,65,0,0
133531,-166.666666666667,4,2,2,50,0,0
142824,-111.111111111111,4,2,1,65,0,0
142897,-111.111111111111,4,2,2,65,0,0
143117,-111.111111111111,4,2,6,65,0,0
143190,-111.111111111111,4,2,2,65,0,0
143409,-111.111111111111,4,2,6,65,0,0
143482,-111.111111111111,4,2,2,65,0,0
143702,-111.111111111111,4,2,6,65,0,0
143775,-111.111111111111,4,2,2,65,0,0
143995,-111.111111111111,4,2,6,65,0,0
144068,-111.111111111111,4,2,2,65,0,0
144287,-111.111111111111,4,2,6,65,0,0
144360,-111.111111111111,4,2,2,65,0,0
144580,-111.111111111111,4,2,6,65,0,0
144653,-111.111111111111,4,2,2,65,0,0
144873,-111.111111111111,4,2,6,65,0,0
144946,-111.111111111111,4,2,2,65,0,0
145165,-111.111111111111,4,2,3,65,0,0
145458,-111.111111111111,4,2,6,65,0,0
145531,-111.111111111111,4,2,2,65,0,0
145751,-111.111111111111,4,2,6,65,0,0
145824,-111.111111111111,4,2,2,65,0,0
146044,-111.111111111111,4,2,6,65,0,0
146117,-111.111111111111,4,2,2,65,0,0
146336,-111.111111111111,4,2,7,65,0,0
146409,-111.111111111111,4,2,2,65,0,0
146629,-111.111111111111,4,2,6,65,0,0
146702,-111.111111111111,4,2,2,65,0,0
146922,-111.111111111111,4,2,6,65,0,0
146995,-111.111111111111,4,2,2,65,0,0
147214,-111.111111111111,4,2,6,65,0,0
147287,-111.111111111111,4,2,2,65,0,0
147800,-111.111111111111,4,2,6,65,0,0
147873,-111.111111111111,4,2,2,65,0,0
148092,-111.111111111111,4,2,6,65,0,0
148165,-111.111111111111,4,2,2,65,0,0
148385,-111.111111111111,4,2,6,65,0,0
148458,-111.111111111111,4,2,2,65,0,0
148678,-111.111111111111,4,2,7,65,0,0
148751,-111.111111111111,4,2,2,65,0,0
148970,-111.111111111111,4,2,6,65,0,0
149043,-111.111111111111,4,2,2,65,0,0
149263,-111.111111111111,4,2,6,65,0,0
149336,-111.111111111111,4,2,2,65,0,0
149556,-111.111111111111,4,2,6,65,0,0
149629,-111.111111111111,4,2,2,65,0,0
149848,-111.111111111111,4,2,1,65,0,0
149922,-111.111111111111,4,2,2,50,0,0
152190,-200,4,2,2,50,0,0
153946,-142.857142857143,4,2,2,65,0,0
154385,-90.9090909090909,4,2,1,80,0,0
154458,-90.9090909090909,4,2,2,80,0,0
154824,-90.9090909090909,4,2,6,80,0,0
154897,-90.9090909090909,4,2,2,80,0,0
155116,-90.9090909090909,4,2,6,80,0,0
155189,-90.9090909090909,4,2,2,80,0,0
155409,-90.9090909090909,4,2,6,80,0,0
155482,-90.9090909090909,4,2,2,80,0,0
155702,-90.9090909090909,4,2,6,80,0,0
155775,-90.9090909090909,4,2,2,80,0,0
155994,-90.9090909090909,4,2,6,80,0,0
156067,-90.9090909090909,4,2,2,80,0,0
156287,-90.9090909090909,4,2,6,80,0,0
156360,-90.9090909090909,4,2,2,80,0,0
156580,-90.9090909090909,4,2,6,80,0,0
156653,-90.9090909090909,4,2,2,80,0,0
156726,-90.9090909090909,4,2,3,80,0,0
157165,-90.9090909090909,4,2,6,80,0,0
157238,-90.9090909090909,4,2,2,80,0,0
157458,-90.9090909090909,4,2,6,80,0,0
157531,-90.9090909090909,4,2,2,80,0,0
157751,-90.9090909090909,4,2,6,80,0,0
157824,-90.9090909090909,4,2,2,80,0,0
158043,-90.9090909090909,4,2,6,80,0,0
158116,-90.9090909090909,4,2,2,80,0,0
158336,-90.9090909090909,4,2,6,80,0,0
158409,-90.9090909090909,4,2,2,80,0,0
158629,-90.9090909090909,4,2,6,80,0,0
158702,-90.9090909090909,4,2,2,80,0,0
158921,-90.9090909090909,4,2,6,80,0,0
158994,-90.9090909090909,4,2,2,80,0,0
159507,-90.9090909090909,4,2,6,80,0,0
159580,-90.9090909090909,4,2,2,80,0,0
159799,-90.9090909090909,4,2,6,80,0,0
159872,-90.9090909090909,4,2,2,80,0,0
160092,-90.9090909090909,4,2,6,80,0,0
160165,-90.9090909090909,4,2,2,80,0,0
160385,-90.9090909090909,4,2,6,80,0,0
160458,-90.9090909090909,4,2,2,80,0,0
160677,-90.9090909090909,4,2,6,80,0,0
160750,-90.9090909090909,4,2,2,80,0,0
160970,-90.9090909090909,4,2,6,80,0,0
161043,-90.9090909090909,4,2,2,80,0,0
161263,-90.9090909090909,4,2,6,80,0,0
161336,-90.9090909090909,4,2,2,80,0,0
161555,-90.9090909090909,4,2,7,80,0,0
161628,-90.9090909090909,4,2,2,80,0,0
161848,-90.9090909090909,4,2,6,80,0,0
161921,-90.9090909090909,4,2,2,80,0,0
162141,-90.9090909090909,4,2,6,80,0,0
162214,-90.9090909090909,4,2,2,80,0,0
162433,-90.9090909090909,4,2,6,80,0,0
162506,-90.9090909090909,4,2,2,80,0,0
162726,-90.9090909090909,4,2,6,80,0,0
162799,-90.9090909090909,4,2,2,80,0,0
163019,-90.9090909090909,4,2,6,80,0,0
163092,-90.9090909090909,4,2,2,80,0,0
163312,-90.9090909090909,4,2,5,80,0,0
163897,-90.9090909090909,4,2,3,80,0,0
164190,-90.9090909090909,4,2,6,80,0,0
164263,-90.9090909090909,4,2,2,80,0,0
164482,-90.9090909090909,4,2,6,80,0,0
164555,-90.9090909090909,4,2,2,80,0,0
164775,-90.9090909090909,4,2,6,80,0,0
164848,-90.9090909090909,4,2,2,80,0,0
165068,-90.9090909090909,4,2,6,80,0,0
165141,-90.9090909090909,4,2,2,80,0,0
165360,-90.9090909090909,4,2,6,80,0,0
165433,-90.9090909090909,4,2,2,80,0,0
165653,-90.9090909090909,4,2,6,80,0,0
165726,-90.9090909090909,4,2,2,80,0,0
165946,-90.9090909090909,4,2,6,80,0,0
166019,-90.9090909090909,4,2,2,80,0,0
166531,-90.9090909090909,4,2,6,80,0,0
166604,-90.9090909090909,4,2,2,80,0,0
166824,-90.9090909090909,4,2,6,80,0,0
166897,-90.9090909090909,4,2,2,80,0,0
167116,-90.9090909090909,4,2,6,80,0,0
167189,-90.9090909090909,4,2,2,80,0,0
167409,-90.9090909090909,4,2,6,80,0,0
167482,-90.9090909090909,4,2,2,80,0,0
167702,-90.9090909090909,4,2,6,80,0,0
167775,-90.9090909090909,4,2,2,80,0,0
167994,-90.9090909090909,4,2,6,80,0,0
168067,-90.9090909090909,4,2,2,80,0,0
168287,-90.9090909090909,4,2,6,80,0,0
168360,-90.9090909090909,4,2,2,80,0,0
168580,-90.9090909090909,4,2,3,80,0,0
168873,-90.9090909090909,4,2,6,80,0,0
168946,-90.9090909090909,4,2,2,80,0,0
169165,-90.9090909090909,4,2,6,80,0,0
169238,-90.9090909090909,4,2,2,80,0,0
169458,-90.9090909090909,4,2,7,80,0,0
169531,-90.9090909090909,4,2,2,80,0,0
169751,-90.9090909090909,4,2,6,80,0,0
169824,-90.9090909090909,4,2,2,80,0,0
170043,-90.9090909090909,4,2,6,80,0,0
170116,-90.9090909090909,4,2,2,80,0,0
170336,-90.9090909090909,4,2,6,80,0,0
170409,-90.9090909090909,4,2,2,80,0,0
170629,-90.9090909090909,4,2,6,80,0,0
170702,-90.9090909090909,4,2,2,80,0,0
171214,-90.9090909090909,4,2,6,80,0,0
171287,-90.9090909090909,4,2,2,80,0,0
171507,-90.9090909090909,4,2,6,80,0,0
171580,-90.9090909090909,4,2,2,80,0,0
171799,-90.9090909090909,4,2,6,80,0,0
171872,-90.9090909090909,4,2,2,80,0,0
172092,-90.9090909090909,4,2,7,80,0,0
172165,-90.9090909090909,4,2,2,80,0,0
172385,-90.9090909090909,4,2,6,80,0,0
172458,-90.9090909090909,4,2,2,80,0,0
172677,-90.9090909090909,4,2,5,80,0,0
173263,-90.9090909090909,4,2,2,75,0,0
173556,-90.9090909090909,4,2,6,75,0,0
173629,-90.9090909090909,4,2,2,75,0,0
173848,-90.9090909090909,4,2,6,75,0,0
173921,-90.9090909090909,4,2,2,75,0,0
174141,-90.9090909090909,4,2,3,75,0,0
174434,-90.9090909090909,4,2,6,75,0,0
174507,-90.9090909090909,4,2,2,75,0,0
175312,-90.9090909090909,4,2,3,75,0,0
175458,-90.9090909090909,4,2,4,75,0,0
175605,-90.9090909090909,4,2,2,75,0,0
175897,-90.9090909090909,4,2,6,75,0,0
175970,-90.9090909090909,4,2,2,75,0,0
176190,-90.9090909090909,4,2,6,75,0,0
176263,-90.9090909090909,4,2,2,75,0,0
176483,-90.9090909090909,4,2,6,75,0,0
176556,-90.9090909090909,4,2,2,75,0,0
176775,-90.9090909090909,4,2,7,75,0,0
176848,-90.9090909090909,4,2,2,75,0,0
177068,-90.9090909090909,4,2,6,75,0,0
177141,-90.9090909090909,4,2,2,75,0,0
177361,-90.9090909090909,4,2,6,75,0,0
177434,-90.9090909090909,4,2,2,75,0,0
177653,-90.9090909090909,4,2,6,75,0,0
177726,-90.9090909090909,4,2,2,75,0,0
177946,-90.9090909090909,4,2,3,75,0,0
178239,-90.9090909090909,4,2,6,75,0,0
178312,-90.9090909090909,4,2,2,75,0,0
178531,-90.9090909090909,4,2,6,75,0,0
178604,-90.9090909090909,4,2,2,75,0,0
178824,-90.9090909090909,4,2,6,75,0,0
178897,-90.9090909090909,4,2,2,75,0,0
179117,-90.9090909090909,4,2,7,75,0,0
179190,-90.9090909090909,4,2,2,75,0,0
179409,-90.9090909090909,4,2,6,75,0,0
179482,-90.9090909090909,4,2,2,75,0,0
179702,-90.9090909090909,4,2,6,75,0,0
179775,-90.9090909090909,4,2,2,75,0,0
179995,-90.9090909090909,4,2,6,75,0,0
180068,-90.9090909090909,4,2,2,75,0,0
180580,-90.9090909090909,4,2,6,75,0,0
180653,-90.9090909090909,4,2,2,75,0,0
180873,-90.9090909090909,4,2,6,75,0,0
180946,-90.9090909090909,4,2,2,75,0,0
181165,-90.9090909090909,4,2,7,75,0,0
181238,-90.9090909090909,4,2,2,75,0,0
181458,-90.9090909090909,4,2,6,75,0,0
181531,-90.9090909090909,4,2,2,75,0,0
181751,-90.9090909090909,4,2,6,75,0,0
181824,-90.9090909090909,4,2,2,75,0,0
182629,-90.9090909090909,4,2,3,75,0,0
182922,-90.9090909090909,4,2,6,75,0,0
182995,-90.9090909090909,4,2,2,75,0,0
183214,-90.9090909090909,4,2,6,75,0,0
183287,-90.9090909090909,4,2,2,75,0,0
183507,-90.9090909090909,4,2,6,75,0,0
183580,-90.9090909090909,4,2,2,75,0,0
183800,-90.9090909090909,4,2,6,75,0,0
183873,-90.9090909090909,4,2,2,75,0,0
184092,-90.9090909090909,4,2,6,75,0,0
184165,-90.9090909090909,4,2,2,75,0,0
184385,-90.9090909090909,4,2,6,75,0,0
184458,-90.9090909090909,4,2,2,75,0,0
184678,-90.9090909090909,4,2,6,75,0,0
184751,-90.9090909090909,4,2,2,75,0,0
185263,-90.9090909090909,4,2,6,75,0,0
185336,-90.9090909090909,4,2,2,75,0,0
185556,-90.9090909090909,4,2,6,75,0,0
185629,-90.9090909090909,4,2,2,75,0,0
185848,-90.9090909090909,4,2,7,75,0,0
185921,-90.9090909090909,4,2,2,75,0,0
186141,-90.9090909090909,4,2,6,75,0,0
186214,-90.9090909090909,4,2,2,75,0,0
186434,-90.9090909090909,4,2,6,75,0,0
186507,-90.9090909090909,4,2,2,75,0,0
186726,-90.9090909090909,4,2,6,75,0,0
186799,-90.9090909090909,4,2,2,75,0,0
187019,-90.9090909090909,4,2,6,75,0,0
187092,-90.9090909090909,4,2,2,75,0,0
187312,-90.9090909090909,4,2,3,75,0,0
187605,-90.9090909090909,4,2,6,75,0,0
187678,-90.9090909090909,4,2,2,75,0,0
187897,-90.9090909090909,4,2,6,75,0,0
187970,-90.9090909090909,4,2,2,75,0,0
188190,-90.9090909090909,4,2,7,75,0,0
188263,-90.9090909090909,4,2,2,75,0,0
188483,-90.9090909090909,4,2,6,75,0,0
188556,-90.9090909090909,4,2,2,75,0,0
188775,-90.9090909090909,4,2,6,75,0,0
188848,-90.9090909090909,4,2,2,75,0,0
189068,-90.9090909090909,4,2,6,75,0,0
189141,-90.9090909090909,4,2,2,75,0,0
189361,-90.9090909090909,4,2,6,75,0,0
189434,-90.9090909090909,4,2,2,75,0,0
189653,-90.9090909090909,4,2,3,75,0,0
189946,-90.9090909090909,4,2,6,75,0,0
190019,-90.9090909090909,4,2,2,75,0,0
190239,-90.9090909090909,4,2,6,75,0,0
190312,-90.9090909090909,4,2,2,75,0,0
190531,-90.9090909090909,4,2,7,75,0,0
190604,-90.9090909090909,4,2,2,75,0,0
190824,-90.9090909090909,4,2,6,75,0,0
190897,-90.9090909090909,4,2,2,75,0,0
191117,-90.9090909090909,4,2,5,75,0,0
191702,-90.9090909090909,4,2,2,75,0,0
191800,-90.9090909090909,4,2,3,75,0,0
191897,-90.9090909090909,4,2,4,75,0,0
191995,-90.9090909090909,4,2,1,75,0,0
192068,-90.9090909090909,4,2,2,50,0,0
208385,-90.9090909090909,4,2,2,50,0,0
209556,-90.9090909090909,4,2,2,50,0,0
210141,-90.9090909090909,4,2,2,70,0,0
210580,-90.9090909090909,4,2,1,80,0,0
210653,-90.9090909090909,4,2,2,80,0,0
211019,-90.9090909090909,4,2,6,80,0,0
211092,-90.9090909090909,4,2,2,80,0,0
211311,-90.9090909090909,4,2,6,80,0,0
211384,-90.9090909090909,4,2,2,80,0,0
211604,-90.9090909090909,4,2,6,80,0,0
211677,-90.9090909090909,4,2,2,80,0,0
211897,-90.9090909090909,4,2,6,80,0,0
211970,-90.9090909090909,4,2,2,80,0,0
212189,-90.9090909090909,4,2,6,80,0,0
212262,-90.9090909090909,4,2,2,80,0,0
212482,-90.9090909090909,4,2,6,80,0,0
212555,-90.9090909090909,4,2,2,80,0,0
212775,-90.9090909090909,4,2,6,80,0,0
212848,-90.9090909090909,4,2,2,80,0,0
212921,-90.9090909090909,4,2,3,80,0,0
213360,-90.9090909090909,4,2,6,80,0,0
213433,-90.9090909090909,4,2,2,80,0,0
213653,-90.9090909090909,4,2,6,80,0,0
213726,-90.9090909090909,4,2,2,80,0,0
213946,-90.9090909090909,4,2,6,80,0,0
214019,-90.9090909090909,4,2,2,80,0,0
214238,-90.9090909090909,4,2,6,80,0,0
214311,-90.9090909090909,4,2,2,80,0,0
214531,-90.9090909090909,4,2,6,80,0,0
214604,-90.9090909090909,4,2,2,80,0,0
214824,-90.9090909090909,4,2,6,80,0,0
214897,-90.9090909090909,4,2,2,80,0,0
215116,-90.9090909090909,4,2,6,80,0,0
215189,-90.9090909090909,4,2,2,80,0,0
215702,-90.9090909090909,4,2,6,80,0,0
215775,-90.9090909090909,4,2,2,80,0,0
215994,-90.9090909090909,4,2,6,80,0,0
216067,-90.9090909090909,4,2,2,80,0,0
216287,-90.9090909090909,4,2,6,80,0,0
216360,-90.9090909090909,4,2,2,80,0,0
216580,-90.9090909090909,4,2,6,80,0,0
216653,-90.9090909090909,4,2,2,80,0,0
216872,-90.9090909090909,4,2,6,80,0,0
216945,-90.9090909090909,4,2,2,80,0,0
217165,-90.9090909090909,4,2,6,80,0,0
217238,-90.9090909090909,4,2,2,80,0,0
217458,-90.9090909090909,4,2,6,80,0,0
217531,-90.9090909090909,4,2,2,80,0,0
217750,-90.9090909090909,4,2,7,80,0,0
217823,-90.9090909090909,4,2,2,80,0,0
218043,-90.9090909090909,4,2,6,80,0,0
218116,-90.9090909090909,4,2,2,80,0,0
218336,-90.9090909090909,4,2,6,80,0,0
218409,-90.9090909090909,4,2,2,80,0,0
218628,-90.9090909090909,4,2,6,80,0,0
218701,-90.9090909090909,4,2,2,80,0,0
218921,-90.9090909090909,4,2,6,80,0,0
218994,-90.9090909090909,4,2,2,80,0,0
219214,-90.9090909090909,4,2,6,80,0,0
219287,-90.9090909090909,4,2,2,80,0,0
219507,-90.9090909090909,4,2,5,80,0,0
220092,-90.9090909090909,4,2,3,80,0,0
220385,-90.9090909090909,4,2,6,80,0,0
220458,-90.9090909090909,4,2,2,80,0,0
220677,-90.9090909090909,4,2,6,80,0,0
220750,-90.9090909090909,4,2,2,80,0,0
220970,-90.9090909090909,4,2,6,80,0,0
221043,-90.9090909090909,4,2,2,80,0,0
221263,-90.9090909090909,4,2,6,80,0,0
221336,-90.9090909090909,4,2,2,80,0,0
221555,-90.9090909090909,4,2,6,80,0,0
221628,-90.9090909090909,4,2,2,80,0,0
221848,-90.9090909090909,4,2,6,80,0,0
221921,-90.9090909090909,4,2,2,80,0,0
222141,-90.9090909090909,4,2,6,80,0,0
222214,-90.9090909090909,4,2,2,80,0,0
222726,-90.9090909090909,4,2,6,80,0,0
222799,-90.9090909090909,4,2,2,80,0,0
223019,-90.9090909090909,4,2,6,80,0,0
223092,-90.9090909090909,4,2,2,80,0,0
223311,-90.9090909090909,4,2,6,80,0,0
223384,-90.9090909090909,4,2,2,80,0,0
223604,-90.9090909090909,4,2,6,80,0,0
223677,-90.9090909090909,4,2,2,80,0,0
223897,-90.9090909090909,4,2,6,80,0,0
223970,-90.9090909090909,4,2,2,80,0,0
224189,-90.9090909090909,4,2,6,80,0,0
224262,-90.9090909090909,4,2,2,80,0,0
224482,-90.9090909090909,4,2,6,80,0,0
224555,-90.9090909090909,4,2,2,80,0,0
225068,-90.9090909090909,4,2,6,80,0,0
225141,-90.9090909090909,4,2,2,80,0,0
225361,-90.9090909090909,4,2,6,80,0,0
225434,-90.9090909090909,4,2,2,80,0,0
225653,-90.9090909090909,4,2,6,80,0,0
225726,-90.9090909090909,4,2,2,80,0,0
225800,-90.9090909090909,4,2,3,80,0,0
226239,-90.9090909090909,4,2,6,80,0,0
226312,-90.9090909090909,4,2,2,80,0,0
226531,-90.9090909090909,4,2,7,80,0,0
226604,-90.9090909090909,4,2,2,80,0,0
226678,-90.9090909090909,4,2,1,80,0,0
226824,-90.9090909090909,4,2,2,80,0,0
226970,-90.9090909090909,4,2,3,80,0,0
227117,-90.9090909090909,4,2,2,80,0,0
227409,-90.9090909090909,4,2,6,80,0,0
227482,-90.9090909090909,4,2,2,80,0,0
227702,-90.9090909090909,4,2,6,80,0,0
227775,-90.9090909090909,4,2,2,80,0,0
227995,-90.9090909090909,4,2,6,80,0,0
228068,-90.9090909090909,4,2,2,80,0,0
228141,-90.9090909090909,4,2,3,80,0,0
228726,-90.9090909090909,4,2,2,80,0,0
229312,-90.9090909090909,4,2,3,80,0,0
229458,-142.857142857143,4,2,1,80,0,0
229531,-142.857142857143,4,2,2,60,0,0
231800,-100,4,2,2,75,0,0
231873,-100,4,2,5,75,0,0
232239,-100,4,2,3,75,0,0
232312,-100,4,2,5,75,0,0
232678,-100,4,2,2,75,0,0
232751,-100,4,2,5,75,0,0
233117,-100,4,2,3,75,0,0
233190,-100,4,2,5,75,0,0
234141,-90.9090909090909,4,2,2,75,0,0
234214,-90.9090909090909,4,2,5,75,0,0
234580,-90.9090909090909,4,2,3,75,0,0
234653,-90.9090909090909,4,2,5,75,0,0
235019,-90.9090909090909,4,2,2,75,0,0
235092,-90.9090909090909,4,2,5,75,0,0
235458,-90.9090909090909,4,2,3,75,0,0
235531,-90.9090909090909,4,2,5,75,0,0
236483,-90.9090909090909,4,2,2,75,0,0
236556,-90.9090909090909,4,2,5,75,0,0
236922,-90.9090909090909,4,2,3,75,0,0
236995,-90.9090909090909,4,2,5,75,0,0
237361,-90.9090909090909,4,2,2,75,0,0
237434,-90.9090909090909,4,2,5,75,0,0
237800,-90.9090909090909,4,2,3,75,0,0
237873,-90.9090909090909,4,2,5,75,0,0
238824,-90.9090909090909,4,2,2,75,0,0
238897,-90.9090909090909,4,2,5,75,0,0
239263,-90.9090909090909,4,2,3,75,0,0
239336,-90.9090909090909,4,2,5,75,0,0
239702,-90.9090909090909,4,2,2,75,0,0
239775,-90.9090909090909,4,2,5,75,0,0
240141,-90.9090909090909,4,2,3,75,0,0
240214,-90.9090909090909,4,2,5,75,0,0
241165,-90.9090909090909,4,2,2,75,0,0
241238,-90.9090909090909,4,2,5,75,0,0
241604,-90.9090909090909,4,2,3,75,0,0
241677,-90.9090909090909,4,2,5,75,0,0
242190,-90.9090909090909,4,2,4,75,0,0

[Colours]
Combo1 : 170,255,170
Combo2 : 255,255,164

[HitObjects]
245,63,1751,6,0,P|257:104|263:147,1,86.9999973449708,2|2,0:0|0:0,0:0:0:0:
363,318,2336,6,0,P|405:313|428:278,2,86.9999973449708,2|2|2,0:0|0:0|0:0,0:0:0:0:
254,250,3214,2,0,B|154:249|191:300|94:303,1,173.999994689942,2|2,0:0|0:0,0:0:0:0:
21,193,4092,5,2,0:0:0:0:
81,76,4385,2,0,P|162:65|202:136,1,173.999994689942,2|2,0:0|0:0,0:0:0:0:
380,139,5263,5,2,0:0:0:0:
311,24,5556,2,0,P|292:108|283:195,1,173.999994689942,2|0,0:0|0:0,0:0:0:0:
177,346,6434,6,0,P|137:331|124:291,1,86.9999973449708,2|2,0:0|0:0,0:0:0:0:
162,112,7019,6,0,P|205:109|247:99,2,86.9999973449708,2|2|2,0:0|0:0|0:0,0:0:0:0:
141,281,7897,2,0,P|223:254|310:250,1,173.999994689942,2|2,0:0|0:0,0:0:0:0:
414,170,8775,1,2,0:0:0:0:
414,170,9068,1,2,0:0:0:0:
254,104,9361,6,0,P|246:42|300:7,2,130.499996017456,2|2|2,0:0|0:0|0:0,0:0:0:0:
310,160,10385,2,0,P|321:201|325:245,1,86.9999973449708,0|2,0:0|0:0,0:0:0:0:
461,35,11117,6,0,P|419:47|375:50,1,86.9999973449708,2|2,0:0|0:0,0:0:0:0:
160,19,11702,6,0,P|171:61|175:105,2,86.9999973449708,2|2|2,0:0|0:0|0:0,0:0:0:0:
28,143,12580,2,0,B|126:134|93:197|189:191,1,173.999994689942,2|2,0:0|0:0,0:0:0:0:
357,245,13458,5,2,0:0:0:0:
260,334,13751,2,0,P|265:247|286:162,1,173.999994689942,2|2,0:0|0:0,0:0:0:0:
357,51,14629,5,2,0:0:0:0:
471,108,14922,2,0,P|451:187|370:197,1,173.999994689942,2|0,0:0|0:0,0:0:0:0:
216,135,15800,5,2,0:0:0:0:
248,304,16092,2,0,P|251:283|257:262,1,43.4999986724854,2|2,0:0|0:0,0:0:0:0:
188,217,16385,6,0,P|174:258|167:301,1,86.9999973449708,2|2,0:0|0:0,0:0:0:0:
107,351,16824,2,0,P|65:354|37:322,1,86.9999973449708,2|2,0:0|0:0,0:0:0:0:
15,150,17409,6,0,P|59:146|108:127,1,86.9999973449708,2|0,0:0|0:0,0:0:0:0:
322,51,17995,2,0,P|278:47|229:28,1,86.9999973449708,2|2,0:0|0:0,0:0:0:0:
158,33,18434,6,0,P|168:75|175:118,1,86.9999973449708,0|2,0:0|0:0,0:0:0:0:
256,192,18800,12,0,20190,0:0:0:0:
241,296,20483,6,0,P|245:309|249:323,7,29,2|2|2|2|2|2|2|2,0:0|0:0|0:0|0:0|0:0|0:0|0:0|0:0,0:0:0:0:
262,338,21068,6,0,P|265:265|280:194,1,145,14|8,0:1|0:2,0:0:0:0:
147,27,21653,1,8,0:1:0:0:
147,27,21800,2,0,P|156:65|159:110,1,72.5,8|2,0:1|0:3,0:0:0:0:
240,123,22092,6,0,P|310:112|355:167,1,145,8|8,0:2|0:1,0:0:0:0:
417,223,22531,2,0,P|453:228|501:228,1,72.5,10|0,0:2|0:0,0:0:0:0:
423,315,22824,1,10,0:1:0:0:
423,315,22970,1,8,0:1:0:0:
342,348,23117,2,0,P|305:342|258:343,1,72.5,10|0,0:2|0:0,0:0:0:0:
110,373,23409,6,0,P|56:331|67:263,1,145,14|8,0:1|0:2,0:0:0:0:
201,92,23995,1,8,0:1:0:0:
200,92,24141,2,0,P|165:99|129:103,1,72.5,8|2,0:1|0:2,0:0:0:0:
23,189,24434,6,0,P|58:180|94:177,1,72.5,10|2,0:2|0:2,0:0:0:0:
168,243,24726,1,8,0:1:0:0:
240,174,24873,2,0,P|249:103|273:34,1,145,8|10,0:2|0:1,0:0:0:0:
351,88,25311,1,10,0:1:0:0:
351,88,25384,1,2,0:0:0:0:
351,88,25458,2,0,P|339:122|335:158,1,72.5,10|2,0:2|0:2,0:0:0:0:
390,302,25751,6,0,P|451:270|450:201,1,145,14|8,0:1|0:2,0:0:0:0:
308,351,26336,1,8,0:1:0:0:
308,351,26483,2,0,P|270:343|223:340,1,72.5,8|2,0:1|0:3,0:0:0:0:
152,316,26775,6,0,P|132:286|134:250,1,72.5,8|2,0:2|0:2,0:0:0:0:
221,248,27068,1,8,0:1:0:0:
290,196,27214,2,0,P|291:160|271:130,1,72.5,10|0,0:2|0:0,0:0:0:0:
195,87,27507,2,0,P|160:98|124:104,1,72.5,10|8,0:1|0:1,0:0:0:0:
253,21,27800,2,0,P|287:32|323:38,1,72.5,10|0,0:2|0:0,0:0:0:0:
463,12,28092,6,0,P|500:47|488:98,1,108.75,14|0,0:1|0:0,0:0:0:0:
479,111,28385,2,0,P|469:145|465:181,1,72.5,8|2,0:2|0:2,0:0:0:0:
375,167,28678,1,8,0:1:0:0:
375,167,28824,2,0,P|387:201|393:236,1,72.5,8|2,0:1|0:3,0:0:0:0:
503,324,29117,6,0,P|436:308|390:362,1,145,8|8,0:2|0:1,0:0:0:0:
306,335,29556,2,0,P|302:299|293:264,1,72.5,10|0,0:2|0:0,0:0:0:0:
216,224,29848,2,0,L|180:230,3,36.25,10|8|10|8,0:1|0:2|0:2|0:2,0:0:0:0:
159,257,30141,2,0,L|123:264,3,36.25,10|8|10|8,0:2|0:2|0:2|0:2,0:0:0:0:
84,247,30434,6,0,P|32:202|44:134,1,145,12|8,0:1|0:2,0:0:0:0:
267,35,31019,1,8,0:1:0:0:
267,35,31165,2,0,P|233:46|188:51,1,72.5,8|2,0:1|0:3,0:0:0:0:
102,23,31458,6,0,P|124:91|136:163,1,145,8|8,0:2|0:1,0:0:0:0:
204,217,31897,2,0,P|238:205|273:201,1,72.5,10|0,0:2|0:0,0:0:0:0:
339,266,32190,1,10,0:1:0:0:
339,266,32336,1,8,0:1:0:0:
408,212,32483,2,0,P|398:177|393:141,1,72.5,10|2,0:2|0:2,0:0:0:0:
299,37,32775,6,0,P|229:35|195:95,2,145,14|8|8,0:1|0:2|0:1,0:0:0:0:
385,56,33507,2,0,P|421:55|456:47,1,72.5,8|2,0:1|0:2,0:0:0:0:
512,143,33800,6,0,P|439:143|369:161,1,145,8|8,0:2|0:1,0:0:0:0:
286,186,34239,2,0,P|269:217|274:253,1,72.5,8|0,0:2|0:0,0:0:0:0:
343,313,34531,1,10,0:1:0:0:
343,313,34678,1,8,0:1:0:0:
275,367,34824,2,0,P|238:366|203:373,1,72.5,10|0,0:2|0:0,0:0:0:0:
82,363,35117,6,0,P|77:291|65:220,1,145,14|8,0:1|0:2,0:0:0:0:
164,21,35702,1,8,0:1:0:0:
164,21,35848,2,0,P|168:58|176:94,1,72.5,8|2,0:1|0:3,0:0:0:0:
140,189,36141,6,0,P|90:139|21:149,1,145,8|8,0:2|0:1,0:0:0:0:
2,234,36580,2,0,P|10:268|12:305,1,72.5,8|0,0:2|0:0,0:0:0:0:
86,360,36873,1,10,0:1:0:0:
86,360,37019,1,8,0:1:0:0:
163,319,37165,2,0,P|198:311|234:313,1,72.5,8|0,0:2|0:0,0:0:0:0:
362,370,37458,5,14,0:1:0:0:
362,370,37605,1,8,0:1:0:0:
437,326,37751,2,0,P|454:296|452:260,1,72.5,8|0,0:2|0:0,0:0:0:0:
406,185,38044,1,8,0:1:0:0:
482,144,38190,2,0,P|409:143|340:122,1,145,8|8,0:1|0:2,0:0:0:0:
272,36,38629,6,0,P|240:15|204:12,2,72.5,2|8|2,0:2|0:1|0:3,0:0:0:0:
213,101,39068,2,0,P|220:136|223:172,1,72.5,8|2,0:2|0:3,0:0:0:0:
311,134,39360,1,8,0:2:0:0:
384,190,39507,2,0,P|376:225|373:261,1,72.5,8|8,0:3|0:3,0:0:0:0:
310,313,39800,6,0,P|250:309|218:354,2,116,12|8|8,0:1|0:2|0:1,0:0:0:0:
310,313,40531,1,8,0:1:0:0:
463,367,40824,6,0,P|468:310|482:254,1,116,8|8,0:2|0:1,0:0:0:0:
462,174,41263,2,0,P|433:170|405:162,1,58,8|2,0:2|0:2,0:0:0:0:
423,82,41556,2,0,P|450:89|479:93,2,58,10|10|10,0:1|0:1|0:2,0:0:0:0:
345,29,41995,5,14,0:1:0:0:
345,29,42141,2,0,P|332:54|330:83,1,58,2|8,0:2|0:1,0:0:0:0:
277,146,42434,2,0,P|220:151|177:114,1,116,8|8,0:2|0:1,0:0:0:0:
177,114,42873,1,8,0:1:0:0:
14,175,43165,6,0,P|10:146|2:118,1,58,8|2,0:2|0:3,0:0:0:0:
31,42,43458,1,8,0:1:0:0:
86,104,43605,2,0,P|94:131|97:160,1,58,8|2,0:2|0:2,0:0:0:0:
72,240,43897,2,0,P|74:254|77:268,3,29,10|8|8|8,0:1|0:1|0:1|0:1,0:0:0:0:
69,296,44190,2,0,P|72:310|75:324,3,29,10|8|12|8,0:2|0:1|0:1|0:1,0:0:0:0:
98,345,44483,6,0,P|126:339|155:336,1,58,2|8,0:2|0:1,0:0:0:0:
231,357,44775,2,0,P|286:358|316:311,1,116,10|10,0:2|0:1,0:0:0:0:
359,241,45214,1,8,0:1:0:0:
435,268,45361,2,0,P|439:296|441:325,1,58,2|8,0:2|0:2,0:0:0:0:
500,216,45653,6,0,P|491:158|488:100,2,116,2|10|10,0:2|0:2|0:1,0:0:0:0:
416,190,46385,1,8,0:1:0:0:
416,190,46531,2,0,P|388:191|364:206,1,58,10|12,0:2|0:1,0:0:0:0:
291,163,46824,6,0,P|287:135|285:106,1,58,2|8,0:2|0:1,0:0:0:0:
229,47,47117,2,0,P|173:44|137:88,1,116,8|10,0:2|0:1,0:0:0:0:
137,86,47556,1,8,0:1:0:0:
69,233,47848,6,0,P|40:234|11:238,1,58,8|2,0:2|0:3,0:0:0:0:
72,147,48141,1,8,0:1:0:0:
148,99,48287,2,0,P|176:97|205:93,1,58,8|0,0:2|0:0,0:0:0:0:
267,146,48580,2,0,P|281:143|295:142,3,29,10|8|8|8,0:1|0:1|0:1|0:1,0:0:0:0:
319,121,48873,2,0,P|333:119|347:117,3,29,10|8|12|0,0:2|0:1|0:1|0:0,0:0:0:0:
372,125,49165,6,0,P|379:153|381:182,1,58,2|8,0:2|0:1,0:0:0:0:
465,198,49458,2,0,P|459:140|446:83,1,116,8|8,0:2|0:1,0:0:0:0:
446,83,49897,1,8,0:1:0:0:
294,14,50190,6,0,P|264:20|242:43,1,58,8|2,0:2|0:3,0:0:0:0:
190,99,50483,1,8,0:1:0:0:
190,99,50629,2,0,P|197:128|201:157,1,58,8|2,0:2|0:2,0:0:0:0:
287,133,50922,1,10,0:1:0:0:
287,133,51068,1,8,0:1:0:0:
340,193,51214,2,0,P|333:222|329:251,1,58,10|14,0:2|0:1,0:0:0:0:
263,292,51507,6,0,P|230:283|201:282,1,58,2|8,0:2|0:1,0:0:0:0:
135,322,51800,2,0,P|80:328|49:282,1,116,8|8,0:2|0:1,0:0:0:0:
49,282,52239,1,8,0:1:0:0:
0,116,52531,6,0,P|28:115|57:110,1,58,8|2,0:2|0:3,0:0:0:0:
84,33,52824,1,8,0:1:0:0:
156,69,52970,2,0,P|162:97|164:126,1,58,8|0,0:2|0:0,0:0:0:0:
225,180,53263,6,0,L|253:177,3,29,10|8|8|8,0:1|0:1|0:1|0:1,0:0:0:0:
272,156,53556,2,0,L|306:151,3,29,10|8|12|0,0:2|0:1|0:1|0:0,0:0:0:0:
337,169,53848,6,0,P|338:197|345:226,1,58,2|8,0:2|0:1,0:0:0:0:
282,283,54141,2,0,P|335:270|374:310,1,116,8|8,0:2|0:1,0:0:0:0:
374,310,54580,1,8,0:1:0:0:
503,211,54873,6,0,P|505:182|513:152,1,58,8|2,0:2|0:2,0:0:0:0:
506,73,55165,1,8,0:1:0:0:
429,100,55312,2,0,P|403:97|377:77,1,58,10|0,0:2|0:0,0:0:0:0:
297,65,55605,2,0,P|295:36|288:7,2,58,10|8|10,0:1|0:1|0:2,0:0:0:0:
227,148,56044,6,0,B|160:140|178:180|100:172,1,116,12|8,0:1|0:1,0:0:0:0:
38,149,56483,2,0,P|2:192|13:247,1,116,8|10,0:2|0:1,0:0:0:0:
13,247,56922,1,8,0:1:0:0:
213,367,57214,6,0,P|211:336|202:297,1,58,8|2,0:2|0:3,0:0:0:0:
274,265,57507,1,8,0:1:0:0:
350,290,57653,2,0,P|351:261|357:232,1,58,8|0,0:2|0:0,0:0:0:0:
324,158,57946,2,0,P|292:154|259:145,2,58,10|10|10,0:1|0:1|0:2,0:0:0:0:
403,123,58385,1,2,0:2:0:0:
371,47,58531,6,0,P|328:43|287:30,1,86.9999973449708,14|8,0:1|0:1,0:0:0:0:
62,130,59117,2,0,P|105:126|146:113,1,86.9999973449708,10|8,0:1|0:1,0:0:0:0:
338,229,59702,2,0,P|308:198|266:197,1,86.9999973449708,8|8,0:1|0:1,0:0:0:0:
144,354,60287,1,10,0:1:0:0:
144,354,60580,1,10,0:1:0:0:
179,196,60873,6,0,P|191:237|199:280,3,86.9999973449708,10|8|10|8,0:1|0:1|0:1|0:1,0:0:0:0:
320,116,62044,2,0,P|327:73|340:31,3,86.9999973449708,8|8|10|10,0:1|0:1|0:1|0:1,0:0:0:0:
175,47,63214,5,10,0:1:0:0:
56,76,63507,1,10,0:1:0:0:
89,193,63800,1,10,0:1:0:0:
207,164,64092,1,10,0:1:0:0:
74,88,64385,6,0,P|87:130|95:173,1,86.9999973449708,10|10,0:1|0:1,0:0:0:0:
254,245,64970,2,0,P|241:286|233:329,1,86.9999973449708,10|10,0:1|0:1,0:0:0:0:
230,135,65556,6,0,P|271:147|314:151,1,86.9999973449708,10|8,0:1|0:1,0:0:0:0:
382,110,65995,1,2,0:2:0:0:
381,110,66141,2,0,P|424:111|449:144,1,86.9999973449708,10|8,0:1|0:1,0:0:0:0:
467,292,66726,5,8,0:1:0:0:
203,281,67165,5,2,0:2:0:0:
203,281,67312,2,0,P|200:260|196:239,1,43.4999986724854,2|2,0:2|0:2,0:0:0:0:
275,322,67605,2,0,L|268:364,1,43.4999986724854,2|2,0:2|0:2,0:0:0:0:
291,212,67897,6,0,P|353:206|393:254,1,130.499996017456,14|8,0:1|0:2,0:0:0:0:
502,103,68483,1,10,0:1:0:0:
502,103,68629,2,0,P|496:135|494:167,1,65.2499980087281,8|2,0:1|0:3,0:0:0:0:
430,40,68922,6,0,P|364:37|300:26,1,130.499996017456,8|8,0:2|0:1,0:0:0:0:
216,7,69361,2,0,P|194:29|189:61,1,65.2499980087281,8|0,0:2|0:0,0:0:0:0:
138,129,69653,2,0,P|106:137|74:139,1,65.2499980087281,10|8,0:1|0:1,0:0:0:0:
211,176,69946,2,0,P|242:184|274:186,1,65.2499980087281,10|0,0:2|0:0,0:0:0:0:
147,260,70239,6,0,P|77:266|54:333,1,130.499996017456,14|8,0:1|0:2,0:0:0:0:
238,242,70824,1,8,0:1:0:0:
238,242,70970,2,0,P|239:209|248:167,1,65.2499980087281,8|2,0:1|0:2,0:0:0:0:
166,131,71263,6,0,P|151:194|146:259,1,130.499996017456,8|10,0:2|0:1,0:0:0:0:
208,325,71702,2,0,P|253:337|295:313,1,97.8749970130921,10|0,0:2|0:0,0:0:0:0:
302,304,71995,2,0,P|334:304|366:311,1,65.2499980087281,10|8,0:1|0:1,0:0:0:0:
440,353,72287,2,0,P|460:328|463:296,1,65.2499980087281,10|0,0:2|0:0,0:0:0:0:
413,201,72580,6,0,P|419:153|434:107,1,97.8749970130921,14|0,0:1|0:0,0:0:0:0:
443,94,72873,2,0,P|408:87|379:76,1,65.2499980087281,10|0,0:2|0:0,0:0:0:0:
323,16,73165,1,10,0:1:0:0:
323,16,73312,1,8,0:1:0:0:
239,34,73458,2,0,P|228:64|222:96,1,65.2499980087281,2|8,0:2|0:2,0:0:0:0:
151,149,73751,6,0,P|89:144|48:198,2,130.499996017456,2|10|10,0:2|0:2|0:1,0:0:0:0:
176,230,74483,1,8,0:1:0:0:
242,282,74629,2,0,P|274:283|302:268,1,65.2499980087281,10|8,0:2|0:1,0:0:0:0:
356,171,74922,5,14,0:1:0:0:
256,192,74995,12,2,76678,0:2:0:0:
102,126,76970,5,2,0:2:0:0:
174,235,77117,6,0,B|267:224|238:285|341:272,1,159.500004867554,14|8,0:1|0:1,0:0:0:0:
353,356,77556,2,0,P|408:302|396:227,1,159.500004867554,8|8,0:2|0:1,0:0:0:0:
312,183,77995,1,8,0:1:0:0:
370,117,78141,1,10,0:2:0:0:
321,44,78287,6,0,P|242:59|163:59,1,159.500004867554,2|8,0:2|0:1,0:0:0:0:
82,24,78726,2,0,P|55:52|53:91,1,79.7500024337769,8|0,0:2|0:0,0:0:0:0:
39,181,79019,1,10,0:1:0:0:
39,181,79165,1,10,0:1:0:0:
96,247,79312,1,10,0:2:0:0:
0,306,79458,6,0,P|75:297|122:357,1,159.500004867554,14|8,0:1|0:1,0:0:0:0:
209,343,79897,2,0,P|212:263|229:185,1,159.500004867554,8|8,0:2|0:1,0:0:0:0:
306,144,80336,1,8,0:1:0:0:
243,82,80483,1,10,0:2:0:0:
313,25,80629,6,0,P|390:25|427:91,1,159.500004867554,2|8,0:2|0:1,0:0:0:0:
505,131,81068,2,0,P|495:170|489:222,1,79.7500024337769,8|0,0:2|0:0,0:0:0:0:
512,298,81361,1,10,0:1:0:0:
512,298,81507,1,10,0:1:0:0:
448,358,81653,1,10,0:2:0:0:
370,264,81800,6,0,P|294:252|249:315,1,159.500004867554,14|8,0:1|0:1,0:0:0:0:
172,355,82239,2,0,P|93:340|13:339,1,159.500004867554,8|8,0:2|0:1,0:0:0:0:
54,248,82678,1,8,0:1:0:0:
9,172,82824,1,10,0:2:0:0:
62,102,82970,6,0,P|140:120|220:120,1,159.500004867554,2|8,0:2|0:1,0:0:0:0:
306,108,83409,2,0,P|301:68|289:30,1,79.7500024337769,8|0,0:2|0:0,0:0:0:0:
376,16,83702,2,0,P|387:54|392:93,1,79.7500024337769,10|8,0:1|0:1,0:0:0:0:
369,178,83995,1,10,0:2:0:0:
427,243,84141,1,8,0:1:0:0:
389,322,84287,6,0,B|296:311|325:372|222:359,1,159.500004867554,2|8,0:2|0:2,0:0:0:0:
165,311,84726,1,2,0:2:0:0:
84,347,84873,2,0,P|41:307|46:249,1,119.625003650665,10|0,0:1|0:0,0:0:0:0:
64,232,85165,2,0,P|103:229|146:215,1,79.7500024337769,8|2,0:2|0:2,0:0:0:0:
178,130,85458,6,0,P|185:91|168:56,1,79.7500024337769,10|8,0:1|0:1,0:0:0:0:
80,71,85751,2,0,P|73:108|90:144,1,79.7500024337769,8|0,0:2|0:0,0:0:0:0:
239,198,86044,6,0,L|289:189,3,39.8750012168885,14|8|8|8,0:1|0:2|0:2|0:2,0:0:0:0:
295,161,86336,2,0,L|342:163,3,39.8750012168885,10|8|10|8,0:2|0:2|0:2|0:2,0:0:0:0:
371,184,86629,6,0,P|396:110|355:45,2,159.500004867554,14|8|8,0:1|0:2|0:1,0:0:0:0:
305,241,87361,1,8,0:1:0:0:
356,311,87507,1,10,0:2:0:0:
286,363,87653,6,0,P|208:345|128:346,1,159.500004867554,10|8,0:1|0:1,0:0:0:0:
40,351,88092,2,0,P|20:317|25:278,1,79.7500024337769,8|0,0:2|0:0,0:0:0:0:
84,213,88385,1,10,0:1:0:0:
31,142,88531,1,8,0:1:0:0:
97,84,88678,2,0,P|135:92|178:92,1,79.7500024337769,8|2,0:2|0:2,0:0:0:0:
321,18,88970,6,0,P|378:11|414:57,1,119.625003650665,14|0,0:1|0:0,0:0:0:0:
411,81,89263,2,0,P|403:120|401:160,1,79.7500024337769,8|0,0:2|0:0,0:0:0:0:
462,230,89556,1,8,0:1:0:0:
462,230,89702,1,8,0:1:0:0:
393,284,89848,1,10,0:2:0:0:
436,369,89995,6,0,P|382:313|307:326,1,159.500004867554,10|8,0:1|0:1,0:0:0:0:
225,376,90434,2,0,P|220:336|212:297,1,79.7500024337769,10|0,0:2|0:0,0:0:0:0:
274,151,90726,2,0,P|278:190|286:229,1,79.7500024337769,10|8,0:1|0:1,0:0:0:0:
119,228,91019,2,0,P|156:218|198:212,1,79.7500024337769,10|0,0:2|0:0,0:0:0:0:
250,68,91312,6,0,P|188:63|157:121,1,119.625003650665,14|0,0:1|0:0,0:0:0:0:
151,120,91605,2,0,P|146:80|138:41,1,79.7500024337769,8|2,0:2|0:2,0:0:0:0:
45,41,91897,1,8,0:1:0:0:
3,118,92044,2,0,P|12:156|18:211,1,79.7500024337769,8|2,0:1|0:2,0:0:0:0:
3,282,92336,6,0,B|96:270|68:327|156:319,1,159.500004867554,8|10,0:2|0:1,0:0:0:0:
219,377,92775,2,0,P|238:339|234:296,1,79.7500024337769,8|0,0:2|0:0,0:0:0:0:
175,238,93068,1,10,0:1:0:0:
234,173,93214,1,10,0:1:0:0:
204,89,93361,2,0,P|245:128|302:120,1,119.625003650665,10|0,0:2|0:0,0:0:0:0:
321,98,93653,6,0,P|396:86|436:149,1,159.500004867554,14|8,0:1|0:2,0:0:0:0:
430,237,94092,1,2,0:2:0:0:
511,207,94239,2,0,P|431:198|352:193,1,159.500004867554,10|2,0:1|0:3,0:0:0:0:
276,148,94678,1,10,0:2:0:0:
191,172,94824,6,0,P|177:207|190:255,1,79.7500024337769,2|8,0:2|0:1,0:0:0:0:
264,384,95117,2,0,P|266:344|271:304,1,79.7500024337769,10|0,0:2|0:0,0:0:0:0:
177,336,95409,2,0,P|157:333|137:331,3,39.8750012168885,14|8|8|8,0:1|0:2|0:2|0:2,0:0:0:0:
117,306,95702,2,0,P|97:304|77:301,3,39.8750012168885,10|8|8|8,0:2|0:2|0:2|0:2,0:0:0:0:
41,317,95995,6,0,P|-8:259|21:189,1,159.500004867554,14|10,0:1|0:2,0:0:0:0:
99,148,96434,1,0,0:0:0:0:
78,62,96580,2,0,P|37:62|-14:53,2,79.7500024337769,10|10|2,0:1|0:1|0:2,0:0:0:0:
157,24,97019,5,10,0:2:0:0:
199,131,97165,2,0,P|238:130|278:136,2,79.7500024337769,2|10|10,0:3|0:1|0:2,0:0:0:0:
149,204,97605,1,0,0:0:0:0:
79,255,97751,2,0,P|39:255|8:231,1,79.7500024337769,10|10,0:1|0:1,0:0:0:0:
144,317,98044,2,0,P|200:306|236:350,1,119.625003650665,10|0,0:2|0:0,0:0:0:0:
252,371,98336,6,0,P|256:331|256:289,1,79.7500024337769,14|2,0:1|0:2,0:0:0:0:
420,338,98629,2,0,P|380:333|340:332,1,79.7500024337769,10|0,0:2|0:0,0:0:0:0:
333,238,98922,1,10,0:1:0:0:
333,238,99068,1,10,0:1:0:0:
418,251,99214,2,0,P|433:214|423:177,1,79.7500024337769,2|10,0:2|0:2,0:0:0:0:
360,115,99507,6,0,P|361:75|367:35,1,79.7500024337769,2|10,0:3|0:1,0:0:0:0:
279,26,99800,2,0,P|272:65|271:105,1,79.7500024337769,10|0,0:2|0:0,0:0:0:0:
204,161,100092,1,10,0:1:0:0:
204,161,100239,1,10,0:1:0:0:
148,89,100385,2,0,P|90:83|53:128,1,119.625003650665,10|0,0:2|0:0,0:0:0:0:
51,150,100678,6,0,P|57:188|59:229,2,79.7500024337769,14|2|10,0:1|0:2|0:2,0:0:0:0:
144,183,101117,1,0,0:0:0:0:
218,228,101263,2,0,P|224:266|226:307,2,79.7500024337769,10|10|2,0:1|0:1|0:2,0:0:0:0:
270,156,101702,6,0,P|310:155|349:147,1,79.7500024337769,10|2,0:2|0:3,0:0:0:0:
385,243,101995,1,10,0:1:0:0:
312,312,102141,2,0,B|228:309|242:355|160:352,1,159.500004867554,10|10,0:2|0:1,0:0:0:0:
74,372,102580,1,10,0:1:0:0:
11,312,102726,2,0,P|30:258|86:247,1,119.625003650665,10|0,0:2|0:0,0:0:0:0:
104,251,103019,6,0,P|103:210|96:159,1,79.7500024337769,14|2,0:1|0:2,0:0:0:0:
267,187,103312,2,0,P|227:190|188:198,1,79.7500024337769,10|0,0:2|0:0,0:0:0:0:
119,82,103605,1,10,0:1:0:0:
212,100,103751,2,0,P|251:93|275:62,1,79.7500024337769,10|2,0:1|0:2,0:0:0:0:
358,9,104044,6,0,P|366:47|371:87,1,79.7500024337769,10|2,0:2|0:3,0:0:0:0:
492,54,104336,1,10,0:1:0:0:
469,139,104483,2,0,P|460:177|455:217,1,79.7500024337769,10|0,0:2|0:0,0:0:0:0:
421,311,104775,6,0,P|401:308|381:306,3,39.8750012168885,10|8|10|8,0:1|0:2|0:2|0:2,0:0:0:0:
363,277,105068,2,0,P|343:279|323:281,3,39.8750012168885,10|8|10|8,0:2|0:2|0:2|0:2,0:0:0:0:
292,293,105361,6,0,P|286:333|284:373,1,79.7500024337769,12|2,0:1|0:2,0:0:0:0:
237,221,105653,2,0,P|196:216|164:247,1,79.7500024337769,10|0,0:2|0:0,0:0:0:0:
119,325,105946,2,0,P|158:325|198:331,2,79.7500024337769,10|10|2,0:1|0:1|0:2,0:0:0:0:
31,333,106385,6,0,P|11:298|19:260,1,79.7500024337769,10|2,0:2|0:3,0:0:0:0:
95,216,106678,1,10,0:1:0:0:
78,129,106824,2,0,P|39:128|0:123,1,79.7500024337769,10|0,0:2|0:0,0:0:0:0:
102,39,107117,1,10,0:1:0:0:
102,39,107263,1,10,0:1:0:0:
177,87,107409,2,0,P|169:147|166:207,1,119.625003650665,10|0,0:2|0:0,0:0:0:0:
178,219,107702,6,0,P|216:218|257:224,1,79.7500024337769,14|2,0:1|0:2,0:0:0:0:
340,253,107995,2,0,P|365:223|363:184,1,79.7500024337769,10|0,0:2|0:0,0:0:0:0:
303,95,108287,2,0,P|305:55|311:15,2,79.7500024337769,10|10|2,0:1|0:1|0:2,0:0:0:0:
397,62,108726,6,0,P|437:69|481:69,1,79.7500024337769,10|2,0:2|0:3,0:0:0:0:
512,151,109019,1,10,0:1:0:0:
462,226,109165,2,0,P|391:199|339:253,1,159.500004867554,10|10,0:2|0:1,0:0:0:0:
307,335,109605,1,10,0:1:0:0:
232,289,109751,2,0,P|171:281|112:279,1,119.625003650665,10|0,0:2|0:0,0:0:0:0:
85,287,110044,6,0,P|73:324|83:369,2,79.7500024337769,14|2|10,0:1|0:2|0:2,0:0:0:0:
152,203,110483,1,0,0:0:0:0:
81,150,110629,2,0,P|41:151|1:145,2,79.7500024337769,10|10|2,0:1|0:1|0:2,0:0:0:0:
94,62,111068,6,0,P|54:62|14:55,1,79.7500024337769,10|2,0:2|0:3,0:0:0:0:
174,12,111361,1,10,0:1:0:0:
254,37,111507,2,0,P|268:74|259:112,1,79.7500024337769,10|0,0:2|0:0,0:0:0:0:
183,154,111800,1,10,0:1:0:0:
183,154,111946,1,10,0:1:0:0:
203,239,112092,2,0,P|242:236|282:242,1,79.7500024337769,10|0,0:2|0:0,0:0:0:0:
356,290,112385,6,0,P|395:290|428:265,1,79.7500024337769,14|2,0:1|0:2,0:0:0:0:
487,163,112678,2,0,P|413:145|363:202,1,159.500004867554,10|10,0:2|0:1,0:0:0:0:
286,168,113117,1,10,0:1:0:0:
286,168,113263,1,2,0:2:0:0:
233,94,113409,6,0,P|233:55|237:14,1,79.7500024337769,10|2,0:2|0:3,0:0:0:0:
149,43,113702,1,10,0:1:0:0:
84,107,113848,2,0,P|85:146|80:188,1,79.7500024337769,10|8,0:2|0:2,0:0:0:0:
129,273,114141,1,10,0:2:0:0:
129,273,114214,1,8,0:2:0:0:
129,273,114287,2,0,P|148:273|168:274,3,39.8750012168885,10|8|10|8,0:2|0:2|0:1|0:1,0:0:0:0:
183,263,114580,6,0,P|240:257|272:305,1,116,14|8,0:1|0:1,0:0:0:0:
271,300,115019,1,10,0:2:0:0:
430,370,115312,2,0,P|431:341|438:312,1,58,10|8,0:1|0:1,0:0:0:0:
483,245,115605,1,2,0:2:0:0:
465,165,115751,6,0,P|408:162|352:146,1,116,10|10,0:2|0:1,0:0:0:0:
283,102,116190,2,0,P|278:73|276:44,1,58,10|0,0:2|0:0,0:0:0:0:
206,13,116483,1,10,0:1:0:0:
206,13,116629,1,10,0:1:0:0:
143,64,116775,2,0,P|147:92|149:121,1,58,10|14,0:2|0:1,0:0:0:0:
49,156,117068,6,0,P|46:98|36:40,2,116,2|8|10,0:2|0:2|0:1,0:0:0:0:
49,156,117800,1,8,0:1:0:0:
26,348,118092,6,0,P|54:342|83:339,1,58,10|2,0:2|0:2,0:0:0:0:
56,246,118385,1,8,0:1:0:0:
135,263,118531,2,0,P|163:268|192:271,1,58,8|2,0:2|0:2,0:0:0:0:
282,271,118824,2,0,L|279:299,4,29,10|8|8|8|8,0:1|0:1|0:1|0:1|0:2,0:0:0:0:
383,363,119263,6,0,P|428:331|426:275,1,116,14|8,0:1|0:1,0:0:0:0:
382,196,119702,2,0,P|410:194|439:190,1,58,10|0,0:2|0:0,0:0:0:0:
430,108,119995,2,0,P|401:112|372:113,1,58,10|8,0:1|0:1,0:0:0:0:
316,55,120287,1,2,0:2:0:0:
243,15,120434,6,0,P|187:17|158:64,1,116,10|10,0:2|0:1,0:0:0:0:
90,109,120873,2,0,P|94:137|97:166,1,58,10|0,0:2|0:0,0:0:0:0:
16,175,121165,2,0,P|13:146|8:117,2,58,10|8|10,0:1|0:1|0:2,0:0:0:0:
62,242,121605,1,14,0:1:0:0:
13,311,121751,6,0,P|47:355|104:349,1,116,2|8,0:2|0:2,0:0:0:0:
156,286,122190,1,2,0:2:0:0:
235,312,122336,1,10,0:1:0:0:
235,312,122483,2,0,P|241:340|243:369,1,58,8|2,0:1|0:3,0:0:0:0:
274,236,122775,6,0,P|329:230|365:272,1,116,10|8,0:2|0:1,0:0:0:0:
448,279,123214,2,0,P|450:250|455:221,1,58,8|2,0:2|0:2,0:0:0:0:
452,134,123507,2,0,L|481:138,4,29,10|8|8|8|8,0:1|0:1|0:1|0:1|0:2,0:0:0:0:
347,50,123946,6,0,P|292:43|261:89,1,116,14|8,0:1|0:1,0:0:0:0:
262,90,124385,1,10,0:2:0:0:
83,15,124678,2,0,P|90:43|92:71,1,58,10|8,0:1|0:1,0:0:0:0:
30,123,124970,1,2,0:2:0:0:
54,200,125117,6,0,P|106:186|167:180,1,116,10|10,0:2|0:1,0:0:0:0:
235,134,125556,1,10,0:2:0:0:
305,174,125702,2,0,P|329:224|308:276,1,116,0|10,0:0|0:1,0:0:0:0:
226,291,126141,2,0,P|226:319|230:348,1,58,10|14,0:2|0:1,0:0:0:0:
96,369,126434,6,0,P|94:324|87:276,1,87,2|0,0:2|0:0,0:0:0:0:
76,262,126726,2,0,P|47:268|11:270,1,58,8|2,0:2|0:2,0:0:0:0:
0,190,127019,1,10,0:1:0:0:
51,127,127165,2,0,P|79:124|108:118,1,58,8|2,0:1|0:3,0:0:0:0:
156,52,127458,6,0,P|211:47|241:93,1,116,10|8,0:2|0:1,0:0:0:0:
311,133,127897,2,0,P|307:161|305:190,1,58,8|2,0:2|0:2,0:0:0:0:
241,241,128190,2,0,P|243:255|245:269,3,29,10|8|8|8,0:1|0:1|0:1|0:1,0:0:0:0:
249,292,128483,1,8,0:2:0:0:
371,353,128629,6,0,P|426:353|455:305,1,116,14|8,0:1|0:1,0:0:0:0:
470,225,129068,2,0,P|470:196|474:167,1,58,10|0,0:2|0:0,0:0:0:0:
393,154,129361,2,0,P|387:180|384:211,1,58,10|8,0:1|0:1,0:0:0:0:
316,254,129653,1,2,0:2:0:0:
301,173,129800,6,0,P|243:169|186:158,1,116,10|10,0:2|0:1,0:0:0:0:
147,86,130239,2,0,P|118:85|93:100,1,58,10|0,0:2|0:0,0:0:0:0:
105,183,130531,1,10,0:1:0:0:
105,183,130678,1,10,0:1:0:0:
24,223,130824,2,0,P|20:194|15:165,1,58,10|14,0:2|0:1,0:0:0:0:
23,314,131117,6,0,P|76:300|116:339,1,116,2|8,0:2|0:2,0:0:0:0:
281,265,131702,1,10,0:1:0:0:
281,265,131848,2,0,P|282:293|287:322,1,58,8|2,0:1|0:3,0:0:0:0:
207,369,132141,6,0,P|202:312|188:255,1,116,8|8,0:2|0:1,0:0:0:0:
140,189,132580,2,0,P|157:136|211:129,1,116,8|10,0:2|0:1,0:0:0:0:
271,183,133019,1,8,0:1:0:0:
408,236,133165,6,0,P|465:213|464:151,1,130.499996017456,10|0,0:2|0:0,0:0:0:0:
448,132,133458,6,0,P|405:141|362:144,3,86.9999973449708,14|8|8|8,0:1|0:1|0:1|0:1,0:0:0:0:
392,323,134629,2,0,P|433:311|477:309,1,86.9999973449708,8|8,0:1|0:1,0:0:0:0:
279,253,135214,1,8,0:1:0:0:
279,253,135507,1,10,0:1:0:0:
73,277,135800,6,0,P|52:315|53:358,1,86.9999973449708,10|8,0:1|0:1,0:0:0:0:
204,192,136385,2,0,P|204:148|184:110,1,86.9999973449708,10|8,0:1|0:1,0:0:0:0:
22,46,136970,5,8,0:1:0:0:
119,174,137263,1,8,0:1:0:0:
172,29,137556,1,10,0:1:0:0:
25,139,137848,1,10,0:1:0:0:
209,220,138141,6,0,P|250:209|293:203,3,86.9999973449708,10|8|8|8,0:1|0:1|0:1|0:1,0:0:0:0:
266,34,139312,2,0,P|223:44|180:49,1,86.9999973449708,8|8,0:1|0:1,0:0:0:0:
369,107,139897,1,10,0:1:0:0:
369,107,140190,1,10,0:1:0:0:
486,200,140483,6,0,P|507:238|500:280,1,86.9999973449708,10|8,0:1|0:1,0:0:0:0:
433,330,140922,1,2,0:2:0:0:
433,330,141068,2,0,P|386:332|334:342,1,86.9999973449708,10|8,0:1|0:1,0:0:0:0:
143,255,141653,5,10,0:1:0:0:
301,115,142239,6,0,L|308:65,1,43.4999986724854,2|0,0:2|0:0,0:0:0:0:
232,8,142531,2,0,L|228:55,1,43.4999986724854,2|0,0:2|0:0,0:0:0:0:
131,121,142824,6,0,P|70:109|31:163,1,130.499996017456,12|8,0:1|0:2,0:0:0:0:
72,327,143409,1,8,0:1:0:0:
72,327,143556,2,0,P|70:291|62:259,1,65.2499980087281,8|2,0:1|0:3,0:0:0:0:
135,212,143848,6,0,P|153:274|155:339,1,130.499996017456,8|8,0:2|0:1,0:0:0:0:
232,376,144287,2,0,P|264:369|296:367,1,65.2499980087281,8|2,0:2|0:2,0:0:0:0:
341,296,144580,1,10,0:1:0:0:
341,296,144726,1,10,0:1:0:0:
422,319,144873,2,0,P|423:351|428:383,1,65.2499980087281,10|2,0:2|0:2,0:0:0:0:
512,252,145165,6,0,P|483:213|434:220,1,97.8749970130921,14|0,0:1|0:0,0:0:0:0:
423,228,145458,2,0,P|389:235|358:236,1,65.2499980087281,8|2,0:2|0:2,0:0:0:0:
281,198,145751,1,10,0:1:0:0:
351,150,145897,2,0,P|383:148|415:141,1,65.2499980087281,8|2,0:1|0:3,0:0:0:0:
431,44,146190,6,0,P|368:62|300:63,1,130.499996017456,10|8,0:2|0:1,0:0:0:0:
231,17,146629,2,0,P|210:39|206:77,1,65.2499980087281,8|2,0:2|0:2,0:0:0:0:
167,150,146922,1,10,0:1:0:0:
167,150,147068,1,8,0:1:0:0:
88,117,147214,2,0,P|53:116|18:112,1,65.2499980087281,8|2,0:2|0:2,0:0:0:0:
4,242,147507,6,0,P|65:233|105:294,1,130.499996017456,14|8,0:1|0:2,0:0:0:0:
135,361,147946,1,2,0:2:0:0:
213,328,148092,2,0,P|215:262|227:198,1,130.499996017456,10|2,0:1|0:3,0:0:0:0:
297,151,148531,1,10,0:2:0:0:
312,234,148678,6,0,P|305:265|303:298,1,65.2499980087281,2|8,0:2|0:1,0:0:0:0:
464,267,148970,2,0,P|431:261|399:259,1,65.2499980087281,10|0,0:2|0:0,0:0:0:0:
312,147,149263,2,0,P|345:152|369:172,1,65.2499980087281,10|8,0:1|0:1,0:0:0:0:
439,124,149556,2,0,P|440:91|447:59,1,65.2499980087281,10|8,0:2|0:1,0:0:0:0:
326,15,149848,5,14,0:1:0:0:
256,192,149922,12,0,151897,0:0:0:0:
90,82,152190,6,0,B|116:53|142:32|142:32|176:37|220:55,2,145,2|2|2,0:2|0:2|0:2,0:0:0:0:
186,236,153946,6,0,L|173:157,1,76.1249976768494,2|0,0:2|0:0,0:0:0:0:
169,141,154239,1,2,0:2:0:0:
271,291,154385,6,0,P|347:293|390:230,1,159.500004867554,14|8,0:1|0:1,0:0:0:0:
481,182,154824,2,0,P|401:183|324:162,1,159.500004867554,8|8,0:2|0:1,0:0:0:0:
290,81,155263,1,8,0:1:0:0:
212,120,155409,1,10,0:2:0:0:
147,40,155556,6,0,P|71:31|28:93,1,159.500004867554,2|8,0:2|0:1,0:0:0:0:
0,176,155995,2,0,P|11:215|17:254,1,79.7500024337769,8|0,0:2|0:0,0:0:0:0:
86,315,156287,1,10,0:1:0:0:
86,315,156434,1,10,0:1:0:0:
154,257,156580,1,10,0:2:0:0:
239,363,156726,6,0,P|317:345|397:342,1,159.500004867554,14|8,0:1|0:1,0:0:0:0:
468,292,157165,2,0,P|482:218|417:180,1,159.500004867554,8|8,0:2|0:1,0:0:0:0:
347,234,157605,1,8,0:1:0:0:
270,190,157751,1,10,0:2:0:0:
208,251,157897,6,0,P|143:212|152:137,1,159.500004867554,2|8,0:2|0:1,0:0:0:0:
206,68,158336,2,0,P|246:66|285:57,1,79.7500024337769,8|0,0:2|0:0,0:0:0:0:
369,98,158629,1,10,0:1:0:0:
369,98,158775,1,10,0:1:0:0:
411,21,158922,1,10,0:2:0:0:
503,140,159068,6,0,B|419:131|437:188|353:181,1,159.500004867554,14|8,0:1|0:1,0:0:0:0:
278,135,159507,2,0,P|202:135|163:206,1,159.500004867554,8|8,0:2|0:1,0:0:0:0:
216,270,159946,1,8,0:1:0:0:
165,341,160092,1,10,0:2:0:0:
298,306,160239,6,0,P|374:297|422:356,1,159.500004867554,2|8,0:2|0:1,0:0:0:0:
492,303,160678,2,0,P|496:263|506:224,1,79.7500024337769,8|0,0:2|0:0,0:0:0:0:
424,192,160970,1,10,0:1:0:0:
493,137,161117,1,8,0:1:0:0:
418,90,161263,2,0,P|426:51|441:13,1,79.7500024337769,10|8,0:2|0:1,0:0:0:0:
335,143,161556,6,0,P|259:148|223:81,1,159.500004867554,2|8,0:2|0:2,0:0:0:0:
140,50,161995,1,2,0:2:0:0:
57,78,162141,2,0,P|70:138|76:215,1,119.625003650665,10|0,0:1|0:0,0:0:0:0:
77,217,162434,2,0,P|114:205|164:199,1,79.7500024337769,8|2,0:2|0:2,0:0:0:0:
225,271,162726,6,0,P|247:303|243:342,1,79.7500024337769,10|8,0:1|0:1,0:0:0:0:
157,364,163019,2,0,P|134:331|138:292,1,79.7500024337769,8|0,0:2|0:0,0:0:0:0:
243,184,163312,6,0,P|245:164|248:144,3,39.8750012168885,14|8|8|8,0:1|0:2|0:2|0:2,0:0:0:0:
223,123,163605,2,0,P|220:103|217:83,3,39.8750012168885,10|8|10|8,0:2|0:2|0:2|0:2,0:0:0:0:
237,46,163897,6,0,P|312:37|352:101,2,159.500004867554,14|8|8,0:1|0:2|0:1,0:0:0:0:
173,107,164629,1,8,0:1:0:0:
97,62,164775,1,10,0:2:0:0:
17,100,164922,6,0,P|36:177|43:256,1,159.500004867554,10|8,0:1|0:1,0:0:0:0:
6,336,165361,2,0,P|36:362|75:363,1,79.7500024337769,8|0,0:2|0:0,0:0:0:0:
137,301,165653,1,10,0:1:0:0:
203,358,165800,1,8,0:1:0:0:
275,308,165946,2,0,P|271:268|263:229,1,79.7500024337769,8|2,0:2|0:2,0:0:0:0:
368,128,166239,6,0,P|424:121|458:167,1,119.625003650665,14|0,0:1|0:0,0:0:0:0:
470,188,166531,2,0,P|473:148|481:109,1,79.7500024337769,8|0,0:2|0:0,0:0:0:0:
388,213,166824,1,8,0:1:0:0:
388,213,166970,1,8,0:1:0:0:
442,282,167117,1,10,0:2:0:0:
339,364,167263,6,0,P|262:358|229:290,1,159.500004867554,10|8,0:1|0:1,0:0:0:0:
213,203,167702,2,0,P|253:200|292:193,1,79.7500024337769,10|0,0:2|0:0,0:0:0:0:
147,264,167995,2,0,P|107:266|68:273,1,79.7500024337769,10|8,0:1|0:1,0:0:0:0:
1,167,168287,2,0,P|39:162|71:186,1,79.7500024337769,10|2,0:2|0:2,0:0:0:0:
234,58,168580,6,0,P|177:64|153:116,1,119.625003650665,14|0,0:1|0:0,0:0:0:0:
146,137,168873,2,0,P|141:97|132:58,1,79.7500024337769,8|2,0:2|0:2,0:0:0:0:
235,139,169165,1,8,0:1:0:0:
298,199,169312,2,0,P|289:237|284:277,1,79.7500024337769,8|2,0:1|0:2,0:0:0:0:
371,342,169605,6,0,P|377:262|393:184,1,159.500004867554,8|10,0:2|0:1,0:0:0:0:
502,86,170044,2,0,P|470:110|431:111,1,79.7500024337769,8|0,0:2|0:0,0:0:0:0:
370,55,170336,1,10,0:1:0:0:
370,55,170483,1,10,0:1:0:0:
294,95,170629,1,10,0:2:0:0:
294,95,170775,1,2,0:2:0:0:
235,29,170922,6,0,P|159:20|115:82,1,159.500004867554,14|8,0:1|0:2,0:0:0:0:
136,168,171361,1,2,0:2:0:0:
54,201,171507,2,0,B|145:196|112:248|203:242,1,159.500004867554,10|2,0:1|0:3,0:0:0:0:
267,181,171946,1,10,0:2:0:0:
324,247,172092,6,0,P|316:284|312:327,1,79.7500024337769,2|8,0:2|0:1,0:0:0:0:
482,304,172385,2,0,P|443:296|403:294,1,79.7500024337769,10|0,0:2|0:0,0:0:0:0:
447,211,172678,6,0,P|450:192|452:172,3,39.8750012168885,14|8|8|8,0:1|0:2|0:2|0:2,0:0:0:0:
418,145,172970,2,0,P|415:125|412:105,3,39.8750012168885,10|8|8|8,0:2|0:2|0:2|0:2,0:0:0:0:
419,74,173263,6,0,P|459:73|501:64,1,79.7500024337769,14|2,0:1|0:2,0:0:0:0:
341,25,173556,2,0,P|265:24|231:91,1,159.500004867554,10|10,0:2|0:1,0:0:0:0:
170,155,173995,1,10,0:1:0:0:
88,122,174141,2,0,P|83:82|75:43,1,79.7500024337769,12|2,0:2|0:2,0:0:0:0:
0,155,174434,5,10,0:1:0:0:
0,155,174580,1,10,0:1:0:0:
42,231,174726,2,0,P|80:234|112:212,1,79.7500024337769,14|0,0:2|0:0,0:0:0:0:
190,252,175019,2,0,P|192:271|192:291,3,39.8750012168885,10|8|10|8,0:1|0:2|0:2|0:2,0:0:0:0:
206,318,175312,2,0,P|246:310|285:311,1,79.7500024337769,10|10,0:3|0:3,0:0:0:0:
349,251,175605,6,0,P|387:259|408:291,1,79.7500024337769,14|0,0:1|0:0,0:0:0:0:
495,333,175897,2,0,P|490:293|491:253,1,79.7500024337769,10|2,0:2|0:2,0:0:0:0:
448,175,176190,1,10,0:1:0:0:
484,85,176336,2,0,P|444:149|369:140,1,159.500004867554,10|10,0:1|0:2,0:0:0:0:
297,87,176775,6,0,P|300:47|306:8,1,79.7500024337769,2|10,0:2|0:1,0:0:0:0:
207,66,177068,2,0,P|203:105|197:144,1,79.7500024337769,10|2,0:2|0:2,0:0:0:0:
236,224,177361,2,0,P|275:226|318:235,2,79.7500024337769,10|10|10,0:1|0:1|0:2,0:0:0:0:
176,288,177800,1,2,0:2:0:0:
66,355,177946,6,0,P|11:337|0:281,1,119.625003650665,12|0,0:1|0:0,0:0:0:0:
0,282,178239,1,10,0:2:0:0:
40,203,178385,2,0,P|80:201|119:191,1,79.7500024337769,2|8,0:2|0:1,0:0:0:0:
102,104,178678,2,0,P|63:114|23:116,1,79.7500024337769,10|2,0:1|0:3,0:0:0:0:
98,21,178970,1,10,0:2:0:0:
181,48,179117,6,0,P|202:81|201:120,1,79.7500024337769,2|10,0:2|0:1,0:0:0:0:
170,202,179409,1,8,0:2:0:0:
244,249,179556,2,0,P|283:238|323:237,1,79.7500024337769,2|8,0:2|0:1,0:0:0:0:
175,313,179848,1,10,0:1:0:0:
258,340,179995,2,0,P|296:329|336:328,1,79.7500024337769,10|2,0:2|0:2,0:0:0:0:
417,358,180287,5,14,0:1:0:0:
487,306,180434,2,0,P|498:267|485:230,1,79.7500024337769,2|8,0:2|0:2,0:0:0:0:
502,144,180726,2,0,B|415:136|436:191|352:184,1,159.500004867554,2|10,0:2|0:1,0:0:0:0:
305,109,181165,1,2,0:2:0:0:
225,71,181312,6,0,P|139:78|122:159,1,159.500004867554,10|10,0:2|0:1,0:0:0:0:
34,185,181751,2,0,P|30:145|22:106,1,79.7500024337769,10|2,0:2|0:2,0:0:0:0:
130,220,182044,2,0,P|132:239|135:259,3,39.8750012168885,10|8|10|8,0:1|0:2|0:2|0:2,0:0:0:0:
109,287,182336,2,0,P|112:306|114:326,3,39.8750012168885,10|8|10|8,0:2|0:2|0:2|0:2,0:0:0:0:
143,354,182629,6,0,P|201:359|234:312,1,119.625003650665,12|0,0:1|0:0,0:0:0:0:
233,290,182922,2,0,P|232:250|224:211,1,79.7500024337769,10|0,0:2|0:0,0:0:0:0:
277,142,183214,1,10,0:1:0:0:
277,142,183361,1,10,0:1:0:0:
201,98,183507,1,2,0:3:0:0:
255,29,183653,6,0,P|335:32|412:13,1,159.500004867554,10|10,0:2|0:1,0:0:0:0:
480,68,184092,1,10,0:2:0:0:
438,146,184239,2,0,P|382:133|347:181,1,119.625003650665,2|0,0:2|0:0,0:0:0:0:
347,176,184531,1,10,0:1:0:0:
414,245,184678,2,0,P|454:242|493:233,1,79.7500024337769,8|0,0:2|0:0,0:0:0:0:
374,327,184970,6,0,P|335:328|308:356,1,79.7500024337769,14|2,0:1|0:2,0:0:0:0:
222,384,185263,2,0,P|221:344|213:305,1,79.7500024337769,10|0,0:2|0:0,0:0:0:0:
158,242,185556,1,10,0:1:0:0:
158,242,185702,1,10,0:1:0:0:
87,293,185848,1,2,0:2:0:0:
15,242,185995,6,0,P|3:167|68:130,1,159.500004867554,10|10,0:2|0:1,0:0:0:0:
147,89,186434,2,0,P|143:48|134:8,1,79.7500024337769,10|2,0:2|0:2,0:0:0:0:
232,39,186726,1,8,0:1:0:0:
232,39,186873,1,10,0:1:0:0:
311,74,187019,2,0,P|319:112|322:152,1,79.7500024337769,10|0,0:2|0:0,0:0:0:0:
422,242,187312,6,0,P|350:231|309:303,1,159.500004867554,14|8,0:1|0:2,0:0:0:0:
238,349,187751,2,0,P|166:360|125:288,1,159.500004867554,2|8,0:2|0:1,0:0:0:0:
165,216,188190,1,2,0:2:0:0:
90,168,188336,6,0,P|51:177|11:180,1,79.7500024337769,10|2,0:2|0:3,0:0:0:0:
43,71,188629,1,10,0:1:0:0:
129,87,188775,2,0,P|168:84|207:75,1,79.7500024337769,10|0,0:2|0:0,0:0:0:0:
277,20,189068,1,10,0:1:0:0:
277,20,189214,1,10,0:1:0:0:
363,30,189361,2,0,P|385:63|380:102,1,79.7500024337769,10|2,0:2|0:2,0:0:0:0:
472,179,189653,6,0,P|392:183|316:205,1,159.500004867554,14|10,0:1|0:2,0:0:0:0:
244,256,190092,2,0,P|205:260|171:239,1,79.7500024337769,2|10,0:2|0:1,0:0:0:0:
125,170,190385,5,10,0:1:0:0:
46,208,190531,2,0,P|53:247|57:286,1,79.7500024337769,2|10,0:2|0:2,0:0:0:0:
125,170,190824,5,2,0:3:0:0:
198,122,190970,2,0,P|192:81|188:30,1,79.7500024337769,10|14,0:1|0:2,0:0:0:0:
286,75,191263,5,10,0:1:0:0:
353,130,191409,2,0,P|373:128|393:126,3,39.8750012168885,10|8|8|8,0:2|0:2|0:2|0:2,0:0:0:0:
417,97,191702,2,0,P|436:100|456:102,3,39.8750012168885,10|8|8|8,0:3|0:3|0:3|0:3,0:0:0:0:
486,127,191995,5,14,0:1:0:0:
256,192,206044,12,2,210141,0:2:0:0:
256,140,210434,5,2,0:2:0:0:
173,52,210580,6,0,P|97:48|59:114,1,159.500004867554,14|8,0:1|0:1,0:0:0:0:
0,196,211019,2,0,B|88:193|49:250|152:240,1,159.500004867554,8|8,0:2|0:1,0:0:0:0:
212,181,211458,1,8,0:1:0:0:
286,228,211605,1,10,0:2:0:0:
353,172,211751,6,0,P|356:87|377:15,1,159.500004867554,2|8,0:2|0:1,0:0:0:0:
449,61,212190,2,0,P|440:99|438:145,1,79.7500024337769,8|0,0:2|0:0,0:0:0:0:
477,223,212483,1,10,0:1:0:0:
477,223,212629,1,10,0:1:0:0:
413,282,212775,1,10,0:2:0:0:
457,379,212922,6,0,P|404:323|327:332,1,159.500004867554,14|8,0:1|0:1,0:0:0:0:
246,379,213361,2,0,P|241:297|223:215,1,159.500004867554,8|8,0:2|0:1,0:0:0:0:
166,155,213800,1,8,0:1:0:0:
89,198,213946,1,10,0:2:0:0:
15,150,214092,6,0,P|6:75|72:38,1,159.500004867554,2|8,0:2|0:1,0:0:0:0:
154,61,214531,2,0,P|194:61|233:53,1,79.7500024337769,8|0,0:2|0:0,0:0:0:0:
318,88,214824,1,10,0:1:0:0:
318,88,214970,1,10,0:1:0:0:
386,32,215117,1,10,0:2:0:0:
494,113,215263,6,0,P|507:186|443:224,1,159.500004867554,14|8,0:1|0:1,0:0:0:0:
366,181,215702,2,0,B|285:173|304:224|212:208,1,159.500004867554,8|8,0:2|0:1,0:0:0:0:
164,134,216141,1,8,0:1:0:0:
87,177,216287,1,10,0:2:0:0:
0,136,216434,6,0,P|14:214|19:293,1,159.500004867554,2|8,0:2|0:1,0:0:0:0:
82,354,216873,2,0,P|121:359|155:338,1,79.7500024337769,8|0,0:2|0:0,0:0:0:0:
256,246,217165,2,0,P|216:247|177:253,1,79.7500024337769,10|8,0:1|0:1,0:0:0:0:
110,195,217457,1,10,0:2:0:0:
149,115,217604,1,8,0:1:0:0:
106,22,217751,6,0,P|159:79|235:69,1,159.500004867554,2|8,0:2|0:2,0:0:0:0:
299,8,218190,1,2,0:2:0:0:
383,31,218336,2,0,P|377:91|371:151,1,119.625003650665,10|0,0:1|0:0,0:0:0:0:
360,167,218629,2,0,P|322:154|282:155,1,79.7500024337769,8|2,0:2|0:2,0:0:0:0:
288,312,218921,6,0,P|309:279|305:240,1,79.7500024337769,10|8,0:1|0:1,0:0:0:0:
219,218,219214,2,0,P|197:250|201:289,1,79.7500024337769,8|0,0:2|0:0,0:0:0:0:
384,355,219507,6,0,P|387:335|391:315,3,39.8750012168885,14|8|8|8,0:1|0:2|0:2|0:2,0:0:0:0:
421,292,219800,2,0,P|417:272|413:252,3,39.8750012168885,10|8|10|8,0:2|0:2|0:2|0:2,0:0:0:0:
389,218,220092,6,0,P|465:222|511:161,2,159.500004867554,14|8|8,0:1|0:2|0:1,0:0:0:0:
308,181,220824,1,8,0:1:0:0:
242,239,220970,1,10,0:2:0:0:
155,224,221117,6,0,P|145:144|126:67,1,159.500004867554,10|8,0:1|0:1,0:0:0:0:
197,17,221556,2,0,P|237:14|276:5,1,79.7500024337769,8|0,0:2|0:0,0:0:0:0:
342,62,221848,1,10,0:1:0:0:
424,31,221995,1,8,0:1:0:0:
497,75,222141,2,0,P|513:111|501:148,1,79.7500024337769,8|2,0:2|0:2,0:0:0:0:
375,165,222434,6,0,P|308:165|289:220,1,119.625003650665,14|0,0:1|0:0,0:0:0:0:
288,225,222726,2,0,P|295:264|299:303,1,79.7500024337769,8|0,0:2|0:0,0:0:0:0:
236,367,223019,1,8,0:1:0:0:
236,367,223165,1,8,0:1:0:0:
159,323,223312,1,10,0:2:0:0:
86,373,223458,6,0,P|20:336|24:260,1,159.500004867554,10|8,0:1|0:1,0:0:0:0:
82,194,223897,2,0,P|117:185|170:179,1,79.7500024337769,10|0,0:2|0:0,0:0:0:0:
145,17,224190,2,0,P|150:56|153:96,1,79.7500024337769,10|8,0:1|0:1,0:0:0:0:
251,213,224483,2,0,P|244:173|241:133,1,79.7500024337769,10|0,0:2|0:0,0:0:0:0:
328,24,224775,6,0,P|385:19|423:62,1,119.625003650665,14|0,0:1|0:0,0:0:0:0:
424,63,225068,1,8,0:1:0:0:
512,140,225214,2,0,B|424:128|456:182|360:171,1,159.500004867554,10|8,0:2|0:1,0:0:0:0:
283,130,225653,1,10,0:2:0:0:
207,33,225800,6,0,P|131:33|97:101,1,159.500004867554,12|10,0:1|0:1,0:0:0:0:
154,166,226238,1,8,0:2:0:0:
95,232,226385,2,0,P|55:239|16:243,1,79.7500024337769,8|2,0:1|0:2,0:0:0:0:
41,336,226678,1,10,0:3:0:0:
41,336,226751,1,8,0:3:0:0:
41,336,226824,2,0,P|61:331|81:329,3,39.8750012168885,10|8|8|8,0:3|0:3|0:3|0:3,0:0:0:0:
108,353,227117,6,0,P|184:359|226:295,1,159.500004867554,14|8,0:1|0:1,0:0:0:0:
226,207,227556,2,0,P|218:127|199:50,1,159.500004867554,10|8,0:2|0:1,0:0:0:0:
274,4,227995,1,10,0:2:0:0:
313,114,228141,6,0,B|400:102|382:156|468:140,1,159.500004867554,12|8,0:1|0:3,0:0:0:0:
508,217,228580,2,0,P|500:256|498:296,1,79.7500024337769,10|12,0:2|0:1,0:0:0:0:
418,332,228873,1,2,0:2:0:0:
409,253,229019,1,8,0:2:0:0:
409,253,229092,1,8,0:2:0:0:
409,253,229165,2,0,P|389:249|369:248,3,39.8750012168885,10|8|8|8,0:3|0:3|0:3|0:3,0:0:0:0:
336,263,229458,6,0,B|321:318|294:351|248:374|136:374|88:300|84:204|125:141|207:106|289:104|282:146|281:194|335:226|367:207|402:178|425:130|411:73|359:56|315:57|288:101,1,710.499978317261,14|2,0:1|0:2,0:0:0:0:
69,210,231800,6,0,P|8:180|16:113,1,145,14|8,0:1|0:3,0:0:0:0:
62,39,232239,1,14,0:1:0:0:
145,63,232385,2,0,B|227:55|202:98|284:89,1,145,8|14,0:3|0:1,0:0:0:0:
344,26,232824,1,8,0:3:0:0:
430,33,232970,6,0,P|445:65|441:100,1,72.5,8|14,0:3|0:1,0:0:0:0:
365,143,233263,2,0,P|369:178|372:215,1,72.5,8|8,0:3|0:3,0:0:0:0:
464,289,233556,6,0,L|427:292,3,36.25,14|8|8|8,0:1|0:3|0:3|0:3,0:0:0:0:
401,317,233848,2,0,L|364:320,3,36.25,14|8|8|8,0:1|0:3|0:3|0:3,0:0:0:0:
336,295,234141,6,0,P|260:283|213:343,1,159.500004867554,14|8,0:1|0:3,0:0:0:0:
125,381,234580,2,0,P|117:301|101:223,1,159.500004867554,14|8,0:1|0:3,0:0:0:0:
34,154,235019,6,0,P|68:86|143:86,1,159.500004867554,14|8,0:1|0:3,0:0:0:0:
217,145,235458,2,0,P|293:157|341:98,1,159.500004867554,14|8,0:1|0:3,0:0:0:0:
417,37,235898,2,0,P|456:36|495:29,1,79.7500024337769,14|8,0:1|0:3,0:0:0:0:
508,123,236190,2,0,P|469:131|429:132,1,79.7500024337769,14|8,0:1|0:3,0:0:0:0:
344,225,236483,6,0,P|330:262|339:301,1,79.7500024337769,14|8,0:1|0:3,0:0:0:0:
428,265,236775,1,8,0:3:0:0:
353,317,236922,2,0,B|262:312|296:361|203:359,1,159.500004867554,14|8,0:1|0:3,0:0:0:0:
107,354,237361,6,0,P|46:309|64:235,1,159.500004867554,14|8,0:1|0:3,0:0:0:0:
0,170,237800,2,0,P|76:195|156:198,1,159.500004867554,14|8,0:1|0:3,0:0:0:0:
210,119,238239,2,0,P|206:79|197:40,1,79.7500024337769,14|8,0:1|0:3,0:0:0:0:
291,28,238531,2,0,P|299:66|303:106,1,79.7500024337769,14|8,0:1|0:3,0:0:0:0:
345,214,238824,6,0,P|384:212|423:204,1,79.7500024337769,14|8,0:1|0:3,0:0:0:0:
496,253,239117,1,8,0:3:0:0:
477,338,239263,2,0,P|397:338|320:358,1,159.500004867554,14|8,0:1|0:3,0:0:0:0:
214,357,239702,6,0,P|149:297|188:225,1,159.500004867554,14|8,0:1|0:3,0:0:0:0:
233,178,240141,1,14,0:1:0:0:
320,172,240287,2,0,P|382:173|437:158,1,119.625003650665,8|8,0:3|0:3,0:0:0:0:
455,143,240580,2,0,P|464:104|450:67,1,79.7500024337769,14|8,0:1|0:3,0:0:0:0:
379,25,240873,1,14,0:1:0:0:
379,25,241019,1,8,0:3:0:0:
289,45,241165,6,0,L|295:84,5,39.8750012168885,14|8|8|8|8|8,0:1|0:3|0:3|0:3|0:3|0:3,0:0:0:0:
271,106,241605,2,0,L|265:156,5,39.8750012168885,14|8|8|8|8|8,0:1|0:3|0:3|0:3|0:3|0:3,0:0:0:0:
297,173,242044,5,10,0:2:0:0:
185,116,242190,1,14,0:1:0:0:
