osu file format v14

[General]
AudioFilename: Waiting for the rain.mp3
AudioLeadIn: 0
PreviewTime: 25049
Countdown: 0
SampleSet: Soft
StackLeniency: 0.2
Mode: 0
LetterboxInBreaks: 0
WidescreenStoryboard: 0

[Editor]
Bookmarks: 6413,23867,47140,58049,70413,84958,166413,189685,258413
DistanceSpacing: 2
BeatDivisor: 4
GridSize: 32
TimelineZoom: 2.3

[Metadata]
Title:Waiting for the rain
TitleUnicode:Waiting for the rain
Artist:Sakamoto Maaya
ArtistUnicode:坂本真綾
Creator:Cami
Version:All alone
Source:学戦都市アスタリスク
Tags:full ver. gakusen toshi asterisk ending
BeatmapID:1736401
BeatmapSetID:828802

[Difficulty]
HPDrainRate:4.1
CircleSize:4
OverallDifficulty:6
ApproachRate:8
SliderMultiplier:1.63
SliderTickRate:1

[Events]
//Background and Video events
0,0,"nice bg loll.png",0,0
//Break Periods
2,126340,140935
//Storyboard Layer 0 (Background)
//Storyboard Layer 1 (Fail)
//Storyboard Layer 2 (Pass)
//Storyboard Layer 3 (Foreground)
//Storyboard Sound Samples

[TimingPoints]
595,727.272727272727,4,2,1,40,1,0
47140,-95.2380952380952,4,2,1,40,0,0
93685,-80,4,2,1,60,0,1
94594,-80,4,2,1,60,0,0
94776,-80,4,2,1,60,0,1
100413,-80,4,2,1,60,0,0
100594,-80,4,2,2,60,0,1
100776,-80,4,2,1,60,0,1
104958,-80,4,2,1,60,0,0
105322,-80,4,2,1,60,0,1
106231,-80,4,2,1,60,0,0
106413,-80,4,2,1,60,0,1
112049,-80,4,2,1,60,0,0
112231,-80,4,2,1,60,0,1
116594,-80,4,2,1,60,0,0
116958,-80,4,2,1,60,0,1
119867,-100,4,2,1,60,0,0
143867,-100,4,2,1,50,0,0
166413,-95.2380952380952,4,2,1,50,0,0
189685,-80,4,2,1,60,0,1
190594,-80,4,2,1,60,0,0
190776,-80,4,2,1,60,0,1
196413,-80,4,2,1,60,0,0
196594,-80,4,2,2,60,0,1
196776,-80,4,2,1,60,0,1
200958,-80,4,2,1,60,0,0
201322,-80,4,2,1,60,0,1
202231,-80,4,2,1,60,0,0
202413,-80,4,2,1,60,0,1
206776,-80,4,2,1,60,0,0
207140,-80,4,2,1,60,0,1
208049,-80,4,2,1,60,0,0
208231,-80,4,2,1,60,0,1
212594,-80,4,2,1,60,0,0
212958,-80,4,2,1,60,0,1
213867,-80,4,2,1,60,0,0
214049,-80,4,2,2,60,0,1
214231,-80,4,2,1,60,0,1
218413,-80,4,2,1,60,0,0
218776,-80,4,2,1,60,0,1
219685,-80,4,2,1,60,0,0
219867,-80,4,2,1,60,0,1
224231,-80,4,2,1,60,0,0
224594,-80,4,2,1,60,0,1
225504,-80,4,2,1,60,0,0
225685,-80,4,2,2,60,0,1
225867,-80,4,2,1,60,0,1
230049,-80,4,2,1,60,0,0
230413,-80,4,2,1,60,0,1
231322,-80,4,2,1,60,0,0
231504,-80,4,2,2,60,0,1
231685,-80,4,2,1,60,0,1
235867,-80,4,2,1,60,0,0
236231,-80,4,2,1,70,0,1
238413,-80,4,2,1,70,0,1
238594,-80,4,2,1,70,0,1
239140,-100,4,2,1,70,0,0
244958,-100,4,2,1,40,0,0
248958,-100,4,2,1,5,0,0

[Colours]
Combo1 : 255,145,255
Combo2 : 183,183,183

[HitObjects]
170,188,23867,5,2,0:0:0:0:
197,290,24049,1,0,0:0:0:0:
299,263,24231,1,2,0:0:0:0:
299,263,25140,1,2,0:0:0:0:
234,213,25322,6,0,P|227:152|249:81,1,122.25,2|0,0:0|0:0,0:0:0:0:
317,59,26049,2,0,P|324:98|312:137,1,81.5,2|0,0:0|0:0,0:0:0:0:
244,181,26594,1,2,0:0:0:0:
341,213,26776,5,2,0:0:0:0:
265,281,26958,1,2,0:0:0:0:
333,357,27140,1,2,0:0:0:0:
333,357,29685,5,2,0:0:0:0:
257,288,29867,1,2,0:0:0:0:
326,212,30049,1,2,0:0:0:0:
326,212,30958,1,2,0:0:0:0:
244,212,31140,6,0,B|205:216|188:197|188:197|169:176|125:180,1,122.25,2|0,0:0|0:0,0:0:0:0:
62,222,31867,2,0,P|92:250|130:261,1,81.5,2|0,0:0|0:0,0:0:0:0:
203,222,32413,1,2,0:0:0:0:
186,322,32594,5,2,0:0:0:0:
272,268,32776,1,0,0:0:0:0:
326,354,32958,1,2,0:0:0:0:
326,354,35504,5,2,0:0:0:0:
343,254,35685,1,2,0:0:0:0:
243,237,35867,1,2,0:0:0:0:
243,237,36776,1,0,0:0:0:0:
191,173,36958,6,0,L|184:83,1,81.5,2|0,0:0|0:0,0:0:0:0:
110,56,37504,1,2,0:0:0:0:
174,6,37685,2,0,P|218:10|258:45,1,81.5,2|0,0:0|0:0,0:0:0:0:
265,110,38231,1,2,0:0:0:0:
345,47,38413,5,2,0:0:0:0:
408,126,38594,1,0,0:0:0:0:
328,190,38776,1,2,0:0:0:0:
328,190,40958,5,2,0:0:0:0:
328,271,41140,1,2,0:0:0:0:
430,280,41322,6,0,P|446:238|445:151,1,122.25,2|0,0:0|0:0,0:0:0:0:
447,160,44231,6,0,P|347:176|255:135,1,203.75
255,135,45867,2,0,P|266:209|259:312,1,163
261,296,47140,5,0,0:0:0:0:
359,255,47322,1,2,0:0:0:0:
400,353,47504,1,2,0:0:0:0:
400,353,48413,1,2,0:0:0:0:
472,307,48594,6,0,P|480:244|470:181,1,128.362496082688,2|0,0:0|0:0,0:0:0:0:
384,171,49322,2,0,P|322:188|260:178,1,128.362496082688,2|0,0:0|0:0,0:0:0:0:
170,119,50049,5,2,0:0:0:0:
187,224,50231,1,0,0:0:0:0:
205,328,50413,1,2,0:0:0:0:
205,328,52958,5,0,0:0:0:0:
212,221,53140,1,2,0:0:0:0:
319,228,53322,1,2,0:0:0:0:
319,228,54231,1,2,0:0:0:0:
269,158,54413,6,0,P|210:142|133:147,1,128.362496082688,2|0,0:0|0:0,0:0:0:0:
83,82,55140,2,0,P|126:68|175:2,1,128.362496082688,2|0,0:0|0:0,0:0:0:0:
255,32,55867,6,0,P|271:89|240:232,1,192.543744124031,2|0,0:0|0:0,0:0:0:0:
174,258,56958,1,2,0:0:0:0:
281,296,57322,1,2,0:0:0:0:
281,296,58049,6,0,P|320:309|361:348,1,85.5749973884583,2|0,0:0|0:0,0:0:0:0:
353,337,58776,5,0,0:0:0:0:
386,235,58958,1,2,0:0:0:0:
386,235,60049,1,2,0:0:0:0:
303,259,60231,6,0,P|258:282|220:359,1,128.362496082688,2|0,0:0|0:0,0:0:0:0:
157,291,60958,2,0,P|159:247|131:176,1,85.5749973884583,2|0,0:0|0:0,0:0:0:0:
120,126,61504,1,2,0:0:0:0:
179,36,61685,5,2,0:0:0:0:
204,139,61867,1,2,0:0:0:0:
307,114,62049,1,2,0:0:0:0:
307,114,64231,1,2,0:0:0:0:
389,89,64413,1,2,0:0:0:0:
350,187,64594,6,0,P|336:241|341:336,1,128.362496082688,2|0,0:0|0:0,0:0:0:0:
256,192,68231,12,0,70049,0:0:0:0:
248,239,70413,6,0,B|267:199|222:168|222:168|139:211|176:336,1,256.724992165375,6|0,0:0|0:0,0:0:0:0:
171,318,71867,2,0,B|150:233|85:238|85:238|16:242|1:152,1,256.724992165375,2|0,0:0|0:0,0:0:0:0:
2,159,73322,6,0,B|42:130|96:146|96:146|159:161|206:122|206:122|184:140|176:162,1,256.724992165375,2|0,0:0|0:0,0:0:0:0:
179,152,74776,2,0,P|287:92|398:147,1,256.724992165375,2|0,0:1|0:0,0:0:0:0:
397,145,76231,6,0,P|419:181|430:222,1,85.5749973884583,2|0,0:1|0:0,0:0:0:0:
311,135,76958,2,0,P|331:97|361:67,1,85.5749973884583,2|0,0:1|0:0,0:0:0:0:
346,215,77686,2,0,P|303:215|262:204,1,85.5749973884583,2|0,0:1|0:0,0:0:0:0:
147,294,78413,2,0,P|188:283|231:284,1,85.5749973884583,2|0,0:1|0:0,0:0:0:0:
96,229,79140,6,0,B|124:203|129:160|116:119|88:90|69:53|71:20|89:-3|144:-13|196:0|187:51|170:78,1,342.299989553833,2|0,0:1|0:0,0:0:0:0:
174,70,81322,1,2,0:1:0:0:
221,141,81686,1,2,0:0:0:0:
320,100,82049,6,0,P|314:130|321:191,1,85.5749973884583,2|0,0:0|0:0,0:0:0:0:
305,291,82777,2,0,P|282:270|225:246,1,85.5749973884583,2|0,0:1|0:0,0:0:0:0:
146,182,83504,2,0,P|186:166|220:140,1,85.5749973884583
221,141,84231,5,2,0:0:0:0:
152,64,84595,1,2,0:0:0:0:
262,18,84958,6,0,B|287:54|264:105|264:105|214:178|271:267|271:267|266:221|279:187,1,342.299989553833,2|0,0:0|0:0,0:0:0:0:
277,190,87140,5,2,0:0:0:0:
392,222,87504,1,2,0:0:0:0:
281,302,87867,6,0,B|215:330|158:299|158:299|110:271|60:292|60:292|76:282|86:271,1,256.724992165375,2|8,0:1|0:3,0:0:0:0:
81,275,89504,1,8,0:3:0:0:
81,275,89686,1,8,0:3:0:0:
90,138,90049,1,8,0:3:0:0:
228,129,90595,6,0,L|257:121,2,21.3937493471146,0|8|8,0:0|0:0|0:3,0:0:0:0:
228,129,90958,1,8,0:3:0:0:
151,15,91322,1,8,0:3:0:0:
228,129,91686,1,4,0:3:0:0:
90,138,92049,1,8,0:3:0:0:
158,134,92231,1,4,0:3:0:0:
73,147,92413,5,12,0:3:0:0:
175,143,92595,1,12,0:3:0:0:
56,156,92777,1,12,0:3:0:0:
192,152,92958,5,12,0:3:0:0:
328,148,93140,1,8,0:0:0:0:
257,214,93322,1,0,0:0:0:0:
253,78,93504,1,8,0:3:0:0:
349,242,93686,6,0,P|299:299|225:303,1,152.8125,6|0,0:0|0:0,0:0:0:0:
142,237,94413,2,0,L|150:286,1,50.9375,8|0,0:0|0:0,0:0:0:0:
336,167,94777,6,0,B|485:189|485:189|440:161,1,203.75,4|0,1:1|0:0,0:0:0:0:
302,94,95867,6,0,L|302:44,1,50.9375,10|0,0:0|0:0,0:0:0:0:
227,25,96231,2,0,P|229:50|227:76,1,50.9375,2|0,0:0|0:0,0:0:0:0:
225,202,96595,6,0,P|227:177|225:152,1,50.9375,2|0,1:2|0:0,0:0:0:0:
153,126,96958,2,0,P|151:151|152:177,1,50.9375,2|0,0:0|0:0,0:0:0:0:
273,261,97322,6,0,L|324:259,1,50.9375,8|0,0:0|0:0,0:0:0:0:
217,313,97686,2,0,B|70:298|70:298|120:271,1,203.75,2|0,1:2|0:0,0:0:0:0:
191,237,98595,1,2,0:0:0:0:
293,332,98777,6,0,L|283:381,1,50.9375,10|0,0:0|0:0,0:0:0:0:
351,281,99140,1,2,0:0:0:0:
367,356,99322,1,2,0:0:0:0:
335,206,99504,6,0,B|445:209|445:209|492:181,1,152.8125,2|8,1:2|0:3,0:0:0:0:
399,93,100231,1,8,0:0:0:0:
408,169,100413,1,8,0:3:0:0:
420,338,100595,6,0,B|436:279|436:279|416:244,2,101.875,4|0|0,1:1|0:0|0:0,0:0:0:0:
336,211,101686,2,0,B|222:233|222:233|269:240,1,152.8125,8|0,0:0|0:0,0:0:0:0:
160,291,102413,6,0,P|141:259|149:189,1,101.875,2|0,1:2|0:0,0:0:0:0:
219,180,102958,1,2,0:0:0:0:
258,93,103140,6,0,L|193:106,1,50.9375,8|0,0:0|0:0,0:0:0:0:
123,34,103504,2,0,B|84:130|84:130|133:121,1,152.8125,2|8,1:2|0:3,0:0:0:0:
133,121,104413,1,0,1:0:0:0:
215,250,104595,5,8,0:0:0:0:
174,185,104777,1,8,0:3:0:0:
133,121,104958,1,4,0:3:0:0:
174,185,105140,1,8,0:3:0:0:
199,82,105322,6,0,P|240:143|313:159,1,152.8125,6|0,1:2|0:0,0:0:0:0:
399,95,106049,2,0,L|388:145,1,50.9375,8|0,0:0|0:0,0:0:0:0:
456,323,106413,6,0,B|469:178|469:178|422:213,1,203.75,4|0,1:0|0:0,0:0:0:0:
292,293,107504,6,0,L|230:290,1,50.9375,10|0,0:0|0:0,0:0:0:0:
213,221,107867,2,0,P|253:219|275:224,1,50.9375,2|0,0:0|0:0,0:0:0:0:
349,151,108231,6,0,P|324:154|299:152,1,50.9375,2|0,1:2|0:0,0:0:0:0:
239,103,108595,2,0,P|213:100|188:103,1,50.9375,2|0,0:2|0:0,0:0:0:0:
68,97,108958,5,10,0:0:0:0:
126,148,109140,1,2,0:0:0:0:
113,35,109322,2,0,B|226:14|226:14|277:32,1,152.8125,2|0,1:2|0:0,0:0:0:0:
316,84,110049,1,2,0:0:0:0:
239,103,110231,1,2,0:0:0:0:
184,199,110413,6,0,L|222:232,1,50.9375,8|0,0:0|0:0,0:0:0:0:
126,148,110777,1,2,0:0:0:0:
110,223,110958,1,2,0:0:0:0:
61,107,111140,6,0,B|101:79|101:79|214:68,1,152.8125,0|0,1:2|0:0,0:0:0:0:
284,183,111867,1,8,0:0:0:0:
270,108,112049,1,8,0:3:0:0:
186,273,112231,6,0,B|341:280|341:280|297:257,1,203.75,4|0,1:0|0:0,0:0:0:0:
159,190,113322,6,0,L|101:194,1,50.9375,8|0,0:0|0:0,0:0:0:0:
48,241,113686,2,0,P|42:266|41:292,1,50.9375,2|0,0:0|0:0,0:0:0:0:
52,140,114049,6,0,B|40:21|40:21|60:47,1,152.8125,2|0,1:2|0:0,0:0:0:0:
108,193,114777,2,0,L|270:188,1,152.8125,8|0,0:0|0:0,0:0:0:0:
303,124,115504,2,0,P|337:170|286:261,1,152.8125,0|0,1:0|0:0,0:0:0:0:
158,294,116231,1,8,0:0:0:0:
231,273,116413,1,2,0:0:0:0:
285,326,116595,1,2,0:0:0:0:
212,347,116777,1,2,0:0:0:0:
304,252,116958,6,0,P|378:256|435:208,1,152.8125,6|0,1:2|0:0,0:0:0:0:
472,99,117686,2,0,L|484:149,1,50.9375,8|0,0:0|0:0,0:0:0:0:
406,60,118049,5,4,0:3:0:0:
405,137,118231,1,8,0:3:0:0:
405,137,118594,1,8,0:3:0:0:
185,71,119140,5,8,0:0:0:0:
316,149,119504,1,0,1:0:0:0:
182,223,119867,1,2,0:0:0:0:
256,192,120049,12,0,126140,0:0:0:0:
256,192,141685,12,0,143140,1:0:0:0:
116,247,143867,6,0,L|206:251,1,81.5,8|0,0:0|1:0,0:0:0:0:
272,218,144413,1,2,0:0:0:0:
309,289,144594,2,0,P|361:306|436:294,1,122.25,2|0,0:0|0:0,0:0:0:0:
499,191,145322,2,0,B|489:249|489:249|508:310,1,122.25,10|0,0:0|0:0,0:0:0:0:
461,377,146049,6,0,L|321:376,1,122.25,2|0,1:0|0:0,0:0:0:0:
211,312,146776,2,0,L|293:308,1,81.5,8|0,0:0|1:0,0:0:0:0:
293,308,148231,1,8,0:0:0:0:
293,308,148958,6,0,B|322:272|322:272|315:179,1,122.25,2|0,1:0|0:0,0:0:0:0:
238,117,149685,2,0,L|234:198,1,81.5,8|0,0:0|1:0,0:0:0:0:
316,196,150231,1,2,0:0:0:0:
350,122,150413,2,0,P|409:109|467:125,1,122.25,2|0,0:0|0:0,0:0:0:0:
506,197,151140,2,0,B|502:245|502:245|483:266|483:266|477:322,1,122.25,10|0,0:0|0:0,0:0:0:0:
398,328,151867,6,0,B|304:349|304:349|329:351,1,122.25,2|0,1:0|0:0,0:0:0:0:
351,255,152594,2,0,L|269:249,1,81.5,10|0,0:0|1:0,0:0:0:0:
269,249,154049,1,8,0:0:0:0:
269,249,154413,1,0,0:0:0:0:
269,249,154594,1,8,0:3:0:0:
200,204,154776,6,0,L|74:228,1,122.25,2|0,1:1|0:0,0:0:0:0:
6,302,155504,2,0,L|88:308,1,81.5,8|0,0:0|1:0,0:0:0:0:
163,338,156049,1,2,0:0:0:0:
241,316,156231,2,0,P|300:324|353:296,1,122.25,2|0,0:0|0:0,0:0:0:0:
452,348,156958,2,0,B|442:263|442:263|464:223,1,122.25,10|0,0:0|0:0,0:0:0:0:
412,164,157685,6,0,B|396:200|363:203|363:203|324:205|308:231,1,122.25,2|0,1:0|0:0,0:0:0:0:
353,296,158413,2,0,L|365:382,1,81.5,8|0,0:0|1:0,0:0:0:0:
364,376,159867,1,8,0:0:0:0:
212,285,160231,1,2,0:0:0:0:
233,206,160413,1,2,0:0:0:0:
207,128,160594,6,0,P|161:167|154:226,1,122.25,2|0,1:1|0:0,0:0:0:0:
201,366,161322,2,0,L|212:285,1,81.5,8|0,0:0|1:0,0:0:0:0:
211,285,162776,1,8,0:0:0:0:
211,285,163504,6,0,B|294:259|294:259|340:275,1,122.25,2|0,1:0|0:0,0:0:0:0:
382,330,164231,1,8,0:0:0:0:
382,330,164958,1,0,1:0:0:0:
391,248,165140,1,8,0:3:0:0:
391,248,165504,5,8,0:3:0:0:
382,330,165685,1,8,0:0:0:0:
300,321,165867,1,8,0:3:0:0:
309,239,166049,1,0,0:0:0:0:
318,157,166231,1,2,0:0:0:0:
189,115,166413,6,0,P|252:109|303:72,1,128.362496082688,4|0,1:2|0:0,0:0:0:0:
415,22,167140,2,0,L|384:102,1,85.5749973884583,8|0,0:0|1:0,0:0:0:0:
308,255,167867,2,0,P|359:292|422:298,1,128.362496082688,2|0,0:2|0:0,0:0:0:0:
503,205,168594,2,0,B|491:246|491:246|501:331,1,128.362496082688,8|0,0:0|0:0,0:0:0:0:
422,298,169322,6,0,B|383:301|366:330|366:330|350:360|303:364,1,128.362496082688,2|0,1:1|0:0,0:0:0:0:
218,281,170049,2,0,L|230:366,1,85.5749973884583,8|0,0:0|1:0,0:0:0:0:
309,214,170776,1,2,0:1:0:0:
8,48,171504,1,8,0:0:0:0:
8,48,172231,6,0,P|58:86|125:83,1,128.362496082688,2|0,1:0|0:0,0:0:0:0:
248,112,172958,2,0,B|211:121|211:121|174:151,1,85.5749973884583,10|0,0:0|1:0,0:0:0:0:
264,296,173685,2,0,P|281:234|237:186,1,128.362496082688,2|0,0:1|0:0,0:0:0:0:
107,182,174413,2,0,B|128:212|128:212|175:228,1,85.5749973884583,8|0,0:0|0:0,0:0:0:0:
48,112,175140,6,0,P|19:150|36:238,1,128.362496082688,2|0,1:1|0:0,0:0:0:0:
43,354,175867,2,0,L|91:283,1,85.5749973884583,8|0,0:0|1:0,0:0:0:0:
286,72,177322,1,10,0:0:0:0:
121,114,177685,1,2,0:0:0:0:
252,225,178049,6,0,B|288:242|320:233|320:233|352:222|388:243,1,128.362496082688,2|0,1:1|0:0,0:0:0:0:
469,312,178776,2,0,L|461:227,1,85.5749973884583,10|0,0:0|1:0,0:0:0:0:
239,328,180231,1,10,0:0:0:0:
120,204,180594,1,0,0:0:0:0:
286,162,180958,6,0,L|433:174,1,128.362496082688,2|0,1:1|0:0,0:0:0:0:
509,250,181685,2,0,L|424:257,1,85.5749973884583,8|0,0:0|1:0,0:0:0:0:
245,64,183140,1,8,0:0:0:0:
182,223,183504,1,0,0:0:0:0:
76,89,183867,6,0,L|81:223,1,128.362496082688,2|8,1:1|0:3,0:0:0:0:
151,326,184594,2,0,L|162:242,1,85.5749973884583,0|0,0:0|1:0,0:0:0:0:
165,102,185140,1,8,0:0:0:0:
165,102,185504,1,8,0:0:0:0:
214,171,185685,1,8,0:3:0:0:
116,33,186049,1,8,0:0:0:0:
214,171,186413,1,8,0:3:0:0:
165,102,186594,1,8,0:3:0:0:
152,102,186776,5,0,1:3:0:0:
212,186,186957,1,8,0:3:0:0:
210,201,187322,5,8,0:3:0:0:
139,102,187504,1,8,0:0:0:0:
208,216,187867,5,8,0:3:0:0:
126,102,188231,1,8,0:3:0:0:
113,102,188776,5,8,0:0:0:0:
206,231,188958,1,8,0:3:0:0:
299,360,189140,1,8,0:3:0:0:
317,249,189322,1,0,0:3:0:0:
188,342,189504,1,12,0:3:0:0:
404,320,189685,6,0,P|428:261|377:155,1,152.8125,4|0,1:2|0:0,0:0:0:0:
319,109,190413,2,0,L|370:108,1,50.9375,8|0,0:0|0:0,0:0:0:0:
224,227,190776,6,0,B|218:80|218:80|245:129,1,203.75,4|0,1:0|0:0,0:0:0:0:
298,272,191867,6,0,L|280:333,1,50.9375,8|0,0:0|0:0,0:0:0:0:
360,320,192231,2,0,P|368:296|371:270,1,50.9375,2|0,0:0|0:0,0:0:0:0:
345,154,192594,6,0,P|336:178|333:204,1,50.9375,2|0,1:2|0:0,0:0:0:0:
410,202,192958,2,0,P|418:178|421:152,1,50.9375,2|0,0:2|0:0,0:0:0:0:
321,28,193322,6,0,L|328:79,1,50.9375,8|0,0:0|0:0,0:0:0:0:
272,131,193685,2,0,B|126:118|126:118|180:99,1,203.75,2|0,1:2|0:0,0:0:0:0:
244,58,194594,1,0,0:0:0:0:
345,154,194776,6,0,L|338:204,1,50.9375,8|0,0:0|0:0,0:0:0:0:
421,149,195140,1,2,0:0:0:0:
378,85,195322,1,2,0:0:0:0:
466,212,195504,6,0,P|397:256|374:328,1,152.8125,0|0,1:0|0:0,0:0:0:0:
488,349,196231,2,0,L|439:359,1,50.9375,8|8,0:0|0:3,0:0:0:0:
210,337,196594,6,0,B|162:352|162:352|314:368,1,203.75,4|0,1:0|0:0,0:0:0:0:
406,246,197685,6,0,P|409:169|354:102,1,152.8125,8|0,0:0|0:0,0:0:0:0:
297,143,198413,6,0,P|247:153|197:145,1,101.875,0|0,1:0|0:0,0:0:0:0:
205,69,198958,1,2,0:0:0:0:
83,110,199140,6,0,L|134:102,1,50.9375,8|0,0:0|0:0,0:0:0:0:
90,186,199504,2,0,B|77:235|77:235|103:390,1,203.75,0|0,1:0|0:0,0:0:0:0:
172,354,200413,1,2,0:0:0:0:
281,369,200594,1,10,0:0:0:0:
284,292,200776,1,2,0:0:0:0:
287,215,200958,1,8,0:3:0:0:
290,138,201140,1,2,0:0:0:0:
437,62,201322,6,0,P|377:107|355:179,1,152.8125,4|0,1:2|0:0,0:0:0:0:
396,286,202049,2,0,L|405:236,1,50.9375,8|0,0:0|0:0,0:0:0:0:
239,215,202413,6,0,B|186:245|186:245|329:249,1,203.75,4|0,1:0|0:0,0:0:0:0:
295,100,203504,6,0,L|233:88,1,50.9375,8|0,0:0|0:0,0:0:0:0:
198,147,203867,2,0,P|174:156|149:159,1,50.9375,2|0,0:0|0:0,0:0:0:0:
78,72,204231,6,0,P|104:76|128:85,1,50.9375,2|0,1:2|0:0,0:0:0:0:
180,29,204594,2,0,P|205:25|229:17,1,50.9375,2|0,0:2|0:0,0:0:0:0:
273,160,204958,5,10,0:0:0:0:
244,90,205140,1,2,0:0:0:0:
345,136,205322,2,0,P|374:196|349:284,1,152.8125,0|0,1:0|0:0,0:0:0:0:
286,311,206049,1,2,0:0:0:0:
290,235,206231,1,2,0:0:0:0:
213,334,206413,6,0,L|222:384,1,50.9375,8|0,0:0|0:0,0:0:0:0:
187,262,206776,2,0,P|151:284|141:298,1,50.9375,2|0,0:0|0:0,0:0:0:0:
70,156,207140,6,0,P|110:186|161:190,1,101.875,2|0,1:2|1:0,0:0:0:0:
161,189,207685,1,8,0:3:0:0:
254,115,207867,2,0,L|205:127,1,50.9375,8|0,0:0|0:0,0:0:0:0:
322,255,208231,6,0,B|338:109|338:109|315:161,1,203.75,4|0,1:0|0:0,0:0:0:0:
235,291,209322,6,0,P|201:304|167:310,1,50.9375,8|0,0:0|0:0,0:0:0:0:
134,213,209685,2,0,P|159:220|183:230,1,50.9375,2|0,0:0|0:0,0:0:0:0:
66,249,210049,6,0,P|52:178|88:80,1,152.8125,2|0,1:2|0:0,0:0:0:0:
191,100,210776,2,0,L|146:123,2,50.9375,8|0|8,0:0|1:0|0:3,0:0:0:0:
189,254,211504,1,8,0:3:0:0:
189,254,212049,1,8,0:3:0:0:
302,290,212231,6,0,L|252:296,1,50.9375,8|0,0:0|0:0,0:0:0:0:
330,219,212594,1,2,0:0:0:0:
377,278,212776,1,2,0:0:0:0:
505,300,212958,6,0,P|473:233|404:206,1,152.8125,4|0,1:2|0:0,0:0:0:0:
279,215,213685,2,0,L|330:219,1,50.9375,8|0,0:0|0:0,0:0:0:0:
205,349,214049,2,0,B|189:211|189:211|222:266,1,203.75,4|0,1:0|0:0,0:0:0:0:
355,342,215140,6,0,L|406:346,1,50.9375,8|0,0:0|0:0,0:0:0:0:
440,277,215504,2,0,P|410:272|389:273,1,50.9375,2|0,0:0|0:0,0:0:0:0:
281,217,215867,6,0,P|306:222|332:222,1,50.9375,2|0,1:2|0:0,0:0:0:0:
404,196,216231,2,0,P|428:192|454:192,1,50.9375,2|0,0:2|0:0,0:0:0:0:
351,74,216594,5,10,0:0:0:0:
343,150,216776,1,2,0:0:0:0:
191,136,216958,6,0,B|135:117|135:117|280:104,1,203.75,0|0,1:0|0:0,0:0:0:0:
343,150,217867,1,2,0:0:0:0:
216,208,218049,2,0,L|165:213,1,50.9375,8|0,0:0|0:0,0:0:0:0:
207,284,218413,1,2,0:0:0:0:
277,252,218594,1,2,0:0:0:0:
367,140,218776,6,0,P|383:213|348:279,1,152.8125,0|0,1:2|0:0,0:0:0:0:
264,356,219504,1,8,0:0:0:0:
341,355,219685,1,8,0:3:0:0:
495,353,219867,6,0,B|437:349|437:349|420:296,2,101.875,4|2|0,1:0|0:0|0:0,0:0:0:0:
457,204,220958,2,0,B|335:210|335:210|371:220,1,152.8125,8|0,0:0|0:0,0:0:0:0:
297,142,221685,6,0,L|195:139,1,101.875,0|0,1:0|0:0,0:0:0:0:
143,196,222231,1,2,0:0:0:0:
86,82,222413,2,0,L|119:121,1,50.9375,8|0,0:0|0:0,0:0:0:0:
65,8,222776,6,0,B|224:0|224:0|182:16,1,203.75,2|0,1:2|0:0,0:0:0:0:
182,16,223685,1,8,0:3:0:0:
305,65,223867,1,8,0:0:0:0:
230,75,224049,1,2,0:0:0:0:
277,133,224231,1,2,0:0:0:0:
352,123,224413,1,8,0:3:0:0:
449,266,224594,6,0,P|396:213|324:191,1,152.8125,0|0,1:2|0:0,0:0:0:0:
219,243,225322,2,0,L|270:246,1,50.9375,8|0,0:0|0:0,0:0:0:0:
109,342,225685,6,0,B|153:379|153:379|143:233,1,203.75,4|0,1:0|0:0,0:0:0:0:
104,84,226776,6,0,L|102:16,1,50.9375,8|0,0:0|0:0,0:0:0:0:
179,29,227140,2,0,P|179:68|175:100,1,50.9375,2|0,0:0|0:0,0:0:0:0:
211,197,227504,6,0,P|211:172|213:147,1,50.9375,2|0,1:2|0:0,0:0:0:0:
287,93,227867,2,0,P|289:118|289:144,1,50.9375,2|0,0:2|0:0,0:0:0:0:
238,269,228231,6,0,L|313:249,1,50.9375,8|0,0:0|0:0,0:0:0:0:
397,314,228594,2,0,B|440:347|440:347|292:332,1,203.75,2|0,1:2|0:0,0:0:0:0:
287,255,229504,1,0,0:0:0:0:
286,127,229685,6,0,L|287:178,1,50.9375,8|0,0:0|0:0,0:0:0:0:
220,216,230049,2,0,P|215:192|214:163,1,50.9375,2|0,0:0|0:0,0:0:0:0:
186,49,230413,6,0,P|140:108|138:184,1,152.8125,2|8,1:2|0:3,0:0:0:0:
154,308,231140,2,0,L|155:258,1,50.9375,8|0,0:0|0:0,0:0:0:0:
305,344,231504,6,0,B|349:376|349:376|199:370,1,203.75,4|0,1:0|0:0,0:0:0:0:
72,284,232594,6,0,L|71:234,1,50.9375,8|0,0:0|0:0,0:0:0:0:
13,182,232958,2,0,P|6:138|12:104,1,50.9375,2|0,0:0|0:0,0:0:0:0:
75,40,233322,6,0,B|99:26|99:26|81:150,1,152.8125,0|0,1:2|0:2,0:2:0:0:
43,283,234049,2,0,L|220:274,1,152.8125,8|0,0:0|0:0,0:0:0:0:
195,275,234776,1,8,0:3:0:0:
195,275,235322,1,8,0:3:0:0:
271,269,235504,1,8,0:3:0:0:
346,262,235685,1,2,0:0:0:0:
421,255,235867,1,2,0:0:0:0:
496,248,236049,1,2,0:0:0:0:
474,107,236231,6,0,B|445:77|445:77|453:187,1,152.8125,4|0,1:2|0:0,0:0:0:0:
496,298,236958,2,0,L|496:248,1,50.9375,8|0,0:0|0:0,0:0:0:0:
421,255,237322,1,0,1:0:0:0:
346,262,237504,1,8,0:3:0:0:
346,262,237867,5,8,0:3:0:0:
346,262,238049,1,8,0:3:0:0:
346,262,238231,1,8,0:3:0:0:
219,154,238413,5,4,0:1:0:0:
294,161,238594,1,0,0:0:0:0:
349,108,238776,1,0,0:0:0:0:
424,101,238957,1,0,0:1:0:0:
496,248,239140,5,4,0:0:0:0:
256,192,239322,12,2,244958,0:0:0:0:
220,186,246231,5,2,0:0:0:0:
283,237,246413,2,0,P|295:296|286:364,1,122.25,2|0,0:0|0:0,0:0:0:0:
288,357,247322,2,0,P|233:339|180:344,1,81.5,2|0,0:0|0:0,0:0:0:0:
89,360,247958,1,2,0:0:0:0:
114,240,248231,2,0,B|102:202|66:173|66:173|22:199|15:260,1,163,2|0,0:0|0:0,0:0:0:0:
256,192,249140,12,0,258231,0:0:0:0:
