osu file format v14

[General]
AudioFilename: shikisai.mp3
AudioLeadIn: 0
PreviewTime: 82685
Countdown: 0
SampleSet: Soft
StackLeniency: 0.7
Mode: 0
LetterboxInBreaks: 0
WidescreenStoryboard: 0

[Editor]
DistanceSpacing: 1
BeatDivisor: 4
GridSize: 8
TimelineZoom: 1.2

[Metadata]
Title:Shikisai
TitleUnicode:色彩
Artist:Sakamoto Maaya
ArtistUnicode:坂本真綾
Creator:Delis
Version:Hard
Source:Fate/Grand Order
Tags:rei24 fate go collaboration
BeatmapID:872519
BeatmapSetID:401085

[Difficulty]
HPDrainRate:5
CircleSize:4
OverallDifficulty:6
ApproachRate:7.5
SliderMultiplier:1.4
SliderTickRate:1

[Events]
//Background and Video events
0,0,"t3.jpg",0,0
//Break Periods
2,106546,109806
2,208331,219449
//Storyboard Layer 0 (Background)
//Storyboard Layer 1 (Fail)
//Storyboard Layer 2 (Pass)
//Storyboard Layer 3 (Foreground)
//Storyboard Sound Samples

[TimingPoints]
632,357.142857142857,4,2,1,30,1,0
12417,-100,4,2,1,40,0,0
34917,-100,4,2,1,50,0,0
35185,-100,4,2,1,50,0,0
46346,-100,4,2,1,55,0,0
50274,-100,4,2,1,60,0,0
51703,-83.3333333333333,4,2,1,60,0,0
60631,-83.3333333333333,4,2,1,70,0,0
83489,-83.3333333333333,4,2,1,70,0,0
94917,-83.3333333333333,4,2,1,70,0,0
110631,-83.3333333333333,4,2,1,60,0,0
112417,-100,4,2,1,60,0,0
123489,-100,4,2,1,55,0,0
128489,-83.3333333333333,4,2,1,60,0,0
136256,-83.3333333333333,4,2,1,40,0,0
136435,-83.3333333333333,4,2,1,60,0,0
137774,-83.3333333333333,4,2,1,70,0,0
148399,-83.3333333333333,4,2,1,55,0,0
148756,-83.3333333333333,4,2,1,70,0,0
160631,-100,4,2,1,50,0,0
169917,-125,4,2,1,50,0,0
170096,-100,4,2,1,50,0,0
171346,-100,4,2,1,60,0,0
208399,-100,4,2,1,40,0,0
208935,-100,4,2,1,60,0,0
220631,-100,4,2,1,50,0,0
225631,-100,4,2,1,65,0,0
225989,-83.3333333333333,4,2,1,70,0,0
231346,-83.3333333333333,4,1,1,65,0,0
232060,-83.3333333333333,4,1,1,65,0,0
243489,-83.3333333333333,4,2,1,75,0,0
254917,-83.3333333333333,4,2,1,65,0,0

[Colours]
Combo1 : 201,201,201
Combo2 : 125,125,255
Combo3 : 108,242,146
Combo4 : 94,201,227
Combo5 : 221,211,100
Combo6 : 228,116,225
Combo7 : 220,130,29
Combo8 : 106,106,106

[HitObjects]
176,112,632,101,2,0:0:0:0:
176,112,2060,1,0,0:0:0:0:
304,224,3489,5,0,0:0:0:0:
304,224,4917,1,0,0:0:0:0:
128,312,6346,102,0,B|80:256|104:168,1,140,4|0,0:3|0:0,0:0:0:0:
200,88,7060,2,0,B|344:104,1,140,0|0,0:0|0:0,0:0:0:0:
448,192,7774,2,0,B|480:272|448:344,1,140,4|0,0:3|0:0,0:0:0:0:
312,352,8489,2,0,L|152:344,1,140,0|0,0:0|0:0,0:0:0:0:
80,240,9203,5,4,0:3:0:0:
88,104,9560,1,0,0:0:0:0:
224,112,9917,1,0,0:0:0:0:
216,248,10274,1,0,0:0:0:0:
256,192,10631,12,4,12060,0:3:0:0:
312,312,12417,101,0,0:0:0:0:
312,312,12596,2,0,B|264:248|296:176,1,140,0|0,0:0|0:0,0:0:0:0:
344,112,13131,1,0,0:0:0:0:
160,208,13489,2,0,B|72:224|48:136,1,140,4|0,0:3|0:0,0:0:0:0:
88,72,14024,2,0,L|248:96,1,140,0|0,0:0|0:0,0:0:0:0:
304,48,14560,1,0,0:0:0:0:
352,216,14917,6,0,L|336:360,1,140,4|0,0:3|0:0,0:0:0:0:
256,320,15453,1,0,0:0:0:0:
112,232,15810,2,0,B|96:192|104:144,2,70,0|0|0,0:0|0:0|0:0,0:0:0:0:
176,288,16346,1,4,0:3:0:0:
464,176,17774,1,4,0:3:0:0:
328,208,18131,101,0,0:0:0:0:
328,208,18310,2,0,B|248:232|168:176,1,140,0|0,0:0|0:0,0:0:0:0:
224,112,18846,1,0,0:0:0:0:
80,232,19203,2,0,B|120:304|88:376|88:376,1,140,4|0,0:3|0:0,0:0:0:0:
176,312,19739,2,0,L|344:336,1,140,0|0,0:0|0:0,0:0:0:0:
400,344,20274,1,0,0:0:0:0:
432,216,20631,6,0,B|352:168|400:64,1,140,4|0,0:3|0:0,0:0:0:0:
312,64,21167,2,0,B|248:120|160:88,2,140,0|0|0,0:0|0:0|0:0,0:0:0:0:
288,168,22060,1,4,0:3:0:0:
440,344,23489,1,6,0:3:0:0:
280,256,23846,101,0,0:0:0:0:
200,288,24024,2,0,B|120:272|64:336,1,140,0|0,0:0|0:0,0:0:0:0:
32,256,24560,1,0,0:0:0:0:
104,208,24739,1,0,0:0:0:0:
104,208,24917,2,0,B|152:152|128:72,1,140,4|0,0:3|0:0,0:0:0:0:
216,80,25453,2,0,B|272:136|352:112,1,140,0|0,0:0|0:0,0:0:0:0:
424,152,25989,6,0,B|456:176|488:208,1,70,0|0,0:0|0:0,0:0:0:0:
400,232,26346,2,0,B|336:256|328:200|248:240,1,140,4|0,0:3|0:0,0:0:0:0:
176,224,26881,2,0,B|64:232|8:240,1,140,0|0,0:0|0:0,0:0:0:0:
56,152,27417,1,0,0:0:0:0:
224,288,27774,1,4,0:3:0:0:
368,136,28131,1,0,0:0:0:0:
176,40,28489,101,0,0:0:0:0:
136,112,28667,1,0,0:0:0:0:
168,192,28846,1,0,0:0:0:0:
232,248,29024,2,0,B|256:288|248:336,1,70,0|4,0:0|0:3,0:0:0:0:
304,152,29560,1,0,0:0:0:0:
384,120,29739,2,0,B|424:104|464:112,1,70,0|0,0:0|0:0,0:0:0:0:
424,192,30096,2,0,B|384:208|336:200,1,70,0|0,0:0|0:0,0:0:0:0:
280,240,30453,2,0,B|208:200|136:248,1,140,0|0,0:0|0:0,0:0:0:0:
80,296,30989,1,0,0:0:0:0:
16,240,31167,2,0,L|0:88,1,140,0|0,0:0|0:0,0:0:0:0:
88,88,31703,6,0,L|80:160,1,70,0|0,0:0|0:0,0:0:0:0:
160,128,32060,2,0,L|304:72,1,140,4|8,0:3|0:3,0:0:0:0:
328,152,32596,2,0,B|264:200|280:296,1,140,2|2,0:0|0:0,0:0:0:0:
344,328,33131,2,0,B|360:288|352:232,1,70,8|8,0:3|0:3,0:0:0:0:
200,280,33489,102,0,L|216:368,2,70,4|8|2,0:3|0:3|0:0,0:0:0:0:
184,200,34024,1,2,0:0:0:0:
216,120,34203,2,0,B|256:118|303:142,1,70,8|2,0:3|0:0,0:0:0:0:
360,160,34560,2,0,B|400:176|448:144,1,70,4|0,0:0|0:0,0:0:0:0:
488,96,34917,21,4,1:2:0:0:
408,40,35096,1,8,1:3:0:0:
427,155,35274,1,2,0:0:0:0:
427,155,35453,2,0,B|411:251|403:307,1,140,0|0,0:0|0:0,0:0:0:0:
328,328,35989,2,0,B|296:304|240:296,1,70,2|0,0:0|0:0,0:0:0:0:
184,272,36346,1,0,0:0:0:0:
144,112,36703,1,2,0:0:0:0:
224,136,36881,2,0,B|232:88|208:56,2,70,0|0|0,0:0|0:0|0:0,0:0:0:0:
280,200,37417,2,0,B|312:224|360:232,1,70,2|0,0:0|0:0,0:0:0:0:
424,216,37774,5,4,1:3:0:0:
192,312,38131,1,2,0:0:0:0:
112,288,38310,2,0,B|96:248|104:200,1,70,0|0,0:0|0:0,0:0:0:0:
182,243,38667,2,0,B|198:283|190:323,1,70,0|2,0:0|0:0,0:0:0:0:
272,336,39024,1,0,0:0:0:0:
280,248,39203,2,0,B|288:176|248:192|256:104,1,140,4|2,1:3|0:0,0:0:0:0:
320,56,39739,1,0,0:0:0:0:
400,80,39917,2,0,B|408:120|392:176,1,70,2|0,0:1|0:0,0:0:0:0:
432,224,40274,2,0,B|376:272|368:288,1,70,2|0,0:1|0:0,0:0:0:0:
336,344,40631,5,4,1:2:0:0:
252,354,40810,1,8,0:3:0:0:
216,280,40989,2,0,L|304:272,1,70,0|8,0:0|0:3,0:0:0:0:
256,192,41346,2,0,B|176:168|112:208,1,140,0|2,0:0|0:0,0:0:0:0:
56,144,41881,1,0,0:0:0:0:
128,96,42060,2,0,B|200:64|272:120,1,140,0|2,0:0|0:0,0:0:0:0:
328,168,42596,2,0,B|384:184|432:136|424:80,1,140,0|0,0:0|0:0,0:0:0:0:
496,144,43131,1,2,0:0:0:0:
472,224,43310,6,0,B|456:272|464:320,1,70,0|4,0:0|1:2,0:0:0:0:
384,328,43667,1,8,0:3:0:0:
304,304,43846,1,0,0:0:0:0:
224,280,44024,1,8,0:3:0:0:
32,256,44381,2,0,B|48:224|56:168,1,70,0|2,0:0|0:0,0:0:0:0:
120,240,44739,1,0,0:0:0:0:
200,208,44917,2,0,P|176:112|120:88,1,140,0|8,1:0|1:3,0:0:0:0:
208,40,45453,5,2,1:0:0:0:
225,42,45542,1,0,0:0:0:0:
242,45,45631,2,0,B|280:40|328:42,1,70,2|8,1:0|0:3,0:0:0:0:
392,56,45989,2,0,P|432:144|424:200,1,140,4|4,0:3|1:2,0:0:0:0:
280,296,46703,1,2,0:0:0:0:
280,296,46881,2,0,B|224:232|128:272,1,140,0|0,1:3|0:0,0:0:0:0:
80,304,47417,1,2,0:0:0:0:
136,144,47774,6,0,B|208:176|272:112,1,140,0|2,0:0|0:0,0:0:0:0:
384,240,48489,2,0,B|312:208|248:272,1,140,0|2,0:0|0:0,0:0:0:0:
208,336,49024,1,0,0:0:0:0:
136,296,49203,2,0,B|120:256|128:216,1,70,4|0,1:2|0:0,0:0:0:0:
126,227,49739,2,0,B|208:248|256:168,1,140,0|0,1:0|0:0,0:0:0:0:
328,144,50274,2,0,L|320:288,2,140,8|4|8,1:0|1:2|1:0,0:0:0:0:
464,40,51346,38,0,B|496:88|464:160,1,105,8|8,1:3|1:0,0:0:0:0:
456,168,51703,2,0,B|440:208|446:261,1,83.9999974365235,8|8,1:0|1:0,0:0:0:0:
344,272,52060,2,0,B|400:200|352:104,1,167.999994873047,4|8,1:2|1:0,0:0:0:0:
272,128,52596,2,0,B|184:176|192:96|96:160,1,167.999994873047,0|0,0:0|0:0,0:0:0:0:
48,208,53131,2,0,B|0:288|72:368,2,167.999994873047,8|4|8,1:0|0:0|1:0,0:0:0:0:
264,40,54203,6,0,L|288:184,1,125.999996154785,0|0,0:0|0:0,0:0:0:0:
296,200,54560,2,0,B|336:224|392:208,1,83.9999974365235,8|0,1:0|0:0,0:0:0:0:
320,296,54917,2,0,B|224:336|168:256,1,167.999994873047,4|8,1:2|1:0,0:0:0:0:
136,184,55453,2,0,B|240:176|256:64,1,167.999994873047,4|0,1:2|0:0,0:0:0:0:
320,32,55989,2,0,L|408:72,1,83.9999974365235,8|4,1:0|1:2,0:0:0:0:
256,192,56256,12,8,57417,1:0:0:0:
216,120,58012,6,0,L|328:96,1,111.999996582031,6|6,1:1|1:1,0:0:0:0:
264,192,58489,2,0,L|96:232,2,167.999994873047,6|4|0,1:0|1:3|0:0,0:0:0:0:
280,232,59292,2,0,B|352:216|400:304,1,125.999996154785,4|6,1:2|1:0,0:0:0:0:
384,80,59917,6,0,L|368:168,2,83.9999974365235,8|0|0,0:0|0:0|1:0,0:0:0:0:
304,112,60453,5,0,1:0:0:0:
304,112,60542,1,0,1:0:0:0:
304,112,60631,2,0,B|208:128|120:144,1,167.999994873047,4|8,1:2|1:0,0:0:0:0:
88,208,61167,2,0,B|96:272|176:296|224:248,1,167.999994873047,0|0,0:0|0:0,0:0:0:0:
280,200,61703,2,0,B|328:192|368:224,1,83.9999974365235,8|2,1:0|0:0,0:0:0:0:
424,272,62060,2,0,B|496:216|456:104,1,167.999994873047,4|8,1:2|1:0,0:0:0:0:
408,48,62596,2,0,B|336:104|376:216,1,167.999994873047,0|0,0:0|0:0,0:0:0:0:
264,136,63131,2,0,L|280:224,1,83.9999974365235,8|0,1:0|1:0,0:0:0:0:
192,208,63489,6,0,B|128:240|64:208|56:128,1,167.999994873047,4|8,1:2|1:0,0:0:0:0:
80,72,64024,1,0,0:0:0:0:
160,40,64203,2,0,B|176:88|160:136,1,83.9999974365235,0|0,1:0|0:0,0:0:0:0:
248,136,64560,2,0,B|264:96|248:32,1,83.9999974365235,8|0,1:0|0:0,0:0:0:0:
336,88,64917,2,0,B|440:80|488:184,1,167.999994873047,12|8,0:2|1:0,0:0:0:0:
456,248,65453,1,0,0:0:0:0:
368,232,65631,2,0,B|320:216|256:208,1,83.9999974365235,0|0,1:0|1:0,0:0:0:0:
200,224,65989,2,0,L|192:160,2,41.9999987182618,8|0|0,1:0|0:0|1:0,0:0:0:0:
120,264,66346,38,0,B|48:200|88:96,1,167.999994873047,4|8,1:2|1:0,0:0:0:0:
144,48,66881,1,0,0:0:0:0:
232,40,67060,2,0,B|296:112|392:80,1,167.999994873047,0|8,1:0|1:0,0:0:0:0:
384,82,67596,1,0,0:0:0:0:
352,160,67774,2,0,B|328:200|336:256,1,83.9999974365235,4|0,1:2|0:0,0:0:0:0:
400,296,68131,2,0,B|424:256|416:200,2,83.9999974365235,8|0|0,1:0|0:0|1:0,0:0:0:0:
192,280,68846,2,0,B|168:232|176:184,1,83.9999974365235,8|0,1:0|0:0,0:0:0:0:
144,120,69203,6,0,B|72:176|112:280,1,167.999994873047,4|8,1:2|1:0,0:0:0:0:
192,280,69739,2,0,L|176:376,2,83.9999974365235,4|0|0,0:0|1:0|0:0,0:0:0:0:
272,232,70274,2,0,L|288:120,1,83.9999974365235,8|4,1:0|0:0,0:0:0:0:
232,80,70631,2,0,B|176:72|136:104,2,83.9999974365235,8|8|8,0:0|1:0|1:0,0:0:0:0:
312,40,71167,2,0,P|384:96|480:72,1,167.999994873047,8|8,0:0|1:0,0:0:0:0:
456,176,71703,1,8,1:0:0:0:
400,240,71881,5,0,1:0:0:0:
400,240,71971,1,0,1:0:0:0:
400,240,72060,2,0,B|320:272|304:216|232:256,2,167.999994873047,4|0|0,1:0|1:0|0:0,0:0:0:0:
192,168,73131,2,0,B|240:152|288:160,1,83.9999974365235,4|2,1:3|0:0,0:0:0:0:
240,80,73489,2,0,B|336:72|432:64,2,167.999994873047,2|0|0,0:0|1:0|1:0,0:0:0:0:
64,280,74560,6,0,B|96:312|144:304,1,83.9999974365235,4|2,1:3|1:2,0:0:0:0:
216,272,74917,2,0,B|272:240|352:264|360:328,1,167.999994873047,4|0,1:0|1:0,0:0:0:0:
424,256,75453,1,2,0:0:0:0:
360,200,75631,2,0,B|336:160|352:104,1,83.9999974365235,0|8,0:0|0:3,0:0:0:0:
376,40,75989,2,0,L|264:32,1,83.9999974365235,4|2,1:3|0:0,0:0:0:0:
128,136,76346,2,0,B|168:184|248:168|272:104,2,167.999994873047,2|0|0,0:3|1:0|1:0,0:0:0:0:
128,136,77417,1,4,0:0:0:0:
96,232,77596,5,0,0:0:0:0:
96,232,77685,1,0,0:0:0:0:
96,232,77774,2,0,B|136:328|248:304,1,167.999994873047,4|0,1:0|1:0,0:0:0:0:
312,272,78310,1,0,0:0:0:0:
240,224,78489,2,0,B|312:160|256:64,1,167.999994873047,4|8,0:0|0:1,0:0:0:0:
184,104,79024,1,0,0:0:0:0:
152,184,79203,2,0,B|112:272|176:344,1,167.999994873047,4|8,0:0|0:0,0:0:0:0:
256,368,79739,1,0,0:0:0:0:
336,344,79917,2,0,B|392:328|424:248|376:200,1,167.999994873047,4|0,0:0|0:0,0:0:0:0:
382,207,80453,1,0,0:0:0:0:
296,176,80631,6,0,L|192:200,1,83.9999974365235,4|0,0:0|0:0,0:0:0:0:
136,232,80989,2,0,L|224:248,1,83.9999974365235,8|0,1:0|0:0,0:0:0:0:
304,272,81346,2,0,L|216:296,1,83.9999974365235,4|0,0:0|0:0,0:0:0:0:
144,336,81703,2,0,L|232:352,1,83.9999974365235,8|0,1:0|0:0,0:0:0:0:
312,344,82060,1,4,0:0:0:0:
384,296,82239,2,0,B|432:200|352:128,1,167.999994873047,8|0,1:0|0:0,0:0:0:0:
296,176,82774,37,4,1:2:0:0:
224,216,82953,1,0,1:0:0:0:
264,288,83131,1,8,1:0:0:0:
336,248,83310,1,8,1:0:0:0:
264,288,83489,6,0,B|160:312|112:208,1,167.999994873047,4|0,1:2|0:0,0:0:0:0:
288,192,84203,2,0,B|384:224|440:136,1,167.999994873047,4|8,1:2|1:0,0:0:0:0:
336,40,84739,1,8,1:0:0:0:
272,96,84917,2,0,B|208:168|96:128,1,167.999994873047,4|8,1:2|1:0,0:0:0:0:
48,88,85453,1,8,1:0:0:0:
48,88,85631,2,0,B|32:144|40:192,1,83.9999974365235,4|0,1:2|0:0,0:0:0:0:
96,296,85989,2,0,B|112:248|104:184,1,83.9999974365235,0|8,0:0|1:0,0:0:0:0:
192,264,86346,6,0,B|280:240|368:296,1,167.999994873047,4|8,1:2|1:0,0:0:0:0:
424,336,86881,1,8,1:0:0:0:
480,272,87060,2,0,B|496:224|464:168,1,83.9999974365235,4|0,1:2|0:0,0:0:0:0:
440,112,87417,2,0,B|400:144|336:128,1,83.9999974365235,8|8,1:0|1:0,0:0:0:0:
280,104,87774,2,0,L|176:64,1,83.9999974365235,12|8,1:2|0:0,0:0:0:0:
208,160,88131,2,0,L|112:184,1,83.9999974365235,8|8,1:0|0:0,0:0:0:0:
192,248,88489,2,0,L|176:344,1,83.9999974365235,4|8,1:2|1:0,0:0:0:0:
296,336,88846,2,0,L|280:240,1,83.9999974365235,8|8,1:0|1:0,0:0:0:0:
282,253,89114,5,8,1:0:0:0:
282,253,89203,2,0,B|472:272,1,167.999994873047,4|8,1:2|1:0,0:0:0:0:
472,184,89739,1,0,0:0:0:0:
392,168,89917,2,0,B|344:160|272:152,1,83.9999974365235,4|0,1:2|0:0,0:0:0:0:
224,144,90274,2,0,B|200:184|208:232,1,83.9999974365235,0|8,0:0|1:0,0:0:0:0:
176,304,90631,2,0,B|112:312|64:248|88:184,1,167.999994873047,4|8,1:2|1:0,0:0:0:0:
152,136,91167,2,0,B|176:96|160:48,2,83.9999974365235,0|4|8,0:0|1:2|1:0,0:0:0:0:
228,188,91703,6,0,P|254:138|255:110,1,83.9999974365235,8|8,1:0|1:0,0:0:0:0:
256,112,91971,1,0,0:0:0:0:
256,112,92060,2,0,L|424:160,1,167.999994873047,4|8,1:2|1:0,0:0:0:0:
496,184,92596,1,0,0:0:0:0:
448,312,92774,2,0,B|416:280|432:224,1,83.9999974365235,4|0,1:2|0:0,0:0:0:0:
344,208,93131,2,0,L|226:214,1,83.9999974365235,0|0,0:0|0:0,0:0:0:0:
208,280,93489,2,0,B|200:328|208:368,1,83.9999974365235,12|8,1:2|1:2,0:0:0:0:
304,368,93846,2,0,B|312:336|304:264,1,83.9999974365235,8|0,1:0|0:0,0:0:0:0:
260,212,94203,1,4,1:2:0:0:
296,136,94381,1,8,1:0:0:0:
232,72,94560,2,0,B|186:81|144:88,1,83.9999974365235,8|8,1:0|1:0,0:0:0:0:
296,136,94917,6,0,B|392:160|472:176,1,167.999994873047,4|8,1:2|1:0,0:0:0:0:
459,173,95631,2,0,L|475:269,1,83.9999974365235,0|8,0:0|0:3,0:0:0:0:
408,312,95989,2,0,B|373:284|319:292,1,83.9999974365235,8|0,1:0|0:0,0:0:0:0:
240,288,96346,2,0,B|160:240|192:136,1,167.999994873047,4|8,1:2|1:0,0:0:0:0:
190,142,97060,2,0,B|230:158|278:150,1,83.9999974365235,4|8,0:0|0:3,0:0:0:0:
416,240,97417,2,0,B|376:224|328:232,1,83.9999974365235,8|2,1:0|0:3,0:0:0:0:
248,224,97774,38,0,B|200:312|272:384,1,167.999994873047,4|8,1:2|1:0,0:0:0:0:
336,328,98310,2,0,B|384:240|312:168,1,167.999994873047,8|8,0:3|0:3,0:0:0:0:
256,112,98846,1,8,1:0:0:0:
176,72,99024,2,0,B|128:144|192:160|144:248,1,167.999994873047,0|0,0:0|0:0,0:0:0:0:
72,264,99560,2,0,B|64:216|88:176,1,83.9999974365235,8|0,1:0|0:0,0:0:0:0:
224,288,99917,2,0,L|244:206,1,83.9999974365235,4|8,1:2|1:0,0:0:0:0:
336,200,100274,2,0,L|312:312,1,83.9999974365235,0|0,0:0|1:0,0:0:0:0:
400,320,100631,6,0,L|436:133,1,167.999994873047,4|8,1:2|1:0,0:0:0:0:
431,155,101167,1,0,0:0:0:0:
392,64,101346,2,0,B|320:8|208:48,1,167.999994873047,4|8,0:0|1:0,0:0:0:0:
232,136,101881,1,8,0:3:0:0:
320,128,102060,2,0,B|344:200|288:264,2,125.999996154785,4|0|8,1:2|0:0|0:3,0:0:0:0:
232,136,102774,2,0,B|184:200|104:168,2,125.999996154785,4|2|0,1:2|0:3|0:0,0:0:0:0:
192,48,103489,6,0,B|144:16|72:32|48:88,1,167.999994873047,4|8,1:2|1:0,0:0:0:0:
96,160,104024,2,0,B|160:224|120:328,1,167.999994873047,8|8,0:3|1:0,0:0:0:0:
216,328,104560,2,0,B|224:264|232:232,1,83.9999974365235,4|2,1:2|0:3,0:0:0:0:
248,160,104917,2,0,B|320:96|424:128,2,167.999994873047,4|8|0,1:2|1:0|1:0,0:0:0:0:
168,200,105810,1,0,1:0:0:0:
168,200,105899,1,0,0:0:0:0:
168,200,105989,2,0,B|160:160|168:96,1,83.9999974365235,4|8,1:2|1:0,0:0:0:0:
176,32,106346,1,4,1:0:0:0:
112,208,110631,86,0,B|96:144|112:72,2,125.999996154785,4|10|10,1:2|1:0|1:0,0:0:0:0:
168,272,111346,2,0,B|216:264|272:296,1,83.9999974365235,8|2,0:0|0:0,0:0:0:0:
232,200,111703,2,0,B|224:160|232:104,1,83.9999974365235,4|0,1:0|0:0,0:0:0:0:
336,112,112060,5,4,1:2:0:0:
336,112,112417,2,0,B|344:160|328:200,1,70,8|0,1:0|0:0,0:0:0:0:
304,256,112774,2,0,B|232:232|168:280,1,140,2|8,0:0|1:0,0:0:0:0:
144,200,113310,2,0,B|208:152|168:64,1,140,0|0,0:0|0:0,0:0:0:0:
96,104,113846,1,8,1:0:0:0:
96,104,114024,1,0,0:0:0:0:
48,168,114203,2,0,L|56:232,2,35,2|8|0,0:0|1:0|0:0,0:0:0:0:
120,256,114560,2,0,L|208:272,1,70,8|8,1:0|1:0,0:0:0:0:
256,216,114917,6,0,L|416:200,1,140,4|8,1:0|1:0,0:0:0:0:
480,184,115453,2,0,L|496:96,1,70,0|2,0:0|0:0,0:0:0:0:
432,56,115810,2,0,B|408:88|416:144,2,70,0|8|4,0:0|1:0|0:3,0:0:0:0:
344,56,116346,2,0,B|304:104|232:80,2,105,4|0|0,0:0|0:0|0:0,0:0:0:0:
344,144,117060,2,0,B|328:232,1,70,2|4,0:0|0:0,0:0:0:0:
248,216,117417,2,0,L|256:312,1,70,8|8,1:0|1:0,0:0:0:0:
192,344,117774,5,6,1:0:0:0:
112,320,117953,1,2,1:0:0:0:
112,320,118042,1,0,0:0:0:0:
112,320,118131,1,12,1:3:0:0:
96,240,118310,1,2,0:0:0:0:
160,192,118489,2,0,B|240:176|296:248,1,140,12|12,0:3|1:3,0:0:0:0:
344,296,119024,1,2,0:0:0:0:
416,344,119203,2,0,P|464:336|504:312,2,70,12|2|12,1:2|0:0|1:3,0:0:0:0:
416,256,119739,2,0,B|352:208|384:112,1,140,2|2,0:0|0:0,0:0:0:0:
448,80,120274,2,0,B|464:112|456:160,1,70,12|12,1:3|0:3,0:0:0:0:
280,144,120631,6,0,B|168:128|128:120,1,140,2|4,1:0|1:2,0:0:0:0:
152,208,121167,2,0,B|71:191|19:262,2,140,8|8|8,0:3|0:3|0:3,0:0:0:0:
208,272,122060,2,0,B|270:225|352:248,1,140,4|12,1:2|1:3,0:0:0:0:
416,272,122596,2,0,B|352:224|384:120,1,140,8|8,1:0|1:0,0:0:0:0:
440,88,123131,1,0,0:0:0:0:
200,168,123489,5,4,1:0:0:0:
200,168,123846,2,0,L|296:192,1,70,2|0,0:0|0:0,0:0:0:0:
352,208,124203,1,0,1:0:0:0:
144,240,124560,2,0,L|232:264,1,70,2|2,0:0|0:0,0:0:0:0:
296,280,124918,1,8,1:3:0:0:
296,280,125096,1,8,0:3:0:0:
368,224,125274,2,0,B|384:184|368:128,1,70,2|2,0:0|0:0,0:0:0:0:
328,80,125631,1,8,0:3:0:0:
184,184,125989,38,0,B|168:224|192:272,1,70,2|2,0:0|0:0,0:0:0:0:
200,336,126346,2,0,B|136:384|56:360,1,140,12|2,1:3|0:0,0:0:0:0:
32,288,126881,1,2,0:0:0:0:
248,216,127239,1,0,0:0:0:0:
320,168,127417,2,0,B|328:112|312:80,1,70,2|8,0:0|0:1,0:0:0:0:
232,136,127774,2,0,B|144:160|96:80,1,140,4|4,1:2|1:2,0:0:0:0:
144,256,128489,6,0,L|192:272,3,41.9999987182618,6|8|8|10,1:0|0:3|1:0|1:0,0:0:0:0:
224,256,128846,2,0,L|280:240,3,41.9999987182618,4|0|2|0,1:2|0:0|1:0|1:0,0:0:0:0:
304,256,129203,2,0,B|408:240|456:320,1,167.999994873047,4|10,1:2|1:0,0:0:0:0:
472,208,129739,2,0,B|400:144|440:48,1,167.999994873047,0|2,0:0|1:0,0:0:0:0:
344,96,130274,2,0,B|280:168|168:128,2,167.999994873047,10|4|8,1:0|1:2|1:0,0:0:0:0:
248,224,131346,6,0,B|152:216|88:208,2,125.999996154785,4|0|0,0:0|0:0|0:0,0:0:0:0:
336,208,132060,2,0,B|384:280|336:384,1,167.999994873047,4|2,1:2|1:0,0:0:0:0:
264,320,132596,2,0,B|192:256|80:312,1,167.999994873047,4|2,1:2|1:0,0:0:0:0:
24,256,133131,2,0,B|8:312|24:352,1,83.9999974365235,8|8,1:0|1:0,0:0:0:0:
256,192,133399,12,0,134560,0:0:0:0:
256,192,135155,6,0,B|328:184|400:176,2,111.999996582031,6|6|6,1:1|1:1|1:1,0:0:0:0:
56,88,135989,1,0,0:0:0:0:
144,304,136435,2,0,B|208:272|176:184,1,125.999996154785,4|6,1:2|1:0,0:0:0:0:
408,176,137060,6,0,B|424:129|400:80,2,83.9999974365235,8|8|8,1:0|1:0|1:0,0:0:0:0:
328,136,137596,1,0,1:0:0:0:
328,136,137685,1,0,1:0:0:0:
328,136,137774,2,0,B|280:128|232:144,1,83.9999974365235,4|0,1:2|0:3,0:0:0:0:
168,168,138131,5,8,1:0:0:0:
168,168,138310,2,0,B|104:232|136:328,1,167.999994873047,0|0,0:3|0:0,0:0:0:0:
216,352,138846,2,0,B|224:304|200:256,1,83.9999974365235,8|0,1:0|0:0,0:0:0:0:
272,224,139203,2,0,B|328:192|400:216|408:280,2,167.999994873047,4|8|4,1:2|1:0|1:2,0:0:0:0:
176,88,140274,2,0,B|160:136|184:184,1,83.9999974365235,8|0,1:0|0:0,0:0:0:0:
208,248,140631,37,4,1:2:0:0:
368,160,140989,1,8,1:0:0:0:
328,80,141167,1,0,0:3:0:0:
328,80,141256,1,0,0:0:0:0:
328,80,141346,2,0,L|224:64,1,83.9999974365235,4|0,1:2|0:3,0:0:0:0:
176,112,141703,2,0,B|160:152|184:200,1,83.9999974365235,8|0,1:0|0:0,0:0:0:0:
240,256,142060,2,0,B|336:224|408:296,2,167.999994873047,4|8|0,1:2|1:0|1:0,0:0:0:0:
168,304,142953,1,8,3:0:0:0:
161,299,143042,1,0,0:0:0:0:
154,294,143131,2,0,L|144:200,1,83.9999974365235,8|8,1:0|1:0,0:0:0:0:
296,56,143489,6,0,B|320:112|280:184|208:176,1,167.999994873047,4|8,1:2|1:0,0:0:0:0:
152,120,144024,1,0,0:0:0:0:
72,160,144203,2,0,B|0:232|48:336,1,167.999994873047,4|8,1:2|1:0,0:0:0:0:
120,352,144739,2,0,L|288:360,1,167.999994873047,0|0,0:0|0:0,0:0:0:0:
344,296,145274,1,8,1:0:0:0:
280,240,145453,2,0,B|232:216|176:224,2,83.9999974365235,8|4|0,0:3|0:2|0:0,0:0:0:0:
352,200,145989,5,8,1:0:0:0:
320,120,146167,1,8,0:3:0:0:
248,80,146346,2,0,B|200:104|144:96,1,83.9999974365235,4|0,1:2|0:0,0:0:0:0:
80,104,146703,2,0,B|56:144|64:208,1,83.9999974365235,8|0,1:0|0:0,0:0:0:0:
144,176,147060,2,0,P|128:272|120:288,1,83.9999974365235,4|0,1:2|0:0,0:0:0:0:
56,304,147417,1,8,1:0:0:0:
56,304,147596,1,0,0:0:0:0:
112,360,147774,1,4,0:0:0:0:
112,360,147953,2,0,B|176:296|296:320,1,167.999994873047,8|0,0:3|1:0,0:0:0:0:
352,328,148489,2,0,L|400:344,2,41.9999987182618,8|0|8,1:0|0:0|1:0,0:0:0:0:
360,240,148846,6,0,B|336:200|344:144,1,83.9999974365235,8|0,1:0|1:0,0:0:0:0:
352,136,149114,1,0,1:0:0:0:
352,136,149203,2,0,B|256:168|200:88,2,167.999994873047,4|8|0,1:2|1:0|0:0,0:0:0:0:
504,288,150274,1,8,1:0:0:0:
448,224,150453,1,8,0:3:0:0:
368,240,150631,2,0,B|280:248|184:272,2,167.999994873047,4|8|0,0:0|1:0|0:0,0:0:0:0:
328,40,151703,2,0,B|352:104|344:152,1,83.9999974365235,8|8,1:0|0:3,0:0:0:0:
272,168,152060,6,0,B|248:112|176:96|128:128,1,167.999994873047,4|8,0:0|1:0,0:0:0:0:
176,200,152596,2,0,B|200:256|264:272|320:240,1,167.999994873047,4|0,0:0|0:0,0:0:0:0:
392,200,153131,2,0,B|408:248|400:304,1,83.9999974365235,8|8,1:0|0:3,0:0:0:0:
368,360,153489,1,4,0:0:0:0:
72,224,153846,1,8,1:0:0:0:
288,112,154203,1,0,1:0:0:0:
200,80,154381,5,0,1:0:0:0:
200,80,154471,1,0,1:0:0:0:
200,80,154560,2,0,B|208:152|224:192,1,83.9999974365235,8|8,1:0|1:0,0:0:0:0:
248,240,154917,2,0,B|256:344|144:384,1,167.999994873047,4|0,1:2|1:0,0:0:0:0:
296,368,155453,1,0,0:0:0:0:
328,280,155631,2,0,B|432:328|488:224,1,167.999994873047,4|8,0:2|1:0,0:0:0:0:
392,200,156167,1,0,1:0:0:0:
304,208,156346,2,0,L|320:56,2,125.999996154785,4|0|0,0:0|0:0|0:0,0:0:0:0:
232,128,157060,2,0,B|160:152|104:80,2,125.999996154785,4|0|0,0:0|0:0|0:0,0:0:0:0:
216,216,157774,38,0,B|160:240|152:320|200:360,1,167.999994873047,4|8,1:0|1:0,0:0:0:0:
288,368,158310,2,0,B|344:344|352:264|304:224,1,167.999994873047,0|0,0:0|1:0,0:0:0:0:
400,192,158846,2,0,B|416:240|408:288,1,83.9999974365235,8|0,1:0|0:0,0:0:0:0:
256,192,159203,12,4,160631,1:0:0:0:
104,48,161346,86,0,B|64:112|96:200,1,140,2|0,1:2|1:0,0:0:0:0:
184,296,162060,2,0,B|224:232|192:144,1,140,2|0,1:3|1:0,0:0:0:0:
368,96,162774,2,0,B|312:152|336:248,1,140,2|0,1:2|1:0,0:0:0:0:
424,328,163489,2,0,B|480:272|456:176,2,140,0|0|2,1:0|1:0|1:2,0:0:0:0:
128,248,164560,5,0,1:0:0:0:
336,144,164917,1,2,1:3:0:0:
120,64,165274,1,0,1:0:0:0:
232,184,165631,1,0,1:0:0:0:
192,256,165810,1,8,1:0:0:0:
192,256,165899,1,0,1:0:0:0:
192,256,165989,2,0,B|184:312|192:344,2,70,0|0|4,1:0|1:0|1:2,0:0:0:0:
328,296,166703,101,0,1:0:0:0:
240,168,167060,2,0,B|184:112|224:16,2,140,2|0|2,1:2|1:0|1:3,0:0:0:0:
240,168,168131,1,0,1:0:0:0:
376,224,168489,2,0,B|440:176|520:200,1,140,2|0,1:2|1:0,0:0:0:0:
200,288,169203,2,0,B|120:304|64:248,1,140,4|0,0:0|1:0,0:0:0:0:
280,208,169917,2,0,B|344:224|368:288,2,112,2|0|8,1:2|1:0|0:0,0:0:0:0:
128,144,171346,21,10,1:0:0:0:
128,144,171703,1,4,1:2:0:0:
192,200,171881,5,0,1:0:0:0:
192,200,171971,1,0,1:0:0:0:
192,200,172060,2,0,P|272:192|320:136,1,140,6|8,1:0|1:0,0:0:0:0:
432,232,172774,2,0,B|448:280|440:320,1,70,0|2,0:0|1:0,0:0:0:0:
376,352,173131,2,0,B|360:312|368:272,1,70,10|0,1:0|1:0,0:0:0:0:
296,328,173489,2,0,B|272:264|320:256|288:184,1,140,6|8,1:0|1:0,0:0:0:0:
240,120,174024,1,0,0:0:0:0:
160,144,174203,2,0,B|96:160|56:112,2,105,2|2|2,1:0|0:1|1:0,0:0:0:0:
240,120,174917,6,0,B|296:64|384:96,1,140,6|0,1:0|0:0,0:0:0:0:
440,136,175453,1,2,0:1:0:0:
392,208,175631,2,0,L|400:320,2,105,10|2|2,1:0|1:0|1:0,0:0:0:0:
320,248,176346,2,0,B|240:272|184:184,1,140,6|8,1:0|1:0,0:0:0:0:
376,64,177060,1,0,1:0:0:0:
408,144,177239,1,8,1:0:0:0:
408,144,177328,1,8,1:0:0:0:
408,144,177417,1,8,1:0:0:0:
360,216,177596,1,0,1:0:0:0:
384,296,177774,6,0,B|464:320|504:240,1,140,6|8,1:0|1:0,0:0:0:0:
264,216,178489,2,0,B|152:272|176:176|48:256,1,210,4|8,1:2|1:0,0:0:0:0:
128,304,179203,2,0,B|184:320|208:328,1,70,6|0,1:0|0:0,0:0:0:0:
280,312,179560,6,0,B|352:288|376:288,1,93.3333333333333,10|0,1:0|0:0,0:0:0:0:
400,272,179917,2,0,B|392:216|384:176,1,93.3333333333333,2|0,1:0|0:0,0:0:0:0:
384,179,180274,2,0,B|440:176|488:160,1,93.3333333333333,10|0,1:0|0:0,0:0:0:0:
424,96,180631,6,0,B|376:88|320:96,2,105,4|2|2,1:2|1:0|1:0,0:0:0:0:
384,179,181346,2,0,B|376:227|384:283,2,105,4|2|2,1:2|1:0|1:0,0:0:0:0:
304,200,182060,1,4,1:2:0:0:
232,256,182239,2,0,B|200:208|224:152,2,105,2|2|4,1:0|1:0|1:2,0:0:0:0:
176,320,182953,37,8,1:0:0:0:
200,328,183042,1,8,1:0:0:0:
224,336,183131,2,0,L|279:355,4,35,8|0|0|0|4,1:0|1:0|1:0|1:0|1:0,0:0:0:0:
168,152,183846,1,8,1:0:0:0:
352,88,184203,6,0,B|376:144|336:200,2,105,8|0|0,0:3|0:0|0:0,0:0:0:0:
272,56,184917,2,0,P|192:72|104:88,1,140,4|8,0:0|1:0,0:0:0:0:
88,152,185453,1,0,0:0:0:0:
152,208,185631,2,0,B|216:192|232:120,2,105,8|0|0,0:3|0:0|0:0,0:0:0:0:
96,272,186346,2,0,B|112:320|176:344|232:304,1,140,4|8,0:0|1:0,0:0:0:0:
272,256,186881,2,0,B|360:248|392:328,1,140,4|0,0:0|0:0,0:0:0:0:
424,240,187417,2,0,B|360:184|392:96,2,140,4|2|8,0:0|1:0|1:0,0:0:0:0:
212,161,188489,5,8,0:3:0:0:
240,80,188667,1,0,1:0:0:0:
240,80,188756,1,8,1:0:0:0:
240,80,188846,2,0,B|304:72|336:80,1,70,8|0,1:0|1:0,0:0:0:0:
352,152,189203,6,0,B|280:168|192:160,1,140,4|8,1:0|1:0,0:0:0:0:
128,176,189739,1,0,0:0:0:0:
56,216,189917,2,0,B|0:280|40:368,1,140,8|8,0:3|1:0,0:0:0:0:
272,288,190631,2,0,B|336:352|424:312,1,140,4|8,0:0|1:0,0:0:0:0:
432,240,191167,1,0,0:0:0:0:
360,192,191346,2,0,B|320:184|272:176,2,70,8|0|8,0:3|0:0|1:0,0:0:0:0:
208,56,192060,6,0,B|152:112|176:200,1,140,4|8,1:2|1:0,0:0:0:0:
200,264,192596,2,0,B|208:304|184:360,2,70,4|8|0,0:0|0:3|0:0,0:0:0:0:
120,288,193131,2,0,L|24:296,1,70,4|0,1:2|0:0,0:0:0:0:
16,216,193489,2,0,L|8:120,2,70,6|0|4,1:0|0:0|1:2,0:0:0:0:
152,56,194203,1,0,1:0:0:0:
320,152,194560,2,0,L|469:171,2,140,0|4|8,1:0|1:0|1:0,0:0:0:0:
184,256,195631,6,0,B|264:280|312:224,1,140,8|8,0:3|1:0,0:0:0:0:
360,296,196167,1,0,0:0:0:0:
360,296,196346,2,0,B|400:376,1,70,4|0,0:0|0:0,0:0:0:0:
448,296,196703,2,0,B|424:264|432:216,1,70,8|0,1:0|0:0,0:0:0:0:
448,144,197060,2,0,L|304:160,1,140,8|8,0:3|1:0,0:0:0:0:
308,159,197596,1,0,0:0:0:0:
224,160,197774,38,0,B|152:144|144:56,1,140,4|8,1:2|1:0,0:0:0:0:
72,136,198310,2,0,L|64:40,2,70,4|8|0,0:0|0:3|0:0,0:0:0:0:
96,216,198846,2,0,B|80:296,1,70,4|0,1:2|0:0,0:0:0:0:
160,320,199203,2,0,B|216:264|304:288,2,140,6|4|0,1:0|1:3|1:0,0:0:0:0:
168,224,200096,2,0,B|200:176|184:112,1,105,2|0,1:0|1:0,0:0:0:0:
304,80,200631,38,0,B|352:112|424:96,2,105,4|0|0,1:2|0:0|0:0,0:0:0:0:
232,32,201346,2,0,P|184:56|104:48,2,105,4|0|0,1:2|0:0|0:0,0:0:0:0:
232,120,202060,2,0,B|200:168|216:240,2,105,4|0|0,1:2|0:0|0:0,0:0:0:0:
288,184,202774,2,0,B|296:248|272:288,2,105,4|0|0,1:2|0:0|0:0,0:0:0:0:
256,192,203489,12,4,204918,1:2:0:0:
256,192,205006,12,0,205989,0:0:0:0:
272,184,206584,6,0,L|160:192,1,93.3333333333333,4|4,0:0|0:0,0:0:0:0:
120,120,207060,2,0,B|192:104|288:112,2,140,4|0|8,1:2|0:0|1:0,0:0:0:0:
96,152,207864,2,0,L|104:280,1,105,4|4,0:0|0:0,0:0:0:0:
336,304,220274,21,0,0:0:0:0:
336,304,220631,2,0,L|320:152,2,140,4|0|0,1:0|1:0|1:0,0:0:0:0:
416,264,221703,5,0,1:0:0:0:
208,248,222060,2,0,L|224:80,2,140,0|0|0,1:0|1:0|1:0,0:0:0:0:
296,216,223131,101,0,1:0:0:0:
96,192,223489,2,0,P|64:128|80:48,1,140,0|0,1:0|1:0,0:0:0:0:
232,152,224203,2,0,P|264:216|248:296,1,140,0|0,1:0|1:0,0:0:0:0:
48,272,224917,2,0,B|104:216|200:248,1,140,0|0,1:0|1:0,0:0:0:0:
360,344,225631,1,4,1:2:0:0:
416,272,225810,21,8,1:0:0:0:
416,272,225899,1,8,1:0:0:0:
416,272,225989,2,0,L|408:192,3,41.9999987182618,0|8|8|0,1:0|1:0|1:0|0:0,0:0:0:0:
384,192,226346,6,0,B|336:240|264:224,2,111.999996582031,4|0|0,1:0|0:0|0:0,0:0:0:0:
384,192,227060,2,0,B|368:128|400:72,2,111.999996582031,4|0|0,1:3|0:0|0:0,0:0:0:0:
384,192,227774,6,0,B|432:248|504:232,2,125.999996154785,4|8|8,1:3|0:3|0:3,0:0:0:0:
392,312,228489,2,0,B|376:256|304:224|240:264,1,167.999994873047,4|0,1:2|0:0,0:0:0:0:
184,296,229024,1,8,0:3:0:0:
120,352,229203,1,4,1:2:0:0:
72,72,229560,6,0,B|56:120|64:176,1,83.9999974365235,8|0,1:0|0:0,0:0:0:0:
144,200,229917,2,0,P|200:200|256:208,1,83.9999974365235,4|0,1:2|0:0,0:0:0:0:
280,280,230274,2,0,B|232:288|176:280,1,83.9999974365235,8|0,1:0|1:0,0:0:0:0:
288,144,230631,1,4,1:2:0:0:
288,144,231346,5,4,1:3:0:0:
384,168,231524,1,4,1:3:0:0:
360,264,231703,1,4,1:3:0:0:
264,240,231881,1,4,1:3:0:0:
200,168,232060,5,4,1:2:0:0:
104,184,232239,1,0,1:0:0:0:
104,184,232328,1,8,1:0:0:0:
104,184,232417,2,0,L|112:288,1,83.9999974365235,8|0,1:0|1:0,0:0:0:0:
192,296,232774,2,0,B|264:240|360:264,1,167.999994873047,4|8,1:2|1:0,0:0:0:0:
432,288,233310,37,8,1:0:0:0:
496,232,233489,1,4,1:2:0:0:
488,152,233667,1,0,0:0:0:0:
424,104,233846,1,8,0:0:0:0:
344,104,234024,2,0,L|176:144,1,167.999994873047,0|0,0:0|0:0,0:0:0:0:
112,200,234560,2,0,B|144:240|200:224,1,83.9999974365235,8|0,0:0|0:0,0:0:0:0:
296,320,234917,6,0,B|248:280|168:296|144:344,2,167.999994873047,4|8|4,0:2|0:0|0:2,0:0:0:0:
368,272,235810,1,0,0:0:0:0:
384,192,235989,1,0,0:0:0:0:
304,208,236167,1,8,0:0:0:0:
368,272,236346,38,0,L|440:336,1,83.9999974365235,4|8,0:2|0:2,0:0:0:0:
384,192,236703,2,0,L|376:88,1,83.9999974365235,8|0,0:0|0:2,0:0:0:0:
304,208,237060,2,0,B|264:176|200:200,1,83.9999974365235,4|8,0:2|0:0,0:0:0:0:
144,224,237417,2,0,B|112:184|128:128,1,83.9999974365235,8|0,0:0|0:0,0:0:0:0:
232,264,237774,6,0,B|216:328|144:360|88:336,1,167.999994873047,4|0,0:2|0:0,0:0:0:0:
32,288,238310,1,0,0:0:0:0:
32,288,238489,2,0,L|24:176,1,83.9999974365235,4|0,0:2|0:0,0:0:0:0:
124,145,238846,2,0,L|108:249,1,83.9999974365235,8|0,0:0|0:0,0:0:0:0:
208,192,239203,38,0,L|184:368,1,167.999994873047,4|8,0:2|0:0,0:0:0:0:
264,344,239739,1,0,0:2:0:0:
320,280,239917,2,0,B|344:232|320:184,1,83.9999974365235,4|8,0:2|0:0,0:0:0:0:
320,112,240274,1,8,0:0:0:0:
400,80,240453,5,0,0:0:0:0:
400,80,240542,1,8,0:0:0:0:
400,80,240631,2,0,B|464:152|416:256,1,167.999994873047,4|8,0:2|0:0,0:0:0:0:
376,304,241167,1,0,0:0:0:0:
288,312,241346,2,0,B|247:304|194:301,1,83.9999974365235,4|0,0:2|0:0,0:0:0:0:
176,224,241703,1,8,0:0:0:0:
256,232,241881,1,0,0:0:0:0:
288,152,242060,6,0,B|280:72|272:48,2,83.9999974365235,4|0|8,0:2|0:0|0:0,0:0:0:0:
344,216,242596,1,0,0:0:0:0:
312,296,242774,2,0,B|280:344|288:392,1,83.9999974365235,4|8,0:2|0:0,0:0:0:0:
216,328,243131,5,8,0:0:0:0:
144,280,243310,1,8,0:0:0:0:
144,280,243399,1,0,0:0:0:0:
144,280,243489,2,0,B|80:208|136:104,1,167.999994873047,2|8,1:3|1:0,0:0:0:0:
208,152,244024,1,0,0:0:0:0:
126,123,244203,2,0,L|46:99,1,83.9999974365235,8|0,0:3|0:0,0:0:0:0:
8,176,244560,6,0,B|40:208|24:280,1,83.9999974365235,8|0,1:0|0:0,0:0:0:0:
104,208,244917,2,0,B|216:192|264:280,1,167.999994873047,4|8,1:2|1:0,0:0:0:0:
288,336,245453,1,0,0:0:0:0:
376,352,245631,2,0,L|432:328,2,41.9999987182618,8|8|0,0:3|1:0|0:0,0:0:0:0:
360,264,245989,2,0,B|352:216|376:176,1,83.9999974365235,8|2,1:0|0:3,0:0:0:0:
372,182,246346,6,0,P|304:224|200:208,1,167.999994873047,4|8,0:2|1:0,0:0:0:0:
168,352,246881,2,0,P|236:310|340:326,1,167.999994873047,4|0,0:2|0:0,0:0:0:0:
400,352,247417,2,0,L|488:384,1,83.9999974365235,8|0,1:0|0:0,0:0:0:0:
456,288,247774,37,4,0:2:0:0:
448,208,247953,1,0,0:0:0:0:
440,128,248131,2,0,L|464:80,2,41.9999987182618,8|0|0,1:0|0:0|0:0,0:0:0:0:
360,160,248489,2,0,L|336:96,2,41.9999987182618,0|8|0,0:0|1:0|0:0,0:0:0:0:
280,184,248846,2,0,B|264:264|328:304,1,125.999996154785,0|0,0:0|0:0,0:0:0:0:
336,320,249203,6,0,B|272:296|256:360|168:336,1,167.999994873047,2|0,1:3|0:0,0:0:0:0:
208,264,249739,1,0,0:0:0:0:
280,224,249917,2,0,B|328:144|280:56,1,167.999994873047,2|8,1:3|1:0,0:0:0:0:
200,96,250453,1,0,0:0:0:0:
208,184,250631,2,0,L|80:192,2,125.999996154785,2|0|8,1:3|0:0|1:0,0:0:0:0:
288,152,251346,2,0,B|232:80|128:104,1,167.999994873047,2|8,1:3|1:0,0:0:0:0:
56,120,251881,1,8,1:0:0:0:
32,200,252060,6,0,B|29:269|40:312,1,83.9999974365235,4|0,1:2|0:0,0:0:0:0:
112,240,252417,1,8,1:0:0:0:
112,240,252596,1,4,1:2:0:0:
168,176,252774,2,0,B|272:152|328:232,1,167.999994873047,0|8,0:0|1:0,0:0:0:0:
344,304,253310,1,8,1:0:0:0:
256,192,253489,12,2,254917,0:3:0:0:
384,208,255274,5,0,1:0:0:0:
160,272,255631,2,0,B|88:200|128:104,1,167.999994873047,4|0,0:0|1:0,0:0:0:0:
192,72,256167,1,2,0:0:0:0:
272,88,256346,2,0,B|316:77|384:74,1,83.9999974365235,4|0,0:0|0:0,0:0:0:0:
400,144,256703,2,0,B|362:160|303:159,1,83.9999974365235,0|2,1:0|0:0,0:0:0:0:
248,208,257060,2,0,B|208:296|272:376,1,167.999994873047,0|8,0:0|0:1,0:0:0:0:
448,264,257774,6,0,L|464:80,1,167.999994873047,4|0,0:0|1:0,0:0:0:0:
392,48,258310,1,2,0:0:0:0:
304,64,258489,2,0,B|256:88|208:72,1,83.9999974365235,0|0,0:0|0:0,0:0:0:0:
160,136,258846,2,0,B|208:144|256:160,1,83.9999974365235,8|2,0:1|0:0,0:0:0:0:
192,224,259203,2,0,B|136:192|64:216|48:280,2,167.999994873047,4|0|4,0:0|1:0|0:0,0:0:0:0:
256,280,260096,1,0,1:0:0:0:
256,280,260185,1,8,1:0:0:0:
256,280,260274,2,0,L|280:184,1,83.9999974365235,4|4,1:3|1:3,0:0:0:0:
360,200,260631,6,0,L|312:392,1,167.999994873047,4|0,0:0|1:0,0:0:0:0:
319,362,261346,2,0,B|264:376|232:320,1,83.9999974365235,4|0,0:0|0:0,0:0:0:0:
216,256,261703,1,0,1:0:0:0:
320,32,262060,2,0,B|336:88|296:136,1,83.9999974365235,4|0,0:0|0:0,0:0:0:0:
272,192,262417,1,0,1:0:0:0:
272,192,262774,2,0,L|336:216,4,41.9999987182618,0|8|8|8|8,1:0|1:0|1:0|1:0|1:0,0:0:0:0:
288,288,263489,38,0,L|176:296,1,111.999996582031,2|0,1:3|0:0,0:0:0:0:
48,208,263965,2,0,L|160:216,2,111.999996582031,8|2|8,0:1|0:3|0:1,0:0:0:0:
96,120,264679,2,0,B|168:144|208:88,1,111.999996582031,0|4,0:1|1:0,0:0:0:0:
296,128,265155,2,0,B|360:112|416:160,2,111.999996582031,0|0|4,0:0|0:0|0:2,0:0:0:0:
120,280,265989,1,2,0:3:0:0:
