osu file format v14

[General]
AudioFilename: audio.mp3
AudioLeadIn: 0
PreviewTime: 88795
Countdown: 0
SampleSet: Normal
StackLeniency: 0.7
Mode: 1
LetterboxInBreaks: 0
WidescreenStoryboard: 1

[Editor]
Bookmarks: 22403,33312,44221,55130,66039,68766,79675,90584,112403,134221,145130,156039,166948,177857,180584,191494,202403,224221,246039,259675,286948,308766,330584
DistanceSpacing: 1
BeatDivisor: 4
GridSize: 32
TimelineZoom: 1.8

[Metadata]
Title:Okaerinasai (tomatomerde Remix)
TitleUnicode:おかえりなさい (tomatomerde Remix)
Artist:Sakamoto Maaya
ArtistUnicode:坂本真綾
Creator:hikikochan
Version:Memories
Source:たまゆら~hitotose~
Tags:tamayura&bass dnb drum and bass ascendance
BeatmapID:1153788
BeatmapSetID:544468

[Difficulty]
HPDrainRate:5
CircleSize:4.2
OverallDifficulty:6
ApproachRate:5
SliderMultiplier:1.4
SliderTickRate:2

[Events]
//Background and Video events
0,0,"bg1.jpg",0,0
//Break Periods
2,259875,269384
2,279648,285748
//Storyboard Layer 0 (Background)
//Storyboard Layer 1 (Fail)
//Storyboard Layer 2 (Pass)
//Storyboard Layer 3 (Foreground)
//Storyboard Sound Samples

[TimingPoints]
585,340.909090909,4,1,0,60,1,0
585,-133.333333333333,4,1,0,60,0,0
21039,-129.87012987013,4,1,0,60,0,0
21209,-126.582278481013,4,1,0,60,0,0
21380,-123.456790123457,4,1,0,60,0,0
21550,-120.481927710843,4,1,0,60,0,0
21721,-117.647058823529,4,1,0,60,0,0
21891,-114.942528735632,4,1,0,60,0,0
22062,-111.111111111111,4,1,0,70,0,0
22403,-100,4,1,0,90,0,0
44562,-117.647058823529,4,1,0,80,0,0
68170,-116.279069767442,4,1,0,80,0,0
68255,-114.942528735632,4,1,0,80,0,0
68425,-113.636363636364,4,1,0,80,0,0
68596,-112.359550561798,4,1,0,80,0,0
68766,-111.111111111111,4,1,0,90,0,0
78908,-109.89010989011,4,1,0,90,0,0
78994,-108.695652173913,4,1,0,90,0,0
79079,-107.52688172043,4,1,0,90,0,0
79164,-106.382978723404,4,1,0,90,0,0
79334,-105.263157894737,4,1,0,90,0,0
79505,-104.166666666667,4,1,0,90,0,0
79675,-103.092783505155,4,1,0,90,0,0
85471,-102.040816326531,4,1,0,90,0,0
86834,-101.010101010101,4,1,0,90,0,0
87857,-100,4,1,0,90,0,0
88539,-99.009900990099,4,1,0,90,0,0
89221,-98.0392156862745,4,1,0,90,0,0
89391,-97.0873786407767,4,1,0,90,0,0
89562,-96.1538461538461,4,1,0,90,0,0
89732,-95.2380952380952,4,1,0,90,0,0
89903,-94.3396226415094,4,1,0,90,0,0
90073,-93.4579439252336,4,1,0,90,0,0
90244,-92.5925925925926,4,1,0,95,0,0
90584,-90.9090909090909,4,1,0,100,0,1
112062,-90.9090909090909,4,1,0,100,0,0
112403,-90.9090909090909,4,1,0,100,0,1
131494,-90.9090909090909,4,1,0,100,0,0
132857,-92.5925925925926,4,1,0,95,0,0
133198,-94.3396226415094,4,1,0,95,0,0
133539,-96.1538461538461,4,1,0,95,0,0
133709,-97.0873786407767,4,1,0,95,0,0
133880,-98.0392156862745,4,1,0,100,0,0
134221,-100,4,1,0,90,0,0
145471,-111.111111111111,4,1,0,80,0,0
154846,-112.359550561798,4,1,0,80,0,0
155016,-113.636363636364,4,1,0,80,0,0
155187,-114.942528735632,4,1,0,80,0,0
155357,-116.279069767442,4,1,0,80,0,0
155528,-117.647058823529,4,1,0,80,0,0
155698,-119.047619047619,4,1,0,80,0,0
156039,-111.111111111111,4,1,0,90,0,0
180158,-109.89010989011,4,1,0,90,0,0
180244,-108.695652173913,4,1,0,90,0,0
180329,-107.52688172043,4,1,0,90,0,0
180414,-106.382978723404,4,1,0,90,0,0
180584,-105.263157894737,4,1,0,95,0,0
190897,-104.166666666667,4,1,0,95,0,0
190982,-103.092783505155,4,1,0,95,0,0
191067,-102.040816326531,4,1,0,95,0,0
191153,-101.010101010101,4,1,0,95,0,0
191238,-100,4,1,0,95,0,0
191323,-99.009900990099,4,1,0,95,0,0
191494,-98.0392156862745,4,1,0,95,0,0
197289,-97.0873786407767,4,1,0,95,0,0
199675,-96.1538461538461,4,1,0,95,0,0
200357,-95.2380952380952,4,1,0,95,0,0
201039,-94.3396226415094,4,1,0,95,0,0
201380,-93.4579439252336,4,1,0,95,0,0
201550,-92.5925925925926,4,1,0,95,0,0
202062,-91.743119266055,4,1,0,95,0,0
202403,-90.9090909090909,4,1,0,100,0,1
224050,-90.9090909090909,4,1,0,100,0,0
224221,-90.9090909090909,4,1,0,100,0,1
243312,-90.9090909090909,4,1,0,100,0,0
243653,-90.9090909090909,4,1,0,60,0,0
246039,-105.263157894737,4,1,0,90,0,0
256948,-105.263157894737,4,1,0,30,0,0
259675,-125,4,1,0,20,0,0
271266,-125,4,1,0,25,0,0
271948,-125,4,1,0,30,0,0
272630,-125,4,1,0,35,0,0
273312,-125,4,1,0,40,0,0
273994,-125,4,1,0,45,0,0
274675,-125,4,1,0,50,0,0
275357,-125,4,1,0,55,0,0
276039,-125,4,1,0,60,0,0
276721,-125,4,1,0,65,0,0
277403,-125,4,1,0,70,0,0
278084,-125,4,1,0,75,0,0
278766,-105.263157894737,4,1,0,60,0,0
286948,-90.9090909090909,4,1,0,100,0,1
308425,-90.9090909090909,4,1,0,100,0,0
308766,-90.9090909090909,4,1,0,100,0,1
327857,-90.9090909090909,4,1,0,100,0,0
328198,-90.9090909090909,4,1,0,60,0,0
330584,-117.647058823529,4,1,0,80,0,0
342005,-142.857142857143,4,1,0,60,0,0

[HitObjects]
256,192,19675,5,0,0:0:0:0:
256,192,20016,1,0,0:0:0:0:
256,192,20357,1,0,0:0:0:0:
256,192,20698,1,0,0:0:0:0:
256,192,21039,1,0,0:0:0:0:
256,192,21209,1,0,0:0:0:0:
256,192,21380,1,0,0:0:0:0:
256,192,21550,1,0,0:0:0:0:
256,192,21721,1,0,0:0:0:0:
256,192,21891,1,0,0:0:0:0:
256,192,22062,1,12,0:0:0:0:
256,192,22403,1,4,0:0:0:0:
256,192,22573,1,0,0:0:0:0:
256,192,22744,1,8,0:0:0:0:
256,192,22914,1,0,0:0:0:0:
256,192,23255,1,0,0:0:0:0:
256,192,23425,1,8,0:0:0:0:
256,192,23766,1,0,0:0:0:0:
256,192,23937,1,0,0:0:0:0:
256,192,24022,1,0,0:0:0:0:
256,192,24107,1,8,0:0:0:0:
256,192,24278,1,0,0:0:0:0:
256,192,24448,1,8,0:0:0:0:
256,192,24533,1,8,0:0:0:0:
256,192,24619,1,0,0:0:0:0:
256,192,24789,1,8,0:0:0:0:
256,192,25130,1,0,0:0:0:0:
256,192,25300,1,0,0:0:0:0:
256,192,25471,1,8,0:0:0:0:
256,192,25641,1,0,0:0:0:0:
256,192,25982,1,0,0:0:0:0:
256,192,26153,1,8,0:0:0:0:
256,192,26494,1,0,0:0:0:0:
256,192,26664,1,0,0:0:0:0:
256,192,26749,1,0,0:0:0:0:
256,192,26834,1,8,0:0:0:0:
256,192,27005,1,0,0:0:0:0:
256,192,27175,1,8,0:0:0:0:
256,192,27261,1,0,0:0:0:0:
256,192,27346,1,0,0:0:0:0:
256,192,27431,1,0,0:0:0:0:
256,192,27516,1,8,0:0:0:0:
256,192,27687,1,8,0:0:0:0:
256,192,27857,1,0,0:0:0:0:
256,192,28028,1,0,0:0:0:0:
256,192,28198,1,8,0:0:0:0:
256,192,28369,1,0,0:0:0:0:
256,192,28709,1,0,0:0:0:0:
256,192,28880,1,8,0:0:0:0:
256,192,29221,1,0,0:0:0:0:
256,192,29391,1,0,0:0:0:0:
256,192,29477,1,0,0:0:0:0:
256,192,29562,1,8,0:0:0:0:
256,192,29732,1,0,0:0:0:0:
256,192,29903,1,8,0:0:0:0:
256,192,29988,1,0,0:0:0:0:
256,192,30073,1,0,0:0:0:0:
256,192,30244,1,8,0:0:0:0:
256,192,30584,1,0,0:0:0:0:
256,192,30755,1,0,0:0:0:0:
256,192,30925,1,8,0:0:0:0:
256,192,31096,1,0,0:0:0:0:
256,192,31437,1,0,0:0:0:0:
256,192,31607,1,8,0:0:0:0:
256,192,31778,1,8,0:0:0:0:
256,192,31948,1,0,0:0:0:0:
256,192,32119,1,0,0:0:0:0:
256,192,32204,1,0,0:0:0:0:
256,192,32289,1,8,0:0:0:0:
256,192,32459,1,0,0:0:0:0:
256,192,32630,1,8,0:0:0:0:
256,192,32715,1,8,0:0:0:0:
256,192,32800,1,0,0:0:0:0:
256,192,32886,1,0,0:0:0:0:
256,192,32971,1,8,0:0:0:0:
256,192,33141,1,8,0:0:0:0:
256,192,33312,1,0,0:0:0:0:
256,192,33482,1,0,0:0:0:0:
256,192,33653,1,8,0:0:0:0:
256,192,33823,1,0,0:0:0:0:
256,192,34164,1,0,0:0:0:0:
256,192,34334,1,8,0:0:0:0:
256,192,34505,1,0,0:0:0:0:
256,192,34675,1,0,0:0:0:0:
256,192,34846,1,0,0:0:0:0:
256,192,34931,1,0,0:0:0:0:
256,192,35016,1,8,0:0:0:0:
256,192,35187,1,0,0:0:0:0:
256,192,35357,1,8,0:0:0:0:
256,192,35442,1,8,0:0:0:0:
256,192,35528,1,0,0:0:0:0:
256,192,35698,1,8,0:0:0:0:
256,192,36039,1,0,0:0:0:0:
256,192,36209,1,0,0:0:0:0:
256,192,36380,1,8,0:0:0:0:
256,192,36550,1,0,0:0:0:0:
256,192,36891,1,0,0:0:0:0:
256,192,37062,1,8,0:0:0:0:
256,192,37232,1,8,0:0:0:0:
256,192,37403,1,0,0:0:0:0:
256,192,37573,1,0,0:0:0:0:
256,192,37658,1,0,0:0:0:0:
256,192,37744,1,8,0:0:0:0:
256,192,37914,1,0,0:0:0:0:
256,192,38084,1,8,0:0:0:0:
256,192,38170,1,0,0:0:0:0:
256,192,38255,1,0,0:0:0:0:
256,192,38340,1,0,0:0:0:0:
256,192,38425,1,8,0:0:0:0:
256,192,38596,1,8,0:0:0:0:
256,192,38766,1,0,0:0:0:0:
256,192,38937,1,0,0:0:0:0:
256,192,39107,1,8,0:0:0:0:
256,192,39278,1,0,0:0:0:0:
256,192,39619,1,0,0:0:0:0:
256,192,39789,1,8,0:0:0:0:
256,192,39959,1,0,0:0:0:0:
256,192,40130,1,0,0:0:0:0:
256,192,40300,1,8,0:0:0:0:
256,192,40386,1,0,0:0:0:0:
256,192,40471,1,8,0:0:0:0:
256,192,40641,1,0,0:0:0:0:
256,192,40812,1,8,0:0:0:0:
256,192,40897,1,8,0:0:0:0:
256,192,40982,1,0,0:0:0:0:
256,192,41153,1,8,0:0:0:0:
256,192,41323,1,8,0:0:0:0:
256,192,41494,1,0,0:0:0:0:
256,192,41664,1,0,0:0:0:0:
256,192,41834,1,8,0:0:0:0:
256,192,42005,1,0,0:0:0:0:
256,192,42346,1,0,0:0:0:0:
256,192,42516,1,8,0:0:0:0:
256,192,42687,1,8,0:0:0:0:
256,192,42857,1,0,0:0:0:0:
256,192,43028,1,0,0:0:0:0:
256,192,43113,1,0,0:0:0:0:
256,192,43198,1,8,0:0:0:0:
256,192,43369,1,0,0:0:0:0:
256,192,43539,1,8,0:0:0:0:
256,192,43624,1,8,0:0:0:0:
256,192,43709,1,0,0:0:0:0:
256,192,43795,1,0,0:0:0:0:
256,192,43880,1,8,0:0:0:0:
256,192,43965,1,8,0:0:0:0:
256,192,44050,1,8,0:0:0:0:
256,192,44221,1,4,0:0:0:0:
256,192,44562,1,8,0:0:0:0:
256,192,44732,1,0,0:0:0:0:
256,192,45073,1,0,0:0:0:0:
256,192,45244,1,8,0:0:0:0:
256,192,45584,1,0,0:0:0:0:
256,192,45925,1,8,0:0:0:0:
256,192,46096,1,0,0:0:0:0:
256,192,46266,1,0,0:0:0:0:
256,192,46437,1,0,0:0:0:0:
256,192,46607,1,8,0:0:0:0:
256,192,46948,1,0,0:0:0:0:
256,192,47289,1,8,0:0:0:0:
256,192,47459,1,0,0:0:0:0:
256,192,47800,1,0,0:0:0:0:
256,192,47971,1,8,0:0:0:0:
256,192,48312,1,0,0:0:0:0:
256,192,48482,1,8,0:0:0:0:
256,192,48653,1,0,0:0:0:0:
256,192,48823,1,0,0:0:0:0:
256,192,48994,1,8,0:0:0:0:
256,192,49164,1,0,0:0:0:0:
256,192,49334,1,8,0:0:0:0:
256,192,49675,1,0,0:0:0:0:
256,192,50016,1,8,0:0:0:0:
256,192,50187,1,0,0:0:0:0:
256,192,50528,1,0,0:0:0:0:
256,192,50698,1,8,0:0:0:0:
256,192,50869,1,8,0:0:0:0:
256,192,51039,1,0,0:0:0:0:
256,192,51380,1,8,0:0:0:0:
256,192,51550,1,0,0:0:0:0:
256,192,51721,1,0,0:0:0:0:
256,192,51891,1,0,0:0:0:0:
256,192,52062,1,8,0:0:0:0:
256,192,52403,1,0,0:0:0:0:
256,192,52744,1,8,0:0:0:0:
256,192,52914,1,0,0:0:0:0:
256,192,53255,1,0,0:0:0:0:
256,192,53425,1,8,0:0:0:0:
256,192,53596,1,0,0:0:0:0:
256,192,53766,1,0,0:0:0:0:
256,192,54107,1,8,0:0:0:0:
256,192,54278,1,0,0:0:0:0:
256,192,54363,1,0,0:0:0:0:
256,192,54448,1,8,0:0:0:0:
256,192,54619,1,0,0:0:0:0:
256,192,54789,1,8,0:0:0:0:
256,192,54959,1,8,0:0:0:0:
256,192,55130,1,0,0:0:0:0:
256,192,55471,1,8,0:0:0:0:
256,192,55641,1,0,0:0:0:0:
256,192,55982,1,0,0:0:0:0:
256,192,56153,1,8,0:0:0:0:
256,192,56494,1,0,0:0:0:0:
256,192,56834,1,8,0:0:0:0:
256,192,57005,1,8,0:0:0:0:
256,192,57175,1,0,0:0:0:0:
256,192,57346,1,0,0:0:0:0:
256,192,57516,1,8,0:0:0:0:
256,192,57857,1,0,0:0:0:0:
256,192,58198,1,8,0:0:0:0:
256,192,58369,1,0,0:0:0:0:
256,192,58709,1,0,0:0:0:0:
256,192,58880,1,8,0:0:0:0:
256,192,59221,1,0,0:0:0:0:
256,192,59391,1,0,0:0:0:0:
256,192,59562,1,8,0:0:0:0:
256,192,59732,1,8,0:0:0:0:
256,192,59903,1,0,0:0:0:0:
256,192,60073,1,0,0:0:0:0:
256,192,60244,1,8,0:0:0:0:
256,192,60414,1,0,0:0:0:0:
256,192,60584,1,0,0:0:0:0:
256,192,60925,1,8,0:0:0:0:
256,192,61096,1,0,0:0:0:0:
256,192,61437,1,0,0:0:0:0:
256,192,61607,1,8,0:0:0:0:
256,192,61778,1,0,0:0:0:0:
256,192,61948,1,8,0:0:0:0:
256,192,62289,1,8,0:0:0:0:
256,192,62459,1,0,0:0:0:0:
256,192,62630,1,0,0:0:0:0:
256,192,62800,1,0,0:0:0:0:
256,192,62971,1,8,0:0:0:0:
256,192,63312,1,0,0:0:0:0:
256,192,63653,1,8,0:0:0:0:
256,192,63823,1,0,0:0:0:0:
256,192,64164,1,8,0:0:0:0:
256,192,64334,1,8,0:0:0:0:
256,192,64505,1,0,0:0:0:0:
256,192,64675,1,8,0:0:0:0:
256,192,65016,1,8,0:0:0:0:
256,192,65187,1,8,0:0:0:0:
256,192,65357,1,0,0:0:0:0:
256,192,65528,1,0,0:0:0:0:
256,192,65698,1,8,0:0:0:0:
256,192,65783,1,8,0:0:0:0:
256,192,65869,1,8,0:0:0:0:
256,192,66039,1,0,0:0:0:0:
256,192,66380,1,8,0:0:0:0:
256,192,66721,1,0,0:0:0:0:
256,192,66891,1,0,0:0:0:0:
256,192,67062,1,8,0:0:0:0:
256,192,67403,1,0,0:0:0:0:
256,192,67573,1,0,0:0:0:0:
256,192,67658,1,0,0:0:0:0:
256,192,67744,1,8,0:0:0:0:
256,192,67914,1,0,0:0:0:0:
256,192,68084,1,8,0:0:0:0:
256,192,68170,1,8,0:0:0:0:
256,192,68255,1,0,0:0:0:0:
256,192,68425,1,8,0:0:0:0:
256,192,68596,1,8,0:0:0:0:
256,192,68766,1,4,0:0:0:0:
256,192,69107,1,8,0:0:0:0:
256,192,69278,1,0,0:0:0:0:
256,192,69619,1,0,0:0:0:0:
256,192,69704,1,0,0:0:0:0:
256,192,69789,1,8,0:0:0:0:
256,192,69959,1,8,0:0:0:0:
256,192,70130,1,0,0:0:0:0:
256,192,70300,1,0,0:0:0:0:
256,192,70471,1,8,0:0:0:0:
256,192,70556,1,8,0:0:0:0:
256,192,70641,1,0,0:0:0:0:
256,192,70727,1,0,0:0:0:0:
256,192,70812,1,8,0:0:0:0:
256,192,70982,1,0,0:0:0:0:
256,192,71153,1,8,0:0:0:0:
256,192,71323,1,8,0:0:0:0:
256,192,71494,1,0,0:0:0:0:
256,192,71834,1,8,0:0:0:0:
256,192,72005,1,0,0:0:0:0:
256,192,72346,1,0,0:0:0:0:
256,192,72516,1,8,0:0:0:0:
256,192,72687,1,0,0:0:0:0:
256,192,72857,1,0,0:0:0:0:
256,192,73028,1,0,0:0:0:0:
256,192,73113,1,0,0:0:0:0:
256,192,73198,1,8,0:0:0:0:
256,192,73369,1,0,0:0:0:0:
256,192,73539,1,0,0:0:0:0:
256,192,73624,1,0,0:0:0:0:
256,192,73709,1,0,0:0:0:0:
256,192,73795,1,0,0:0:0:0:
256,192,73880,1,8,0:0:0:0:
256,192,74050,1,8,0:0:0:0:
256,192,74221,1,0,0:0:0:0:
256,192,74562,1,8,0:0:0:0:
256,192,74732,1,0,0:0:0:0:
256,192,75073,1,0,0:0:0:0:
256,192,75244,1,8,0:0:0:0:
256,192,75414,1,8,0:0:0:0:
256,192,75584,1,0,0:0:0:0:
256,192,75755,1,0,0:0:0:0:
256,192,75840,1,0,0:0:0:0:
256,192,75925,1,8,0:0:0:0:
256,192,76096,1,0,0:0:0:0:
256,192,76266,1,8,0:0:0:0:
256,192,76352,1,8,0:0:0:0:
256,192,76437,1,0,0:0:0:0:
256,192,76522,1,0,0:0:0:0:
256,192,76607,1,8,0:0:0:0:
256,192,76778,1,8,0:0:0:0:
256,192,76948,1,0,0:0:0:0:
256,192,77289,1,8,0:0:0:0:
256,192,77459,1,0,0:0:0:0:
256,192,77800,1,0,0:0:0:0:
256,192,77971,1,8,0:0:0:0:
256,192,78141,1,8,0:0:0:0:
256,192,78312,1,0,0:0:0:0:
256,192,78397,1,0,0:0:0:0:
256,192,78482,1,0,0:0:0:0:
256,192,78653,1,8,0:0:0:0:
256,192,78823,1,0,0:0:0:0:
256,192,78908,1,0,0:0:0:0:
256,192,78994,1,8,0:0:0:0:
256,192,79079,1,8,0:0:0:0:
256,192,79164,1,0,0:0:0:0:
256,192,79334,1,8,0:0:0:0:
256,192,79505,1,0,0:0:0:0:
256,192,79675,1,4,0:0:0:0:
256,192,79846,1,0,0:0:0:0:
256,192,80016,1,8,0:0:0:0:
256,192,80187,1,0,0:0:0:0:
256,192,80528,1,0,0:0:0:0:
256,192,80698,1,8,0:0:0:0:
256,192,80869,1,8,0:0:0:0:
256,192,81039,1,0,0:0:0:0:
256,192,81209,1,0,0:0:0:0:
256,192,81295,1,0,0:0:0:0:
256,192,81380,1,8,0:0:0:0:
256,192,81550,1,0,0:0:0:0:
256,192,81721,1,8,0:0:0:0:
256,192,81806,1,0,0:0:0:0:
256,192,81891,1,0,0:0:0:0:
256,192,81977,1,0,0:0:0:0:
256,192,82062,1,8,0:0:0:0:
256,192,82232,1,8,0:0:0:0:
256,192,82403,1,0,0:0:0:0:
256,192,82573,1,0,0:0:0:0:
256,192,82744,1,8,0:0:0:0:
256,192,82914,1,0,0:0:0:0:
256,192,83255,1,0,0:0:0:0:
256,192,83425,1,8,0:0:0:0:
256,192,83596,1,8,0:0:0:0:
256,192,83766,1,0,0:0:0:0:
256,192,83937,1,0,0:0:0:0:
256,192,84022,1,0,0:0:0:0:
256,192,84107,1,8,0:0:0:0:
256,192,84192,1,8,0:0:0:0:
256,192,84278,1,0,0:0:0:0:
256,192,84448,1,8,0:0:0:0:
256,192,84619,1,0,0:0:0:0:
256,192,84704,1,0,0:0:0:0:
256,192,84789,1,8,0:0:0:0:
256,192,84959,1,0,0:0:0:0:
256,192,85130,1,8,0:0:0:0:
256,192,85471,1,8,0:0:0:0:
256,192,85641,1,0,0:0:0:0:
256,192,85727,1,0,0:0:0:0:
256,192,85812,1,0,0:0:0:0:
256,192,85982,1,0,0:0:0:0:
256,192,86153,1,8,0:0:0:0:
256,192,86323,1,0,0:0:0:0:
256,192,86494,1,8,0:0:0:0:
256,192,86834,1,8,0:0:0:0:
256,192,87005,1,8,0:0:0:0:
256,192,87090,1,8,0:0:0:0:
256,192,87175,1,0,0:0:0:0:
256,192,87346,1,0,0:0:0:0:
256,192,87516,1,8,0:0:0:0:
256,192,87687,1,8,0:0:0:0:
256,192,87857,1,0,0:0:0:0:
256,192,88198,1,0,0:0:0:0:
256,192,88539,1,0,0:0:0:0:
256,192,88880,1,0,0:0:0:0:
256,192,89221,1,0,0:0:0:0:
256,192,89391,1,0,0:0:0:0:
256,192,89562,1,0,0:0:0:0:
256,192,89732,1,0,0:0:0:0:
256,192,89903,1,0,0:0:0:0:
256,192,90073,1,0,0:0:0:0:
256,192,90244,1,12,0:0:0:0:
256,192,90584,1,4,0:0:0:0:
256,192,90925,1,8,0:0:0:0:
256,192,91096,1,0,0:0:0:0:
256,192,91181,1,0,0:0:0:0:
256,192,91266,1,0,0:0:0:0:
256,192,91437,1,0,0:0:0:0:
256,192,91607,1,8,0:0:0:0:
256,192,91778,1,0,0:0:0:0:
256,192,91863,1,0,0:0:0:0:
256,192,91948,1,8,0:0:0:0:
256,192,92119,1,0,0:0:0:0:
256,192,92289,1,8,0:0:0:0:
256,192,92459,1,0,0:0:0:0:
256,192,92545,1,0,0:0:0:0:
256,192,92630,1,8,0:0:0:0:
256,192,92715,1,8,0:0:0:0:
256,192,92800,1,0,0:0:0:0:
256,192,92971,1,8,0:0:0:0:
256,192,93141,1,0,0:0:0:0:
256,192,93312,1,0,0:0:0:0:
256,192,93653,1,8,0:0:0:0:
256,192,93823,1,0,0:0:0:0:
256,192,93908,1,0,0:0:0:0:
256,192,93994,1,0,0:0:0:0:
256,192,94164,1,0,0:0:0:0:
256,192,94334,1,8,0:0:0:0:
256,192,94505,1,0,0:0:0:0:
256,192,94590,1,0,0:0:0:0:
256,192,94675,1,8,0:0:0:0:
256,192,94761,1,0,0:0:0:0:
256,192,94846,1,0,0:0:0:0:
256,192,95016,1,8,0:0:0:0:
256,192,95187,1,0,0:0:0:0:
256,192,95272,1,0,0:0:0:0:
256,192,95357,1,8,0:0:0:0:
256,192,95528,1,0,0:0:0:0:
256,192,95698,1,8,0:0:0:0:
256,192,95869,1,8,0:0:0:0:
256,192,95954,1,8,0:0:0:0:
256,192,96039,1,0,0:0:0:0:
256,192,96380,1,8,0:0:0:0:
256,192,96550,1,0,0:0:0:0:
256,192,96636,1,0,0:0:0:0:
256,192,96721,1,0,0:0:0:0:
256,192,96891,1,0,0:0:0:0:
256,192,97062,1,8,0:0:0:0:
256,192,97232,1,0,0:0:0:0:
256,192,97317,1,0,0:0:0:0:
256,192,97403,1,8,0:0:0:0:
256,192,97573,1,0,0:0:0:0:
256,192,97744,1,8,0:0:0:0:
256,192,97914,1,8,0:0:0:0:
256,192,97999,1,8,0:0:0:0:
256,192,98084,1,0,0:0:0:0:
256,192,98170,1,0,0:0:0:0:
256,192,98255,1,0,0:0:0:0:
256,192,98425,1,8,0:0:0:0:
256,192,98596,1,0,0:0:0:0:
256,192,98766,1,8,0:0:0:0:
256,192,99107,1,8,0:0:0:0:
256,192,99278,1,0,0:0:0:0:
256,192,99363,1,0,0:0:0:0:
256,192,99448,1,8,0:0:0:0:
256,192,99619,1,0,0:0:0:0:
256,192,99789,1,8,0:0:0:0:
256,192,99959,1,0,0:0:0:0:
256,192,100045,1,0,0:0:0:0:
256,192,100130,1,8,0:0:0:0:
256,192,100215,1,8,0:0:0:0:
256,192,100300,1,0,0:0:0:0:
256,192,100471,1,8,0:0:0:0:
256,192,100641,1,0,0:0:0:0:
256,192,100727,1,0,0:0:0:0:
256,192,100812,1,8,0:0:0:0:
256,192,100982,1,0,0:0:0:0:
256,192,101153,1,8,0:0:0:0:
256,192,101238,1,0,0:0:0:0:
256,192,101323,1,8,0:0:0:0:
256,192,101494,1,4,0:0:0:0:
256,192,101834,1,8,0:0:0:0:
256,192,102005,1,0,0:0:0:0:
256,192,102090,1,0,0:0:0:0:
256,192,102175,1,0,0:0:0:0:
256,192,102346,1,0,0:0:0:0:
256,192,102516,1,8,0:0:0:0:
256,192,102687,1,0,0:0:0:0:
256,192,102772,1,0,0:0:0:0:
256,192,102857,1,8,0:0:0:0:
256,192,103028,1,0,0:0:0:0:
256,192,103198,1,8,0:0:0:0:
256,192,103369,1,0,0:0:0:0:
256,192,103454,1,0,0:0:0:0:
256,192,103539,1,8,0:0:0:0:
256,192,103624,1,0,0:0:0:0:
256,192,103709,1,0,0:0:0:0:
256,192,103880,1,8,0:0:0:0:
256,192,104050,1,8,0:0:0:0:
256,192,104136,1,8,0:0:0:0:
256,192,104221,1,0,0:0:0:0:
256,192,104562,1,8,0:0:0:0:
256,192,104732,1,0,0:0:0:0:
256,192,104817,1,0,0:0:0:0:
256,192,104903,1,8,0:0:0:0:
256,192,105073,1,0,0:0:0:0:
256,192,105244,1,8,0:0:0:0:
256,192,105414,1,0,0:0:0:0:
256,192,105499,1,0,0:0:0:0:
256,192,105584,1,8,0:0:0:0:
256,192,105670,1,8,0:0:0:0:
256,192,105755,1,0,0:0:0:0:
256,192,105925,1,8,0:0:0:0:
256,192,106096,1,0,0:0:0:0:
256,192,106181,1,0,0:0:0:0:
256,192,106266,1,8,0:0:0:0:
256,192,106437,1,0,0:0:0:0:
256,192,106607,1,8,0:0:0:0:
256,192,106692,1,8,0:0:0:0:
256,192,106778,1,8,0:0:0:0:
256,192,106863,1,8,0:0:0:0:
256,192,106948,1,0,0:0:0:0:
256,192,107289,1,8,0:0:0:0:
256,192,107459,1,0,0:0:0:0:
256,192,107545,1,0,0:0:0:0:
256,192,107630,1,0,0:0:0:0:
256,192,107800,1,0,0:0:0:0:
256,192,107971,1,8,0:0:0:0:
256,192,108141,1,8,0:0:0:0:
256,192,108227,1,0,0:0:0:0:
256,192,108312,1,0,0:0:0:0:
256,192,108653,1,8,0:0:0:0:
256,192,108823,1,8,0:0:0:0:
256,192,108994,1,0,0:0:0:0:
256,192,109079,1,0,0:0:0:0:
256,192,109164,1,0,0:0:0:0:
256,192,109334,1,8,0:0:0:0:
256,192,109505,1,8,0:0:0:0:
256,192,109590,1,8,0:0:0:0:
256,192,109675,1,0,0:0:0:0:
256,192,110016,1,8,0:0:0:0:
256,192,110187,1,8,0:0:0:0:
256,192,110357,1,0,0:0:0:0:
256,192,110528,1,0,0:0:0:0:
256,192,110698,1,8,0:0:0:0:
256,192,110869,1,0,0:0:0:0:
256,192,110954,1,0,0:0:0:0:
256,192,111039,1,8,0:0:0:0:
256,192,111209,1,0,0:0:0:0:
256,192,111380,1,8,0:0:0:0:
256,192,111550,1,8,0:0:0:0:
256,192,111636,1,8,0:0:0:0:
256,192,111721,1,0,0:0:0:0:
256,192,111806,1,0,0:0:0:0:
256,192,111891,1,0,0:0:0:0:
256,192,111977,1,0,0:0:0:0:
256,192,112062,1,8,0:0:0:0:
256,192,112147,1,8,0:0:0:0:
256,192,112232,1,8,0:0:0:0:
256,192,112403,1,4,0:0:0:0:
256,192,112744,1,8,0:0:0:0:
256,192,112914,1,8,0:0:0:0:
256,192,112999,1,8,0:0:0:0:
256,192,113084,1,0,0:0:0:0:
256,192,113255,1,0,0:0:0:0:
256,192,113425,1,8,0:0:0:0:
256,192,113596,1,0,0:0:0:0:
256,192,113681,1,0,0:0:0:0:
256,192,113766,1,8,0:0:0:0:
256,192,113937,1,0,0:0:0:0:
256,192,114107,1,8,0:0:0:0:
256,192,114278,1,0,0:0:0:0:
256,192,114363,1,0,0:0:0:0:
256,192,114448,1,8,0:0:0:0:
256,192,114533,1,8,0:0:0:0:
256,192,114619,1,0,0:0:0:0:
256,192,114789,1,8,0:0:0:0:
256,192,114959,1,8,0:0:0:0:
256,192,115045,1,8,0:0:0:0:
256,192,115130,1,0,0:0:0:0:
256,192,115471,1,8,0:0:0:0:
256,192,115641,1,0,0:0:0:0:
256,192,115727,1,0,0:0:0:0:
256,192,115812,1,0,0:0:0:0:
256,192,115982,1,0,0:0:0:0:
256,192,116153,1,8,0:0:0:0:
256,192,116323,1,0,0:0:0:0:
256,192,116408,1,0,0:0:0:0:
256,192,116494,1,8,0:0:0:0:
256,192,116579,1,0,0:0:0:0:
256,192,116664,1,0,0:0:0:0:
256,192,116834,1,8,0:0:0:0:
256,192,117005,1,0,0:0:0:0:
256,192,117090,1,0,0:0:0:0:
256,192,117175,1,8,0:0:0:0:
256,192,117346,1,0,0:0:0:0:
256,192,117516,1,8,0:0:0:0:
256,192,117602,1,8,0:0:0:0:
256,192,117687,1,8,0:0:0:0:
256,192,117772,1,8,0:0:0:0:
256,192,117857,1,0,0:0:0:0:
256,192,118198,1,8,0:0:0:0:
256,192,118369,1,0,0:0:0:0:
256,192,118454,1,0,0:0:0:0:
256,192,118539,1,8,0:0:0:0:
256,192,118709,1,0,0:0:0:0:
256,192,118880,1,8,0:0:0:0:
256,192,119050,1,8,0:0:0:0:
256,192,119136,1,8,0:0:0:0:
256,192,119221,1,0,0:0:0:0:
256,192,119391,1,0,0:0:0:0:
256,192,119562,1,8,0:0:0:0:
256,192,119732,1,8,0:0:0:0:
256,192,119817,1,0,0:0:0:0:
256,192,119903,1,8,0:0:0:0:
256,192,119988,1,8,0:0:0:0:
256,192,120073,1,0,0:0:0:0:
256,192,120244,1,8,0:0:0:0:
256,192,120414,1,0,0:0:0:0:
256,192,120499,1,0,0:0:0:0:
256,192,120584,1,0,0:0:0:0:
256,192,120925,1,8,0:0:0:0:
256,192,121096,1,0,0:0:0:0:
256,192,121181,1,0,0:0:0:0:
256,192,121266,1,0,0:0:0:0:
256,192,121437,1,0,0:0:0:0:
256,192,121607,1,8,0:0:0:0:
256,192,121692,1,0,0:0:0:0:
256,192,121778,1,0,0:0:0:0:
256,192,121863,1,0,0:0:0:0:
256,192,121948,1,8,0:0:0:0:
256,192,122119,1,0,0:0:0:0:
256,192,122289,1,8,0:0:0:0:
256,192,122459,1,8,0:0:0:0:
256,192,122545,1,8,0:0:0:0:
256,192,122630,1,0,0:0:0:0:
256,192,122715,1,0,0:0:0:0:
256,192,122800,1,0,0:0:0:0:
256,192,122886,1,0,0:0:0:0:
256,192,122971,1,8,0:0:0:0:
256,192,123141,1,8,0:0:0:0:
256,192,123312,1,4,0:0:0:0:
256,192,123653,1,8,0:0:0:0:
256,192,123823,1,8,0:0:0:0:
256,192,123908,1,8,0:0:0:0:
256,192,123994,1,0,0:0:0:0:
256,192,124164,1,0,0:0:0:0:
256,192,124334,1,8,0:0:0:0:
256,192,124505,1,0,0:0:0:0:
256,192,124590,1,0,0:0:0:0:
256,192,124675,1,8,0:0:0:0:
256,192,124761,1,8,0:0:0:0:
256,192,124846,1,0,0:0:0:0:
256,192,125016,1,8,0:0:0:0:
256,192,125187,1,0,0:0:0:0:
256,192,125272,1,0,0:0:0:0:
256,192,125357,1,8,0:0:0:0:
256,192,125528,1,0,0:0:0:0:
256,192,125698,1,8,0:0:0:0:
256,192,125869,1,8,0:0:0:0:
256,192,125954,1,8,0:0:0:0:
256,192,126039,1,0,0:0:0:0:
256,192,126380,1,8,0:0:0:0:
256,192,126550,1,0,0:0:0:0:
256,192,126636,1,0,0:0:0:0:
256,192,126721,1,8,0:0:0:0:
256,192,126806,1,0,0:0:0:0:
256,192,126891,1,0,0:0:0:0:
256,192,127062,1,8,0:0:0:0:
256,192,127232,1,0,0:0:0:0:
256,192,127317,1,0,0:0:0:0:
256,192,127403,1,8,0:0:0:0:
256,192,127573,1,0,0:0:0:0:
256,192,127744,1,8,0:0:0:0:
256,192,127914,1,8,0:0:0:0:
256,192,127999,1,8,0:0:0:0:
256,192,128084,1,0,0:0:0:0:
256,192,128255,1,0,0:0:0:0:
256,192,128425,1,8,0:0:0:0:
256,192,128511,1,8,0:0:0:0:
256,192,128596,1,8,0:0:0:0:
256,192,128681,1,8,0:0:0:0:
256,192,128766,1,0,0:0:0:0:
256,192,129022,1,0,0:0:0:0:
256,192,129107,1,0,0:0:0:0:
256,192,129278,1,8,0:0:0:0:
256,192,129448,1,8,0:0:0:0:
256,192,129533,1,0,0:0:0:0:
256,192,129619,1,0,0:0:0:0:
256,192,129789,1,8,0:0:0:0:
256,192,129959,1,0,0:0:0:0:
256,192,130130,1,8,0:0:0:0:
256,192,130300,1,0,0:0:0:0:
256,192,130386,1,0,0:0:0:0:
256,192,130471,1,0,0:0:0:0:
256,192,130641,1,8,0:0:0:0:
256,192,130812,1,0,0:0:0:0:
256,192,130897,1,0,0:0:0:0:
256,192,130982,1,0,0:0:0:0:
256,192,131067,1,0,0:0:0:0:
256,192,131153,1,8,0:0:0:0:
256,192,131323,1,0,0:0:0:0:
256,192,131494,1,12,0:0:0:0:
256,192,132857,1,8,0:0:0:0:
256,192,133198,1,8,0:0:0:0:
256,192,133539,1,8,0:0:0:0:
256,192,133709,1,0,0:0:0:0:
256,192,133880,1,8,0:0:0:0:
256,192,134221,1,4,0:0:0:0:
256,192,134562,1,8,0:0:0:0:
256,192,134732,1,0,0:0:0:0:
256,192,135073,1,0,0:0:0:0:
256,192,135244,1,8,0:0:0:0:
256,192,135584,1,0,0:0:0:0:
256,192,135755,1,8,0:0:0:0:
256,192,135925,1,0,0:0:0:0:
256,192,136096,1,0,0:0:0:0:
256,192,136181,1,0,0:0:0:0:
256,192,136266,1,8,0:0:0:0:
256,192,136437,1,0,0:0:0:0:
256,192,136607,1,8,0:0:0:0:
256,192,136948,1,0,0:0:0:0:
256,192,137289,1,8,0:0:0:0:
256,192,137459,1,0,0:0:0:0:
256,192,137800,1,0,0:0:0:0:
256,192,137971,1,8,0:0:0:0:
256,192,138312,1,0,0:0:0:0:
256,192,138482,1,8,0:0:0:0:
256,192,138653,1,8,0:0:0:0:
256,192,138823,1,0,0:0:0:0:
256,192,138908,1,0,0:0:0:0:
256,192,138994,1,8,0:0:0:0:
256,192,139164,1,0,0:0:0:0:
256,192,139334,1,8,0:0:0:0:
256,192,139675,1,0,0:0:0:0:
256,192,140016,1,8,0:0:0:0:
256,192,140187,1,0,0:0:0:0:
256,192,140528,1,0,0:0:0:0:
256,192,140698,1,8,0:0:0:0:
256,192,141039,1,0,0:0:0:0:
256,192,141209,1,8,0:0:0:0:
256,192,141380,1,0,0:0:0:0:
256,192,141550,1,0,0:0:0:0:
256,192,141636,1,0,0:0:0:0:
256,192,141721,1,8,0:0:0:0:
256,192,141891,1,0,0:0:0:0:
256,192,142062,1,8,0:0:0:0:
256,192,142403,1,0,0:0:0:0:
256,192,142744,1,8,0:0:0:0:
256,192,142914,1,0,0:0:0:0:
256,192,143255,1,0,0:0:0:0:
256,192,143425,1,8,0:0:0:0:
256,192,143596,1,0,0:0:0:0:
256,192,143766,1,8,0:0:0:0:
256,192,143937,1,8,0:0:0:0:
256,192,144107,1,0,0:0:0:0:
256,192,144192,1,0,0:0:0:0:
256,192,144278,1,0,0:0:0:0:
256,192,144363,1,0,0:0:0:0:
256,192,144448,1,8,0:0:0:0:
256,192,144619,1,0,0:0:0:0:
256,192,144789,1,8,0:0:0:0:
256,192,144959,1,8,0:0:0:0:
256,192,145045,1,8,0:0:0:0:
256,192,145130,1,0,0:0:0:0:
256,192,145471,1,8,0:0:0:0:
256,192,145641,1,0,0:0:0:0:
256,192,145982,1,0,0:0:0:0:
256,192,146153,1,8,0:0:0:0:
256,192,146493,1,0,0:0:0:0:
256,192,146664,1,8,0:0:0:0:
256,192,146834,1,0,0:0:0:0:
256,192,147005,1,0,0:0:0:0:
256,192,147175,1,8,0:0:0:0:
256,192,147346,1,0,0:0:0:0:
256,192,147516,1,8,0:0:0:0:
256,192,147857,1,0,0:0:0:0:
256,192,148198,1,8,0:0:0:0:
256,192,148368,1,0,0:0:0:0:
256,192,148709,1,0,0:0:0:0:
256,192,148880,1,8,0:0:0:0:
256,192,149221,1,0,0:0:0:0:
256,192,149391,1,8,0:0:0:0:
256,192,149562,1,8,0:0:0:0:
256,192,149732,1,0,0:0:0:0:
256,192,149903,1,8,0:0:0:0:
256,192,150073,1,0,0:0:0:0:
256,192,150243,1,8,0:0:0:0:
256,192,150584,1,0,0:0:0:0:
256,192,150925,1,8,0:0:0:0:
256,192,151096,1,0,0:0:0:0:
256,192,151437,1,0,0:0:0:0:
256,192,151607,1,8,0:0:0:0:
256,192,151948,1,0,0:0:0:0:
256,192,152118,1,8,0:0:0:0:
256,192,152289,1,0,0:0:0:0:
256,192,152459,1,0,0:0:0:0:
256,192,152630,1,8,0:0:0:0:
256,192,152800,1,0,0:0:0:0:
256,192,152971,1,8,0:0:0:0:
256,192,153312,1,0,0:0:0:0:
256,192,153653,1,8,0:0:0:0:
256,192,153823,1,0,0:0:0:0:
256,192,154164,1,0,0:0:0:0:
256,192,154334,1,8,0:0:0:0:
256,192,154505,1,8,0:0:0:0:
256,192,154675,1,0,0:0:0:0:
256,192,154846,1,8,0:0:0:0:
256,192,155016,1,0,0:0:0:0:
256,192,155187,1,0,0:0:0:0:
256,192,155357,1,8,0:0:0:0:
256,192,155528,1,0,0:0:0:0:
256,192,155698,1,8,0:0:0:0:
256,192,156039,1,4,0:0:0:0:
256,192,156380,1,8,0:0:0:0:
256,192,156550,1,0,0:0:0:0:
256,192,156891,1,0,0:0:0:0:
256,192,157062,1,8,0:0:0:0:
256,192,157232,1,0,0:0:0:0:
256,192,157403,1,0,0:0:0:0:
256,192,157573,1,0,0:0:0:0:
256,192,157658,1,0,0:0:0:0:
256,192,157744,1,8,0:0:0:0:
256,192,157914,1,0,0:0:0:0:
256,192,158084,1,8,0:0:0:0:
256,192,158170,1,8,0:0:0:0:
256,192,158255,1,0,0:0:0:0:
256,192,158425,1,8,0:0:0:0:
256,192,158766,1,0,0:0:0:0:
256,192,158937,1,0,0:0:0:0:
256,192,159107,1,8,0:0:0:0:
256,192,159277,1,0,0:0:0:0:
256,192,159618,1,0,0:0:0:0:
256,192,159789,1,8,0:0:0:0:
256,192,159959,1,8,0:0:0:0:
256,192,160130,1,0,0:0:0:0:
256,192,160300,1,8,0:0:0:0:
256,192,160471,1,8,0:0:0:0:
256,192,160556,1,8,0:0:0:0:
256,192,160641,1,0,0:0:0:0:
256,192,160812,1,8,0:0:0:0:
256,192,160982,1,0,0:0:0:0:
256,192,161152,1,8,0:0:0:0:
256,192,161323,1,8,0:0:0:0:
256,192,161493,1,0,0:0:0:0:
256,192,161664,1,0,0:0:0:0:
256,192,161834,1,8,0:0:0:0:
256,192,162005,1,0,0:0:0:0:
256,192,162346,1,0,0:0:0:0:
256,192,162516,1,8,0:0:0:0:
256,192,162687,1,0,0:0:0:0:
256,192,162857,1,8,0:0:0:0:
256,192,163028,1,0,0:0:0:0:
256,192,163113,1,0,0:0:0:0:
256,192,163198,1,8,0:0:0:0:
256,192,163368,1,0,0:0:0:0:
256,192,163539,1,0,0:0:0:0:
256,192,163624,1,0,0:0:0:0:
256,192,163709,1,0,0:0:0:0:
256,192,163880,1,8,0:0:0:0:
256,192,164221,1,0,0:0:0:0:
256,192,164391,1,0,0:0:0:0:
256,192,164562,1,8,0:0:0:0:
256,192,164732,1,0,0:0:0:0:
256,192,165073,1,0,0:0:0:0:
256,192,165244,1,8,0:0:0:0:
256,192,165329,1,8,0:0:0:0:
256,192,165414,1,0,0:0:0:0:
256,192,165584,1,8,0:0:0:0:
256,192,165755,1,0,0:0:0:0:
256,192,165925,1,8,0:0:0:0:
256,192,166096,1,8,0:0:0:0:
256,192,166181,1,0,0:0:0:0:
256,192,166266,1,8,0:0:0:0:
256,192,166352,1,8,0:0:0:0:
256,192,166437,1,0,0:0:0:0:
256,192,166607,1,8,0:0:0:0:
256,192,166777,1,8,0:0:0:0:
256,192,166948,1,0,0:0:0:0:
256,192,167119,1,0,0:0:0:0:
256,192,167289,1,8,0:0:0:0:
256,192,167459,1,0,0:0:0:0:
256,192,167800,1,0,0:0:0:0:
256,192,167971,1,8,0:0:0:0:
256,192,168141,1,8,0:0:0:0:
256,192,168312,1,0,0:0:0:0:
256,192,168397,1,0,0:0:0:0:
256,192,168482,1,0,0:0:0:0:
256,192,168652,1,8,0:0:0:0:
256,192,168823,1,8,0:0:0:0:
256,192,168908,1,8,0:0:0:0:
256,192,168993,1,0,0:0:0:0:
256,192,169164,1,0,0:0:0:0:
256,192,169334,1,8,0:0:0:0:
256,192,169675,1,0,0:0:0:0:
256,192,169846,1,0,0:0:0:0:
256,192,170016,1,8,0:0:0:0:
256,192,170187,1,0,0:0:0:0:
256,192,170527,1,0,0:0:0:0:
256,192,170698,1,8,0:0:0:0:
256,192,170869,1,8,0:0:0:0:
256,192,171039,1,0,0:0:0:0:
256,192,171124,1,0,0:0:0:0:
256,192,171209,1,0,0:0:0:0:
256,192,171380,1,8,0:0:0:0:
256,192,171550,1,0,0:0:0:0:
256,192,171721,1,8,0:0:0:0:
256,192,171806,1,8,0:0:0:0:
256,192,171891,1,0,0:0:0:0:
256,192,171977,1,0,0:0:0:0:
256,192,172062,1,8,0:0:0:0:
256,192,172232,1,8,0:0:0:0:
256,192,172402,1,0,0:0:0:0:
256,192,172573,1,0,0:0:0:0:
256,192,172743,1,8,0:0:0:0:
256,192,172914,1,0,0:0:0:0:
256,192,173255,1,0,0:0:0:0:
256,192,173425,1,8,0:0:0:0:
256,192,173596,1,0,0:0:0:0:
256,192,173681,1,0,0:0:0:0:
256,192,173766,1,8,0:0:0:0:
256,192,173937,1,8,0:0:0:0:
256,192,174107,1,0,0:0:0:0:
256,192,174277,1,0,0:0:0:0:
256,192,174448,1,8,0:0:0:0:
256,192,174533,1,8,0:0:0:0:
256,192,174618,1,0,0:0:0:0:
256,192,174789,1,8,0:0:0:0:
256,192,174959,1,8,0:0:0:0:
256,192,175130,1,0,0:0:0:0:
256,192,175300,1,0,0:0:0:0:
256,192,175471,1,8,0:0:0:0:
256,192,175641,1,0,0:0:0:0:
256,192,175982,1,8,0:0:0:0:
256,192,176152,1,8,0:0:0:0:
256,192,176238,1,8,0:0:0:0:
256,192,176323,1,0,0:0:0:0:
256,192,176493,1,8,0:0:0:0:
256,192,176664,1,0,0:0:0:0:
256,192,176749,1,0,0:0:0:0:
256,192,176834,1,8,0:0:0:0:
256,192,177005,1,0,0:0:0:0:
256,192,177175,1,0,0:0:0:0:
256,192,177261,1,0,0:0:0:0:
256,192,177346,1,0,0:0:0:0:
256,192,177516,1,8,0:0:0:0:
256,192,177687,1,8,0:0:0:0:
256,192,177857,1,0,0:0:0:0:
256,192,178028,1,0,0:0:0:0:
256,192,178198,1,8,0:0:0:0:
256,192,178369,1,0,0:0:0:0:
256,192,178709,1,0,0:0:0:0:
256,192,178880,1,8,0:0:0:0:
256,192,179050,1,0,0:0:0:0:
256,192,179221,1,8,0:0:0:0:
256,192,179391,1,8,0:0:0:0:
256,192,179477,1,8,0:0:0:0:
256,192,179562,1,0,0:0:0:0:
256,192,179732,1,0,0:0:0:0:
256,192,179903,1,8,0:0:0:0:
256,192,179988,1,8,0:0:0:0:
256,192,180073,1,0,0:0:0:0:
256,192,180158,1,0,0:0:0:0:
256,192,180244,1,8,0:0:0:0:
256,192,180329,1,8,0:0:0:0:
256,192,180414,1,8,0:0:0:0:
256,192,180584,1,4,0:0:0:0:
256,192,180755,1,0,0:0:0:0:
256,192,180925,1,8,0:0:0:0:
256,192,181096,1,0,0:0:0:0:
256,192,181437,1,0,0:0:0:0:
256,192,181522,1,0,0:0:0:0:
256,192,181607,1,8,0:0:0:0:
256,192,181778,1,8,0:0:0:0:
256,192,181948,1,0,0:0:0:0:
256,192,182119,1,0,0:0:0:0:
256,192,182289,1,8,0:0:0:0:
256,192,182374,1,8,0:0:0:0:
256,192,182459,1,0,0:0:0:0:
256,192,182545,1,0,0:0:0:0:
256,192,182630,1,8,0:0:0:0:
256,192,182800,1,0,0:0:0:0:
256,192,182971,1,8,0:0:0:0:
256,192,183141,1,8,0:0:0:0:
256,192,183227,1,8,0:0:0:0:
256,192,183312,1,0,0:0:0:0:
256,192,183482,1,0,0:0:0:0:
256,192,183653,1,8,0:0:0:0:
256,192,183823,1,0,0:0:0:0:
256,192,184164,1,0,0:0:0:0:
256,192,184249,1,0,0:0:0:0:
256,192,184334,1,8,0:0:0:0:
256,192,184505,1,8,0:0:0:0:
256,192,184675,1,0,0:0:0:0:
256,192,184846,1,0,0:0:0:0:
256,192,185016,1,8,0:0:0:0:
256,192,185102,1,0,0:0:0:0:
256,192,185187,1,0,0:0:0:0:
256,192,185272,1,0,0:0:0:0:
256,192,185357,1,8,0:0:0:0:
256,192,185528,1,0,0:0:0:0:
256,192,185698,1,8,0:0:0:0:
256,192,185783,1,8,0:0:0:0:
256,192,185869,1,8,0:0:0:0:
256,192,185954,1,8,0:0:0:0:
256,192,186039,1,0,0:0:0:0:
256,192,186209,1,0,0:0:0:0:
256,192,186380,1,8,0:0:0:0:
256,192,186550,1,0,0:0:0:0:
256,192,186891,1,0,0:0:0:0:
256,192,186977,1,0,0:0:0:0:
256,192,187062,1,8,0:0:0:0:
256,192,187232,1,8,0:0:0:0:
256,192,187403,1,0,0:0:0:0:
256,192,187573,1,0,0:0:0:0:
256,192,187744,1,8,0:0:0:0:
256,192,187829,1,8,0:0:0:0:
256,192,187914,1,0,0:0:0:0:
256,192,187999,1,0,0:0:0:0:
256,192,188084,1,8,0:0:0:0:
256,192,188255,1,0,0:0:0:0:
256,192,188425,1,8,0:0:0:0:
256,192,188596,1,8,0:0:0:0:
256,192,188681,1,8,0:0:0:0:
256,192,188766,1,0,0:0:0:0:
256,192,188937,1,0,0:0:0:0:
256,192,189107,1,8,0:0:0:0:
256,192,189278,1,0,0:0:0:0:
256,192,189619,1,0,0:0:0:0:
256,192,189704,1,0,0:0:0:0:
256,192,189789,1,8,0:0:0:0:
256,192,189959,1,0,0:0:0:0:
256,192,190130,1,8,0:0:0:0:
256,192,190300,1,0,0:0:0:0:
256,192,190386,1,0,0:0:0:0:
256,192,190471,1,8,0:0:0:0:
256,192,190641,1,8,0:0:0:0:
256,192,190812,1,0,0:0:0:0:
256,192,190897,1,0,0:0:0:0:
256,192,190982,1,0,0:0:0:0:
256,192,191067,1,0,0:0:0:0:
256,192,191153,1,8,0:0:0:0:
256,192,191238,1,8,0:0:0:0:
256,192,191323,1,8,0:0:0:0:
256,192,191494,1,4,0:0:0:0:
256,192,191664,1,0,0:0:0:0:
256,192,191834,1,8,0:0:0:0:
256,192,192005,1,0,0:0:0:0:
256,192,192346,1,0,0:0:0:0:
256,192,192431,1,0,0:0:0:0:
256,192,192516,1,8,0:0:0:0:
256,192,192687,1,8,0:0:0:0:
256,192,192857,1,0,0:0:0:0:
256,192,193028,1,0,0:0:0:0:
256,192,193113,1,0,0:0:0:0:
256,192,193198,1,8,0:0:0:0:
256,192,193283,1,8,0:0:0:0:
256,192,193369,1,0,0:0:0:0:
256,192,193539,1,8,0:0:0:0:
256,192,193709,1,0,0:0:0:0:
256,192,193795,1,0,0:0:0:0:
256,192,193880,1,8,0:0:0:0:
256,192,194050,1,8,0:0:0:0:
256,192,194221,1,0,0:0:0:0:
256,192,194391,1,0,0:0:0:0:
256,192,194562,1,8,0:0:0:0:
256,192,194732,1,0,0:0:0:0:
256,192,195073,1,0,0:0:0:0:
256,192,195158,1,0,0:0:0:0:
256,192,195244,1,8,0:0:0:0:
256,192,195414,1,8,0:0:0:0:
256,192,195584,1,0,0:0:0:0:
256,192,195755,1,0,0:0:0:0:
256,192,195925,1,8,0:0:0:0:
256,192,196011,1,8,0:0:0:0:
256,192,196096,1,0,0:0:0:0:
256,192,196181,1,0,0:0:0:0:
256,192,196266,1,8,0:0:0:0:
256,192,196437,1,0,0:0:0:0:
256,192,196607,1,8,0:0:0:0:
256,192,196692,1,8,0:0:0:0:
256,192,196778,1,8,0:0:0:0:
256,192,196863,1,8,0:0:0:0:
256,192,196948,1,0,0:0:0:0:
256,192,197289,1,8,0:0:0:0:
256,192,197459,1,8,0:0:0:0:
256,192,197545,1,8,0:0:0:0:
256,192,197630,1,0,0:0:0:0:
256,192,197800,1,0,0:0:0:0:
256,192,197971,1,8,0:0:0:0:
256,192,198141,1,0,0:0:0:0:
256,192,198312,1,8,0:0:0:0:
256,192,198482,1,0,0:0:0:0:
256,192,198567,1,0,0:0:0:0:
256,192,198653,1,0,0:0:0:0:
256,192,198823,1,8,0:0:0:0:
256,192,198994,1,0,0:0:0:0:
256,192,199079,1,0,0:0:0:0:
256,192,199164,1,0,0:0:0:0:
256,192,199334,1,8,0:0:0:0:
256,192,199505,1,8,0:0:0:0:
256,192,199675,1,0,0:0:0:0:
256,192,200016,1,0,0:0:0:0:
256,192,200357,1,0,0:0:0:0:
256,192,200698,1,0,0:0:0:0:
256,192,201039,1,0,0:0:0:0:
256,192,201380,1,0,0:0:0:0:
256,192,201550,1,8,0:0:0:0:
256,192,201636,1,8,0:0:0:0:
256,192,201721,1,0,0:0:0:0:
256,192,202062,1,12,0:0:0:0:
256,192,202403,1,4,0:0:0:0:
256,192,202744,1,8,0:0:0:0:
256,192,202915,1,8,0:0:0:0:
256,192,203000,1,8,0:0:0:0:
256,192,203085,1,0,0:0:0:0:
256,192,203170,1,0,0:0:0:0:
256,192,203256,1,0,0:0:0:0:
256,192,203426,1,8,0:0:0:0:
256,192,203597,1,0,0:0:0:0:
256,192,203682,1,0,0:0:0:0:
256,192,203766,1,8,0:0:0:0:
256,192,203938,1,0,0:0:0:0:
256,192,204108,1,8,0:0:0:0:
256,192,204278,1,8,0:0:0:0:
256,192,204363,1,0,0:0:0:0:
256,192,204448,1,8,0:0:0:0:
256,192,204533,1,8,0:0:0:0:
256,192,204619,1,0,0:0:0:0:
256,192,204790,1,8,0:0:0:0:
256,192,204960,1,8,0:0:0:0:
256,192,205045,1,8,0:0:0:0:
256,192,205131,1,0,0:0:0:0:
256,192,205472,1,8,0:0:0:0:
256,192,205642,1,0,0:0:0:0:
256,192,205727,1,0,0:0:0:0:
256,192,205812,1,8,0:0:0:0:
256,192,205897,1,0,0:0:0:0:
256,192,205983,1,0,0:0:0:0:
256,192,206153,1,8,0:0:0:0:
256,192,206324,1,0,0:0:0:0:
256,192,206409,1,0,0:0:0:0:
256,192,206494,1,8,0:0:0:0:
256,192,206580,1,8,0:0:0:0:
256,192,206665,1,0,0:0:0:0:
256,192,206835,1,8,0:0:0:0:
256,192,207006,1,0,0:0:0:0:
256,192,207091,1,0,0:0:0:0:
256,192,207175,1,8,0:0:0:0:
256,192,207347,1,0,0:0:0:0:
256,192,207517,1,8,0:0:0:0:
256,192,207602,1,8,0:0:0:0:
256,192,207688,1,8,0:0:0:0:
256,192,207773,1,8,0:0:0:0:
256,192,207858,1,0,0:0:0:0:
256,192,208199,1,8,0:0:0:0:
256,192,208369,1,0,0:0:0:0:
256,192,208455,1,0,0:0:0:0:
256,192,208540,1,8,0:0:0:0:
256,192,208624,1,8,0:0:0:0:
256,192,208710,1,8,0:0:0:0:
256,192,208881,1,0,0:0:0:0:
256,192,209051,1,0,0:0:0:0:
256,192,209136,1,0,0:0:0:0:
256,192,209221,1,8,0:0:0:0:
256,192,209392,1,0,0:0:0:0:
256,192,209563,1,8,0:0:0:0:
256,192,209733,1,8,0:0:0:0:
256,192,209818,1,8,0:0:0:0:
256,192,209903,1,0,0:0:0:0:
256,192,209989,1,0,0:0:0:0:
256,192,210074,1,0,0:0:0:0:
256,192,210244,1,8,0:0:0:0:
256,192,210415,1,0,0:0:0:0:
256,192,210500,1,0,0:0:0:0:
256,192,210585,1,0,0:0:0:0:
256,192,210925,1,8,0:0:0:0:
256,192,211097,1,8,0:0:0:0:
256,192,211182,1,8,0:0:0:0:
256,192,211267,1,0,0:0:0:0:
256,192,211352,1,0,0:0:0:0:
256,192,211438,1,0,0:0:0:0:
256,192,211608,1,8,0:0:0:0:
256,192,211778,1,0,0:0:0:0:
256,192,211864,1,0,0:0:0:0:
256,192,211948,1,8,0:0:0:0:
256,192,212034,1,0,0:0:0:0:
256,192,212119,1,0,0:0:0:0:
256,192,212289,1,8,0:0:0:0:
256,192,212460,1,0,0:0:0:0:
256,192,212545,1,0,0:0:0:0:
256,192,212631,1,8,0:0:0:0:
256,192,212801,1,0,0:0:0:0:
256,192,212972,1,8,0:0:0:0:
256,192,213057,1,8,0:0:0:0:
256,192,213142,1,8,0:0:0:0:
256,192,213313,1,4,0:0:0:0:
256,192,213653,1,8,0:0:0:0:
256,192,213824,1,8,0:0:0:0:
256,192,213909,1,8,0:0:0:0:
256,192,213994,1,0,0:0:0:0:
256,192,214165,1,0,0:0:0:0:
256,192,214335,1,8,0:0:0:0:
256,192,214420,1,8,0:0:0:0:
256,192,214506,1,0,0:0:0:0:
256,192,214591,1,0,0:0:0:0:
256,192,214675,1,8,0:0:0:0:
256,192,214847,1,0,0:0:0:0:
256,192,215017,1,8,0:0:0:0:
256,192,215188,1,8,0:0:0:0:
256,192,215273,1,0,0:0:0:0:
256,192,215357,1,8,0:0:0:0:
256,192,215443,1,8,0:0:0:0:
256,192,215528,1,0,0:0:0:0:
256,192,215699,1,8,0:0:0:0:
256,192,215869,1,8,0:0:0:0:
256,192,215955,1,8,0:0:0:0:
256,192,216040,1,0,0:0:0:0:
256,192,216381,1,8,0:0:0:0:
256,192,216551,1,0,0:0:0:0:
256,192,216636,1,0,0:0:0:0:
256,192,216722,1,0,0:0:0:0:
256,192,216892,1,0,0:0:0:0:
256,192,217063,1,8,0:0:0:0:
256,192,217147,1,0,0:0:0:0:
256,192,217233,1,0,0:0:0:0:
256,192,217318,1,0,0:0:0:0:
256,192,217403,1,8,0:0:0:0:
256,192,217489,1,8,0:0:0:0:
256,192,217574,1,0,0:0:0:0:
256,192,217744,1,8,0:0:0:0:
256,192,217915,1,0,0:0:0:0:
256,192,218000,1,0,0:0:0:0:
256,192,218085,1,8,0:0:0:0:
256,192,218256,1,0,0:0:0:0:
256,192,218426,1,8,0:0:0:0:
256,192,218511,1,8,0:0:0:0:
256,192,218597,1,0,0:0:0:0:
256,192,218682,1,0,0:0:0:0:
256,192,218767,1,0,0:0:0:0:
256,192,219108,1,8,0:0:0:0:
256,192,219192,1,0,0:0:0:0:
256,192,219278,1,8,0:0:0:0:
256,192,219364,1,0,0:0:0:0:
256,192,219449,1,0,0:0:0:0:
256,192,219619,1,0,0:0:0:0:
256,192,219790,1,8,0:0:0:0:
256,192,219960,1,8,0:0:0:0:
256,192,220046,1,0,0:0:0:0:
256,192,220131,1,0,0:0:0:0:
256,192,220472,1,8,0:0:0:0:
256,192,220641,1,8,0:0:0:0:
256,192,220813,1,0,0:0:0:0:
256,192,220898,1,0,0:0:0:0:
256,192,220983,1,0,0:0:0:0:
256,192,221153,1,8,0:0:0:0:
256,192,221324,1,8,0:0:0:0:
256,192,221409,1,8,0:0:0:0:
256,192,221494,1,0,0:0:0:0:
256,192,221835,1,8,0:0:0:0:
256,192,222005,1,0,0:0:0:0:
256,192,222176,1,8,0:0:0:0:
256,192,222261,1,8,0:0:0:0:
256,192,222347,1,0,0:0:0:0:
256,192,222517,1,8,0:0:0:0:
256,192,222688,1,0,0:0:0:0:
256,192,222773,1,0,0:0:0:0:
256,192,222858,1,8,0:0:0:0:
256,192,222942,1,8,0:0:0:0:
256,192,223028,1,0,0:0:0:0:
256,192,223198,1,8,0:0:0:0:
256,192,223369,1,8,0:0:0:0:
256,192,223455,1,8,0:0:0:0:
256,192,223540,1,0,0:0:0:0:
256,192,223625,1,0,0:0:0:0:
256,192,223710,1,0,0:0:0:0:
256,192,223796,1,0,0:0:0:0:
256,192,223881,1,8,0:0:0:0:
256,192,223966,1,8,0:0:0:0:
256,192,224051,1,8,0:0:0:0:
256,192,224222,1,4,0:0:0:0:
256,192,224563,1,8,0:0:0:0:
256,192,224733,1,0,0:0:0:0:
256,192,224818,1,0,0:0:0:0:
256,192,224903,1,8,0:0:0:0:
256,192,224988,1,8,0:0:0:0:
256,192,225074,1,0,0:0:0:0:
256,192,225244,1,8,0:0:0:0:
256,192,225415,1,0,0:0:0:0:
256,192,225500,1,0,0:0:0:0:
256,192,225585,1,8,0:0:0:0:
256,192,225756,1,0,0:0:0:0:
256,192,225926,1,8,0:0:0:0:
256,192,226097,1,8,0:0:0:0:
256,192,226182,1,8,0:0:0:0:
256,192,226267,1,0,0:0:0:0:
256,192,226352,1,0,0:0:0:0:
256,192,226438,1,0,0:0:0:0:
256,192,226607,1,8,0:0:0:0:
256,192,226778,1,8,0:0:0:0:
256,192,226864,1,8,0:0:0:0:
256,192,226949,1,0,0:0:0:0:
256,192,227289,1,8,0:0:0:0:
256,192,227460,1,0,0:0:0:0:
256,192,227546,1,0,0:0:0:0:
256,192,227630,1,8,0:0:0:0:
256,192,227715,1,0,0:0:0:0:
256,192,227801,1,0,0:0:0:0:
256,192,227972,1,8,0:0:0:0:
256,192,228142,1,0,0:0:0:0:
256,192,228227,1,0,0:0:0:0:
256,192,228313,1,8,0:0:0:0:
256,192,228483,1,0,0:0:0:0:
256,192,228653,1,8,0:0:0:0:
256,192,228738,1,0,0:0:0:0:
256,192,228824,1,0,0:0:0:0:
256,192,228909,1,0,0:0:0:0:
256,192,228994,1,8,0:0:0:0:
256,192,229165,1,0,0:0:0:0:
256,192,229335,1,8,0:0:0:0:
256,192,229421,1,8,0:0:0:0:
256,192,229506,1,8,0:0:0:0:
256,192,229591,1,8,0:0:0:0:
256,192,229676,1,0,0:0:0:0:
256,192,230017,1,8,0:0:0:0:
256,192,230188,1,8,0:0:0:0:
256,192,230272,1,0,0:0:0:0:
256,192,230358,1,8,0:0:0:0:
256,192,230442,1,8,0:0:0:0:
256,192,230528,1,0,0:0:0:0:
256,192,230699,1,8,0:0:0:0:
256,192,230869,1,0,0:0:0:0:
256,192,230955,1,0,0:0:0:0:
256,192,231039,1,8,0:0:0:0:
256,192,231210,1,0,0:0:0:0:
256,192,231381,1,8,0:0:0:0:
256,192,231465,1,0,0:0:0:0:
256,192,231551,1,0,0:0:0:0:
256,192,231636,1,0,0:0:0:0:
256,192,231721,1,8,0:0:0:0:
256,192,231806,1,8,0:0:0:0:
256,192,231892,1,0,0:0:0:0:
256,192,232063,1,8,0:0:0:0:
256,192,232233,1,8,0:0:0:0:
256,192,232317,1,0,0:0:0:0:
256,192,232403,1,0,0:0:0:0:
256,192,232744,1,8,0:0:0:0:
256,192,232915,1,0,0:0:0:0:
256,192,233000,1,0,0:0:0:0:
256,192,233084,1,8,0:0:0:0:
256,192,233256,1,0,0:0:0:0:
256,192,233426,1,8,0:0:0:0:
256,192,233511,1,8,0:0:0:0:
256,192,233597,1,0,0:0:0:0:
256,192,233682,1,0,0:0:0:0:
256,192,233767,1,8,0:0:0:0:
256,192,233938,1,0,0:0:0:0:
256,192,234108,1,8,0:0:0:0:
256,192,234192,1,8,0:0:0:0:
256,192,234278,1,8,0:0:0:0:
256,192,234364,1,8,0:0:0:0:
256,192,234449,1,0,0:0:0:0:
256,192,234534,1,0,0:0:0:0:
256,192,234619,1,0,0:0:0:0:
256,192,234705,1,0,0:0:0:0:
256,192,234790,1,8,0:0:0:0:
256,192,234960,1,8,0:0:0:0:
256,192,235131,1,4,0:0:0:0:
256,192,235472,1,8,0:0:0:0:
256,192,235642,1,8,0:0:0:0:
256,192,235727,1,8,0:0:0:0:
256,192,235813,1,0,0:0:0:0:
256,192,235983,1,0,0:0:0:0:
256,192,236153,1,8,0:0:0:0:
256,192,236324,1,0,0:0:0:0:
256,192,236409,1,0,0:0:0:0:
256,192,236494,1,8,0:0:0:0:
256,192,236580,1,8,0:0:0:0:
256,192,236665,1,0,0:0:0:0:
256,192,236835,1,8,0:0:0:0:
256,192,237006,1,0,0:0:0:0:
256,192,237091,1,0,0:0:0:0:
256,192,237176,1,8,0:0:0:0:
256,192,237347,1,0,0:0:0:0:
256,192,237517,1,8,0:0:0:0:
256,192,237688,1,8,0:0:0:0:
256,192,237773,1,8,0:0:0:0:
256,192,237858,1,0,0:0:0:0:
256,192,238199,1,8,0:0:0:0:
256,192,238369,1,0,0:0:0:0:
256,192,238455,1,0,0:0:0:0:
256,192,238540,1,8,0:0:0:0:
256,192,238625,1,0,0:0:0:0:
256,192,238710,1,0,0:0:0:0:
256,192,238881,1,8,0:0:0:0:
256,192,239051,1,0,0:0:0:0:
256,192,239136,1,0,0:0:0:0:
256,192,239221,1,8,0:0:0:0:
256,192,239392,1,0,0:0:0:0:
256,192,239563,1,8,0:0:0:0:
256,192,239647,1,0,0:0:0:0:
256,192,239733,1,0,0:0:0:0:
256,192,239818,1,0,0:0:0:0:
256,192,239903,1,8,0:0:0:0:
256,192,240074,1,0,0:0:0:0:
256,192,240244,1,8,0:0:0:0:
256,192,240330,1,8,0:0:0:0:
256,192,240415,1,8,0:0:0:0:
256,192,240500,1,8,0:0:0:0:
256,192,240585,1,0,0:0:0:0:
256,192,240841,1,0,0:0:0:0:
256,192,240926,1,0,0:0:0:0:
256,192,241097,1,8,0:0:0:0:
256,192,241267,1,8,0:0:0:0:
256,192,241352,1,0,0:0:0:0:
256,192,241438,1,0,0:0:0:0:
256,192,241608,1,8,0:0:0:0:
256,192,241778,1,0,0:0:0:0:
256,192,241949,1,0,0:0:0:0:
256,192,242119,1,0,0:0:0:0:
256,192,242205,1,0,0:0:0:0:
256,192,242289,1,8,0:0:0:0:
256,192,242459,1,8,0:0:0:0:
256,192,242631,1,0,0:0:0:0:
256,192,242716,1,8,0:0:0:0:
256,192,242801,1,0,0:0:0:0:
256,192,242886,1,0,0:0:0:0:
256,192,242972,1,8,0:0:0:0:
256,192,243142,1,0,0:0:0:0:
256,192,243313,1,12,0:0:0:0:
256,192,243653,12,0,245698,0:0:0:0:
256,192,246039,5,4,0:0:0:0:
256,192,246380,1,8,0:0:0:0:
256,192,246550,1,0,0:0:0:0:
256,192,246721,1,8,0:0:0:0:
256,192,246891,1,8,0:0:0:0:
256,192,246977,1,8,0:0:0:0:
256,192,247062,1,0,0:0:0:0:
256,192,247232,1,0,0:0:0:0:
256,192,247403,1,8,0:0:0:0:
256,192,247573,1,0,0:0:0:0:
256,192,247658,1,0,0:0:0:0:
256,192,247744,1,8,0:0:0:0:
256,192,247914,1,0,0:0:0:0:
256,192,248084,1,8,0:0:0:0:
256,192,248170,1,0,0:0:0:0:
256,192,248255,1,0,0:0:0:0:
256,192,248340,1,0,0:0:0:0:
256,192,248425,1,8,0:0:0:0:
256,192,248596,1,8,0:0:0:0:
256,192,248766,1,0,0:0:0:0:
256,192,249107,1,8,0:0:0:0:
256,192,249278,1,8,0:0:0:0:
256,192,249448,1,0,0:0:0:0:
256,192,249619,1,0,0:0:0:0:
256,192,249704,1,0,0:0:0:0:
256,192,249789,1,8,0:0:0:0:
256,192,249959,1,0,0:0:0:0:
256,192,250130,1,8,0:0:0:0:
256,192,250215,1,0,0:0:0:0:
256,192,250300,1,8,0:0:0:0:
256,192,250386,1,8,0:0:0:0:
256,192,250471,1,0,0:0:0:0:
256,192,250641,1,8,0:0:0:0:
256,192,250982,1,0,0:0:0:0:
256,192,251153,1,8,0:0:0:0:
256,192,251323,1,8,0:0:0:0:
256,192,251494,1,0,0:0:0:0:
256,192,251834,1,8,0:0:0:0:
256,192,252175,1,0,0:0:0:0:
256,192,252346,1,0,0:0:0:0:
256,192,252431,1,0,0:0:0:0:
256,192,252516,1,8,0:0:0:0:
256,192,252687,1,8,0:0:0:0:
256,192,252857,1,0,0:0:0:0:
256,192,253028,1,0,0:0:0:0:
256,192,253198,1,8,0:0:0:0:
256,192,253283,1,8,0:0:0:0:
256,192,253369,1,0,0:0:0:0:
256,192,253454,1,0,0:0:0:0:
256,192,253539,1,8,0:0:0:0:
256,192,253709,1,0,0:0:0:0:
256,192,253880,1,8,0:0:0:0:
256,192,254050,1,8,0:0:0:0:
256,192,254136,1,8,0:0:0:0:
256,192,254221,1,0,0:0:0:0:
256,192,254562,1,8,0:0:0:0:
256,192,254732,1,0,0:0:0:0:
256,192,254903,1,8,0:0:0:0:
256,192,254988,1,0,0:0:0:0:
256,192,255073,1,0,0:0:0:0:
256,192,255158,1,0,0:0:0:0:
256,192,255244,1,8,0:0:0:0:
256,192,255414,1,0,0:0:0:0:
256,192,255584,1,8,0:0:0:0:
256,192,255755,1,8,0:0:0:0:
256,192,255840,1,0,0:0:0:0:
256,192,255925,1,0,0:0:0:0:
256,192,256096,1,8,0:0:0:0:
256,192,256266,1,0,0:0:0:0:
256,192,256352,1,8,0:0:0:0:
256,192,256437,1,0,0:0:0:0:
256,192,256607,1,8,0:0:0:0:
256,192,256778,1,0,0:0:0:0:
256,192,256948,12,0,259675,0:0:0:0:
256,192,270584,12,0,278425,0:0:0:0:
256,192,278766,5,4,0:0:0:0:
256,192,279448,1,4,0:0:0:0:
256,192,286948,5,4,0:0:0:0:
256,192,287289,1,8,0:0:0:0:
256,192,287460,1,0,0:0:0:0:
256,192,287545,1,0,0:0:0:0:
256,192,287630,1,8,0:0:0:0:
256,192,287715,1,8,0:0:0:0:
256,192,287801,1,0,0:0:0:0:
256,192,287971,1,8,0:0:0:0:
256,192,288142,1,8,0:0:0:0:
256,192,288227,1,0,0:0:0:0:
256,192,288312,1,8,0:0:0:0:
256,192,288397,1,8,0:0:0:0:
256,192,288483,1,0,0:0:0:0:
256,192,288653,1,8,0:0:0:0:
256,192,288823,1,0,0:0:0:0:
256,192,288909,1,0,0:0:0:0:
256,192,288994,1,8,0:0:0:0:
256,192,289079,1,8,0:0:0:0:
256,192,289164,1,0,0:0:0:0:
256,192,289335,1,8,0:0:0:0:
256,192,289505,1,8,0:0:0:0:
256,192,289590,1,8,0:0:0:0:
256,192,289676,1,0,0:0:0:0:
256,192,290016,1,8,0:0:0:0:
256,192,290187,1,0,0:0:0:0:
256,192,290272,1,0,0:0:0:0:
256,192,290358,1,8,0:0:0:0:
256,192,290442,1,0,0:0:0:0:
256,192,290528,1,0,0:0:0:0:
256,192,290698,1,8,0:0:0:0:
256,192,290869,1,0,0:0:0:0:
256,192,290954,1,0,0:0:0:0:
256,192,291039,1,8,0:0:0:0:
256,192,291124,1,8,0:0:0:0:
256,192,291210,1,0,0:0:0:0:
256,192,291380,1,8,0:0:0:0:
256,192,291551,1,0,0:0:0:0:
256,192,291636,1,0,0:0:0:0:
256,192,291721,1,8,0:0:0:0:
256,192,291892,1,0,0:0:0:0:
256,192,292062,1,8,0:0:0:0:
256,192,292147,1,8,0:0:0:0:
256,192,292233,1,8,0:0:0:0:
256,192,292318,1,8,0:0:0:0:
256,192,292403,1,0,0:0:0:0:
256,192,292744,1,8,0:0:0:0:
256,192,292914,1,8,0:0:0:0:
256,192,293000,1,8,0:0:0:0:
256,192,293085,1,0,0:0:0:0:
256,192,293170,1,0,0:0:0:0:
256,192,293255,1,0,0:0:0:0:
256,192,293426,1,8,0:0:0:0:
256,192,293596,1,0,0:0:0:0:
256,192,293681,1,0,0:0:0:0:
256,192,293767,1,8,0:0:0:0:
256,192,293852,1,8,0:0:0:0:
256,192,293937,1,0,0:0:0:0:
256,192,294108,1,8,0:0:0:0:
256,192,294278,1,0,0:0:0:0:
256,192,294363,1,8,0:0:0:0:
256,192,294448,1,0,0:0:0:0:
256,192,294534,1,0,0:0:0:0:
256,192,294619,1,0,0:0:0:0:
256,192,294789,1,8,0:0:0:0:
256,192,294960,1,0,0:0:0:0:
256,192,295045,1,0,0:0:0:0:
256,192,295130,1,0,0:0:0:0:
256,192,295471,1,8,0:0:0:0:
256,192,295642,1,8,0:0:0:0:
256,192,295727,1,8,0:0:0:0:
256,192,295812,1,0,0:0:0:0:
256,192,295897,1,0,0:0:0:0:
256,192,295983,1,0,0:0:0:0:
256,192,296153,1,8,0:0:0:0:
256,192,296323,1,0,0:0:0:0:
256,192,296409,1,0,0:0:0:0:
256,192,296494,1,8,0:0:0:0:
256,192,296579,1,0,0:0:0:0:
256,192,296664,1,0,0:0:0:0:
256,192,296834,1,8,0:0:0:0:
256,192,297005,1,8,0:0:0:0:
256,192,297091,1,8,0:0:0:0:
256,192,297176,1,0,0:0:0:0:
256,192,297261,1,0,0:0:0:0:
256,192,297346,1,0,0:0:0:0:
256,192,297431,1,0,0:0:0:0:
256,192,297516,1,8,0:0:0:0:
256,192,297687,1,8,0:0:0:0:
256,192,297858,1,4,0:0:0:0:
256,192,298198,1,8,0:0:0:0:
256,192,298369,1,8,0:0:0:0:
256,192,298454,1,8,0:0:0:0:
256,192,298539,1,0,0:0:0:0:
256,192,298710,1,0,0:0:0:0:
256,192,298880,1,8,0:0:0:0:
256,192,298965,1,0,0:0:0:0:
256,192,299051,1,0,0:0:0:0:
256,192,299136,1,0,0:0:0:0:
256,192,299221,1,8,0:0:0:0:
256,192,299392,1,0,0:0:0:0:
256,192,299562,1,8,0:0:0:0:
256,192,299647,1,0,0:0:0:0:
256,192,299733,1,8,0:0:0:0:
256,192,299818,1,8,0:0:0:0:
256,192,299903,1,0,0:0:0:0:
256,192,299988,1,0,0:0:0:0:
256,192,300073,1,0,0:0:0:0:
256,192,300244,1,8,0:0:0:0:
256,192,300414,1,8,0:0:0:0:
256,192,300500,1,8,0:0:0:0:
256,192,300585,1,0,0:0:0:0:
256,192,300926,1,8,0:0:0:0:
256,192,301096,1,0,0:0:0:0:
256,192,301181,1,0,0:0:0:0:
256,192,301267,1,8,0:0:0:0:
256,192,301437,1,0,0:0:0:0:
256,192,301608,1,8,0:0:0:0:
256,192,301692,1,0,0:0:0:0:
256,192,301778,1,0,0:0:0:0:
256,192,301863,1,0,0:0:0:0:
256,192,301948,1,8,0:0:0:0:
256,192,302034,1,8,0:0:0:0:
256,192,302119,1,0,0:0:0:0:
256,192,302289,1,8,0:0:0:0:
256,192,302460,1,0,0:0:0:0:
256,192,302545,1,0,0:0:0:0:
256,192,302630,1,8,0:0:0:0:
256,192,302801,1,0,0:0:0:0:
256,192,302886,1,0,0:0:0:0:
256,192,302971,1,8,0:0:0:0:
256,192,303056,1,0,0:0:0:0:
256,192,303141,1,8,0:0:0:0:
256,192,303227,1,8,0:0:0:0:
256,192,303312,1,0,0:0:0:0:
256,192,303653,1,8,0:0:0:0:
256,192,303823,1,0,0:0:0:0:
256,192,303909,1,0,0:0:0:0:
256,192,303994,1,8,0:0:0:0:
256,192,304079,1,8,0:0:0:0:
256,192,304164,1,0,0:0:0:0:
256,192,304335,1,8,0:0:0:0:
256,192,304505,1,8,0:0:0:0:
256,192,304591,1,0,0:0:0:0:
256,192,304676,1,0,0:0:0:0:
256,192,305017,1,8,0:0:0:0:
256,192,305187,1,8,0:0:0:0:
256,192,305358,1,0,0:0:0:0:
256,192,305443,1,0,0:0:0:0:
256,192,305528,1,0,0:0:0:0:
256,192,305613,1,0,0:0:0:0:
256,192,305698,1,8,0:0:0:0:
256,192,305869,1,8,0:0:0:0:
256,192,305954,1,8,0:0:0:0:
256,192,306039,1,0,0:0:0:0:
256,192,306380,1,8,0:0:0:0:
256,192,306550,1,0,0:0:0:0:
256,192,306636,1,8,0:0:0:0:
256,192,306721,1,0,0:0:0:0:
256,192,306806,1,0,0:0:0:0:
256,192,306892,1,8,0:0:0:0:
256,192,307062,1,0,0:0:0:0:
256,192,307233,1,0,0:0:0:0:
256,192,307318,1,0,0:0:0:0:
256,192,307403,1,8,0:0:0:0:
256,192,307573,1,0,0:0:0:0:
256,192,307744,1,8,0:0:0:0:
256,192,307829,1,0,0:0:0:0:
256,192,307914,1,8,0:0:0:0:
256,192,308000,1,8,0:0:0:0:
256,192,308085,1,0,0:0:0:0:
256,192,308170,1,0,0:0:0:0:
256,192,308255,1,0,0:0:0:0:
256,192,308341,1,0,0:0:0:0:
256,192,308426,1,8,0:0:0:0:
256,192,308511,1,8,0:0:0:0:
256,192,308596,1,8,0:0:0:0:
256,192,308767,1,4,0:0:0:0:
256,192,309108,1,8,0:0:0:0:
256,192,309278,1,0,0:0:0:0:
256,192,309363,1,0,0:0:0:0:
256,192,309448,1,8,0:0:0:0:
256,192,309533,1,0,0:0:0:0:
256,192,309619,1,8,0:0:0:0:
256,192,309789,1,8,0:0:0:0:
256,192,309960,1,0,0:0:0:0:
256,192,310045,1,0,0:0:0:0:
256,192,310130,1,8,0:0:0:0:
256,192,310215,1,8,0:0:0:0:
256,192,310301,1,0,0:0:0:0:
256,192,310471,1,8,0:0:0:0:
256,192,310642,1,8,0:0:0:0:
256,192,310727,1,8,0:0:0:0:
256,192,310812,1,0,0:0:0:0:
256,192,310897,1,0,0:0:0:0:
256,192,310983,1,0,0:0:0:0:
256,192,311153,1,8,0:0:0:0:
256,192,311323,1,8,0:0:0:0:
256,192,311409,1,8,0:0:0:0:
256,192,311494,1,0,0:0:0:0:
256,192,311835,1,8,0:0:0:0:
256,192,312005,1,8,0:0:0:0:
256,192,312091,1,0,0:0:0:0:
256,192,312175,1,8,0:0:0:0:
256,192,312261,1,8,0:0:0:0:
256,192,312346,1,0,0:0:0:0:
256,192,312516,1,8,0:0:0:0:
256,192,312687,1,0,0:0:0:0:
256,192,312772,1,0,0:0:0:0:
256,192,312858,1,8,0:0:0:0:
256,192,312943,1,0,0:0:0:0:
256,192,313028,1,0,0:0:0:0:
256,192,313198,1,8,0:0:0:0:
256,192,313369,1,0,0:0:0:0:
256,192,313454,1,0,0:0:0:0:
256,192,313539,1,8,0:0:0:0:
256,192,313710,1,0,0:0:0:0:
256,192,313880,1,8,0:0:0:0:
256,192,313966,1,8,0:0:0:0:
256,192,314051,1,8,0:0:0:0:
256,192,314136,1,8,0:0:0:0:
256,192,314221,1,0,0:0:0:0:
256,192,314562,1,8,0:0:0:0:
256,192,314733,1,8,0:0:0:0:
256,192,314818,1,8,0:0:0:0:
256,192,314903,1,0,0:0:0:0:
256,192,314987,1,0,0:0:0:0:
256,192,315073,1,0,0:0:0:0:
256,192,315244,1,8,0:0:0:0:
256,192,315414,1,0,0:0:0:0:
256,192,315500,1,0,0:0:0:0:
256,192,315584,1,8,0:0:0:0:
256,192,315755,1,8,0:0:0:0:
256,192,315925,1,0,0:0:0:0:
256,192,316011,1,0,0:0:0:0:
256,192,316096,1,8,0:0:0:0:
256,192,316181,1,0,0:0:0:0:
256,192,316267,1,8,0:0:0:0:
256,192,316352,1,8,0:0:0:0:
256,192,316437,1,0,0:0:0:0:
256,192,316608,1,8,0:0:0:0:
256,192,316778,1,8,0:0:0:0:
256,192,316863,1,0,0:0:0:0:
256,192,316948,1,0,0:0:0:0:
256,192,317289,1,8,0:0:0:0:
256,192,317460,1,8,0:0:0:0:
256,192,317545,1,8,0:0:0:0:
256,192,317630,1,0,0:0:0:0:
256,192,317801,1,0,0:0:0:0:
256,192,317971,1,8,0:0:0:0:
256,192,318142,1,0,0:0:0:0:
256,192,318227,1,0,0:0:0:0:
256,192,318312,1,8,0:0:0:0:
256,192,318483,1,0,0:0:0:0:
256,192,318653,1,8,0:0:0:0:
256,192,318737,1,0,0:0:0:0:
256,192,318823,1,0,0:0:0:0:
256,192,318909,1,0,0:0:0:0:
256,192,318994,1,8,0:0:0:0:
256,192,319079,1,8,0:0:0:0:
256,192,319164,1,0,0:0:0:0:
256,192,319250,1,0,0:0:0:0:
256,192,319334,1,8,0:0:0:0:
256,192,319505,1,8,0:0:0:0:
256,192,319676,1,4,0:0:0:0:
256,192,320017,1,8,0:0:0:0:
256,192,320187,1,8,0:0:0:0:
256,192,320272,1,0,0:0:0:0:
256,192,320358,1,8,0:0:0:0:
256,192,320442,1,8,0:0:0:0:
256,192,320528,1,0,0:0:0:0:
256,192,320698,1,8,0:0:0:0:
256,192,320869,1,0,0:0:0:0:
256,192,320954,1,0,0:0:0:0:
256,192,321039,1,8,0:0:0:0:
256,192,321125,1,0,0:0:0:0:
256,192,321210,1,0,0:0:0:0:
256,192,321380,1,8,0:0:0:0:
256,192,321551,1,0,0:0:0:0:
256,192,321636,1,0,0:0:0:0:
256,192,321721,1,8,0:0:0:0:
256,192,321892,1,0,0:0:0:0:
256,192,322062,1,8,0:0:0:0:
256,192,322147,1,8,0:0:0:0:
256,192,322233,1,0,0:0:0:0:
256,192,322318,1,0,0:0:0:0:
256,192,322403,1,0,0:0:0:0:
256,192,322744,1,8,0:0:0:0:
256,192,322914,1,0,0:0:0:0:
256,192,323000,1,0,0:0:0:0:
256,192,323085,1,8,0:0:0:0:
256,192,323170,1,8,0:0:0:0:
256,192,323255,1,0,0:0:0:0:
256,192,323426,1,8,0:0:0:0:
256,192,323596,1,0,0:0:0:0:
256,192,323681,1,0,0:0:0:0:
256,192,323767,1,8,0:0:0:0:
256,192,323937,1,0,0:0:0:0:
256,192,324107,1,8,0:0:0:0:
256,192,324192,1,0,0:0:0:0:
256,192,324278,1,0,0:0:0:0:
256,192,324363,1,0,0:0:0:0:
256,192,324448,1,8,0:0:0:0:
256,192,324619,1,0,0:0:0:0:
256,192,324789,1,8,0:0:0:0:
256,192,324875,1,8,0:0:0:0:
256,192,324960,1,8,0:0:0:0:
256,192,325045,1,8,0:0:0:0:
256,192,325130,1,0,0:0:0:0:
256,192,325386,1,0,0:0:0:0:
256,192,325471,1,0,0:0:0:0:
256,192,325642,1,8,0:0:0:0:
256,192,325812,1,8,0:0:0:0:
256,192,325897,1,0,0:0:0:0:
256,192,325983,1,0,0:0:0:0:
256,192,326153,1,8,0:0:0:0:
256,192,326238,1,8,0:0:0:0:
256,192,326323,1,0,0:0:0:0:
256,192,326494,1,8,0:0:0:0:
256,192,326664,1,0,0:0:0:0:
256,192,326750,1,0,0:0:0:0:
256,192,326835,1,0,0:0:0:0:
256,192,327005,1,8,0:0:0:0:
256,192,327175,1,8,0:0:0:0:
256,192,327261,1,8,0:0:0:0:
256,192,327346,1,0,0:0:0:0:
256,192,327431,1,0,0:0:0:0:
256,192,327517,1,8,0:0:0:0:
256,192,327687,1,0,0:0:0:0:
256,192,327858,1,12,0:0:0:0:
256,192,328198,12,0,330244,0:0:0:0:
256,192,330584,5,4,0:0:0:0:
256,192,330925,1,8,0:0:0:0:
256,192,331096,1,0,0:0:0:0:
256,192,331437,1,0,0:0:0:0:
256,192,331607,1,8,0:0:0:0:
256,192,331948,1,0,0:0:0:0:
256,192,332119,1,8,0:0:0:0:
256,192,332289,1,0,0:0:0:0:
256,192,332459,1,0,0:0:0:0:
256,192,332630,1,8,0:0:0:0:
256,192,332800,1,0,0:0:0:0:
256,192,332971,1,8,0:0:0:0:
256,192,333312,1,0,0:0:0:0:
256,192,333653,1,8,0:0:0:0:
256,192,333823,1,0,0:0:0:0:
256,192,334164,1,0,0:0:0:0:
256,192,334334,1,8,0:0:0:0:
256,192,334675,1,0,0:0:0:0:
256,192,334846,1,8,0:0:0:0:
256,192,335016,1,8,0:0:0:0:
256,192,335187,1,0,0:0:0:0:
256,192,335357,1,8,0:0:0:0:
256,192,335528,1,0,0:0:0:0:
256,192,335698,1,8,0:0:0:0:
256,192,335869,1,8,0:0:0:0:
256,192,336039,1,0,0:0:0:0:
256,192,336380,1,8,0:0:0:0:
256,192,336550,1,0,0:0:0:0:
256,192,336891,1,0,0:0:0:0:
256,192,337062,1,8,0:0:0:0:
256,192,337403,1,0,0:0:0:0:
256,192,337573,1,8,0:0:0:0:
256,192,337744,1,0,0:0:0:0:
256,192,337914,1,0,0:0:0:0:
256,192,338084,1,8,0:0:0:0:
256,192,338255,1,0,0:0:0:0:
256,192,338425,1,8,0:0:0:0:
256,192,338766,1,0,0:0:0:0:
256,192,339107,1,8,0:0:0:0:
256,192,339278,1,0,0:0:0:0:
256,192,339619,1,0,0:0:0:0:
256,192,339789,1,8,0:0:0:0:
256,192,339959,1,8,0:0:0:0:
256,192,340130,1,0,0:0:0:0:
256,192,340300,1,8,0:0:0:0:
256,192,340471,1,0,0:0:0:0:
256,192,340641,1,0,0:0:0:0:
256,192,340812,1,8,0:0:0:0:
256,192,340982,1,0,0:0:0:0:
256,192,341153,1,8,0:0:0:0:
256,192,341323,1,0,0:0:0:0:
256,192,341494,1,4,0:0:0:0:
256,192,342005,1,8,0:0:0:0:
256,192,342516,1,0,0:0:0:0:
256,192,343028,1,8,0:0:0:0:
256,192,343539,1,0,0:0:0:0:
256,192,343880,1,0,0:0:0:0:
256,192,344221,1,8,0:0:0:0:
256,192,344732,1,0,0:0:0:0:
256,192,345244,1,8,0:0:0:0:
256,192,345755,1,0,0:0:0:0:
256,192,346266,1,8,0:0:0:0:
256,192,346607,1,8,0:0:0:0:
256,192,346948,1,0,0:0:0:0:
256,192,347459,1,0,0:0:0:0:
256,192,347971,1,8,0:0:0:0:
256,192,348482,1,8,0:0:0:0:
256,192,348994,1,0,0:0:0:0:
256,192,349334,1,0,0:0:0:0:
256,192,349675,1,8,0:0:0:0:
256,192,350187,1,8,0:0:0:0:
256,192,350698,1,0,0:0:0:0:
256,192,351209,1,0,0:0:0:0:
256,192,351721,1,8,0:0:0:0:
256,192,352062,1,8,0:0:0:0:
256,192,352403,1,0,0:0:0:0:
