osu file format v14

[General]
AudioFilename: audio.mp3
AudioLeadIn: 0
PreviewTime: 88795
Countdown: 0
SampleSet: Soft
StackLeniency: 0.7
Mode: 2
LetterboxInBreaks: 0
WidescreenStoryboard: 0

[Editor]
Bookmarks: 44221
DistanceSpacing: 1
BeatDivisor: 4
GridSize: 8
TimelineZoom: 2

[Metadata]
Title:Okaerinasai (tomatomerde Remix)
TitleUnicode:おかえりなさい (tomatomerde Remix)
Artist:Sakamoto Maaya
ArtistUnicode:坂本真綾
Creator:hikikochan
Version:Ascendance's Reunion
Source:たまゆら~hitotose~
Tags:tamayura&bass dnb drum and bass ascendance
BeatmapID:1161865
BeatmapSetID:544468

[Difficulty]
HPDrainRate:6
CircleSize:4.2
OverallDifficulty:9.2
ApproachRate:9.2
SliderMultiplier:1.92
SliderTickRate:2

[Events]
//Background and Video events
0,0,"bg2.jpg",0,0
//Break Periods
2,134421,152742
2,259875,275469
//Storyboard Layer 0 (Background)
//Storyboard Layer 1 (Fail)
//Storyboard Layer 2 (Pass)
//Storyboard Layer 3 (Foreground)
//Storyboard Sound Samples

[TimingPoints]
585,340.909090909,4,2,1,70,1,0
19675,-133.333333333333,4,2,1,70,0,0
22403,-100,4,2,1,70,0,1
22488,-100,4,2,1,70,0,0
44221,-100,4,2,1,60,0,0
72431,-100,4,2,0,70,0,0
72602,-100,4,2,1,70,0,0
77886,-100,4,2,0,70,0,0
78056,-100,4,2,1,70,0,0
83340,-100,4,2,0,70,0,0
83511,-100,4,2,1,70,0,0
87431,-100,4,2,2,70,0,0
87602,-100,4,2,1,70,0,0
90584,-90.9090909091,4,2,1,80,0,1
112062,-90.9090909091,4,2,1,80,0,0
112403,-90.9090909091,4,2,1,80,0,1
119477,-90.9090909091,4,3,1,80,0,1
119647,-90.9090909091,4,2,1,80,0,1
131494,-100,4,2,1,70,0,0
155698,-100,4,2,1,45,0,0
156039,-100,4,2,1,70,0,0
160386,-100,4,2,2,70,0,0
160556,-100,4,2,1,70,0,0
166522,-100,4,2,2,70,0,0
166692,-100,4,2,1,70,0,0
178795,-100,4,2,0,70,0,0
178965,-100,4,2,1,70,0,0
202403,-90.9090909091,4,2,1,80,0,1
224050,-90.9090909091,4,2,1,80,0,0
224221,-90.9090909091,4,2,1,80,0,1
231295,-90.9090909091,4,3,1,80,0,1
231465,-90.9090909091,4,2,1,80,0,1
243312,-111.111111111,4,2,1,70,0,0
257971,-111.111111111,4,2,1,60,0,0
258312,-111.111111111,4,2,1,50,0,0
258653,-111.111111111,4,2,1,40,0,0
258994,-111.111111111,4,2,1,30,0,0
259335,-111.111111111,4,2,1,25,0,0
259675,-111.111111111,4,2,1,20,0,0
276039,-111.111111111,4,2,1,30,0,0
278425,-111.111111111,4,2,1,50,0,0
279278,-111.111111111,4,2,1,10,0,0
279448,-111.111111111,4,2,1,50,0,0
279789,-111.111111111,4,2,3,20,0,0
281153,-111.111111111,4,2,3,15,0,0
282516,-111.111111111,4,2,3,10,0,0
283880,-111.111111111,4,2,3,5,0,0
285244,-111.111111111,4,2,1,40,0,0
286948,-90.9090909091,4,2,1,80,0,1
308425,-90.9090909091,4,2,1,80,0,0
308766,-90.9090909091,4,2,1,80,0,1
310386,-90.9090909091,4,3,1,80,0,1
310556,-90.9090909091,4,2,1,80,0,1
312431,-90.9090909091,4,2,2,80,0,1
312602,-90.9090909091,4,2,1,80,0,1
327857,-111.111111111,4,2,1,70,0,0
328198,-111.111111111,4,2,1,60,0,0
328880,-111.111111111,4,2,1,45,0,0
329221,-111.111111111,4,2,1,30,0,0
329903,-111.111111111,4,2,1,15,0,0
330073,-111.111111111,4,2,1,20,0,0
330244,-111.111111111,4,2,1,25,0,0
330414,-111.111111111,4,2,1,30,0,0
330584,-111.111111111,4,2,1,70,0,0
341494,-111.111111111,4,2,1,60,0,0
344221,-111.111111111,4,2,3,60,0,0
352403,-125,4,2,1,30,0,0
353766,-125,4,2,1,25,0,0
355130,-125,4,2,1,20,0,0
356494,-125,4,2,1,15,0,0
357857,-125,4,2,1,10,0,0
359221,-125,4,2,1,5,0,0

[Colours]
Combo1 : 255,255,255
Combo2 : 247,253,172
Combo3 : 255,154,53
Combo4 : 255,255,47

[HitObjects]
64,72,19675,6,0,L|88:224,1,144.000005493164,0|0,0:0|0:0,0:0:0:0:
272,208,20357,2,0,L|248:360,1,144.000005493164,0|0,0:0|0:0,0:0:0:0:
448,208,21039,6,0,L|432:112,1,72.0000027465821,0|0,0:0|0:0,0:0:0:0:
296,136,21380,2,0,L|312:48,1,72.0000027465821,0|0,0:0|0:0,0:0:0:0:
184,256,21721,2,0,L|168:168,1,72.0000027465821,0|0,0:0|0:0,0:0:0:0:
464,104,22062,5,0,0:0:0:0:
152,104,22403,6,0,L|168:224,1,96,4|0,1:0|0:0,0:0:0:0:
272,248,22744,1,8,0:0:0:0:
168,296,22914,1,2,3:2:0:0:
120,305,22999,1,0,3:0:0:0:
73,314,23084,1,0,3:0:0:0:
224,352,23255,1,0,1:0:0:0:
80,232,23425,2,0,L|64:112,1,96,10|0,0:0|0:0,0:0:0:0:
192,88,23766,6,0,L|304:104,1,96,0|2,1:0|0:0,0:0:0:0:
120,160,24107,1,8,0:0:0:0:
240,184,24278,1,0,3:0:0:0:
281,206,24363,1,0,3:0:0:0:
296,250,24448,1,2,0:0:0:0:
277,293,24533,1,0,0:0:0:0:
234,311,24618,1,0,1:0:0:0:
112,352,24789,2,0,L|96:256,1,96,10|0,0:0|0:0,0:0:0:0:
224,232,25130,6,0,L|240:120,1,96,2|0,1:2|0:0,0:0:0:0:
128,80,25471,1,8,0:0:0:0:
288,72,25641,1,2,3:2:0:0:
335,69,25726,1,0,3:0:0:0:
383,66,25811,1,0,0:0:0:0:
240,144,25982,1,0,1:0:0:0:
400,192,26153,2,0,L|384:304,1,96,10|0,0:0|0:0,0:0:0:0:
224,256,26494,6,0,L|208:368,1,96,0|2,1:0|0:0,0:0:0:0:
320,208,26834,1,8,0:0:0:0:
160,184,27005,1,0,3:0:0:0:
120,158,27090,1,0,3:0:0:0:
106,113,27175,1,2,0:0:0:0:
124,70,27261,1,0,3:0:0:0:
166,48,27346,1,0,1:0:0:0:
304,32,27516,2,0,L|416:40,1,96,10|0,0:0|0:0,0:0:0:0:
232,304,27857,6,0,L|112:296,1,96,2|0,1:2|0:0,0:0:0:0:
304,240,28198,1,8,0:0:0:0:
176,208,28369,1,2,3:2:0:0:
168,160,28454,1,0,3:0:0:0:
161,113,28539,1,0,0:0:0:0:
288,56,28709,1,0,1:0:0:0:
112,48,28880,1,10,0:0:0:0:
240,128,29050,2,0,L|248:208,1,48,0|0,0:0|0:0,0:0:0:0:
184,216,29221,6,0,L|168:328,1,96,0|2,1:0|0:0,0:0:0:0:
320,304,29562,1,8,0:0:0:0:
184,216,29732,1,0,3:0:0:0:
223,190,29817,1,0,0:0:0:0:
239,146,29902,1,2,0:0:0:0:
225,101,29987,1,0,3:0:0:0:
187,74,30072,1,0,1:0:0:0:
336,56,30244,2,0,L|448:56,1,96,10|0,0:0|0:0,0:0:0:0:
264,128,30584,6,0,L|144:128,1,96,2|0,1:2|0:0,0:0:0:0:
312,216,30925,1,8,0:0:0:0:
176,216,31096,2,0,L|96:216,2,48,2|0|0,3:2|3:0|0:0,0:0:0:0:
304,216,31437,1,0,1:0:0:0:
176,216,31607,2,0,L|280:216,1,96,10|0,0:0|0:0,0:0:0:0:
136,136,31948,6,0,L|24:136,1,96,0|2,1:0|0:2,0:0:0:0:
200,72,32289,1,8,0:0:0:0:
288,144,32459,2,0,L|304:216,1,48,0|0,0:0|0:0,0:0:0:0:
96,272,32630,2,0,L|80:376,1,96,2|0,1:2|1:0,0:0:0:0:
384,120,32971,2,0,L|400:240,1,96,10|0,1:2|1:0,0:0:0:0:
144,264,33312,6,0,L|248:272,1,96,2|0,1:2|0:0,0:0:0:0:
88,200,33653,1,8,0:0:0:0:
208,184,33823,1,2,3:2:0:0:
211,136,33908,1,0,3:0:0:0:
215,88,33993,1,0,0:0:0:0:
96,40,34164,1,0,1:0:0:0:
208,184,34334,2,0,L|320:176,1,96,10|0,0:0|0:0,0:0:0:0:
448,288,34675,6,0,L|336:280,1,96,0|2,1:0|0:0,0:0:0:0:
232,272,35016,1,8,0:0:0:0:
344,224,35187,1,0,0:0:0:0:
385,201,35272,1,0,0:0:0:0:
402,158,35357,1,2,0:0:0:0:
388,113,35442,1,0,0:0:0:0:
348,88,35527,1,0,1:0:0:0:
216,48,35698,2,0,L|96:56,1,96,10|0,0:0|0:0,0:0:0:0:
264,152,36039,6,0,L|384:168,1,96,2|0,1:2|0:0,0:0:0:0:
192,208,36380,1,8,0:0:0:0:
312,248,36550,1,2,3:2:0:0:
304,295,36635,1,0,3:0:0:0:
297,342,36720,1,0,0:0:0:0:
160,368,36891,1,0,1:0:0:0:
312,248,37062,2,0,L|432:256,1,96,10|0,0:0|0:0,0:0:0:0:
232,144,37403,6,0,L|128:136,1,96,0|2,1:0|0:0,0:0:0:0:
304,96,37744,1,8,0:0:0:0:
128,208,37914,1,0,3:0:0:0:
99,169,37999,1,0,3:0:0:0:
98,122,38084,1,2,0:0:0:0:
123,82,38169,1,0,3:0:0:0:
167,64,38254,1,0,1:0:0:0:
296,136,38425,2,0,L|184:144,1,96,10|0,0:0|0:0,0:0:0:0:
336,216,38766,6,0,L|464:224,1,96,2|0,1:2|0:0,0:0:0:0:
240,288,39107,1,8,0:0:0:0:
392,144,39278,1,2,3:2:0:0:
402,97,39363,1,0,3:0:0:0:
413,50,39448,1,0,0:0:0:0:
256,88,39619,1,0,1:0:0:0:
448,192,39789,1,10,0:0:0:0:
288,224,39959,2,0,L|224:224,1,48,0|0,0:0|0:0,0:0:0:0:
288,224,40130,6,0,L|416:224,1,96,0|2,1:0|0:0,0:0:0:0:
200,168,40471,1,8,0:0:0:0:
312,144,40641,1,0,0:0:0:0:
356,130,40726,1,0,0:0:0:0:
375,87,40811,1,2,0:0:0:0:
357,45,40896,1,0,0:0:0:0:
313,30,40981,1,0,1:0:0:0:
176,40,41153,2,0,L|184:136,1,96,10|0,0:0|0:0,0:0:0:0:
352,184,41494,6,0,L|336:296,1,96,2|0,1:2|0:0,0:0:0:0:
184,248,41834,1,8,0:0:0:0:
338,279,42005,1,2,3:2:0:0:
385,284,42090,1,0,3:0:0:0:
433,290,42175,1,0,0:0:0:0:
264,328,42346,1,0,1:0:0:0:
416,208,42516,1,10,0:0:0:0:
264,152,42687,2,0,L|216:152,1,48,0|0,0:0|0:0,0:0:0:0:
368,104,42857,6,0,L|472:104,1,96,0|2,1:0|1:2,0:0:0:0:
152,72,43198,1,8,0:0:0:0:
264,152,43369,1,0,3:0:0:0:
302,179,43454,1,0,3:0:0:0:
314,224,43539,1,2,0:0:0:0:
294,267,43624,1,0,3:0:0:0:
252,287,43709,1,0,1:0:0:0:
480,328,43880,2,0,L|488:208,1,96,8|0,0:0|0:0,0:0:0:0:
200,200,44221,6,0,P|152:136|224:48,1,192,4|8,1:0|0:0,0:0:0:0:
336,32,44732,2,0,L|320:224,1,192,0|0,0:0|1:0,0:0:0:0:
160,240,45244,2,0,L|176:360,1,96,8|0,0:0|0:0,0:0:0:0:
312,288,45584,6,0,L|416:296,2,96,0|0|8,1:0|0:0|0:0,0:0:0:0:
176,240,46096,1,0,0:0:0:0:
168,192,46181,1,0,0:0:0:0:
161,145,46266,1,0,0:0:0:0:
312,88,46437,1,0,1:0:0:0:
161,145,46607,2,0,L|56:128,1,96,8|0,0:0|0:0,0:0:0:0:
256,216,46948,6,0,L|376:200,2,96,0|0|8,1:0|0:0|0:0,0:0:0:0:
136,304,47459,2,0,L|336:328,1,192,0|0,0:0|1:0,0:0:0:0:
440,272,47971,2,0,L|464:160,1,96,8|0,0:0|0:0,0:0:0:0:
328,168,48312,6,0,L|312:72,1,96,0|2,1:0|0:0,0:0:0:0:
440,40,48653,1,8,0:0:0:0:
272,248,48823,1,2,0:0:0:0:
224,254,48908,1,0,0:0:0:0:
176,261,48993,1,0,0:0:0:0:
328,296,49164,1,2,1:2:0:0:
160,320,49334,2,0,L|48:336,1,96,8|0,0:0|0:0,0:0:0:0:
328,296,49675,6,0,P|392:224|320:160,1,192,0|8,1:0|0:0,0:0:0:0:
216,104,50187,2,0,L|416:104,1,192,0|0,0:0|1:0,0:0:0:0:
312,104,50698,1,8,0:0:0:0:
456,184,50869,2,0,L|464:248,1,48,0|0,0:0|0:0,0:0:0:0:
400,272,51039,6,0,L|304:288,1,96,0|0,1:0|0:0,0:0:0:0:
192,240,51380,1,8,0:0:0:0:
304,160,51550,1,0,0:0:0:0:
256,157,51635,1,0,0:0:0:0:
208,154,51720,1,0,0:0:0:0:
352,88,51891,1,0,1:0:0:0:
488,152,52062,2,0,L|472:264,1,96,8|0,0:0|0:0,0:0:0:0:
240,216,52403,6,0,P|192:264|264:352,1,192,0|8,1:0|0:0,0:0:0:0:
368,256,52914,2,0,L|472:264,2,96,0|0|0,0:0|0:0|1:0,0:0:0:0:
208,240,53425,1,8,0:0:0:0:
456,88,53596,6,0,L|248:104,1,192,0|0,0:0|0:0,0:0:0:0:
160,160,54107,2,0,L|176:264,1,96,8|2,0:0|0:0,0:0:0:0:
240,280,54363,1,0,0:0:0:0:
296,224,54448,2,0,L|400:216,1,96,2|0,0:0|1:0,0:0:0:0:
160,160,54789,2,0,L|56:152,1,96,10|0,0:0|0:0,0:0:0:0:
335,36,55130,6,0,L|295:228,1,192,0|8,1:0|0:0,0:0:0:0:
408,336,55641,2,0,P|464:296|392:216,1,192,0|0,0:0|1:0,0:0:0:0:
288,248,56153,2,0,L|176:256,1,96,8|0,0:0|0:0,0:0:0:0:
352,152,56494,6,0,L|224:168,1,96,0|0,1:0|0:0,0:0:0:0:
144,184,56834,1,8,0:0:0:0:
288,248,57005,1,0,0:0:0:0:
281,295,57090,1,0,0:0:0:0:
274,343,57175,1,0,0:0:0:0:
416,232,57346,1,0,1:0:0:0:
280,104,57516,2,0,L|160:112,1,96,8|0,0:0|0:0,0:0:0:0:
448,32,57857,6,0,L|248:48,1,192,0|8,1:0|0:0,0:0:0:0:
144,104,58369,2,0,P|96:176|176:256,1,192,0|0,0:0|1:0,0:0:0:0:
288,280,58880,2,0,L|392:272,1,96,8|0,0:0|0:0,0:0:0:0:
232,160,59221,6,0,L|128:176,1,96,0|0,1:0|0:0,0:0:0:0:
280,88,59562,1,8,0:0:0:0:
384,160,59732,1,2,0:0:0:0:
380,207,59817,1,0,0:0:0:0:
377,255,59902,1,2,0:0:0:0:
248,280,60073,1,0,1:0:0:0:
368,344,60244,2,0,L|480:360,1,96,10|0,0:0|0:0,0:0:0:0:
200,160,60584,6,0,L|72:176,2,96,0|0|8,1:0|0:0|0:0,0:0:0:0:
312,152,61096,2,0,L|296:352,1,192,0|0,0:0|1:0,0:0:0:0:
176,360,61607,1,8,0:0:0:0:
432,64,61778,6,0,L|216:80,1,192,0|0,0:0|0:0,0:0:0:0:
344,144,62289,1,8,0:0:0:0:
208,152,62459,1,0,0:0:0:0:
160,154,62544,1,0,0:0:0:0:
112,157,62629,1,0,0:0:0:0:
272,208,62800,1,0,1:0:0:0:
144,248,62971,2,0,L|160:352,1,96,8|0,0:0|0:0,0:0:0:0:
432,304,63312,6,0,P|480:248|416:168,1,192,0|8,1:0|0:0,0:0:0:0:
296,224,63823,2,0,P|224:184|312:128,1,192,0|0,0:0|1:0,0:0:0:0:
384,112,64334,1,8,0:0:0:0:
80,48,64505,6,0,B|72:144|72:144|120:256,1,192,0|0,0:0|0:0,0:0:0:0:
216,256,65016,1,8,0:0:0:0:
80,360,65187,1,0,0:0:0:0:
80,312,65272,1,0,0:0:0:0:
80,264,65357,1,0,0:0:0:0:
216,200,65528,1,0,1:0:0:0:
80,160,65698,2,0,L|56:64,1,96,8|0,0:0|0:0,0:0:0:0:
328,120,66039,6,0,P|376:176|304:256,1,192,0|8,0:0|0:0,0:0:0:0:
192,256,66550,1,0,0:0:0:0:
320,336,66721,2,0,L|424:344,1,96,0|0,0:0|0:0,0:0:0:0:
152,152,67062,2,0,L|48:160,1,96,8|0,0:0|0:0,0:0:0:0:
320,56,67403,5,2,1:3:0:0:
192,88,67573,1,0,1:0:0:0:
456,168,67744,2,0,L|440:296,1,96,8|0,0:0|1:0,0:0:0:0:
384,296,67999,1,0,0:0:0:0:
176,248,68084,2,0,L|64:256,1,96,0|0,1:0|0:0,0:0:0:0:
361,151,68425,2,0,L|497:175,1,96,8|0,0:0|1:0,0:0:0:0:
144,48,68766,6,0,P|96:96|176:184,1,192,4|8,1:0|0:0,0:0:0:0:
272,184,69278,2,0,P|328:216|248:312,1,192,2|2,3:2|1:2,0:0:0:0:
160,256,69789,2,0,L|24:272,1,96,10|2,0:2|0:3,0:0:0:0:
304,144,70130,6,0,L|416:160,1,96,0|0,1:0|0:0,0:0:0:0:
192,208,70471,2,0,L|176:112,1,96,10|0,0:2|3:0,0:0:0:0:
312,240,70812,1,2,0:2:0:0:
184,288,70982,1,0,1:0:0:0:
187,335,71067,1,0,0:0:0:0:
191,383,71152,1,10,0:2:0:0:
312,240,71323,1,2,0:2:0:0:
80,224,71494,6,0,P|32:168|96:80,1,192,0|8,1:0|0:0,0:0:0:0:
192,48,72005,1,0,3:0:0:0:
288,104,72175,2,0,L|384:104,1,96,8|0,0:3|1:0,0:0:0:0:
216,176,72516,2,0,L|200:272,1,96,4|0,1:3|0:0,0:0:0:0:
448,328,72857,6,0,P|480:256|392:184,1,192,4|10,1:3|0:2,0:0:0:0:
296,176,73369,1,0,3:0:0:0:
392,88,73539,2,0,L|264:80,1,96,2|0,0:2|1:0,0:0:0:0:
128,144,73880,2,0,L|24:136,1,96,10|0,0:2|0:0,0:0:0:0:
272,216,74221,6,0,L|488:240,1,192,2|8,1:2|0:0,0:0:0:0:
328,292,74732,2,0,L|120:268,1,192,2|2,3:2|1:2,0:0:0:0:
280,216,75244,2,0,L|296:112,1,96,10|0,0:2|0:0,0:0:0:0:
32,88,75584,6,0,L|224:112,2,192,0|10|2,1:0|0:2|0:2,0:0:0:0:
144,32,76437,1,0,1:0:0:0:
288,160,76607,2,0,L|184:160,1,96,10|0,0:2|0:0,0:0:0:0:
456,360,76948,6,0,B|464:264|464:264|416:160,1,192,2|8,1:2|0:0,0:0:0:0:
328,128,77459,1,0,3:0:0:0:
224,224,77630,2,0,L|328:224,1,96,2|0,0:3|1:0,0:0:0:0:
168,296,77971,2,0,L|64:296,1,96,8|0,1:3|0:0,0:0:0:0:
384,288,78312,6,0,P|432:232|368:144,1,192,4|10,1:3|0:2,0:0:0:0:
272,128,78823,1,0,3:0:0:0:
184,216,78994,2,0,L|304:216,1,96,2|0,0:2|1:0,0:0:0:0:
104,128,79334,2,0,L|208:128,1,96,10|0,0:2|0:0,0:0:0:0:
432,128,79675,6,0,P|488:176|416:256,1,192,4|8,1:0|0:0,0:0:0:0:
312,320,80187,2,0,L|120:304,1,192,2|2,3:2|1:2,0:0:0:0:
264,232,80698,2,0,L|288:128,1,96,10|0,0:2|0:0,0:0:0:0:
152,120,81039,6,0,L|184:24,1,96,0|0,1:0|0:0,0:0:0:0:
320,40,81380,1,10,0:2:0:0:
152,120,81550,1,0,3:0:0:0:
104,116,81635,1,0,3:0:0:0:
56,113,81720,1,2,1:2:0:0:
224,184,81891,1,0,1:0:0:0:
112,208,82062,2,0,L|128:320,1,96,10|0,0:2|0:0,0:0:0:0:
248,256,82403,6,0,L|456:272,1,192,2|8,1:2|0:0,0:0:0:0:
352,200,82914,1,0,3:0:0:0:
464,168,83084,2,0,L|456:64,1,96,8|0,1:3|1:0,0:0:0:0:
320,96,83425,2,0,L|312:0,1,96,4|0,1:3|0:0,0:0:0:0:
174,116,83766,6,0,P|174:220|206:316,1,192,4|10,1:3|0:2,0:0:0:0:
342,238,84278,1,0,3:0:0:0:
200,304,84448,2,0,L|96:296,1,96,2|0,1:2|1:0,0:0:0:0:
248,224,84789,2,0,L|352:240,1,96,10|2,0:2|0:2,0:0:0:0:
80,56,85130,6,0,P|24:96|80:192,1,192,0|8,1:0|0:0,0:0:0:0:
176,176,85641,1,0,3:0:0:0:
280,232,85812,2,0,L|384:240,1,96,0|0,1:0|1:0,0:0:0:0:
216,296,86153,2,0,L|96:280,1,96,8|0,0:0|0:0,0:0:0:0:
424,256,86494,6,0,L|432:128,1,96,6|0,1:3|0:0,0:0:0:0:
352,104,86834,1,8,0:0:0:0:
120,264,87005,2,0,L|336:248,1,192,6|0,3:3|1:0,0:0:0:0:
48,192,87516,2,0,L|32:88,1,96,10|0,1:3|1:0,0:0:0:0:
336,56,87857,5,4,1:2:0:0:
224,120,88198,1,0,1:0:0:0:
336,184,88539,1,4,1:2:0:0:
144,208,88880,1,0,1:0:0:0:
400,344,89221,6,0,L|408:248,1,96,0|0,1:0|1:0,0:0:0:0:
272,224,89562,2,0,L|256:112,1,96,0|0,1:0|1:0,0:0:0:0:
440,136,89903,2,0,L|448:32,1,96,4|0,1:2|1:0,0:0:0:0:
96,224,90244,2,0,L|72:96,1,96,8|0,1:0|0:0,0:0:0:0:
344,80,90584,6,0,L|192:96,1,105.600003222656,4|0,1:0|0:0,0:0:0:0:
363,174,90925,1,10,0:0:0:0:
280,292,91096,1,0,3:0:0:0:
286,240,91181,1,0,3:0:0:0:
316,197,91266,1,0,0:0:0:0:
363,174,91351,1,0,3:0:0:0:
416,176,91436,1,0,1:0:0:0:
152,160,91607,2,0,L|24:144,1,105.600003222656,10|0,0:0|0:0,0:0:0:0:
336,56,91948,6,0,L|320:168,1,105.600003222656,2|0,1:2|0:0,0:0:0:0:
192,240,92289,1,8,0:0:0:0:
336,336,92459,1,0,3:0:0:0:
283,339,92544,1,0,3:0:0:0:
230,342,92629,1,2,0:0:0:0:
400,272,92800,1,0,1:0:0:0:
96,80,92971,2,0,L|72:200,1,105.600003222656,10|0,0:2|0:0,0:0:0:0:
344,104,93312,6,0,P|280:120|232:264,1,211.200006445313,2|8,1:2|0:0,0:0:0:0:
352,328,93823,1,0,3:0:0:0:
400,310,93908,1,0,3:0:0:0:
421,263,93993,1,0,0:0:0:0:
401,215,94078,1,0,0:0:0:0:
353,197,94163,1,0,0:0:0:0:
224,272,94334,2,0,L|368:264,1,105.600003222656,8|0,0:0|0:0,0:0:0:0:
64,224,94675,6,0,L|40:112,1,105.600003222656,2|0,1:0|0:0,0:0:0:0:
392,112,95016,2,0,L|376:232,1,105.600003222656,10|0,0:0|0:0,0:0:0:0:
232,288,95357,2,0,L|352:304,2,105.600003222656,2|0|10,0:0|1:0|0:0,0:0:0:0:
112,264,95869,1,2,0:0:0:0:
352,224,96039,6,0,P|400:168|312:72,1,211.200006445313,0|8,1:0|0:0,0:0:0:0:
160,40,96550,2,0,L|88:48,2,52.8000016113282,2|0|0,3:2|3:0|0:0,0:0:0:0:
288,80,96891,1,0,1:0:0:0:
152,128,97062,2,0,L|144:264,1,105.600003222656,10|0,0:0|0:0,0:0:0:0:
424,312,97403,6,0,L|192:328,1,211.200006445313,2|8,1:2|0:0,0:0:0:0:
80,264,97914,1,0,3:0:0:0:
43,226,97999,1,0,3:0:0:0:
31,176,98084,1,2,0:0:0:0:
47,126,98169,1,0,0:0:0:0:
86,92,98254,1,0,1:0:0:0:
384,48,98425,2,0,L|496:56,1,105.600003222656,10|0,0:2|0:0,0:0:0:0:
208,112,98766,6,0,L|352:128,1,105.600003222656,2|0,1:2|0:0,0:0:0:0:
144,176,99107,1,8,0:0:0:0:
272,304,99278,1,0,3:0:0:0:
279,251,99363,1,0,3:0:0:0:
286,199,99448,1,0,0:0:0:0:
136,176,99619,1,0,1:0:0:0:
304,128,99789,2,0,L|432:128,1,105.600003222656,10|0,0:0|0:0,0:0:0:0:
120,40,100130,6,0,L|136:144,1,105.600003222656,2|0,1:0|0:0,0:0:0:0:
256,192,100471,1,10,0:0:0:0:
285,234,100556,1,0,0:0:0:0:
281,286,100641,1,0,3:0:0:0:
246,323,100726,1,0,3:0:0:0:
195,331,100811,1,2,0:0:0:0:
336,168,100982,2,0,L|480:176,2,105.600003222656,0|10|0,1:0|0:0|0:0,0:0:0:0:
40,88,101494,6,0,L|256:64,1,211.200006445313,4|8,1:0|0:0,0:0:0:0:
376,112,102005,1,0,0:0:0:0:
364,163,102090,1,0,0:0:0:0:
353,215,102175,1,0,0:0:0:0:
216,232,102346,1,0,1:0:0:0:
336,280,102516,2,0,L|448:304,1,105.600003222656,10|0,0:0|0:0,0:0:0:0:
280,184,102857,6,0,L|160:192,1,105.600003222656,2|0,1:0|0:0,0:0:0:0:
64,136,103198,1,10,0:0:0:0:
192,24,103369,1,0,3:0:0:0:
184,76,103454,1,0,3:0:0:0:
177,128,103539,1,2,0:0:0:0:
64,136,103709,1,0,1:0:0:0:
240,192,103880,2,0,L|368:200,1,105.600003222656,10|2,0:0|0:0,0:0:0:0:
200,264,104221,6,0,P|152:208|240:112,1,211.200006445313,0|8,1:0|0:0,0:0:0:0:
328,80,104732,2,0,L|472:88,1,105.600003222656,0|2,0:0|0:0,0:0:0:0:
288,136,105073,1,0,1:0:0:0:
416,176,105244,2,0,L|400:288,1,105.600003222656,10|0,0:0|0:0,0:0:0:0:
272,240,105584,6,0,L|120:248,1,105.600003222656,2|0,1:0|0:0,0:0:0:0:
48,200,105925,2,0,P|8:136|96:32,1,211.200006445313,10|2,0:0|0:0,0:0:0:0:
176,24,106437,1,0,1:0:0:0:
288,128,106607,2,0,L|168:120,1,105.600003222656,10|2,0:0|0:0,0:0:0:0:
360,64,106948,5,0,1:0:0:0:
160,176,107289,2,0,L|168:288,1,105.600003222656,8|0,0:0|0:0,0:0:0:0:
216,304,107545,1,0,0:0:0:0:
264,328,107630,1,2,0:0:0:0:
104,216,107800,2,0,L|-8:224,2,105.600003222656,0|8|0,1:0|0:0|0:0,0:0:0:0:
400,112,108312,6,0,L|512:120,2,105.600003222656,2|0|8,1:2|0:0|0:0,0:0:0:0:
152,224,108823,2,0,L|400:208,1,211.200006445313,2|0,0:0|1:0,0:0:0:0:
56,152,109334,2,0,L|40:40,1,105.600003222656,8|0,0:2|0:0,0:0:0:0:
328,168,109675,6,0,L|304:288,1,105.600003222656,2|0,1:2|0:0,0:0:0:0:
176,312,110016,1,8,0:0:0:0:
296,80,110187,1,0,0:0:0:0:
348,87,110272,1,0,0:0:0:0:
400,94,110357,1,0,0:0:0:0:
224,136,110528,1,0,1:0:0:0:
352,160,110698,2,0,L|464:176,1,105.600003222656,10|0,0:0|0:0,0:0:0:0:
120,208,111039,6,0,P|80:272|96:312,1,105.600003222656,2|0,1:0|0:0,0:0:0:0:
336,184,111380,2,0,P|352:112|320:72,1,105.600003222656,14|0,0:2|0:0,0:0:0:0:
200,48,111721,2,0,L|88:56,1,105.600003222656,2|0,0:0|1:0,0:0:0:0:
392,288,112062,2,0,L|496:304,1,105.600003222656,14|0,0:2|0:0,0:0:0:0:
192,336,112403,6,0,B|176:216|176:216|256:144,1,211.200006445313,4|8,1:0|0:0,0:0:0:0:
376,120,112914,2,0,L|440:128,2,52.8000016113282,0|0|0,3:0|3:0|0:0,0:0:0:0:
240,152,113255,1,0,1:0:0:0:
376,208,113425,2,0,L|352:328,1,105.600003222656,8|0,0:0|0:0,0:0:0:0:
32,80,113766,6,0,P|128:48|232:88,1,211.200006445313,2|8,1:2|0:0,0:0:0:0:
376,144,114278,1,0,3:0:0:0:
370,196,114363,1,0,3:0:0:0:
364,248,114448,1,2,0:0:0:0:
358,301,114533,1,0,3:0:0:0:
352,353,114618,1,0,1:0:0:0:
40,264,114789,2,0,L|184:248,1,105.600003222656,10|0,0:0|0:0,0:0:0:0:
304,192,115130,6,0,L|88:160,1,211.200006445313,2|8,1:2|0:0,0:0:0:0:
248,88,115641,1,0,3:0:0:0:
300,84,115726,1,0,3:0:0:0:
353,81,115811,1,0,0:0:0:0:
184,32,115982,1,0,1:0:0:0:
304,192,116153,2,0,L|288:304,1,105.600003222656,10|0,0:0|0:0,0:0:0:0:
24,240,116494,6,0,L|176:232,1,105.600003222656,2|0,1:2|0:0,0:0:0:0:
272,128,116834,2,0,L|128:144,1,105.600003222656,10|0,0:0|0:0,0:0:0:0:
336,200,117175,2,0,L|456:216,1,105.600003222656,2|0,0:0|1:0,0:0:0:0:
128,296,117516,2,0,L|0:304,1,105.600003222656,8|2,0:0|0:0,0:0:0:0:
336,200,117857,6,0,L|112:216,1,211.200006445313,0|8,1:2|0:0,0:0:0:0:
248,136,118369,1,0,3:0:0:0:
300,132,118454,1,0,3:0:0:0:
353,128,118539,1,0,0:0:0:0:
405,124,118624,1,0,0:0:0:0:
458,120,118709,1,0,1:0:0:0:
320,48,118880,1,8,0:0:0:0:
458,120,119050,1,0,0:0:0:0:
160,96,119221,6,0,P|104:152|240:272,1,316.800009667969,2|0,1:2|3:0,0:0:0:0:
424,352,119903,1,2,0:0:0:0:
471,331,119988,1,0,0:0:0:0:
490,284,120073,1,0,1:0:0:0:
471,236,120158,1,0,0:0:0:0:
423,216,120243,1,10,0:0:0:0:
312,224,120414,1,0,0:0:0:0:
24,104,120584,6,0,L|256:112,1,211.200006445313,0|8,1:0|0:0,0:0:0:0:
352,176,121096,1,0,3:0:0:0:
340,227,121181,1,0,3:0:0:0:
329,279,121266,1,0,0:0:0:0:
208,328,121437,1,0,1:0:0:0:
352,176,121607,2,0,L|472:192,1,105.600003222656,10|0,0:0|0:0,0:0:0:0:
120,56,121948,6,0,L|96:160,1,105.600003222656,2|0,1:2|0:0,0:0:0:0:
248,200,122289,2,0,L|264:328,1,105.600003222656,10|0,0:0|0:0,0:0:0:0:
216,328,122545,1,0,0:0:0:0:
168,352,122630,1,2,0:0:0:0:
320,216,122800,2,0,L|440:240,2,105.600003222656,0|10|2,1:0|0:0|0:0,0:0:0:0:
40,48,123312,6,0,L|64:288,1,211.200006445313,4|8,1:0|0:0,0:0:0:0:
192,296,123823,1,0,3:0:0:0:
244,302,123908,1,0,3:0:0:0:
296,308,123993,1,0,0:0:0:0:
480,160,124164,2,0,L|328:176,2,105.600003222656,0|10|0,1:0|0:0|0:0,0:0:0:0:
224,136,124675,6,0,L|112:120,1,105.600003222656,0|2,1:2|0:0,0:0:0:0:
264,64,125016,2,0,L|320:168,1,105.600003222656,10|0,0:0|0:0,0:0:0:0:
208,352,125357,1,2,0:0:0:0:
158,337,125442,1,0,0:0:0:0:
133,292,125527,1,0,1:0:0:0:
148,243,125612,1,0,0:0:0:0:
194,219,125697,1,10,0:0:0:0:
320,176,125869,1,0,0:0:0:0:
192,96,126039,6,0,L|424:104,1,211.200006445313,0|8,1:0|0:0,0:0:0:0:
504,200,126550,2,0,L|488:264,1,52.8000016113282,2|2,3:2|3:2,0:0:0:0:
280,312,126721,2,0,L|160:320,1,105.600003222656,2|0,0:0|1:0,0:0:0:0:
320,216,127062,2,0,L|448:224,1,105.600003222656,10|0,0:0|0:0,0:0:0:0:
128,224,127403,6,0,P|48:168|120:80,1,211.200006445313,2|10,1:2|0:0,0:0:0:0:
200,48,127914,1,0,0:0:0:0:
312,120,128084,2,0,L|424:120,1,105.600003222656,2|0,0:0|1:0,0:0:0:0:
248,192,128425,2,0,L|128:192,1,105.600003222656,8|2,0:0|0:0,0:0:0:0:
464,360,128766,6,0,L|472:240,1,105.600003222656,0|0,1:0|0:0,0:0:0:0:
424,224,129022,1,0,1:0:0:0:
248,192,129107,1,0,3:0:0:0:
344,128,129278,2,0,L|456:128,2,105.600003222656,8|4|0,0:0|3:0|1:0,0:0:0:0:
88,56,129789,2,0,L|224:56,1,105.600003222656,8|0,0:0|1:0,0:0:0:0:
64,136,130130,6,0,L|48:256,1,105.600003222656,0|0,1:0|1:0,0:0:0:0:
152,312,130471,1,0,3:0:0:0:
384,200,130641,2,0,L|144:224,1,211.200006445313,10|0,0:0|1:0,0:0:0:0:
432,64,131153,2,0,L|432:176,1,105.600003222656,10|0,0:0|1:0,0:0:0:0:
184,352,131494,6,0,B|88:360|32:232|72:144|232:224|296:208|272:-8|32:32,1,576,4|0,1:0|0:0,0:0:0:0:
288,48,132857,2,0,L|480:48,1,192,2|2,0:0|0:0,0:0:0:0:
240,128,133539,2,0,L|112:128,1,96,2|0,0:0|1:0,0:0:0:0:
472,192,133880,1,8,0:0:0:0:
32,192,134221,5,6,1:0:0:0:
256,192,153312,12,8,155698,0:0:0:0:
160,304,156039,6,0,L|152:208,1,96,4|0,1:0|0:0,0:0:0:0:
272,152,156380,1,8,0:0:0:0:
160,96,156550,2,0,L|352:80,1,192,0|0,3:0|1:0,0:0:0:0:
464,152,157062,2,0,L|456:256,1,96,10|0,0:2|0:0,0:0:0:0:
312,344,157403,6,0,P|352:304|472:336,1,192,0|8,1:0|0:0,0:0:0:0:
312,152,157914,1,0,3:0:0:0:
264,148,157999,1,0,3:0:0:0:
216,145,158084,1,2,0:2:0:0:
104,136,158255,1,0,1:0:0:0:
216,80,158425,2,0,L|336:88,1,96,10|0,0:2|0:0,0:0:0:0:
80,144,158766,6,0,P|40:184|112:280,1,192,2|8,1:2|0:0,0:0:0:0:
216,224,159278,2,0,L|416:240,1,192,0|0,3:0|1:0,0:0:0:0:
320,120,159789,2,0,L|224:128,1,96,8|2,0:0|0:2,0:0:0:0:
464,40,160130,5,2,1:3:0:0:
344,40,160300,2,0,L|256:40,2,48,2|0|2,0:2|0:0|1:3,0:0:0:0:
464,40,160641,1,0,3:0:0:0:
344,40,160812,2,0,L|216:40,1,96,2|0,0:3|1:0,0:0:0:0:
104,112,161153,2,0,L|224:112,1,96,8|0,0:0|0:0,0:0:0:0:
440,120,161494,6,0,P|504:168|432:240,1,192,2|8,1:2|0:0,0:0:0:0:
352,208,162005,2,0,P|280:184|168:208,1,192,0|0,3:0|1:0,0:0:0:0:
72,264,162516,1,8,0:0:0:0:
256,216,162687,6,0,P|296:168|224:64,1,192,0|0,0:0|0:0,0:0:0:0:
128,56,163198,1,10,1:2:0:0:
24,136,163369,1,0,3:0:0:0:
34,182,163454,1,0,3:0:0:0:
44,229,163539,1,2,0:3:0:0:
168,264,163709,2,0,L|280:272,2,96,0|8|0,1:0|0:0|0:0,0:0:0:0:
328,216,164221,6,0,P|408:192|432:72,1,192,2|8,1:2|0:0,0:0:0:0:
288,144,164732,2,0,P|248:216|344:296,1,192,2|0,3:3|1:2,0:0:0:0:
464,336,165244,2,0,L|368:336,1,96,8|0,0:0|0:0,0:0:0:0:
216,272,165584,6,0,L|112:272,1,96,2|0,1:2|0:0,0:0:0:0:
296,216,165925,1,8,0:0:0:0:
184,184,166096,1,2,3:3:0:0:
187,136,166181,1,0,3:2:0:0:
191,88,166266,1,2,0:2:0:0:
304,48,166437,1,0,1:2:0:0:
191,88,166607,2,0,L|72:80,1,96,2|0,1:3|0:0,0:0:0:0:
368,168,166948,6,0,P|432:192|464:304,1,192,2|8,1:2|0:0,0:0:0:0:
368,344,167459,2,0,L|272:352,2,96,2|0|0,3:2|0:0|1:0,0:0:0:0:
208,288,167971,2,0,P|136:264|104:128,1,192,10|0,0:2|1:0,0:0:0:0:
192,96,168482,1,0,0:0:0:0:
312,144,168653,2,0,L|408:136,1,96,8|0,0:0|3:0,0:0:0:0:
456,128,168908,1,0,0:0:0:0:
407,136,168994,2,0,L|304:144,1,96,2|0,0:3|1:0,0:0:0:0:
184,192,169334,2,0,L|184:288,1,96,10|0,0:2|0:0,0:0:0:0:
440,336,169675,6,0,P|488:296|408:208,1,192,2|10,1:2|0:2,0:0:0:0:
312,200,170187,2,0,P|248:152|320:80,1,192,0|0,3:0|1:0,0:0:0:0:
416,72,170698,2,0,L|512:72,2,96,8|2|2,0:0|0:2|1:3,0:0:0:0:
280,128,171209,2,0,L|264:184,1,48,2|0,0:2|0:0,0:0:0:0:
280,128,171380,2,0,L|384:136,1,96,10|2,0:2|3:2,0:0:0:0:
216,200,171721,2,0,L|112:200,1,96,0|2,0:3|1:3,0:0:0:0:
440,312,172062,2,0,L|456:200,1,96,8|2,0:0|0:3,0:0:0:0:
224,72,172403,6,0,P|168:112|248:200,1,192,2|8,1:2|0:0,0:0:0:0:
352,272,172914,2,0,L|160:272,1,192,0|0,3:0|1:0,0:0:0:0:
56,272,173425,1,8,0:0:0:0:
288,200,173596,6,0,P|336:152|240:64,1,192,0|0,0:0|0:0,0:0:0:0:
176,40,174107,2,0,L|184:232,1,192,8|2,0:0|0:3,0:0:0:0:
288,272,174619,1,2,1:2:0:0:
183,231,174789,2,0,L|87:239,1,96,8|2,0:0|0:2,0:0:0:0:
344,104,175130,6,0,P|400:112|464:232,1,192,0|8,1:0|0:0,0:0:0:0:
376,288,175641,2,0,L|168:280,1,192,2|2,3:3|1:2,0:0:0:0:
288,208,176153,2,0,L|391:213,1,96,10|0,0:2|0:0,0:0:0:0:
257,329,176494,5,0,1:0:0:0:
177,284,176664,1,0,0:0:0:0:
176,192,176834,1,8,0:0:0:0:
255,146,177005,1,2,3:3:0:0:
163,109,177175,2,0,L|57:95,1,96,2|0,0:2|1:0,0:0:0:0:
352,73,177516,2,0,L|238:56,1,96,8|2,0:0|0:2,0:0:0:0:
489,158,177857,6,0,L|479:359,1,192,2|8,1:2|0:0,0:0:0:0:
346,291,178369,1,0,3:0:0:0:
239,343,178539,2,0,L|132:346,1,96,2|0,0:3|1:0,0:0:0:0:
436,229,178880,2,0,L|460:114,1,96,8|0,1:3|0:0,0:0:0:0:
206,95,179221,6,0,L|305:117,1,96,4|0,1:3|1:0,0:0:0:0:
48,172,179562,1,10,0:2:0:0:
182,202,179732,2,0,L|171:262,1,48,0|0,3:0|3:0,0:0:0:0:
18,324,179903,2,0,L|179:332,1,144,2|0,1:2|0:0,0:0:0:0:
426,270,180244,2,0,L|443:171,1,96,10|0,0:2|1:0,0:0:0:0:
191,74,180584,6,0,P|145:154|217:216,1,192,6|10,1:0|0:0,0:0:0:0:
323,248,181096,2,0,L|355:325,1,48,2|0,0:0|0:0,0:0:0:0:
323,248,181266,2,0,L|201:251,1,96,0|2,0:0|1:0,0:0:0:0:
396,174,181607,2,0,L|492:173,1,96,10|0,0:0|0:0,0:0:0:0:
227,158,181948,6,0,P|192:122|273:36,1,192,0|10,1:0|0:0,0:0:0:0:
415,158,182459,1,0,0:0:0:0:
442,196,182544,1,0,0:0:0:0:
453,243,182629,1,2,0:0:0:0:
445,290,182714,1,0,0:0:0:0:
419,330,182799,1,0,1:0:0:0:
278,284,182971,2,0,L|170:291,1,96,10|2,0:0|0:0,0:0:0:0:
461,136,183312,6,0,L|258:158,1,192,0|8,1:0|0:0,0:0:0:0:
155,178,183823,1,2,0:0:0:0:
330,310,183994,1,2,0:0:0:0:
371,287,184079,1,0,0:0:0:0:
398,248,184164,1,0,1:0:0:0:
402,200,184249,1,0,0:0:0:0:
384,157,184334,1,8,0:0:0:0:
228,114,184505,1,0,0:0:0:0:
470,33,184675,6,0,L|274:55,1,192,0|10,1:0|0:0,0:0:0:0:
151,71,185187,1,0,0:0:0:0:
279,147,185357,2,0,L|256:240,1,96,2|0,0:0|1:0,0:0:0:0:
157,282,185698,2,0,L|182:380,1,96,10|0,0:0|0:0,0:0:0:0:
453,338,186039,6,0,P|482:274|443:147,1,192,2|8,1:0|0:0,0:0:0:0:
287,47,186550,2,0,P|247:114|290:226,1,192,2|2,0:0|1:0,0:0:0:0:
440,269,187062,2,0,L|330:282,1,96,10|0,0:0|0:0,0:0:0:0:
80,223,187403,6,0,L|292:236,1,192,0|10,1:0|0:0,0:0:0:0:
401,182,187914,1,0,0:0:0:0:
251,54,188084,1,2,0:0:0:0:
208,74,188169,1,0,0:0:0:0:
191,118,188254,1,0,1:0:0:0:
206,162,188339,1,0,0:0:0:0:
248,184,188424,1,10,0:0:0:0:
401,182,188596,1,0,0:0:0:0:
144,287,188766,6,0,L|365:298,1,192,2|8,1:0|0:0,0:0:0:0:
461,251,189278,1,0,0:0:0:0:
325,210,189448,1,2,0:0:0:0:
322,162,189533,1,0,0:0:0:0:
319,114,189618,1,0,1:0:0:0:
480,45,189789,2,0,L|357:56,1,96,8|0,0:0|0:0,0:0:0:0:
77,157,190130,6,0,L|202:162,1,96,0|0,1:0|0:0,0:0:0:0:
317,237,190471,2,0,L|214:243,1,96,10|0,0:0|0:0,0:0:0:0:
342,176,190812,1,2,0:0:0:0:
384,154,190897,1,0,0:0:0:0:
409,114,190982,1,0,1:0:0:0:
409,66,191067,1,0,0:0:0:0:
221,48,191153,2,0,L|88:56,1,96,10|0,0:0|0:0,0:0:0:0:
355,122,191494,6,0,P|429:143|464:270,1,192,6|10,1:0|0:0,0:0:0:0:
368,308,192005,2,0,L|172:327,1,192,2|2,0:0|1:0,0:0:0:0:
28,211,192516,2,0,L|153:223,1,96,10|0,0:0|0:0,0:0:0:0:
369,106,192857,6,0,L|168:128,1,192,0|10,1:0|0:0,0:0:0:0:
53,142,193369,1,0,0:0:0:0:
176,224,193539,2,0,L|194:324,1,96,2|0,0:0|1:0,0:0:0:0:
345,225,193880,2,0,L|366:124,1,96,10|2,0:0|0:0,0:0:0:0:
235,133,194221,6,0,P|182:98|251:13,1,192,0|10,1:0|0:0,0:0:0:0:
361,14,194732,1,0,0:0:0:0:
236,242,194903,2,0,L|126:235,1,96,2|0,0:0|1:0,0:0:0:0:
19,133,195244,2,0,L|139:140,1,96,10|2,0:0|0:0,0:0:0:0:
352,70,195584,6,0,L|150:59,1,192,0|10,1:0|0:0,0:0:0:0:
34,52,196096,1,0,0:0:0:0:
136,100,196266,2,0,L|149:146,1,48,2|0,0:0|0:0,0:0:0:0:
217,182,196437,2,0,L|195:254,1,48,0|0,1:0|0:0,0:0:0:0:
136,251,196607,2,0,L|163:377,1,96,10|0,0:0|0:0,0:0:0:0:
489,123,196948,6,0,L|288:137,1,192,2|8,1:0|0:0,0:0:0:0:
176,155,197459,1,0,0:0:0:0:
320,255,197630,1,0,0:0:0:0:
359,228,197715,1,0,0:0:0:0:
374,183,197800,1,0,1:0:0:0:
358,139,197885,1,0,0:0:0:0:
319,113,197970,1,8,0:0:0:0:
189,88,198141,1,2,0:0:0:0:
469,50,198312,6,0,L|356:62,2,96,0|0|8,1:0|0:0|0:0,0:0:0:0:
155,190,198823,2,0,L|369:214,1,192,2|2,0:0|1:0,0:0:0:0:
31,307,199334,2,0,L|26:188,1,96,8|2,0:0|1:0,0:0:0:0:
429,108,199675,5,4,1:2:0:0:
231,152,200016,1,0,1:0:0:0:
425,197,200357,1,0,1:0:0:0:
233,234,200698,1,0,1:0:0:0:
456,350,201039,6,0,L|467:247,1,96,4|0,1:2|0:0,0:0:0:0:
332,235,201380,2,0,L|296:140,1,96,0|12,1:0|0:0,0:0:0:0:
50,143,201721,2,0,L|72:39,1,96,0|0,1:0|0:0,0:0:0:0:
403,93,202062,2,0,L|499:107,1,96,12|0,0:2|0:0,0:0:0:0:
193,321,202403,6,0,P|202:255|336:210,1,211.200006445313,4|8,1:0|0:0,0:0:0:0:
181,175,202914,1,0,3:0:0:0:
129,164,202999,1,0,3:0:0:0:
90,130,203084,1,0,0:0:0:0:
73,81,203169,1,0,0:0:0:0:
83,29,203254,1,0,1:0:0:0:
376,21,203425,2,0,L|506:35,1,105.600003222656,8|0,0:0|0:0,0:0:0:0:
302,88,203766,6,0,L|174:94,1,105.600003222656,2|0,1:2|0:0,0:0:0:0:
446,165,204107,1,8,0:0:0:0:
312,180,204278,1,0,3:0:0:0:
266,204,204363,1,0,3:0:0:0:
247,253,204448,1,2,0:0:0:0:
264,302,204533,1,0,0:0:0:0:
308,328,204618,1,0,1:0:0:0:
451,266,204789,2,0,L|328:263,1,105.600003222656,10|0,0:0|0:0,0:0:0:0:
43,256,205130,5,2,1:2:0:0:
183,205,205300,2,0,L|199:141,1,52.8000016113282,0|0,0:0|0:0,0:0:0:0:
44,132,205471,2,0,L|24:25,1,105.600003222656,8|0,0:0|3:0,0:0:0:0:
70,4,205727,1,0,3:0:0:0:
263,115,205812,2,0,L|384:135,1,105.600003222656,0|0,0:0|1:0,0:0:0:0:
196,192,206153,1,8,0:0:0:0:
145,205,206238,1,0,0:0:0:0:
112,245,206323,1,0,0:0:0:0:
107,297,206408,1,0,0:0:0:0:
319,350,206494,6,0,L|438:358,1,105.600003222656,2|0,1:2|0:0,0:0:0:0:
152,118,206834,2,0,L|39:138,1,105.600003222656,10|0,0:0|0:0,0:0:0:0:
211,62,207175,2,0,L|342:80,2,105.600003222656,2|0|8,0:0|1:3|0:0,0:0:0:0:
443,37,207687,1,2,0:0:0:0:
176,263,207857,6,0,L|405:208,1,211.200006445313,0|8,1:0|0:0,0:0:0:0:
246,159,208369,1,0,3:0:0:0:
239,106,208454,1,0,3:0:0:0:
232,54,208539,1,0,0:0:0:0:
370,160,208709,1,0,1:0:0:0:
198,230,208880,2,0,L|73:249,1,105.600003222656,8|0,0:0|0:0,0:0:0:0:
407,84,209221,6,0,P|451:127|386:243,1,211.200006445313,2|8,1:0|0:0,0:0:0:0:
237,340,209732,2,0,L|231:278,1,52.8000016113282,0|0,3:0|3:0,0:0:0:0:
302,258,209903,2,0,L|306:192,1,52.8000016113282,2|0,0:0|0:0,0:0:0:0:
234,170,210073,1,0,1:0:0:0:
399,115,210244,2,0,L|513:83,1,105.600003222656,10|0,0:0|0:0,0:0:0:0:
247,78,210584,6,0,L|35:58,1,211.200006445313,2|8,1:0|0:0,0:0:0:0:
160,137,211096,1,0,3:0:0:0:
200,169,211181,1,0,3:0:0:0:
217,218,211266,1,0,0:0:0:0:
203,268,211351,1,0,0:0:0:0:
163,302,211436,1,0,1:0:0:0:
37,330,211607,1,10,0:0:0:0:
163,302,211778,1,0,0:0:0:0:
392,222,211948,6,0,L|420:107,1,105.600003222656,2|0,1:0|0:0,0:0:0:0:
277,183,212289,1,10,0:0:0:0:
232,209,212374,1,0,0:0:0:0:
213,257,212459,1,0,0:0:0:0:
228,306,212544,1,0,0:0:0:0:
271,336,212629,1,2,0:0:0:0:
413,249,212800,2,0,L|297:259,2,105.600003222656,0|10|2,1:0|0:0|0:0,0:0:0:0:
166,210,213312,6,0,P|97:175|117:48,1,211.200006445313,4|8,1:2|0:0,0:0:0:0:
278,22,213823,1,0,3:0:0:0:
225,18,213908,1,0,3:0:0:0:
172,14,213993,1,0,0:0:0:0:
321,72,214164,1,0,1:0:0:0:
92,339,214334,2,0,L|72:221,1,105.600003222656,10|0,0:0|0:0,0:0:0:0:
181,195,214675,6,0,L|312:181,1,105.600003222656,2|0,1:0|0:0,0:0:0:0:
421,248,215016,2,0,L|302:269,1,105.600003222656,8|0,0:0|3:0,0:0:0:0:
266,250,215272,1,0,3:0:0:0:
218,227,215357,1,2,0:0:0:0:
350,124,215528,2,0,L|226:147,2,105.600003222656,0|10|2,1:0|0:0|0:0,0:0:0:0:
189,93,216039,6,0,B|70:83|70:83|-1:8,1,211.200006445313,0|8,1:0|0:0,0:0:0:0:
163,25,216550,1,0,0:0:0:0:
215,31,216635,1,0,0:0:0:0:
267,38,216720,1,0,0:0:0:0:
114,111,216891,1,0,1:0:0:0:
246,206,217062,2,0,L|137:193,1,105.600003222656,10|0,0:0|0:0,0:0:0:0:
401,121,217403,6,0,P|451:167|371:260,1,211.200006445313,2|10,1:0|0:0,0:0:0:0:
249,258,217914,1,0,0:0:0:0:
356,364,218084,2,0,L|380:248,1,105.600003222656,2|0,0:0|1:0,0:0:0:0:
260,170,218425,2,0,L|123:186,1,105.600003222656,10|0,0:0|0:0,0:0:0:0:
423,45,218766,6,0,L|201:71,1,211.200006445313,4|8,1:2|0:0,0:0:0:0:
108,149,219278,2,0,L|93:211,1,52.8000016113282,0|0,0:0|0:0,0:0:0:0:
33,229,219448,2,0,L|52:356,1,105.600003222656,2|0,0:0|1:0,0:0:0:0:
375,163,219789,2,0,L|499:174,1,105.600003222656,8|0,0:0|0:0,0:0:0:0:
168,52,220130,5,2,1:2:0:0:
273,62,220300,1,0,0:0:0:0:
378,73,220470,1,8,0:0:0:0:
95,127,220641,2,0,P|54:173|124:288,1,211.200006445313,2|0,0:0|1:0,0:0:0:0:
397,355,221153,2,0,L|518:338,1,105.600003222656,10|0,0:0|0:0,0:0:0:0:
210,283,221494,6,0,L|204:172,1,105.600003222656,4|0,1:2|0:0,0:0:0:0:
315,46,221834,1,8,0:0:0:0:
362,64,221919,1,0,0:0:0:0:
382,112,222004,1,0,3:0:0:0:
362,159,222089,1,0,3:0:0:0:
315,178,222174,1,2,3:2:0:0:
192,184,222346,1,0,1:0:0:0:
315,178,222516,2,0,L|427:178,1,105.600003222656,10|0,0:0|0:0,0:0:0:0:
90,207,222857,6,0,L|68:92,1,105.600003222656,2|0,1:0|0:0,0:0:0:0:
345,84,223198,2,0,L|456:83,1,105.600003222656,12|0,0:0|0:0,0:0:0:0:
296,141,223539,2,0,L|181:140,1,105.600003222656,2|0,0:0|1:0,0:0:0:0:
453,354,223880,2,0,L|466:239,1,105.600003222656,12|0,0:0|0:0,0:0:0:0:
208,224,224221,6,0,L|90:230,1,105.600003222656,4|0,1:0|0:0,0:0:0:0:
248,264,224562,1,8,0:0:0:0:
144,168,224732,1,0,0:0:0:0:
108,130,224817,1,0,0:0:0:0:
107,78,224902,1,0,0:0:0:0:
141,39,224987,1,0,0:0:0:0:
192,32,225072,1,0,1:0:0:0:
480,128,225244,2,0,L|368:120,1,105.600003222656,8|0,0:0|0:0,0:0:0:0:
24,344,225584,6,0,L|16:224,1,105.600003222656,2|0,1:2|0:0,0:0:0:0:
112,160,225925,1,8,0:0:0:0:
224,192,226096,2,0,L|200:256,1,52.8000016113282,0|0,3:0|3:0,0:0:0:0:
128,272,226266,2,0,L|136:328,1,52.8000016113282,2|0,0:0|0:0,0:0:0:0:
368,336,226437,2,0,L|488:352,2,105.600003222656,0|10|0,1:0|0:0|0:0,0:0:0:0:
216,248,226948,6,0,L|440:224,1,211.200006445313,4|8,1:2|0:0,0:0:0:0:
296,48,227459,1,0,3:0:0:0:
260,85,227544,1,0,3:0:0:0:
255,136,227629,1,0,0:0:0:0:
285,179,227714,1,0,0:0:0:0:
335,193,227799,1,0,1:0:0:0:
208,272,227971,2,0,L|88:280,1,105.600003222656,8|0,0:0|0:0,0:0:0:0:
456,200,228312,6,0,L|480:88,1,105.600003222656,0|0,1:0|0:0,0:0:0:0:
344,320,228653,2,0,L|336:192,1,105.600003222656,8|0,0:0|0:0,0:0:0:0:
40,96,228994,2,0,L|152:112,1,105.600003222656,0|0,0:0|1:0,0:0:0:0:
464,56,229334,2,0,L|352:72,1,105.600003222656,8|0,0:0|0:0,0:0:0:0:
88,120,229675,6,0,P|32:176|112:256,1,211.200006445313,0|8,1:0|0:0,0:0:0:0:
240,184,230187,1,0,3:0:0:0:
187,184,230272,1,0,3:0:0:0:
134,184,230357,1,0,0:0:0:0:
288,112,230528,2,0,L|160:112,2,105.600003222656,0|8|0,1:0|0:0|0:0,0:0:0:0:
24,40,231039,6,0,B|224:80|144:192|8:160|16:224|80:288|240:200,1,422.400012890625,2|2,1:2|0:0,0:0:0:0:
88,328,231891,2,0,L|24:336,1,52.8000016113282,0|0,1:0|0:0,0:0:0:0:
344,280,232062,2,0,L|464:296,1,105.600003222656,10|0,0:0|0:0,0:0:0:0:
168,224,232403,6,0,P|128:168|232:72,1,211.200006445313,4|8,1:2|0:0,0:0:0:0:
344,72,232914,1,0,3:0:0:0:
383,105,232999,1,0,3:0:0:0:
389,156,233084,1,0,0:0:0:0:
359,198,233169,1,0,0:0:0:0:
309,209,233254,1,0,1:0:0:0:
168,224,233425,2,0,L|192:344,1,105.600003222656,8|0,0:0|0:1,0:0:0:0:
472,256,233766,6,0,L|352:272,1,105.600003222656,0|0,1:0|0:0,0:0:0:0:
240,216,234107,2,0,L|248:144,1,52.8000016113282,8|0,0:0|0:0,0:0:0:0:
312,144,234278,2,0,L|304:64,1,52.8000016113282,0|0,0:0|0:0,0:0:0:0:
136,64,234448,2,0,L|32:80,3,105.600003222656,0|0|8|0,0:0|1:0|0:0|0:0,0:0:0:0:
312,128,235130,6,0,P|384:160|400:288,1,211.200006445313,4|8,1:0|0:0,0:0:0:0:
296,328,235641,1,0,3:0:0:0:
243,331,235726,1,0,3:0:0:0:
190,334,235811,1,0,0:0:0:0:
352,272,235982,1,0,1:0:0:0:
240,200,236153,2,0,L|368:192,1,105.600003222656,8|0,0:0|0:0,0:0:0:0:
80,168,236494,6,0,L|48:64,1,105.600003222656,0|0,1:0|0:0,0:0:0:0:
176,128,236834,1,8,0:0:0:0:
218,156,236919,1,0,0:0:0:0:
234,206,237004,1,0,3:0:0:0:
214,254,237089,1,0,3:0:0:0:
169,279,237174,1,0,0:0:0:0:
56,296,237346,1,0,1:0:0:0:
168,360,237516,2,0,L|56:360,1,105.600003222656,8|0,0:0|0:0,0:0:0:0:
224,312,237857,6,0,P|280:272|192:168,1,211.200006445313,0|8,1:0|0:0,0:0:0:0:
136,152,238369,2,0,L|56:144,2,52.8000016113282,0|0|0,3:0|3:0|0:0,0:0:0:0:
256,112,238709,1,0,1:0:0:0:
120,240,238880,2,0,L|136:360,1,105.600003222656,8|0,0:0|0:0,0:0:0:0:
280,280,239221,6,0,L|416:288,1,105.600003222656,0|0,1:0|0:0,0:0:0:0:
224,192,239562,2,0,L|208:80,1,105.600003222656,8|0,0:0|3:0,0:0:0:0:
336,192,239903,2,0,L|304:312,1,105.600003222656,0|0,0:0|1:0,0:0:0:0:
16,80,240244,2,0,L|128:80,1,105.600003222656,8|0,0:0|3:0,0:0:0:0:
464,360,240584,6,0,L|472:240,1,105.600003222656,4|0,1:3|0:0,0:0:0:0:
424,224,240840,1,4,1:3:0:0:
248,192,240925,1,0,0:0:0:0:
344,128,241096,2,0,L|456:128,2,105.600003222656,8|2|0,0:0|0:3|1:0,0:0:0:0:
88,56,241607,2,0,L|224:56,1,105.600003222656,8|0,0:0|1:0,0:0:0:0:
64,136,241948,6,0,L|48:256,1,105.600003222656,4|4,1:2|1:2,0:0:0:0:
152,312,242289,1,0,3:0:0:0:
384,200,242459,2,0,L|144:224,1,211.200006445313,8|0,0:0|1:0,0:0:0:0:
432,64,242971,2,0,L|432:176,1,105.600003222656,8|0,0:0|1:0,0:0:0:0:
168,352,243312,6,0,P|152:272|208:224,1,129.599996044922,4|0,1:0|0:0,0:0:0:0:
232,216,243653,2,0,L|336:208,1,86.3999973632813,2|2,0:0|0:0,0:0:0:0:
176,152,243994,2,0,L|160:64,1,86.3999973632813,2|2,0:0|0:0,0:0:0:0:
272,160,244334,2,0,L|256:264,1,86.3999973632813,2|0,0:0|0:0,0:0:0:0:
136,312,244675,5,2,0:0:0:0:
288,312,244846,1,0,0:0:0:0:
192,240,245016,1,2,0:0:0:0:
235,240,245101,1,0,0:0:0:0:
278,240,245186,1,0,0:0:0:0:
321,240,245271,1,0,0:0:0:0:
364,240,245356,1,2,0:0:0:0:
208,160,245528,2,0,L|312:160,1,86.3999973632813,0|2,0:0|0:0,0:0:0:0:
160,120,245869,1,0,0:0:0:0:
424,64,246039,6,0,P|488:120|416:176,1,172.799994726563,4|8,1:0|0:0,0:0:0:0:
328,184,246550,1,0,3:0:0:0:
288,200,246635,1,0,3:0:0:0:
268,237,246720,1,2,0:0:0:0:
275,279,246805,1,0,0:0:0:0:
307,307,246890,1,0,1:0:0:0:
464,256,247062,2,0,L|368:256,1,86.3999973632813,10|0,0:0|0:0,0:0:0:0:
240,160,247403,6,0,L|344:160,1,86.3999973632813,2|0,1:2|0:0,0:0:0:0:
184,120,247744,1,10,0:0:0:0:
141,115,247829,1,0,0:0:0:0:
106,90,247914,1,0,3:0:0:0:
88,51,247999,1,0,3:0:0:0:
92,8,248084,1,2,0:0:0:0:
192,0,248255,2,0,L|288:0,2,86.3999973632813,0|10|0,1:0|0:0|0:0,0:0:0:0:
320,80,248766,6,0,L|224:80,1,86.3999973632813,4|0,1:2|0:0,0:0:0:0:
368,144,249107,2,0,P|424:168|432:280,1,172.799994726563,8|0,0:0|0:0,0:0:0:0:
360,328,249619,1,0,1:0:0:0:
256,248,249789,2,0,L|352:248,1,86.3999973632813,10|2,0:0|0:0,0:0:0:0:
64,192,250130,6,0,P|32:144|104:64,1,172.799994726563,4|8,1:2|0:0,0:0:0:0:
192,40,250641,2,0,L|376:48,2,172.799994726563,2|2|2,0:0|1:2|0:0,0:0:0:0:
312,120,251494,6,0,L|304:216,1,86.3999973632813,0|0,1:0|0:0,0:0:0:0:
200,248,251834,1,8,0:0:0:0:
181,286,251919,1,0,0:0:0:0:
184,329,252004,1,0,3:0:0:0:
208,364,252089,1,0,3:0:0:0:
246,383,252174,1,0,0:0:0:0:
360,344,252346,1,0,1:0:0:0:
264,248,252516,2,0,L|384:248,1,86.3999973632813,8|0,0:0|0:0,0:0:0:0:
208,192,252857,6,0,L|24:192,1,172.799994726563,0|10,1:0|0:0,0:0:0:0:
136,104,253369,2,0,L|192:104,1,43.1999986816407,0|0,0:0|0:0,0:0:0:0:
360,56,253539,2,0,L|264:56,1,86.3999973632813,2|0,0:0|1:0,0:0:0:0:
416,128,253880,2,0,L|448:240,1,86.3999973632813,10|0,0:0|0:0,0:0:0:0:
144,352,254221,6,0,P|80:288|128:200,1,172.799994726563,2|10,1:2|0:0,0:0:0:0:
208,184,254732,1,0,3:0:0:0:
320,160,254903,2,0,P|352:96|288:24,1,172.799994726563,12|10,0:0|0:0,0:0:0:0:
200,16,255414,1,0,0:0:0:0:
480,160,255584,6,0,L|464:280,1,86.3999973632813,0|2,1:0|0:3,0:0:0:0:
344,272,255925,2,0,L|368:368,1,86.3999973632813,10|0,0:0|3:0,0:0:0:0:
232,288,256266,1,2,0:0:0:0:
171,231,256436,1,0,1:0:0:0:
186,149,256606,1,12,0:0:0:0:
262,117,256777,1,0,1:0:0:0:
16,48,256948,5,4,1:0:0:0:
256,192,257119,12,4,259675,0:0:0:0:
256,192,276039,12,2,278425,0:0:0:0:
144,64,278766,6,0,P|80:104|168:232,1,259.199992089844,2|0,1:2|0:0,0:0:0:0:
464,240,279448,1,2,1:2:0:0:
344,120,279789,6,0,L|152:136,3,172.799994726563
432,304,281153,6,0,L|256:288,3,172.799994726563
64,336,282516,6,0,L|96:152,3,172.799994726563
280,232,283880,6,0,L|232:32,3,172.799994726563
432,224,285244,6,0,L|464:48,1,172.799994726563,0|2,0:0|0:0,0:0:0:0:
288,296,285925,2,0,L|472:312,1,172.799994726563,0|0,0:0|0:0,0:0:0:0:
40,344,286607,1,0,0:0:0:0:
440,256,286948,6,0,L|456:120,1,105.600003222656,4|0,1:0|0:0,0:0:0:0:
168,80,287289,1,8,0:0:0:0:
280,136,287459,1,0,3:0:0:0:
314,174,287544,1,0,3:0:0:0:
315,225,287629,1,0,0:0:0:0:
282,265,287714,1,0,0:0:0:0:
231,273,287799,1,0,1:0:0:0:
80,368,287971,2,0,L|200:360,1,105.600003222656,8|0,0:0|0:0,0:0:0:0:
440,272,288312,6,0,L|288:264,1,105.600003222656,2|0,1:2|0:0,0:0:0:0:
208,256,288653,1,8,0:0:0:0:
336,192,288823,2,0,L|344:120,1,52.8000016113282,0|0,3:0|3:0,0:0:0:0:
280,96,288994,1,2,0:0:0:0:
273,43,289079,1,0,0:0:0:0:
266,0,289164,1,0,1:0:0:0:
496,312,289334,2,0,L|384:304,1,105.600003222656,10|0,0:0|0:0,0:0:0:0:
88,216,289675,6,0,L|312:200,1,211.200006445313,6|8,1:2|0:0,0:0:0:0:
192,152,290187,1,0,3:0:0:0:
184,99,290272,1,0,3:0:0:0:
177,47,290357,1,0,0:0:0:0:
304,96,290528,1,0,1:0:0:0:
160,160,290698,1,8,0:0:0:0:
122,196,290783,1,0,0:0:0:0:
106,246,290868,1,0,0:0:0:0:
116,297,290953,1,0,0:0:0:0:
319,350,291039,6,0,L|438:358,1,105.600003222656,0|0,1:0|0:0,0:0:0:0:
152,118,291379,2,0,L|39:138,1,105.600003222656,8|0,0:0|3:0,0:0:0:0:
211,62,291721,2,0,L|342:80,2,105.600003222656,0|0|8,0:0|1:0|0:0,0:0:0:0:
488,32,292232,1,0,0:0:0:0:
224,136,292403,6,0,P|160:184|240:280,1,211.200006445313,0|8,1:0|0:0,0:0:0:0:
336,368,292914,1,0,3:0:0:0:
339,315,292999,1,0,3:0:0:0:
343,262,293084,1,0,0:0:0:0:
248,200,293255,1,0,1:0:0:0:
416,136,293425,2,0,L|296:128,1,105.600003222656,8|0,0:0|0:0,0:0:0:0:
32,32,293766,6,0,L|248:48,1,211.200006445313,2|8,1:2|0:0,0:0:0:0:
368,120,294278,2,0,L|336:168,1,52.8000016113282,0|0,3:0|3:0,0:0:0:0:
272,184,294448,2,0,L|280:272,1,52.8000016113282,2|0,0:0|0:0,0:0:0:0:
464,336,294619,2,0,L|336:344,2,105.600003222656,0|10|0,1:0|0:0|0:0,0:0:0:0:
168,272,295130,6,0,P|96:216|192:128,1,211.200006445313,6|8,1:2|0:0,0:0:0:0:
272,48,295641,1,0,3:0:0:0:
264,100,295726,1,0,3:0:0:0:
257,152,295811,1,0,0:0:0:0:
136,192,295982,1,0,1:0:0:0:
304,128,296153,2,0,L|432:128,1,105.600003222656,8|0,0:0|0:0,0:0:0:0:
120,40,296494,6,0,L|136:144,1,105.600003222656,0|0,1:0|0:0,0:0:0:0:
256,192,296835,1,8,0:0:0:0:
285,234,296920,1,0,0:0:0:0:
281,286,297005,1,0,3:0:0:0:
246,323,297090,1,0,3:0:0:0:
195,331,297175,1,0,0:0:0:0:
336,168,297346,2,0,L|480:176,2,105.600003222656,0|8|0,1:0|0:0|0:0,0:0:0:0:
56,88,297857,6,0,L|272:96,1,211.200006445313,4|8,1:0|0:0,0:0:0:0:
384,159,298369,1,0,3:0:0:0:
375,211,298454,1,0,3:0:0:0:
367,263,298539,1,0,0:0:0:0:
248,320,298709,1,0,1:0:0:0:
384,368,298880,2,0,L|497:377,1,105.600003222656,8|0,0:0|0:0,0:0:0:0:
248,192,299221,6,0,L|96:184,1,105.600003222656,0|0,1:0|0:0,0:0:0:0:
32,128,299562,1,8,0:0:0:0:
1,86,299647,1,0,0:0:0:0:
7,35,299732,1,0,3:0:0:0:
46,2,299817,1,0,3:0:0:0:
98,5,299902,1,0,0:0:0:0:
216,80,300073,2,0,L|344:80,2,105.600003222656,0|8|0,1:0|0:0|0:0,0:0:0:0:
472,344,300584,6,0,P|496:280|392:192,1,211.200006445313,0|8,1:0|0:0,0:0:0:0:
288,208,301096,2,0,L|224:216,2,52.8000016113282,0|0|0,3:0|3:0|0:0,0:0:0:0:
160,120,301437,2,0,L|280:128,2,105.600003222656,0|8|0,1:0|0:0|0:0,0:0:0:0:
432,56,301948,6,0,L|408:160,1,105.600003222656,0|0,1:0|0:0,0:0:0:0:
304,192,302289,2,0,P|240:256|328:336,1,211.200006445313,8|0,0:0|0:0,0:0:0:0:
432,368,302800,1,0,1:0:0:0:
439,315,302885,1,0,0:0:0:0:
446,263,302970,1,8,0:0:0:0:
336,216,303141,1,0,0:0:0:0:
48,192,303312,6,0,P|24:120|160:48,1,211.200006445313,0|8,1:0|0:0,0:0:0:0:
258,130,303823,1,0,3:0:0:0:
205,127,303908,1,0,3:0:0:0:
152,124,303993,1,0,0:0:0:0:
312,80,304164,1,0,1:0:0:0:
192,168,304334,1,8,0:0:0:0:
152,201,304419,1,0,0:0:0:0:
143,252,304504,1,0,0:0:0:0:
168,297,304589,1,0,0:0:0:0:
400,360,304675,6,0,L|520:352,2,105.600003222656,0|0|8,1:0|0:0|0:0,0:0:0:0:
160,160,305187,2,0,L|376:184,1,211.200006445313,0|0,3:0|1:0,0:0:0:0:
48,112,305698,2,0,L|32:8,1,105.600003222656,8|0,0:0|0:0,0:0:0:0:
336,120,306039,6,0,L|208:128,2,105.600003222656,0|2|10,1:0|0:0|0:0,0:0:0:0:
192,200,306550,1,0,3:0:0:0:
147,226,306635,1,0,3:0:0:0:
132,275,306720,1,2,0:0:0:0:
153,322,306805,1,0,0:0:0:0:
200,343,306890,1,0,1:0:0:0:
320,368,307062,2,0,L|432:360,1,105.600003222656,10|2,0:0|0:0,0:0:0:0:
128,288,307403,6,0,L|0:280,1,105.600003222656,2|0,1:3|0:0,0:0:0:0:
304,200,307744,2,0,L|160:192,1,105.600003222656,12|0,0:0|3:0,0:0:0:0:
368,144,308084,2,0,L|408:32,1,105.600003222656,8|4,0:3|0:3,0:0:0:0:
64,72,308425,2,0,L|80:192,1,105.600003222656,8|0,0:1|0:0,0:0:0:0:
360,288,308766,6,0,L|224:304,2,105.600003222656,4|0|8,1:0|0:0|0:0,0:0:0:0:
232,240,309278,1,2,3:2:0:0:
197,201,309363,1,0,0:0:0:0:
192,149,309448,1,0,0:0:0:0:
220,106,309533,1,0,0:0:0:0:
268,88,309618,1,0,1:0:0:0:
392,72,309789,2,0,L|504:88,1,105.600003222656,8|2,0:2|0:0,0:0:0:0:
168,40,310130,6,0,B|64:80|144:112|240:120|304:176|168:256|64:296|8:232,1,422.400012890625,4|4,1:2|0:2,0:0:0:0:
128,176,310982,2,0,L|192:168,1,52.8000016113282,2|0,1:2|0:0,0:0:0:0:
408,304,311153,2,0,L|280:296,1,105.600003222656,12|2,0:2|0:0,0:0:0:0:
456,208,311494,6,0,L|336:200,1,105.600003222656,4|2,1:2|0:2,0:0:0:0:
224,184,311834,1,8,0:0:0:0:
328,144,312005,1,0,3:0:0:0:
371,116,312090,1,0,3:0:0:0:
384,67,312175,1,2,0:3:0:0:
357,22,312260,1,0,0:0:0:0:
307,10,312345,1,0,1:0:0:0:
184,96,312516,2,0,L|296:88,1,105.600003222656,2|0,1:3|0:0,0:0:0:0:
112,248,312857,6,0,L|88:128,1,105.600003222656,2|0,1:2|0:0,0:0:0:0:
424,256,313198,2,0,L|296:264,1,105.600003222656,10|0,0:2|3:0,0:0:0:0:
456,184,313539,2,0,L|336:192,2,105.600003222656,2|0|10,0:2|1:0|0:2,0:0:0:0:
80,112,314050,1,2,0:2:0:0:
312,40,314221,6,0,P|384:96|296:160,1,211.200006445313,0|8,1:0|0:0,0:0:0:0:
176,184,314732,2,0,L|192:272,1,52.8000016113282,0|0,3:0|0:0,0:0:0:0:
248,264,314903,1,0,0:0:0:0:
120,336,315073,2,0,L|248:344,2,105.600003222656,0|8|2,1:0|0:2|0:0,0:0:0:0:
392,280,315584,6,0,P|448:216|368:136,1,211.200006445313,4|10,1:2|0:2,0:0:0:0:
272,128,316096,1,2,3:2:0:0:
219,131,316181,1,2,3:2:0:0:
166,135,316266,1,4,0:2:0:0:
256,200,316437,1,2,1:2:0:0:
120,288,316607,2,0,L|104:160,1,105.600003222656,12|2,0:2|0:2,0:0:0:0:
356,36,316948,6,0,P|380:124|268:188,1,211.200006445313,4|8,1:2|0:0,0:0:0:0:
192,328,317459,1,0,3:0:0:0:
188,275,317544,1,0,0:0:0:0:
184,222,317629,1,0,0:0:0:0:
304,344,317800,1,0,1:0:0:0:
192,328,317971,2,0,L|72:336,1,105.600003222656,10|0,0:2|0:0,0:0:0:0:
384,248,318312,6,0,L|496:264,1,105.600003222656,2|0,1:2|0:0,0:0:0:0:
328,184,318653,1,10,0:2:0:0:
288,151,318738,1,0,0:0:0:0:
280,100,318823,1,2,3:3:0:0:
310,57,318908,1,0,3:0:0:0:
360,46,318993,1,2,0:2:0:0:
56,32,319164,2,0,L|168:40,2,105.600003222656,2|10|2,1:3|0:2|0:2,0:0:0:0:
408,264,319675,6,0,P|448:192|352:120,1,211.200006445313,4|8,1:0|0:0,0:0:0:0:
232,112,320187,2,0,L|160:120,2,52.8000016113282,0|0|2,3:3|3:0|0:3,0:0:0:0:
344,96,320528,1,0,1:0:0:0:
208,184,320698,2,0,L|224:296,1,105.600003222656,10|0,0:2|0:0,0:0:0:0:
480,352,321039,6,0,L|344:368,1,105.600003222656,2|0,1:2|0:0,0:0:0:0:
256,328,321380,1,10,0:2:0:0:
217,293,321465,1,0,0:0:0:0:
208,242,321550,1,0,3:0:0:0:
235,198,321635,1,0,3:0:0:0:
284,181,321720,1,2,0:2:0:0:
384,176,321891,1,0,1:0:0:0:
272,96,322062,2,0,L|392:88,1,105.600003222656,10|2,0:2|0:2,0:0:0:0:
80,56,322403,6,0,P|32:112|112:208,1,211.200006445313,0|8,1:0|0:0,0:0:0:0:
200,240,322914,2,0,L|296:232,2,52.8000016113282,0|0|0,3:0|3:0|0:0,0:0:0:0:
102,207,323255,1,2,1:3:0:0:
248,160,323425,2,0,L|360:152,1,105.600003222656,10|0,0:2|0:0,0:0:0:0:
32,136,323766,6,0,L|24:0,1,105.600003222656,0|2,1:2|0:2,0:0:0:0:
256,248,324107,2,0,L|368:264,1,105.600003222656,10|0,0:2|3:2,0:0:0:0:
256,136,324448,2,0,L|136:168,1,105.600003222656,2|2,0:2|1:2,0:0:0:0:
464,304,324789,2,0,L|488:184,1,105.600003222656,8|2,0:2|0:2,0:0:0:0:
96,304,325130,6,0,L|88:184,1,105.600003222656,4|0,1:3|0:0,0:0:0:0:
136,168,325386,1,2,1:2:0:0:
312,136,325471,1,0,0:0:0:0:
216,72,325642,2,0,L|104:72,2,105.600003222656,10|8|2,0:2|0:0|1:3,0:0:0:0:
472,0,326153,2,0,L|336:0,1,105.600003222656,8|2,0:0|1:3,0:0:0:0:
496,80,326494,6,0,L|512:200,1,105.600003222656,6|6,1:3|1:3,0:0:0:0:
408,256,326835,1,10,0:2:0:0:
176,144,327005,2,0,L|416:168,1,211.200006445313,2|2,0:2|1:2,0:0:0:0:
128,8,327517,2,0,L|128:120,1,105.600003222656,8|2,0:0|1:2,0:0:0:0:
456,216,327857,5,4,1:0:0:0:
256,192,328198,12,2,330244,0:0:0:0:
104,48,330584,6,0,P|64:88|128:184,1,172.799994726563,6|8,1:2|0:0,0:0:0:0:
224,200,331096,2,0,P|272:232|208:328,1,172.799994726563,2|0,0:0|1:0,0:0:0:0:
136,336,331607,1,8,0:2:0:0:
304,224,331948,2,0,L|200:224,1,86.3999973632813,0|2,1:0|0:0,0:0:0:0:
32,120,332459,2,0,L|128:120,1,86.3999973632813,0|2,0:0|0:0,0:0:0:0:
248,224,332971,1,8,0:2:0:0:
56,200,333312,6,0,P|16:144|88:64,1,172.799994726563,2|8,1:2|0:0,0:0:0:0:
184,40,333823,2,0,L|360:56,1,172.799994726563,2|0,0:2|1:0,0:0:0:0:
272,104,334334,1,8,0:2:0:0:
448,224,334675,2,0,L|336:232,1,86.3999973632813,0|2,1:0|0:0,0:0:0:0:
232,312,335187,2,0,L|320:320,1,86.3999973632813,0|2,0:0|0:0,0:0:0:0:
128,232,335698,1,10,0:2:0:0:
360,72,336039,6,0,B|376:184|376:184|344:272,1,172.799994726563,2|8,1:2|0:0,0:0:0:0:
232,304,336550,2,0,L|432:320,1,172.799994726563,2|0,0:0|1:0,0:0:0:0:
488,264,337062,1,10,0:2:0:0:
264,200,337403,2,0,L|232:112,1,86.3999973632813,0|2,1:0|0:0,0:0:0:0:
376,96,337914,2,0,L|400:8,1,86.3999973632813,0|2,0:0|0:0,0:0:0:0:
168,16,338425,1,10,0:0:0:0:
352,96,338766,6,0,P|416:128|408:240,1,172.799994726563,2|8,1:2|0:0,0:0:0:0:
312,240,339278,2,0,P|264:280|288:376,1,172.799994726563,2|0,0:0|1:0,0:0:0:0:
392,352,339789,1,8,0:2:0:0:
200,240,340130,2,0,L|96:224,1,86.3999973632813,0|2,1:0|0:0,0:0:0:0:
368,176,340641,2,0,L|456:160,1,86.3999973632813,0|2,0:0|0:0,0:0:0:0:
128,104,341153,1,14,0:0:0:0:
384,64,341494,5,4,1:0:0:0:
248,88,342005,1,0,0:0:0:0:
16,136,342516,1,2,0:0:0:0:
384,240,343028,1,2,0:0:0:0:
184,128,343539,2,0,L|384:144,1,172.799994726563,2|2,0:0|0:0,0:0:0:0:
112,224,344221,5,2,0:0:0:0:
360,200,344732,2,0,L|384:96,1,86.3999973632813,2|0,0:0|0:0,0:0:0:0:
200,144,345244,2,0,L|176:40,1,86.3999973632813,2|0,0:0|0:0,0:0:0:0:
408,224,345755,1,2,0:0:0:0:
128,264,346266,1,2,0:0:0:0:
336,304,346607,1,2,0:0:0:0:
144,48,346948,6,0,P|80:104|176:216,1,259.199992089844,2|2,0:0|0:0,0:0:0:0:
416,352,347971,2,0,P|464:288|352:192,1,259.199992089844,2|2,0:0|0:0,0:0:0:0:
104,144,348994,2,0,L|304:128,1,172.799994726563,2|2,0:0|0:0,0:0:0:0:
440,96,349675,5,2,0:0:0:0:
232,128,350187,1,2,0:0:0:0:
448,208,350698,1,2,0:0:0:0:
176,288,351209,1,2,0:0:0:0:
400,224,351721,2,0,L|472:48,1,172.799994726563,2|2,0:0|0:0,0:0:0:0:
48,48,352403,5,0,0:0:0:0:
256,192,352744,12,0,359221,0:0:0:0:
