osu file format v14

[General]
AudioFilename: tomatotomato.mp3
AudioLeadIn: 0
PreviewTime: 200698
Countdown: 0
SampleSet: Soft
StackLeniency: 0.3
Mode: 0
LetterboxInBreaks: 0
EpilepsyWarning: 1
WidescreenStoryboard: 1

[Editor]
Bookmarks: 22403,44221,68766,90585,112403,134221,156039,180585,202403,224221,246039,254221,259675,286948,308766,330585,340812,341153,352403
DistanceSpacing: 1.8
BeatDivisor: 4
GridSize: 16
TimelineZoom: 1.8

[Metadata]
Title:Okaerinasai (tomatomerde Remix)
TitleUnicode:おかえりなさい (tomatomerde Remix)
Artist:Sakamoto Maaya
ArtistUnicode:坂本真綾
Creator:Rizen
Version:Departure
Source:たまゆら~hitotose~
Tags:Tamayura&Bass New Zealand NZ collaboration moph
BeatmapID:928677
BeatmapSetID:395642

[Difficulty]
HPDrainRate:6
CircleSize:4
OverallDifficulty:8
ApproachRate:9
SliderMultiplier:2
SliderTickRate:1

[Events]
//Background and Video events
0,0,"welcome home.jpg",0,0
//Break Periods
2,137148,154075
2,259875,275439
//Storyboard Layer 0 (Background)
//Storyboard Layer 1 (Fail)
//Storyboard Layer 2 (Pass)
//Storyboard Layer 3 (Foreground)
//Storyboard Sound Samples

[TimingPoints]
585,340.909090909091,4,2,1,75,1,0
44221,-100,4,2,1,55,0,0
90585,-90.9090909090909,4,2,1,75,0,1
131494,-151.515151515152,4,2,1,55,0,0
156039,-100,4,2,1,55,0,0
202403,-90.9090909090909,4,2,1,75,0,1
243312,-111.111111111111,4,2,1,55,0,0
243653,-111.111111111111,4,2,1,10,0,0
243823,-111.111111111111,4,2,1,20,0,0
243994,-111.111111111111,4,2,1,30,0,0
244164,-111.111111111111,4,2,1,40,0,0
244335,-111.111111111111,4,2,1,50,0,0
244675,-111.111111111111,4,2,1,55,0,0
278766,-142.857142857143,4,2,1,35,0,0
279363,-142.857142857143,4,2,1,15,0,0
279448,-142.857142857143,4,2,1,50,0,0
280130,-166.666666666667,4,2,1,20,0,0
281494,-200,4,2,1,15,0,0
282857,-250,4,2,1,10,0,0
284221,-333.333333333333,4,2,1,5,0,0
285244,-142.857142857143,4,2,1,45,0,0
286948,-90.9090909090909,4,2,1,75,0,1
327857,-151.515151515152,4,2,1,55,0,0
330414,-151.515151515152,4,2,1,5,0,0
330585,-166.666666666667,4,2,1,55,0,0
341494,-166.666666666667,4,2,1,25,0,0
360585,-166.666666666667,4,2,1,5,0,0

[Colours]
Combo1 : 218,162,255
Combo2 : 102,255,140
Combo3 : 145,194,255
Combo4 : 236,255,130

[HitObjects]
295,378,22403,6,0,L|312:280,1,100,0|0,1:0|0:0,0:0:0:0:
230,148,22744,1,8,0:0:0:0:
397,135,22914,1,2,0:0:0:0:
397,135,22999,1,2,0:0:0:0:
397,135,23085,2,0,P|391:86|362:46,1,100,2|0,0:0|1:0,0:0:0:0:
230,148,23425,2,0,P|182:134|134:146,1,100,8|0,0:0|0:0,0:0:0:0:
11,237,23766,5,0,0:0:0:0:
180,219,23937,1,0,0:0:0:0:
91,73,24107,2,0,P|58:109|49:157,1,100,8|2,0:0|0:0,0:0:0:0:
59,170,24363,1,2,0:0:0:0:
69,183,24448,1,2,0:0:0:0:
231,295,24619,1,0,1:0:0:0:
237,109,24789,2,0,L|221:10,1,100,8|0,0:0|0:0,0:0:0:0:
134,145,25130,6,0,P|159:186|202:210,1,100,0|0,1:0|0:0,0:0:0:0:
338,79,25471,1,8,0:0:0:0:
482,193,25641,2,0,L|495:241,2,50,2|2|2,0:0|0:0|0:0,0:0:0:0:
338,79,25982,1,0,1:0:0:0:
203,211,26153,2,0,P|253:212|298:192,1,100,8|0,0:0|0:0,0:0:0:0:
116,124,26494,5,0,0:0:0:0:
89,245,26664,1,0,0:0:0:0:
34,38,26835,1,8,0:0:0:0:
238,119,27005,1,2,0:0:0:0:
236,144,27090,1,2,0:0:0:0:
229,169,27176,1,2,0:0:0:0:
218,191,27261,1,2,0:0:0:0:
203,211,27346,1,2,0:0:0:0:
0,126,27516,2,0,P|4:77|34:38,1,100,8|2,0:0|0:0,0:0:0:0:
89,245,27857,6,0,L|76:344,1,100,0|0,1:0|0:0,0:0:0:0:
252,316,28198,1,8,0:0:0:0:
216,194,28369,1,2,0:0:0:0:
216,194,28454,1,2,0:0:0:0:
216,194,28539,1,2,0:0:0:0:
163,331,28710,1,0,1:0:0:0:
292,235,28880,2,0,P|302:187|284:142,1,100,8|0,0:0|0:0,0:0:0:0:
117,182,29221,6,0,L|216:194,1,100
366,274,29562,1,8,0:0:0:0:
499,172,29732,1,2,0:0:0:0:
502,147,29817,1,2,0:0:0:0:
504,122,29902,1,2,0:0:0:0:
506,96,29988,1,2,0:0:0:0:
509,71,30073,1,0,1:0:0:0:
328,148,30244,1,8,0:0:0:0:
440,312,30414,1,2,0:0:0:0:
249,250,30585,6,0,P|204:270|171:308,1,100,0|0,1:0|0:0,0:0:0:0:
271,365,30925,1,8,0:0:0:0:
160,194,31096,1,2,0:0:0:0:
160,194,31181,1,2,0:0:0:0:
160,194,31266,1,2,0:0:0:0:
59,376,31437,1,0,1:0:0:0:
249,250,31607,2,0,P|265:204|258:155,1,100,8|0,0:0|0:0,0:0:0:0:
80,139,31948,6,0,P|114:174|160:194,1,100,0|0,1:0|0:0,0:0:0:0:
268,36,32289,2,0,P|219:47|180:77,1,100,8|2,0:0|0:0,0:0:0:0:
177,92,32545,1,2,0:0:0:0:
174,107,32630,1,2,0:0:0:0:
249,251,32800,1,2,0:0:0:0:
366,99,32971,1,8,0:0:0:0:
161,194,33141,1,2,0:0:0:0:
357,214,33312,6,0,P|407:207|448:179,1,100,0|0,1:0|0:0,0:0:0:0:
492,42,33653,1,8,0:0:0:0:
366,99,33823,1,2,0:0:0:0:
366,99,33908,1,2,0:0:0:0:
366,99,33994,2,0,P|350:51|359:2,1,100,2|0,0:0|1:0,0:0:0:0:
448,179,34335,2,0,P|462:225|453:274,1,100,8|0,0:0|0:0,0:0:0:0:
274,250,34675,5,0,0:0:0:0:
180,96,34846,1,0,0:0:0:0:
359,215,35016,2,0,P|363:264|344:310,1,100,8|2,0:0|0:0,0:0:0:0:
332,320,35272,1,2,0:0:0:0:
321,330,35357,1,2,0:0:0:0:
175,230,35528,1,0,1:0:0:0:
32,331,35698,2,0,P|62:370|108:387,1,100,8|0,0:0|0:0,0:0:0:0:
175,230,36039,6,0,L|160:131,1,100,0|0,1:0|0:0,0:0:0:0:
256,20,36380,1,8,0:0:0:0:
352,131,36550,1,2,0:0:0:0:
352,131,36636,1,2,0:0:0:0:
352,131,36721,2,0,L|338:230,1,100,2|0,0:0|1:0,0:0:0:0:
224,368,37062,2,0,P|218:318|237:273,1,100,8|0,0:0|0:0,0:0:0:0:
352,131,37403,5,0,0:0:0:0:
422,300,37573,1,0,0:0:0:0:
255,167,37744,1,8,0:0:0:0:
453,95,37914,1,2,0:0:0:0:
458,119,37999,1,2,0:0:0:0:
458,143,38084,1,2,0:0:0:0:
453,167,38170,1,2,0:0:0:0:
442,189,38255,1,2,0:0:0:0:
254,166,38425,2,0,P|250:117|267:71,1,100,8|0,0:0|0:0,0:0:0:0:
337,230,38766,6,0,L|245:270,1,100,0|0,1:0|0:0,0:0:0:0:
74,198,39107,1,8,0:0:0:0:
97,383,39278,1,2,0:0:0:0:
97,383,39363,1,2,0:0:0:0:
97,383,39448,1,2,0:0:0:0:
162,236,39619,1,0,1:0:0:0:
101,86,39789,2,0,P|52:85|7:105,1,100,8|0,0:0|0:0,0:0:0:0:
162,236,40130,6,0,L|173:136,1,100
315,61,40471,1,8,0:0:0:0:
444,155,40641,1,2,0:0:0:0:
449,179,40726,1,2,0:0:0:0:
453,203,40812,1,2,0:0:0:0:
453,227,40897,1,2,0:0:0:0:
451,251,40982,1,0,1:0:0:0:
244,99,41153,1,8,0:0:0:0:
382,21,41323,1,0,0:0:0:0:
309,228,41494,6,0,L|209:240,1,100,0|0,1:0|0:0,0:0:0:0:
107,139,41835,1,8,0:0:0:0:
244,99,42005,1,2,0:0:0:0:
244,99,42090,1,2,0:0:0:0:
244,99,42175,1,2,0:0:0:0:
209,240,42346,1,0,1:0:0:0:
37,159,42516,2,0,L|51:59,1,100,8|0,0:0|0:0,0:0:0:0:
176,119,42857,5,0,1:0:0:0:
176,119,43028,1,2,0:0:0:0:
138,264,43198,2,0,P|187:273|234:256,1,100,8|2,0:0|0:0,0:0:0:0:
256,244,43454,1,2,0:0:0:0:
275,228,43539,1,2,0:0:0:0:
292,210,43624,1,2,0:0:0:0:
307,189,43710,1,2,0:0:0:0:
180,24,43880,2,0,P|164:72|176:120,1,100,8|0,0:0|0:0,0:0:0:0:
318,165,44221,6,0,L|117:183,1,200,4|8,0:0|0:0,0:0:0:0:
71,292,44732,2,0,P|119:303|166:290,2,100,0|0|0,0:0|0:0|1:0,0:0:0:0:
8,189,45244,2,0,L|22:89,1,100,8|0,0:0|0:0,0:0:0:0:
142,46,45585,5,0,0:0:0:0:
239,134,45755,1,0,0:0:0:0:
373,0,45925,2,0,L|273:11,1,100,8|2,0:0|0:0,0:0:0:0:
254,25,46181,1,2,0:0:0:0:
235,39,46266,2,0,P|224:87|239:134,1,100,2|0,0:0|1:0,0:0:0:0:
306,292,46607,2,0,L|326:194,1,100,8|0,0:0|0:0,0:0:0:0:
448,61,46948,6,0,B|430:158|430:158|446:209|418:256,1,200,0|8,1:0|0:0,0:0:0:0:
232,207,47460,1,0,0:0:0:0:
232,207,47545,1,0,0:0:0:0:
232,207,47630,2,0,P|277:187|326:194,1,100,0|0,0:0|1:0,0:0:0:0:
351,350,47971,2,0,P|305:369|256:365,1,100,8|0,0:0|0:0,0:0:0:0:
103,308,48312,5,0,0:0:0:0:
232,207,48482,1,2,0:0:0:0:
162,383,48653,1,8,0:0:0:0:
139,220,48823,1,2,0:0:0:0:
139,220,48908,1,2,0:0:0:0:
139,220,48994,1,2,0:0:0:0:
290,281,49164,1,0,1:0:0:0:
422,185,49334,1,8,0:0:0:0:
272,121,49505,1,2,0:0:0:0:
194,294,49675,6,0,P|288:321|376:280,1,200,0|8,1:0|0:0,0:0:0:0:
413,101,50187,1,0,0:0:0:0:
413,101,50272,1,0,0:0:0:0:
413,101,50357,1,0,0:0:0:0:
280,217,50528,1,0,1:0:0:0:
465,200,50698,1,8,0:0:0:0:
306,112,50869,1,0,0:0:0:0:
306,112,50954,1,0,0:0:0:0:
306,112,51039,6,0,P|256:111|211:131,1,100
89,270,51380,1,8,0:0:0:0:
275,311,51550,1,2,0:0:0:0:
275,311,51636,1,2,0:0:0:0:
275,311,51721,2,0,P|291:265|280:217,1,100,2|0,0:0|1:0,0:0:0:0:
131,75,52062,1,8,0:0:0:0:
89,270,52232,1,0,0:0:0:0:
280,216,52403,6,0,P|370:181|460:219,1,200,0|8,1:0|0:0,0:0:0:0:
381,379,52914,1,0,0:0:0:0:
381,379,52999,1,0,0:0:0:0:
381,379,53085,2,0,P|362:333|369:284,1,100,0|0,0:0|1:0,0:0:0:0:
473,322,53425,1,8,0:0:0:0:
270,361,53596,1,0,0:0:0:0:
270,361,53681,1,0,0:0:0:0:
270,361,53766,6,0,L|171:348,1,100,0|0,1:0|0:0,0:0:0:0:
54,371,54107,1,8,0:0:0:0:
0,262,54278,1,2,0:0:0:0:
6,227,54363,1,2,0:0:0:0:
11,192,54448,1,2,0:0:0:0:
54,371,54619,1,0,1:0:0:0:
182,255,54789,1,8,0:0:0:0:
11,192,54960,1,2,0:0:0:0:
172,349,55130,6,0,B|223:353|274:317|276:261|276:261|282:308,1,200,0|8,1:0|0:0,0:0:0:0:
401,370,55641,1,0,0:0:0:0:
401,370,55727,1,0,0:0:0:0:
401,370,55812,1,0,0:0:0:0:
362,177,55982,1,0,1:0:0:0:
182,255,56153,2,0,L|83:265,1,100,8|0,0:0|0:0,0:0:0:0:
0,142,56494,5,0,0:0:0:0:
81,11,56664,1,0,0:0:0:0:
161,139,56835,2,0,P|207:158|256:152,1,100,8|2,0:0|0:0,0:0:0:0:
276,138,57090,1,2,0:0:0:0:
297,124,57175,2,0,P|346:117|392:136,1,100,2|0,0:0|1:0,0:0:0:0:
323,310,57516,2,0,L|334:210,1,100,8|0,0:0|0:0,0:0:0:0:
223,54,57857,6,0,L|200:252,1,200,0|8,1:0|0:0,0:0:0:0:
86,292,58369,1,0,0:0:0:0:
86,292,58454,1,0,0:0:0:0:
86,292,58539,2,0,P|81:242|96:195,1,100,0|0,0:0|1:0,0:0:0:0:
210,349,58880,2,0,P|194:302|200:253,1,100,8|0,0:0|0:0,0:0:0:0:
381,278,59221,5,0,0:0:0:0:
308,118,59391,1,2,0:0:0:0:
290,292,59562,1,8,0:0:0:0:
453,221,59732,1,2,0:0:0:0:
453,221,59817,1,2,0:0:0:0:
453,221,59903,1,2,0:0:0:0:
251,192,60073,1,0,1:0:0:0:
335,371,60244,1,8,0:0:0:0:
453,221,60414,1,2,0:0:0:0:
277,104,60585,6,0,B|232:93|183:112|157:170|157:170|162:119,1,200,0|8,1:0|0:0,0:0:0:0:
171,16,61096,1,0,0:0:0:0:
171,16,61181,1,0,0:0:0:0:
171,16,61266,1,0,0:0:0:0:
251,192,61437,1,0,1:0:0:0:
63,177,61607,1,8,0:0:0:0:
260,82,61778,1,0,0:0:0:0:
260,82,61863,1,0,0:0:0:0:
260,82,61948,6,0,P|307:94|343:129,1,100
389,281,62289,1,8,0:0:0:0:
500,172,62460,1,2,0:0:0:0:
500,172,62545,1,2,0:0:0:0:
500,172,62630,2,0,P|511:123|499:75,1,100,2|0,0:0|1:0,0:0:0:0:
343,130,62971,2,0,L|247:101,1,100,8|0,0:0|0:0,0:0:0:0:
74,153,63312,6,0,P|32:224|115:225,1,200,0|8,1:0|0:0,0:0:0:0:
247,101,63823,1,0,0:0:0:0:
247,101,63908,1,0,0:0:0:0:
247,101,63994,2,0,L|233:200,1,100,0|0,0:0|1:0,0:0:0:0:
330,299,64335,1,8,0:0:0:0:
425,200,64505,1,0,0:0:0:0:
425,200,64590,1,0,0:0:0:0:
425,200,64676,6,0,L|410:101,1,100,0|0,1:0|0:0,0:0:0:0:
289,10,65016,2,0,P|240:0|193:15,1,100,8|2,0:0|0:0,0:0:0:0:
177,35,65272,1,2,0:0:0:0:
160,53,65357,2,0,P|112:67|64:58,1,100,2|0,0:0|1:0,0:0:0:0:
4,240,65698,1,8,0:0:0:0:
185,201,65869,1,0,0:0:0:0:
64,58,66039,5,0,1:0:0:0:
256,192,66124,12,8,67062,0:0:0:0:
300,280,67403,5,0,1:0:0:0:
354,169,67573,1,0,1:0:0:0:
154,134,67744,1,8,0:0:0:0:
168,256,67914,1,0,1:0:0:0:
268,74,68085,1,2,0:0:0:0:
274,55,68425,5,8,0:0:0:0:
138,124,68596,1,0,1:0:0:0:
300,280,68766,6,0,L|428:300,1,100,4|0,0:0|0:0,0:0:0:0:
512,192,69107,2,0,L|384:212,1,100,8|2,0:0|0:0,0:0:0:0:
398,202,69363,1,2,0:0:0:0:
383,197,69448,1,2,0:0:0:0:
304,124,69619,1,0,1:0:0:0:
440,20,69789,2,0,P|456:76|432:140,1,100,8|0,0:0|0:0,0:0:0:0:
236,180,70130,6,0,P|220:124|244:60,1,100,0|2,0:0|0:0,0:0:0:0:
308,40,70471,1,8,0:0:0:0:
140,128,70641,1,2,0:0:0:0:
125,122,70727,1,2,0:0:0:0:
110,116,70812,2,0,L|6:116,1,100,2|0,0:0|1:0,0:0:0:0:
76,288,71153,2,0,L|180:288,1,100,8|2,0:0|0:0,0:0:0:0:
320,212,71494,6,0,P|308:256|328:336,1,100,0|2,1:0|0:0,0:0:0:0:
324,320,71749,1,2,0:0:0:0:
336,328,71835,2,0,L|440:328,1,100,8|2,0:0|0:0,0:0:0:0:
468,212,72175,1,2,0:0:0:0:
444,360,72346,1,0,1:0:0:0:
400,132,72516,2,0,L|296:132,1,100,8|0,0:0|0:0,0:0:0:0:
116,40,72857,6,0,B|152:134|152:134|115:226,1,200,0|8,0:0|0:0,0:0:0:0:
224,336,73369,1,2,0:0:0:0:
224,336,73454,1,2,0:0:0:0:
224,336,73539,2,0,P|240:276|212:224,1,100,2|0,0:0|1:0,0:0:0:0:
24,324,73880,2,0,L|148:324,1,100,8|2,0:0|0:0,0:0:0:0:
320,296,74221,6,0,L|460:296,1,100,0|2,1:0|0:0,0:0:0:0:
432,304,74477,1,2,0:0:0:0:
444,312,74562,2,0,P|452:248|432:188,1,100,8|2,0:0|0:0,0:0:0:0:
384,88,74903,1,2,0:0:0:0:
300,196,75073,1,0,1:0:0:0:
480,132,75244,2,0,P|492:80|472:24,1,100,8|0,0:0|0:0,0:0:0:0:
264,52,75585,6,0,L|48:80,1,200,0|8,0:0|0:0,0:0:0:0:
148,252,76096,1,2,0:0:0:0:
148,252,76181,1,2,0:0:0:0:
148,252,76266,2,0,P|160:188|144:144,1,100,2|0,0:0|1:0,0:0:0:0:
8,304,76607,2,0,L|116:352,1,100,8|2,0:0|0:0,0:0:0:0:
236,344,76948,6,0,L|327:303,1,100,0|2,1:0|0:0,0:0:0:0:
340,312,77204,1,2,0:0:0:0:
352,320,77289,2,0,L|443:279,1,100,8|0,0:0|0:0,0:0:0:0:
476,176,77630,1,2,0:0:0:0:
328,148,77800,1,0,1:0:0:0:
412,16,77971,2,0,P|424:76|404:148,1,100,8|0,0:0|0:0,0:0:0:0:
248,224,78312,6,0,B|80:200|80:200|116:236,1,200,0|8,1:0|0:0,0:0:0:0:
168,312,78823,1,2,0:0:0:0:
168,312,78908,1,2,0:0:0:0:
168,312,78994,1,2,0:0:0:0:
160,128,79164,1,0,1:0:0:0:
14,275,79335,2,0,P|1:224|13:176,1,100,8|2,0:0|0:0,0:0:0:0:
245,78,79675,6,0,P|258:129|246:177,1,100,4|0,0:0|0:0,0:0:0:0:
101,221,80016,1,8,0:0:0:0:
48,32,80187,1,2,0:0:0:0:
55,44,80272,1,2,0:0:0:0:
62,56,80357,2,0,L|170:52,1,100,2|0,0:0|1:0,0:0:0:0:
340,100,80698,2,0,L|440:97,1,100,8|0,0:0|0:0,0:0:0:0:
420,296,81039,6,0,B|368:316|328:268|326:233|326:233|380:224|408:164,1,200,0|8,0:0|0:0,0:0:0:0:
448,104,81550,1,2,0:0:0:0:
448,104,81636,1,2,0:0:0:0:
448,104,81721,1,2,0:0:0:0:
508,260,81891,1,0,1:0:0:0:
324,236,82062,2,0,L|212:236,1,100,8|2,0:0|0:0,0:0:0:0:
36,308,82403,6,0,P|100:324|144:300,1,100,0|2,1:0|0:0,0:0:0:0:
140,300,82658,1,2,0:0:0:0:
148,288,82744,2,0,L|144:164,1,100,10|0,0:0|0:0,0:0:0:0:
144,68,83085,1,0,0:0:0:0:
52,208,83255,1,0,1:0:0:0:
228,156,83425,2,0,L|231:255,1,100,8|0,0:0|0:0,0:0:0:0:
176,56,83766,6,0,B|228:28|296:48|256:72|324:92|380:60,1,200,0|8,0:0|0:0,0:0:0:0:
460,196,84278,1,2,0:0:0:0:
470,206,84363,1,2,0:0:0:0:
480,216,84448,1,2,0:0:0:0:
336,164,84619,1,0,1:0:0:0:
452,16,84789,2,0,P|464:68|444:132,1,100,8|2,0:0|0:0,0:0:0:0:
384,248,85130,6,0,P|372:300|392:364,1,100,0|2,1:0|0:0,0:0:0:0:
389,357,85386,1,2,0:0:0:0:
397,368,85471,1,10,0:0:0:0:
496,292,85641,1,0,0:0:0:0:
292,324,85812,2,0,L|156:340,1,100,0|0,0:0|1:0,0:0:0:0:
36,300,86153,2,0,P|24:232|52:168,1,100,8|2,0:0|0:0,0:0:0:0:
278,139,86494,6,0,P|317:237|286:330,1,200,0|8,0:0|0:0,0:0:0:0:
120,248,87005,1,2,0:0:0:0:
120,248,87090,1,2,0:0:0:0:
120,248,87175,2,0,L|224:232,1,100,0|0,0:0|1:0,0:0:0:0:
393,291,87516,2,0,L|492:276,1,100,8|2,0:0|0:0,0:0:0:0:
464,124,87857,5,0,1:0:0:0:
464,124,88198,1,0,1:0:0:0:
100,305,88539,1,0,1:0:0:0:
100,305,88880,1,0,1:0:0:0:
100,305,89221,5,0,1:0:0:0:
118,201,89391,1,0,1:0:0:0:
190,336,89562,1,0,1:0:0:0:
248,159,89732,1,0,1:0:0:0:
274,368,89903,1,0,1:0:0:0:
390,114,90073,1,0,1:0:0:0:
118,201,90244,1,8,0:0:0:0:
118,201,90585,6,0,P|96:252|101:306,1,110.000003356934,4|0,0:0|0:0,0:0:0:0:
316,260,90925,1,8,0:0:0:0:
184,103,91096,1,2,0:0:0:0:
184,103,91181,1,2,0:0:0:0:
184,103,91266,1,2,0:0:0:0:
210,283,91437,1,0,1:0:0:0:
419,235,91607,2,0,L|431:126,1,110.000003356934,8|0,0:0|0:0,0:0:0:0:
316,260,91948,6,0,P|305:314|322:366,1,110.000003356934,0|0,1:0|0:0,0:0:0:0:
512,283,92289,1,8,0:0:0:0:
431,126,92460,1,2,0:0:0:0:
431,126,92545,1,2,0:0:0:0:
431,126,92630,1,2,0:0:0:0:
413,306,92800,1,0,1:0:0:0:
251,199,92971,2,0,P|234:147|249:95,1,110.000003356934,8|2,0:0|0:0,0:0:0:0:
431,126,93312,6,0,P|381:147|327:146,1,110.000003356934,0|0,1:0|0:0,0:0:0:0:
173,38,93653,1,8,0:0:0:0:
148,222,93823,1,2,0:0:0:0:
148,222,93908,1,2,0:0:0:0:
148,222,93994,2,0,P|147:250|154:277,1,55.0000016784668,2|2,0:0|0:0,0:0:0:0:
211,340,94164,1,0,1:0:0:0:
326,146,94335,2,0,L|216:137,1,110.000003356934,8|0,0:0|0:0,0:0:0:0:
403,60,94675,6,0,P|433:105|437:160,1,110.000003356934,0|0,1:0|0:0,0:0:0:0:
251,236,95016,2,0,P|220:190|216:136,1,110.000003356934,8|2,0:0|0:0,0:0:0:0:
255,71,95272,1,2,0:0:0:0:
255,71,95357,2,0,P|214:107|160:113,1,110.000003356934,2|0,0:0|1:0,0:0:0:0:
1,36,95698,1,8,0:0:0:0:
176,9,95869,1,0,0:0:0:0:
326,145,96039,6,0,L|336:254,1,110.000003356934,0|0,1:0|0:0,0:0:0:0:
178,341,96380,1,8,0:0:0:0:
70,195,96550,1,2,0:0:0:0:
70,195,96636,1,2,0:0:0:0:
70,195,96721,2,0,P|116:167|170:164,1,110.000003356934,2|0,0:0|1:0,0:0:0:0:
336,254,97062,2,0,P|289:282|233:285,1,110.000003356934,8|0,0:0|0:0,0:0:0:0:
171,164,97403,6,0,L|184:54,1,110.000003356934,0|0,1:0|0:0,0:0:0:0:
326,144,97744,2,0,L|336:254,1,110.000003356934,8|2,0:0|0:0,0:0:0:0:
367,275,97999,1,2,0:0:0:0:
398,297,98085,2,0,P|452:300|502:278,1,110.000003356934,2|0,0:0|1:0,0:0:0:0:
326,144,98425,2,0,P|272:137|224:162,1,110.000003356934,8|2,0:0|0:0,0:0:0:0:
197,192,98681,1,2,0:0:0:0:
173,222,98766,6,0,P|123:243|68:239,1,110.000003356934,0|0,1:0|0:0,0:0:0:0:
161,34,99107,1,8,0:0:0:0:
289,229,99278,1,2,0:0:0:0:
289,229,99363,1,2,0:0:0:0:
289,229,99448,1,2,0:0:0:0:
116,135,99619,1,0,1:0:0:0:
23,339,99789,2,0,P|75:350|128:333,1,110.000003356934,8|0,0:0|0:0,0:0:0:0:
221,128,100130,6,0,P|184:167|172:221,1,110.000003356934,0|2,1:0|0:0,0:0:0:0:
243,321,100471,2,0,L|349:349,1,110.000003356934,8|2,0:0|0:0,0:0:0:0:
386,336,100727,1,2,0:0:0:0:
422,323,100812,2,0,P|430:296|431:269,1,55.0000016784668,2|0,0:0|0:0,0:0:0:0:
383,172,100982,1,0,1:0:0:0:
243,321,101153,1,8,0:0:0:0:
177,121,101323,1,2,0:0:0:0:
383,171,101494,6,0,P|337:202|283:202,1,110.000003356934,4|0,0:0|0:0,0:0:0:0:
177,121,101835,2,0,L|182:230,1,110.000003356934,8|2,0:0|0:0,0:0:0:0:
163,264,102090,1,2,0:0:0:0:
144,297,102175,1,2,0:0:0:0:
12,172,102346,1,0,1:0:0:0:
99,364,102516,2,0,P|152:377|200:353,1,110.000003356934,8|0,0:0|0:0,0:0:0:0:
284,203,102857,6,0,L|389:232,1,110.000003356934,0|0,1:0|0:0,0:0:0:0:
358,30,103198,1,8,0:0:0:0:
189,132,103369,1,2,0:0:0:0:
189,132,103454,1,2,0:0:0:0:
189,132,103539,2,0,P|173:155|166:182,1,55.0000016784668,2|2,0:0|0:0,0:0:0:0:
207,288,103710,1,0,1:0:0:0:
340,135,103880,1,8,0:0:0:0:
361,329,104050,1,0,0:0:0:0:
136,359,104221,6,0,P|114:308|117:254,1,110.000003356934,0|0,1:0|0:0,0:0:0:0:
189,131,104562,1,8,0:0:0:0:
265,254,104732,1,2,0:0:0:0:
265,254,104817,1,2,0:0:0:0:
265,254,104903,2,0,P|308:221|327:170,1,110.000003356934,2|0,0:0|1:0,0:0:0:0:
144,35,105244,1,8,0:0:0:0:
117,254,105414,1,0,0:0:0:0:
327,170,105585,6,0,P|378:149|432:155,1,110.000003356934,0|2,1:0|0:0,0:0:0:0:
512,330,105925,1,8,0:0:0:0:
390,237,106096,1,2,0:0:0:0:
390,237,106181,1,2,0:0:0:0:
390,237,106266,1,2,0:0:0:0:
260,360,106437,1,0,1:0:0:0:
117,254,106607,2,0,L|108:144,1,110.000003356934,8|2,0:0|0:0,0:0:0:0:
262,65,106948,6,0,P|281:115|274:169,1,110.000003356934,0|0,1:0|0:0,0:0:0:0:
108,144,107289,1,8,0:0:0:0:
199,17,107460,1,2,0:0:0:0:
199,17,107545,1,2,0:0:0:0:
199,17,107630,2,0,L|308:5,1,110.000003356934,2|0,0:0|1:0,0:0:0:0:
384,178,107971,2,0,L|274:169,1,110.000003356934,8|0,0:0|0:0,0:0:0:0:
119,299,108312,6,0,L|228:287,1,110.000003356934,0|2,1:0|0:0,0:0:0:0:
261,283,108567,1,2,0:0:0:0:
294,281,108653,1,8,0:0:0:0:
478,245,108823,1,0,1:0:0:0:
493,210,108908,1,2,0:0:0:0:
497,173,108993,1,2,0:0:0:0:
494,143,109079,1,2,0:0:0:0:
485,106,109164,1,2,0:0:0:0:
274,169,109335,1,8,0:0:0:0:
317,384,109505,1,2,0:0:0:0:
389,158,109675,6,0,P|375:105|337:66,1,110.000003356934,0|2,1:0|0:0,0:0:0:0:
158,180,110016,2,0,L|137:288,1,110.000003356934,8|2,0:0|0:0,0:0:0:0:
130,326,110272,1,2,0:0:0:0:
123,363,110357,1,2,0:0:0:0:
289,264,110528,1,0,1:0:0:0:
454,362,110698,2,0,P|401:376|349:362,1,110.000003356934,8|2,0:0|0:0,0:0:0:0:
232,160,111039,5,0,1:0:0:0:
403,265,111210,1,2,0:0:0:0:
405,58,111380,1,10,0:0:0:0:
289,264,111551,1,2,0:0:0:0:
289,264,111636,1,2,0:0:0:0:
289,264,111721,1,2,0:0:0:0:
463,159,111891,1,0,1:0:0:0:
288,58,112062,1,8,0:0:0:0:
346,163,112232,1,2,0:0:0:0:
184,92,112403,6,0,L|12:144,1,165.000005035401,4|0,0:0|0:0,0:0:0:0:
4,148,112744,1,8,0:0:0:0:
120,284,112914,1,2,0:0:0:0:
132,248,112999,1,2,0:0:0:0:
120,212,113085,1,2,0:0:0:0:
4,256,113255,1,0,1:0:0:0:
168,356,113425,2,0,L|288:324,1,110.000003356934,8|0,0:0|0:0,0:0:0:0:
448,360,113766,6,0,P|468:253|436:149,1,220.000006713867,0|8,1:0|0:0,0:0:0:0:
268,112,114278,1,2,0:0:0:0:
260,144,114363,1,2,0:0:0:0:
268,176,114448,1,2,0:0:0:0:
436,149,114619,1,0,1:0:0:0:
340,20,114789,2,0,L|204:16,1,110.000003356934,8|2,0:0|0:0,0:0:0:0:
36,104,115130,6,0,L|172:108,1,110.000003356934,0|0,1:0|0:0,0:0:0:0:
240,248,115471,1,8,0:0:0:0:
104,280,115641,1,2,0:0:0:0:
96,248,115727,1,2,0:0:0:0:
104,216,115812,1,2,0:0:0:0:
272,156,115982,1,0,1:0:0:0:
292,336,116153,2,0,P|220:348|168:320,1,110.000003356934,8|0,0:0|0:0,0:0:0:0:
272,156,116494,6,0,P|344:144|396:172,1,110.000003356934,0|2,1:0|0:0,0:0:0:0:
440,336,116835,2,0,B|428:272|428:272|444:216,1,110.000003356934,8|2,0:0|0:0,0:0:0:0:
448,212,117090,1,2,0:0:0:0:
456,196,117175,1,2,0:0:0:0:
408,40,117346,1,0,1:0:0:0:
272,156,117516,6,0,P|200:168|148:140,1,110.000003356934,8|2,0:0|0:0,0:0:0:0:
152,144,117772,1,0,0:0:0:0:
140,132,117857,2,0,L|144:260,1,110.000003356934,0|0,1:0|0:0,0:0:0:0:
56,312,118198,1,8,0:0:0:0:
232,288,118369,1,2,0:0:0:0:
244,324,118454,1,2,0:0:0:0:
236,360,118539,1,2,0:0:0:0:
143,241,118710,1,0,1:0:0:0:
340,284,118880,2,0,L|452:312,1,110.000003356934,8|0,0:0|0:0,0:0:0:0:
452,120,119221,6,0,L|345:146,1,110.000003356934,0|0,1:0|0:0,0:0:0:0:
200,168,119562,1,8,0:0:0:0:
68,32,119732,1,2,0:0:0:0:
48,64,119817,1,2,0:0:0:0:
40,104,119903,1,2,0:0:0:0:
48,140,119988,1,2,0:0:0:0:
68,172,120073,1,0,1:0:0:0:
256,100,120244,2,0,P|192:84|147:101,1,110.000003356934,8|2,0:0|0:0,0:0:0:0:
20,252,120585,6,0,P|84:268|132:248,1,110.000003356934,0|0,1:0|0:0,0:0:0:0:
304,320,120925,2,0,P|240:336|192:316,1,110.000003356934,8|2,0:0|0:0,0:0:0:0:
204,311,121181,1,2,0:0:0:0:
208,300,121266,1,2,0:0:0:0:
328,208,121437,1,0,1:0:0:0:
432,348,121607,2,0,B|420:288|420:288|436:212,1,110.000003356934,8|0,0:0|0:0,0:0:0:0:
512,108,121948,6,0,L|396:92,1,110.000003356934,0|2,1:0|0:0,0:0:0:0:
284,48,122289,2,0,L|168:32,1,110.000003356934,8|2,0:0|0:0,0:0:0:0:
163,36,122545,1,2,0:0:0:0:
152,40,122630,1,2,0:0:0:0:
48,112,122800,1,0,1:0:0:0:
168,244,122971,2,0,P|180:192|152:116,1,110.000003356934,8|2,0:0|0:0,0:0:0:0:
0,328,123312,6,0,B|32:276|92:288|92:288|128:344|188:336|224:316,1,220.000006713867,4|8,0:0|0:0,0:0:0:0:
300,224,123823,1,2,0:0:0:0:
300,224,123908,1,2,0:0:0:0:
300,224,123994,1,2,0:0:0:0:
168,244,124164,1,0,1:0:0:0:
320,312,124335,2,0,L|448:332,1,110.000003356934,8|0,0:0|0:0,0:0:0:0:
476,180,124675,6,0,P|484:120|460:52,1,110.000003356934,0|0,1:0|0:0,0:0:0:0:
304,16,125016,1,8,0:0:0:0:
208,124,125187,1,2,0:0:0:0:
220,136,125272,1,2,0:0:0:0:
232,148,125357,1,2,0:0:0:0:
344,112,125528,1,0,1:0:0:0:
204,28,125698,2,0,L|56:32,1,110.000003356934,8|2,0:0|0:0,0:0:0:0:
32,220,126039,6,0,L|180:216,1,110.000003356934,0|0,1:0|0:0,0:0:0:0:
272,312,126380,1,8,0:0:0:0:
408,200,126550,1,2,0:0:0:0:
408,200,126636,1,2,0:0:0:0:
408,200,126721,2,0,P|440:204|472:200,1,55.0000016784668,2|0,0:0|0:0,0:0:0:0:
436,96,126891,1,0,1:0:0:0:
308,148,127062,2,0,P|240:160|160:128,1,110.000003356934,8|0,0:0|0:0,0:0:0:0:
4,96,127403,6,0,B|80:56|80:56|116:80|152:128|104:200,1,220.000006713867,0|8,1:0|0:0,0:0:0:0:
42,291,127914,1,2,0:0:0:0:
76,308,127999,1,2,0:0:0:0:
114,314,128085,1,2,0:0:0:0:
151,308,128170,1,2,0:0:0:0:
186,292,128255,1,0,1:0:0:0:
304,336,128425,2,0,P|380:348|448:308,1,110.000003356934,8|2,0:0|0:0,0:0:0:0:
484,176,128766,6,0,P|408:164|340:204,1,110.000003356934,0|0,1:0|0:0,0:0:0:0:
320,228,129022,1,0,1:0:0:0:
320,228,129107,1,0,0:0:0:0:
176,108,129278,2,0,P|208:104|244:112,1,55.0000016784668,8|0,0:0|0:0,0:0:0:0:
204,192,129448,1,2,0:0:0:0:
120,36,129619,1,0,1:0:0:0:
296,36,129789,1,8,0:0:0:0:
296,36,129960,1,0,1:0:0:0:
88,160,130130,5,0,1:0:0:0:
88,160,130301,1,0,1:0:0:0:
220,328,130471,2,0,L|344:332,1,110.000003356934,2|10,0:0|0:0,0:0:0:0:
341,336,130727,1,2,0:0:0:0:
352,340,130812,1,2,0:0:0:0:
464,256,130982,1,0,1:0:0:0:
360,140,131153,2,0,P|304:124|244:140,1,110.000003356934,10|0,0:0|1:0,0:0:0:0:
115,255,131494,6,0,B|91:260|46:256|36:216|32:156|68:116|102:160|144:120|176:132|165:181|148:248|200:212|216:230|244:252|279:236|298:226,1,395.999998791504,4|0,0:0|0:0,0:0:0:0:
298,226,132857,5,2,0:0:0:0:
298,226,133198,1,2,0:0:0:0:
298,226,133539,1,2,0:0:0:0:
350,306,133710,5,0,1:0:0:0:
250,146,133880,1,8,0:0:0:0:
250,146,134221,5,4,0:0:0:0:
256,192,134306,12,0,136948,0:0:0:0:
256,192,154675,12,0,155698,0:0:0:0:
176,115,156039,6,0,B|336:100|336:100|312:129,1,200,4|8,0:0|0:0,0:0:0:0:
228,242,156550,2,0,P|224:291|241:337,1,100
372,262,156891,1,0,1:0:0:0:
311,130,157062,2,0,L|211:139,1,100,8|0,0:0|0:0,0:0:0:0:
40,203,157403,5,0,0:0:0:0:
80,26,157573,1,0,0:0:0:0:
143,209,157744,2,0,P|129:257|94:292,1,100,8|2,0:0|0:0,0:0:0:0:
73,306,157999,1,2,0:0:0:0:
48,313,158085,2,0,L|146:332,1,100,2|0,0:0|1:0,0:0:0:0:
268,255,158425,2,0,L|366:274,1,100,8|0,0:0|0:0,0:0:0:0:
495,214,158766,6,0,P|508:166|494:118,1,100,0|0,1:0|0:0,0:0:0:0:
381,30,159107,1,8,0:0:0:0:
272,125,159278,1,0,0:0:0:0:
272,125,159363,1,0,0:0:0:0:
272,125,159448,2,0,P|307:160|355:172,1,100,0|0,0:0|1:0,0:0:0:0:
387,314,159789,2,0,L|289:334,1,100,8|0,0:0|0:0,0:0:0:0:
157,290,160130,6,0,P|142:337|157:384,1,100,0|2,0:0|0:0,0:0:0:0:
289,334,160471,1,8,0:0:0:0:
257,202,160641,1,2,0:0:0:0:
257,202,160727,1,2,0:0:0:0:
257,202,160812,2,0,L|168:155,1,100,2|0,0:0|1:0,0:0:0:0:
51,216,161153,1,8,0:0:0:0:
157,290,161323,1,2,0:0:0:0:
168,155,161494,6,0,B|176:64|265:46|265:46|224:38,1,200,0|8,1:0|0:0,0:0:0:0:
60,86,162005,1,0,0:0:0:0:
60,86,162090,1,0,0:0:0:0:
60,86,162175,1,0,0:0:0:0:
272,145,162346,1,0,1:0:0:0:
438,23,162516,1,8,0:0:0:0:
471,220,162687,1,2,0:0:0:0:
471,220,162772,1,2,0:0:0:0:
471,220,162857,6,0,L|351:235,1,100
272,145,163198,2,0,L|172:157,1,100,8|0,0:0|0:0,0:0:0:0:
5,279,163539,2,0,L|104:268,1,100,2|0,0:0|1:0,0:0:0:0:
173,157,163880,1,8,0:0:0:0:
45,152,164050,1,0,0:0:0:0:
193,246,164221,6,0,B|261:222|268:169|257:124|257:124|286:159,1,200,0|8,1:0|0:0,0:0:0:0:
173,157,164732,1,0,0:0:0:0:
173,157,164817,1,0,0:0:0:0:
173,157,164903,2,0,L|160:48,1,100,0|0,0:0|1:0,0:0:0:0:
98,219,165244,2,0,L|86:318,1,100,8|0,0:0|0:0,0:0:0:0:
217,379,165585,6,0,P|265:387|313:373,1,100,0|0,1:0|0:0,0:0:0:0:
441,247,165925,1,8,0:0:0:0:
270,189,166096,1,2,0:0:0:0:
270,189,166181,1,2,0:0:0:0:
270,189,166266,2,0,L|261:288,1,100,2|0,0:0|1:0,0:0:0:0:
183,153,166607,2,0,L|192:53,1,100,8|0,0:0|0:0,0:0:0:0:
355,218,166948,6,0,B|342:386|342:386|364:363,1,200,0|8,1:0|0:0,0:0:0:0:
480,258,167460,1,0,0:0:0:0:
480,258,167545,1,0,0:0:0:0:
479,258,167630,2,0,P|489:209|474:162,1,100,0|0,0:0|1:0,0:0:0:0:
360,91,167971,2,0,P|310:93|267:117,1,100,8|0,0:0|0:0,0:0:0:0:
229,241,168312,6,0,L|132:215,1,100
0,93,168653,1,8,0:0:0:0:
171,48,168823,1,2,0:0:0:0:
171,48,168908,1,2,0:0:0:0:
171,48,168994,1,2,0:0:0:0:
27,191,169164,1,0,1:0:0:0:
68,20,169335,1,8,0:0:0:0:
204,140,169505,1,0,0:0:0:0:
162,327,169675,6,0,B|-2:310|-2:310|23:332,1,200,0|8,1:0|0:0,0:0:0:0:
229,374,170187,1,0,0:0:0:0:
229,374,170272,1,0,0:0:0:0:
229,374,170357,2,0,P|243:326|228:279,1,100,0|0,0:0|1:0,0:0:0:0:
83,139,170698,1,8,0:0:0:0:
24,333,170869,1,0,0:0:0:0:
178,173,171039,6,0,P|226:161|274:172,1,100,0|2,0:0|0:0,0:0:0:0:
380,303,171380,1,8,0:0:0:0:
459,173,171550,1,2,0:0:0:0:
459,173,171636,1,2,0:0:0:0:
459,173,171721,2,0,L|492:78,1,100,2|0,0:0|1:0,0:0:0:0:
367,205,172062,1,8,0:0:0:0:
319,37,172232,1,2,0:0:0:0:
459,173,172403,6,0,B|472:238|442:287|377:300|377:300|404:306,1,200,0|8,1:0|0:0,0:0:0:0:
367,205,172914,1,0,0:0:0:0:
367,205,172999,1,0,0:0:0:0:
367,205,173085,2,0,P|318:200|271:216,1,100,0|0,0:0|1:0,0:0:0:0:
170,342,173425,1,8,0:0:0:0:
109,190,173596,1,2,0:0:0:0:
109,190,173681,1,2,0:0:0:0:
109,190,173766,6,0,L|119:90,1,100
282,117,174107,2,0,L|271:216,1,100,8|0,0:0|0:0,0:0:0:0:
283,238,174363,1,2,0:0:0:0:
294,259,174448,2,0,P|340:242|390:248,1,100,2|0,0:0|1:0,0:0:0:0:
512,361,174789,1,8,0:0:0:0:
456,209,174960,1,0,0:0:0:0:
350,341,175130,6,0,L|150:321,1,200,0|8,1:0|0:0,0:0:0:0:
48,215,175641,1,0,0:0:0:0:
48,215,175727,1,0,0:0:0:0:
48,215,175812,2,0,P|37:166|52:119,1,100,0|0,0:0|1:0,0:0:0:0:
190,177,176153,1,8,0:0:0:0:
328,121,176323,1,0,0:0:0:0:
328,121,176408,1,0,0:0:0:0:
328,121,176494,6,0,L|315:20,1,100,0|0,1:0|0:0,0:0:0:0:
190,177,176835,2,0,L|177:276,1,100,8|2,0:0|0:0,0:0:0:0:
192,295,177090,1,2,0:0:0:0:
207,314,177175,2,0,P|253:332|302:325,1,100,2|0,0:0|1:0,0:0:0:0:
258,149,177516,1,8,0:0:0:0:
88,217,177687,1,0,0:0:0:0:
232,68,177857,6,0,B|278:54|332:82|341:141|341:141|357:92,1,200,0|8,1:0|0:0,0:0:0:0:
258,149,178369,1,2,0:0:0:0:
258,149,178454,1,2,0:0:0:0:
258,149,178539,2,0,P|250:198|268:245,1,100,2|0,0:0|1:0,0:0:0:0:
445,203,178880,2,0,L|346:185,1,100,10|0,0:0|0:0,0:0:0:0:
194,298,179221,5,0,1:0:0:0:
37,168,179391,1,0,1:0:0:0:
231,90,179562,1,8,0:0:0:0:
75,274,179732,1,0,1:0:0:0:
112,67,179903,1,2,0:0:0:0:
104,51,180244,5,8,0:0:0:0:
19,165,180414,1,0,1:0:0:0:
244,199,180585,6,0,B|393:186|393:186|367:229,1,200,4|8,0:0|0:0,0:0:0:0:
270,332,181097,1,2,0:0:0:0:
270,332,181182,1,2,0:0:0:0:
270,332,181267,2,0,P|219:336|174:316,1,100,2|0,0:0|1:0,0:0:0:0:
21,185,181608,2,0,P|69:175|115:192,1,100,8|0,0:0|0:0,0:0:0:0:
245,199,181949,6,0,L|255:99,1,100,0|2,0:0|0:0,0:0:0:0:
102,24,182290,1,8,0:0:0:0:
115,192,182460,1,2,0:0:0:0:
115,192,182546,1,2,0:0:0:0:
115,192,182630,2,0,P|117:242|142:284,1,100,0|2,1:0|0:0,0:0:0:0:
338,221,182971,2,0,P|294:198|244:199,1,100,8|0,0:0|0:0,0:0:0:0:
199,384,183312,6,0,P|240:357|264:314,1,100,0|0,1:0|0:0,0:0:0:0:
315,97,183654,1,8,0:0:0:0:
469,223,183824,1,2,0:0:0:0:
469,223,183909,1,2,0:0:0:0:
469,223,183994,2,0,L|369:234,1,100,2|0,0:0|1:0,0:0:0:0:
151,173,184335,2,0,L|51:161,1,100,8|0,0:0|0:0,0:0:0:0:
230,137,184676,6,0,P|217:230|126:257,1,200,0|8,0:0|0:0,0:0:0:0:
213,359,185188,1,2,0:0:0:0:
213,359,185272,1,2,0:0:0:0:
213,359,185357,2,0,L|313:362,1,100,2|0,0:0|1:0,0:0:0:0:
512,280,185699,2,0,L|412:277,1,100,8|2,0:0|0:0,0:0:0:0:
289,230,186040,6,0,P|254:156|336:164,1,200,0|8,1:0|0:0,0:0:0:0:
412,277,186551,1,2,0:0:0:0:
412,277,186636,1,2,0:0:0:0:
412,277,186722,2,0,P|449:243|465:196,1,100,2|0,0:0|1:0,0:0:0:0:
326,66,187063,2,0,L|336:165,1,100,8|0,0:0|0:0,0:0:0:0:
265,384,187404,6,0,L|271:284,1,100,0|2,0:0|0:0,0:0:0:0:
121,137,187744,1,8,0:0:0:0:
68,336,187915,1,2,0:0:0:0:
68,336,188000,1,2,0:0:0:0:
68,336,188085,1,2,0:0:0:0:
238,158,188256,1,0,1:0:0:0:
3,86,188426,2,0,L|101:69,1,100,8|2,0:0|0:0,0:0:0:0:
238,158,188766,6,0,L|336:174,1,100,0|2,1:0|0:0,0:0:0:0:
481,118,189107,1,8,0:0:0:0:
360,214,189279,1,2,0:0:0:0:
360,214,189364,1,2,0:0:0:0:
360,214,189449,2,0,P|345:261|352:310,1,100,2|0,0:0|1:0,0:0:0:0:
503,276,189790,2,0,L|488:177,1,100,8|0,0:0|0:0,0:0:0:0:
381,81,190131,6,0,P|287:108|192:80,1,200,0|8,1:0|0:0,0:0:0:0:
39,174,190642,1,2,0:0:0:0:
39,174,190727,1,2,0:0:0:0:
39,174,190812,1,2,0:0:0:0:
135,26,190982,1,0,1:0:0:0:
318,105,191154,2,0,P|352:139|359:188,1,100,8|2,0:0|0:0,0:0:0:0:
39,174,191494,6,0,L|238:200,1,200,4|8,0:0|0:0,0:0:0:0:
318,105,192006,1,2,0:0:0:0:
318,105,192091,1,2,0:0:0:0:
318,105,192176,2,0,P|326:55|307:10,1,100,2|0,0:0|1:0,0:0:0:0:
237,200,192516,2,0,P|229:250|248:295,1,100,8|0,0:0|0:0,0:0:0:0:
372,366,192858,6,0,L|467:337,1,100,0|2,0:0|0:0,0:0:0:0:
363,228,193199,1,8,0:0:0:0:
248,294,193369,1,2,0:0:0:0:
248,294,193455,1,2,0:0:0:0:
248,294,193540,2,0,P|200:306|152:292,1,100,2|0,0:0|1:0,0:0:0:0:
0,368,193880,2,0,P|48:356|96:370,1,100,8|0,0:0|0:0,0:0:0:0:
201,213,194222,6,0,L|213:113,1,100,0|0,1:0|0:0,0:0:0:0:
343,38,194563,1,8,0:0:0:0:
354,182,194733,1,2,0:0:0:0:
354,182,194818,1,2,0:0:0:0:
354,182,194904,1,2,0:0:0:0:
213,114,195074,1,0,1:0:0:0:
397,108,195244,2,0,P|430:142|437:192,1,100,8|0,0:0|0:0,0:0:0:0:
380,345,195585,6,0,L|283:317,1,100,0|2,0:0|0:0,0:0:0:0:
157,365,195926,1,8,0:0:0:0:
43,303,196097,1,2,0:0:0:0:
43,303,196182,1,2,0:0:0:0:
43,303,196267,2,0,P|24:258|31:209,1,100,2|0,0:0|1:0,0:0:0:0:
229,187,196607,2,0,P|199:225|153:244,1,100,8|0,0:0|1:0,0:0:0:0:
118,117,196949,6,0,L|129:17,1,100,0|0,1:0|0:0,0:0:0:0:
229,187,197290,1,8,0:0:0:0:
342,37,197460,1,2,0:0:0:0:
342,37,197546,1,2,0:0:0:0:
342,37,197631,2,0,L|440:51,1,100,2|0,0:0|1:0,0:0:0:0:
412,219,197972,2,0,P|365:236|316:229,1,100,8|0,0:0|0:0,0:0:0:0:
146,143,198313,6,0,B|115:223|180:270|180:270|129:244,1,200,0|8,1:0|0:0,0:0:0:0:
44,106,198824,1,2,0:0:0:0:
44,106,198909,1,2,0:0:0:0:
44,105,198994,2,0,P|71:64|114:40,1,100,2|0,0:0|1:0,0:0:0:0:
229,187,199335,1,8,0:0:0:0:
296,23,199505,1,0,0:0:0:0:
146,143,199676,5,4,0:0:0:0:
146,143,200017,1,0,1:0:0:0:
323,118,200358,5,0,1:0:0:0:
323,118,200699,1,0,1:0:0:0:
195,306,201039,5,0,1:0:0:0:
195,306,201380,1,0,1:0:0:0:
146,143,201550,5,2,0:0:0:0:
5,256,201721,2,0,P|-7:308|5:364,1,100,2|0,0:0|0:0,0:0:0:0:
260,376,202062,2,0,P|284:308|228:208,1,150,8|0,0:0|0:0,0:0:0:0:
240,224,202403,6,0,L|353:236,1,110.000003356934,4|0,0:0|0:0,0:0:0:0:
440,140,202744,1,8,0:0:0:0:
288,16,202914,1,2,0:0:0:0:
280,52,202999,1,2,0:0:0:0:
288,92,203085,1,2,0:0:0:0:
412,52,203255,1,0,1:0:0:0:
200,80,203425,2,0,L|80:88,1,110.000003356934,8|0,0:0|0:0,0:0:0:0:
145,269,203766,6,0,P|157:209|121:133,1,110.000003356934,0|0,1:0|0:0,0:0:0:0:
24,217,204107,1,8,0:0:0:0:
109,359,204278,1,2,0:0:0:0:
145,367,204363,1,2,0:0:0:0:
181,359,204448,1,2,0:0:0:0:
266,217,204619,1,0,1:0:0:0:
418,339,204789,2,0,P|429:271|412:217,1,110.000003356934,8|2,0:0|0:0,0:0:0:0:
424,92,205130,6,0,L|304:88,1,110.000003356934,0|0,1:0|0:0,0:0:0:0:
300,96,205386,1,0,0:0:0:0:
284,104,205471,1,8,0:0:0:0:
388,240,205641,1,2,0:0:0:0:
404,236,205727,1,2,0:0:0:0:
420,232,205812,1,2,0:0:0:0:
376,16,205982,1,0,1:0:0:0:
208,152,206153,2,0,P|144:164|72:136,1,110.000003356934,8|0,0:0|0:0,0:0:0:0:
0,280,206494,6,0,P|64:268|136:296,1,110.000003356934,0|2,1:0|0:0,0:0:0:0:
216,352,206835,1,8,0:0:0:0:
392,344,207005,1,2,0:0:0:0:
392,344,207090,1,2,0:0:0:0:
392,344,207175,2,0,P|396:308|388:276,1,55.0000016784668,2|2,0:0|0:0,0:0:0:0:
312,216,207346,1,0,1:0:0:0:
344,32,207516,2,0,L|484:36,1,110.000003356934,8|2,0:0|0:0,0:0:0:0:
468,40,207772,1,0,0:0:0:0:
484,44,207857,6,0,P|496:104|484:160,1,110.000003356934,0|0,1:0|0:0,0:0:0:0:
208,224,208198,2,0,P|196:176|208:112,1,110.000003356934,8|2,0:0|0:0,0:0:0:0:
224,120,208454,1,2,0:0:0:0:
240,124,208539,1,2,0:0:0:0:
392,152,208710,1,0,1:0:0:0:
264,308,208880,2,0,L|148:364,1,110.000003356934,8|0,0:0|0:0,0:0:0:0:
16,248,209221,6,0,P|76:232|140:256,1,110.000003356934,0|0,1:0|0:0,0:0:0:0:
264,308,209562,1,8,0:0:0:0:
424,232,209732,1,2,0:0:0:0:
424,232,209817,1,2,0:0:0:0:
424,232,209903,2,0,P|392:236|348:228,1,55.0000016784668,2|2,0:0|0:0,0:0:0:0:
280,188,210073,1,0,1:0:0:0:
356,16,210244,2,0,P|372:100|356:140,1,110.000003356934,8|2,0:0|0:0,0:0:0:0:
132,24,210585,6,0,L|256:48,1,110.000003356934,0|0,1:0|0:0,0:0:0:0:
248,60,210840,1,0,0:0:0:0:
256,76,210925,1,8,0:0:0:0:
168,228,211095,1,2,0:0:0:0:
156,240,211180,1,2,0:0:0:0:
144,252,211266,2,0,L|36:231,1,110.000003356934,2|0,0:0|1:0,0:0:0:0:
248,167,211607,2,0,P|263:219|232:295,1,110.000003356934,8|0,0:0|0:0,0:0:0:0:
132,356,211948,5,0,1:0:0:0:
160,136,212119,1,2,0:0:0:0:
36,231,212289,1,8,0:0:0:0:
250,272,212460,1,2,0:0:0:0:
250,272,212545,1,2,0:0:0:0:
250,272,212630,2,0,L|312:288,1,55.0000016784668,2|2,0:0|0:0,0:0:0:0:
400,304,212800,1,0,0:0:0:0:
248,168,212971,1,8,0:0:0:0:
256,376,213141,1,2,0:0:0:0:
472,356,213312,6,0,P|488:300|456:232,1,110.000003356934,4|0,0:0|0:0,0:0:0:0:
412,16,213653,2,0,P|388:88|420:156,1,110.000003356934,8|2,0:0|0:0,0:0:0:0:
400,136,213908,1,2,0:0:0:0:
408,152,213994,1,2,0:0:0:0:
512,84,214164,1,0,1:0:0:0:
304,116,214335,2,0,P|244:124|184:108,1,110.000003356934,8|0,0:0|0:0,0:0:0:0:
60,12,214675,6,0,L|104:252,1,220.000006713867,0|8,1:0|0:0,0:0:0:0:
244,352,215187,1,2,0:0:0:0:
260,316,215272,1,2,0:0:0:0:
264,276,215357,1,2,0:0:0:0:
256,240,215442,1,2,0:0:0:0:
240,204,215528,1,0,1:0:0:0:
48,312,215698,2,0,P|100:328|160:312,1,110.000003356934,8|2,0:0|0:0,0:0:0:0:
296,136,216039,6,0,P|244:120|184:136,1,110.000003356934,0|0,1:0|0:0,0:0:0:0:
264,276,216380,1,8,0:0:0:0:
416,172,216550,1,2,0:0:0:0:
408,156,216636,1,2,0:0:0:0:
400,140,216721,2,0,L|408:20,1,110.000003356934,2|0,0:0|1:0,0:0:0:0:
198,22,217062,2,0,L|190:131,1,110.000003356934,8|0,0:0|0:0,0:0:0:0:
100,304,217403,6,0,B|52:264|68:212|104:184|104:184|136:232|188:232,1,220.000006713867,0|8,1:0|0:0,0:0:0:0:
248,344,217914,1,2,0:0:0:0:
284,328,217999,1,2,0:0:0:0:
324,320,218085,1,2,0:0:0:0:
360,328,218170,1,2,0:0:0:0:
396,340,218255,1,0,1:0:0:0:
480,188,218425,2,0,P|492:256|476:304,1,110.000003356934,8|2,0:0|0:0,0:0:0:0:
332,144,218766,6,0,P|320:76|336:24,1,110.000003356934,0|0,1:0|0:0,0:0:0:0:
448,88,219107,1,8,0:0:0:0:
252,204,219278,1,2,0:0:0:0:
219,209,219363,1,2,0:0:0:0:
186,205,219448,1,2,0:0:0:0:
216,84,219619,1,0,1:0:0:0:
272,280,219789,2,0,P|216:288|140:268,1,110.000003356934,8|0,0:0|0:0,0:0:0:0:
79,372,220130,6,0,L|63:152,1,220.000006713867,0|8,1:0|0:0,0:0:0:0:
182,70,220641,1,2,0:0:0:0:
216,84,220727,1,2,0:0:0:0:
254,90,220812,1,2,0:0:0:0:
294,88,220897,1,2,0:0:0:0:
333,78,220982,1,0,1:0:0:0:
504,144,221153,2,0,P|448:128|396:144,1,110.000003356934,8|2,0:0|0:0,0:0:0:0:
460,328,221494,6,0,L|448:208,1,110.000003356934,0|0,1:0|0:0,0:0:0:0:
440,40,221835,1,8,0:0:0:0:
336,208,222005,1,2,0:0:0:0:
324,220,222090,1,2,0:0:0:0:
312,232,222175,2,0,L|184:224,1,110.000003356934,2|0,0:0|1:0,0:0:0:0:
48,352,222516,1,8,0:0:0:0:
208,328,222687,1,0,0:0:0:0:
88,136,222857,5,0,1:0:0:0:
112,248,223028,1,2,0:0:0:0:
144,44,223198,1,10,0:0:0:0:
108,36,223283,1,2,0:0:0:0:
68,36,223369,1,2,0:0:0:0:
32,52,223454,1,2,0:0:0:0:
4,76,223539,1,2,0:0:0:0:
112,248,223710,1,0,1:0:0:0:
308,168,223880,2,0,P|256:156|184:176,1,110.000003356934,8|2,0:0|0:0,0:0:0:0:
182,347,224221,6,0,P|287:372|337:346,1,165.000005035401,4|0,0:0|0:0,0:0:0:0:
365,326,224562,1,8,0:0:0:0:
512,158,224732,1,2,0:0:0:0:
512,158,224817,1,2,0:0:0:0:
512,158,224903,2,0,P|459:144|407:160,1,110.000003356934,2|0,0:0|1:0,0:0:0:0:
189,69,225243,2,0,P|242:79|294:62,1,110.000003356934,8|0,0:0|0:0,0:0:0:0:
99,180,225584,6,0,L|112:289,1,110.000003356934,0|0,1:0|0:0,0:0:0:0:
256,354,225925,1,8,0:0:0:0:
249,196,226096,1,2,0:0:0:0:
249,196,226181,1,2,0:0:0:0:
249,196,226266,1,2,0:0:0:0:
112,289,226437,1,0,1:0:0:0:
299,273,226607,2,0,P|350:253|404:260,1,110.000003356934,8|2,0:0|0:0,0:0:0:0:
503,158,226948,6,0,L|493:49,1,110.000003356934,0|0,1:0|0:0,0:0:0:0:
332,22,227289,1,8,0:0:0:0:
213,133,227459,1,2,0:0:0:0:
238,142,227545,1,2,0:0:0:0:
263,151,227630,1,2,0:0:0:0:
192,22,227800,1,0,1:0:0:0:
118,156,227971,2,0,P|64:169|11:159,1,110.000003356934,8|0,0:0|0:0,0:0:0:0:
154,88,228312,6,0,P|189:130|188:184,1,110.000003356934,0|2,1:0|0:0,0:0:0:0:
51,273,228653,1,8,0:0:0:0:
205,347,228823,1,2,0:0:0:0:
244,366,228908,1,2,0:0:0:0:
286,375,228993,1,2,0:0:0:0:
329,366,229079,1,2,0:0:0:0:
364,343,229164,1,0,1:0:0:0:
474,216,229334,1,8,0:0:0:0:
486,372,229505,1,2,0:0:0:0:
351,252,229675,6,0,L|338:142,1,110.000003356934,0|0,1:0|0:0,0:0:0:0:
171,41,230016,1,8,0:0:0:0:
167,227,230187,1,2,0:0:0:0:
167,227,230272,1,2,0:0:0:0:
167,227,230357,1,2,0:0:0:0:
228,130,230528,1,0,1:0:0:0:
46,224,230698,2,0,P|52:278|86:320,1,110.000003356934,8|0,0:0|0:0,0:0:0:0:
167,227,231039,6,0,L|182:118,1,110.000003356934,0|0,1:0|0:0,0:0:0:0:
342,84,231380,1,8,0:0:0:0:
373,210,231550,1,2,0:0:0:0:
373,210,231635,1,2,0:0:0:0:
373,210,231721,2,0,P|318:214|269:191,1,110.000003356934,2|0,0:0|1:0,0:0:0:0:
464,126,232062,2,0,P|494:170|498:225,1,110.000003356934,8|2,0:0|0:0,0:0:0:0:
488,251,232317,1,2,0:0:0:0:
477,276,232403,6,0,L|368:291,1,110.000003356934,0|0,1:0|0:0,0:0:0:0:
248,172,232743,1,8,0:0:0:0:
208,332,232914,1,2,0:0:0:0:
208,332,232999,1,2,0:0:0:0:
208,332,233084,1,2,0:0:0:0:
312,230,233255,1,0,1:0:0:0:
158,138,233425,2,0,P|103:130|51:146,1,110.000003356934,8|0,0:0|0:0,0:0:0:0:
6,286,233766,6,0,L|114:304,1,110.000003356934,0|2,1:0|0:0,0:0:0:0:
248,172,234107,1,8,0:0:0:0:
381,304,234278,1,2,0:0:0:0:
381,304,234363,1,2,0:0:0:0:
382,304,234448,2,0,P|410:304|436:295,1,55.0000016784668,2|2,0:0|0:0,0:0:0:0:
498,220,234618,1,0,1:0:0:0:
422,384,234789,1,8,0:0:0:0:
388,199,234959,1,2,0:0:0:0:
243,312,235130,6,0,P|191:330|137:322,1,110.000003356934,4|0,0:0|0:0,0:0:0:0:
104,106,235471,1,8,0:0:0:0:
303,188,235641,1,2,0:0:0:0:
303,188,235726,1,2,0:0:0:0:
303,188,235812,1,2,0:0:0:0:
184,210,235982,1,0,1:0:0:0:
343,71,236153,2,0,P|395:55|448:67,1,110.000003356934,8|0,0:0|0:0,0:0:0:0:
506,192,236493,6,0,L|487:300,1,110.000003356934,0|0,1:0|0:0,0:0:0:0:
310,367,236834,1,8,0:0:0:0:
348,181,237005,1,2,0:0:0:0:
348,181,237090,1,2,0:0:0:0:
348,181,237175,2,0,P|380:226|383:280,1,110.000003356934,2|0,0:0|1:0,0:0:0:0:
198,357,237516,1,8,0:0:0:0:
224,160,237687,1,2,0:0:0:0:
383,279,237857,6,0,P|432:303|487:300,1,110.000003356934,0|0,1:0|0:0,0:0:0:0:
461,127,238198,2,0,P|412:103|357:106,1,110.000003356934,8|2,0:0|0:0,0:0:0:0:
333,119,238454,1,2,0:0:0:0:
309,131,238539,2,0,P|254:134|208:105,1,110.000003356934,2|0,0:0|1:0,0:0:0:0:
107,0,238880,2,0,L|125:108,1,110.000003356934,8|0,0:0|0:0,0:0:0:0:
0,170,239221,6,0,P|49:192|104:187,1,110.000003356934,0|0,1:0|0:0,0:0:0:0:
209,106,239562,1,8,0:0:0:0:
226,234,239732,1,2,0:0:0:0:
268,245,239817,1,2,0:0:0:0:
310,234,239902,1,2,0:0:0:0:
353,224,239988,1,2,0:0:0:0:
395,234,240073,1,0,1:0:0:0:
458,358,240244,2,0,L|353:327,1,110.000003356934,8|2,0:0|0:0,0:0:0:0:
269,139,240584,6,0,P|259:85|273:32,1,110.000003356934,0|0,1:0|0:0,0:0:0:0:
371,90,240840,2,0,L|362:144,1,55.0000016784668,0|0,1:0|0:0,0:0:0:0:
261,319,241096,1,8,0:0:0:0:
261,319,241181,1,0,0:0:0:0:
261,319,241266,1,2,0:0:0:0:
171,136,241437,1,0,1:0:0:0:
395,234,241607,1,8,0:0:0:0:
439,35,241778,1,0,1:0:0:0:
269,139,241948,5,0,1:0:0:0:
354,327,242118,1,0,1:0:0:0:
484,161,242289,1,2,0:0:0:0:
309,235,242459,1,10,0:0:0:0:
309,235,242545,1,2,0:0:0:0:
309,235,242630,1,2,0:0:0:0:
171,136,242800,1,0,1:0:0:0:
261,319,242971,1,10,0:0:0:0:
362,144,243141,1,0,1:0:0:0:
176,17,243312,5,4,0:0:0:0:
176,17,243653,5,2,0:0:0:0:
78,63,243823,1,2,0:0:0:0:
27,158,243994,1,2,0:0:0:0:
59,260,244164,1,2,0:0:0:0:
151,316,244335,2,0,P|195:321|238:309,1,89.9999972534181,2|2,0:0|0:0,0:0:0:0:
363,217,244675,6,0,P|318:211|275:223,1,89.9999972534181,2|2,0:0|0:0,0:0:0:0:
413,297,245016,2,0,P|457:302|500:290,1,89.9999972534181,2|2,0:0|0:0,0:0:0:0:
467,126,245357,2,0,L|450:214,1,89.9999972534181,2|2,0:0|0:0,0:0:0:0:
342,384,245698,2,0,L|325:295,1,89.9999972534181,2|2,0:0|0:0,0:0:0:0:
203,105,246039,6,0,P|186:169|201:235,1,134.999995880127,4|0,0:0|0:0,0:0:0:0:
224,265,246380,1,8,0:0:0:0:
392,195,246550,1,2,0:0:0:0:
392,195,246636,1,2,0:0:0:0:
392,195,246721,2,0,P|352:175|308:175,1,89.9999972534181,2|0,0:0|1:0,0:0:0:0:
139,245,247062,2,0,P|179:265|223:265,1,89.9999972534181,8|0,0:0|0:0,0:0:0:0:
56,292,247403,6,0,L|62:381,1,89.9999972534181,0|2,0:0|0:0,0:0:0:0:
202,171,247744,2,0,L|208:81,1,89.9999972534181,8|2,0:0|0:0,0:0:0:0:
203,69,247999,1,2,0:0:0:0:
198,58,248085,1,2,0:0:0:0:
28,190,248255,1,0,1:0:0:0:
226,265,248425,2,0,P|266:246|290:209,1,89.9999972534181,8|2,0:0|0:0,0:0:0:0:
130,35,248766,6,0,P|131:122|203:171,1,179.999994506836,0|8,1:0|0:0,0:0:0:0:
362,143,249278,2,0,L|373:99,2,44.999998626709,2|2|2,0:0|0:0|0:0,0:0:0:0:
299,292,249619,1,0,1:0:0:0:
210,82,249789,1,8,0:0:0:0:
290,208,249960,1,0,0:0:0:0:
233,346,250130,6,0,P|222:261|290:208,1,179.999994506836,0|8,0:0|0:0,0:0:0:0:
394,322,250641,1,2,0:0:0:0:
394,322,250727,1,2,0:0:0:0:
394,322,250812,1,2,0:0:0:0:
233,346,250982,1,0,1:0:0:0:
82,252,251153,2,0,L|88:162,1,89.9999972534181,8|2,0:0|0:0,0:0:0:0:
204,122,251494,6,0,P|212:165|199:208,1,89.9999972534181,0|0,1:0|0:0,0:0:0:0:
111,50,251835,1,8,0:0:0:0:
295,66,252005,1,2,0:0:0:0:
325,72,252090,1,2,0:0:0:0:
355,65,252175,1,2,0:0:0:0:
385,57,252261,1,2,0:0:0:0:
415,66,252346,1,0,1:0:0:0:
461,186,252516,2,0,P|418:197|374:188,1,89.9999972534181,8|0,0:0|0:0,0:0:0:0:
266,250,252857,6,0,L|272:339,1,89.9999972534181
101,379,253198,2,0,L|107:289,1,89.9999972534181,10|0,0:0|0:0,0:0:0:0:
214,127,253539,1,2,0:0:0:0:
351,292,253710,1,0,1:0:0:0:
156,202,253880,2,0,P|113:188|69:194,1,89.9999972534181,8|0,0:0|0:0,0:0:0:0:
52,370,254221,6,0,P|95:384|139:378,1,89.9999972534181,0|0,1:0|0:0,0:0:0:0:
296,305,254562,2,0,L|210:280,1,89.9999972534181,8|2,0:0|0:0,0:0:0:0:
189,255,254817,1,2,0:0:0:0:
171,228,254903,1,6,0:0:0:0:
300,84,255073,1,0,1:0:0:0:
379,259,255244,2,0,P|391:305|381:348,1,89.9999972534181,8|0,0:0|0:0,0:0:0:0:
296,206,255585,6,0,P|328:176|371:164,1,89.9999972534181,4|2,0:0|0:0,0:0:0:0:
296,305,255925,2,0,P|253:291|221:260,1,89.9999972534181,8|2,0:0|0:0,0:0:0:0:
208,231,256181,1,2,0:0:0:0:
207,199,256266,1,2,0:0:0:0:
269,10,256437,1,0,1:0:0:0:
296,206,256607,1,8,0:0:0:0:
113,135,256778,1,2,0:0:0:0:
339,101,256948,5,4,0:0:0:0:
256,192,257033,12,0,259675,0:0:0:0:
256,192,276039,12,0,278425,0:0:0:0:
338,190,278766,6,0,P|435:214|399:121,1,244.999992523194,2|0,0:0|0:0,0:0:0:0:
373,116,279448,1,2,0:0:0:0:
256,192,279789,1,0,0:0:0:0:
117,153,280130,6,0,P|101:96|112:38,2,119.999996337891
240,276,281153,1,0,0:0:0:0:
198,131,281494,6,0,P|223:88|269:67,2,100
160,298,282516,1,0,0:0:0:0:
256,190,282857,6,0,P|295:191|328:212,2,80
100,236,283880,1,0,0:0:0:0:
239,275,284221,6,0,P|256:298|265:326,2,59.9999981689454
116,323,285244,1,0,0:0:0:0:
25,52,285585,5,0,0:0:0:0:
239,276,285925,1,0,0:0:0:0:
203,51,286266,1,0,0:0:0:0:
45,205,286607,1,0,0:0:0:0:
284,336,286948,6,0,L|290:226,1,110.000003356934,4|0,0:0|0:0,0:0:0:0:
203,51,287289,1,8,0:0:0:0:
30,122,287460,1,2,0:0:0:0:
30,122,287545,1,2,0:0:0:0:
30,122,287630,1,2,0:0:0:0:
87,303,287800,1,0,1:0:0:0:
292,202,287971,2,0,L|299:93,1,110.000003356934,8|0,0:0|0:0,0:0:0:0:
182,230,288312,6,0,P|206:280|251:309,1,110.000003356934,0|0,1:0|0:0,0:0:0:0:
462,301,288653,1,8,0:0:0:0:
292,202,288823,1,2,0:0:0:0:
292,202,288908,1,2,0:0:0:0:
292,202,288994,1,2,0:0:0:0:
414,377,289164,1,0,1:0:0:0:
509,197,289335,2,0,P|519:143|508:89,1,110.000003356934,8|2,0:0|0:0,0:0:0:0:
307,54,289675,6,0,P|293:148|388:139,1,220.000006713867,0|8,0:0|0:0,0:0:0:0:
192,70,290187,1,2,0:0:0:0:
187,108,290272,1,2,0:0:0:0:
193,145,290357,1,2,0:0:0:0:
299,310,290528,1,0,1:0:0:0:
135,202,290698,2,0,L|25:210,1,110.000003356934,8|2,0:0|0:0,0:0:0:0:
215,360,291039,6,0,P|228:307|215:254,1,110.000003356934,0|2,1:0|0:0,0:0:0:0:
118,65,291380,1,8,0:0:0:0:
291,190,291550,1,2,0:0:0:0:
329,198,291636,1,2,0:0:0:0:
367,190,291721,1,2,0:0:0:0:
405,179,291806,1,2,0:0:0:0:
442,190,291891,1,0,1:0:0:0:
329,103,292062,1,8,0:0:0:0:
404,280,292232,1,2,0:0:0:0:
504,123,292403,6,0,P|510:68|489:18,1,110.000003356934,0|0,1:0|0:0,0:0:0:0:
329,103,292744,1,8,0:0:0:0:
156,35,292914,1,2,0:0:0:0:
156,35,292999,1,2,0:0:0:0:
156,35,293085,2,0,P|102:25|50:43,1,110.000003356934,2|0,0:0|1:0,0:0:0:0:
0,219,293425,2,0,P|54:217|104:239,1,110.000003356934,8|0,0:0|0:0,0:0:0:0:
252,381,293766,6,0,B|213:345|223:277|223:277|236:210|203:175,1,220.000006713867,0|8,1:0|0:0,0:0:0:0:
50,43,294278,1,2,0:0:0:0:
50,43,294363,1,2,0:0:0:0:
50,43,294448,1,2,0:0:0:0:
104,239,294619,1,0,1:0:0:0:
328,192,294789,2,0,P|381:183|432:204,1,110.000003356934,8|2,0:0|0:0,0:0:0:0:
204,176,295130,6,0,P|224:125|265:89,1,110.000003356934,0|0,1:0|0:0,0:0:0:0:
432,204,295471,1,8,0:0:0:0:
250,298,295641,1,2,0:0:0:0:
250,298,295727,1,2,0:0:0:0:
250,298,295812,2,0,P|196:308|145:290,1,110.000003356934,2|0,0:0|1:0,0:0:0:0:
96,66,296153,2,0,L|83:175,1,110.000003356934,8|0,0:0|0:0,0:0:0:0:
12,339,296494,6,0,L|-1:229,1,110.000003356934,0|2,1:0|0:0,0:0:0:0:
170,122,296835,2,0,P|224:109|277:122,1,110.000003356934,8|2,0:0|0:0,0:0:0:0:
309,143,297090,1,2,0:0:0:0:
330,174,297175,2,0,L|317:284,1,110.000003356934,2|0,0:0|1:0,0:0:0:0:
107,319,297516,1,8,0:0:0:0:
170,122,297687,1,2,0:0:0:0:
230,352,297857,6,0,L|339:361,1,110.000003356934,4|0,0:0|0:0,0:0:0:0:
509,287,298198,2,0,L|399:295,1,110.000003356934,8|2,0:0|0:0,0:0:0:0:
392,287,298454,1,2,0:0:0:0:
385,279,298539,1,2,0:0:0:0:
443,133,298710,1,0,1:0:0:0:
331,27,298880,2,0,P|276:20|225:39,1,110.000003356934,8|0,0:0|0:0,0:0:0:0:
157,193,299221,6,0,L|178:300,1,110.000003356934,0|0,1:0|0:0,0:0:0:0:
340,360,299562,2,0,P|355:308|344:255,1,110.000003356934,8|2,0:0|0:0,0:0:0:0:
317,229,299817,1,2,0:0:0:0:
292,202,299903,2,0,P|276:149|287:96,1,110.000003356934,2|0,0:0|1:0,0:0:0:0:
400,0,300244,1,8,0:0:0:0:
395,145,300414,1,2,0:0:0:0:
173,165,300585,6,0,L|162:55,1,110.000003356934,0|0,1:0|0:0,0:0:0:0:
40,197,300925,1,8,0:0:0:0:
139,308,301096,1,2,0:0:0:0:
139,308,301181,1,2,0:0:0:0:
139,308,301266,2,0,P|192:314|240:290,1,110.000003356934,2|0,0:0|1:0,0:0:0:0:
402,153,301607,2,0,P|348:146|300:170,1,110.000003356934,8|0,0:0|0:0,0:0:0:0:
362,384,301948,6,0,L|372:274,1,110.000003356934,0|0,1:0|0:0,0:0:0:0:
264,111,302289,1,8,0:0:0:0:
190,300,302460,1,2,0:0:0:0:
225,314,302545,1,2,0:0:0:0:
262,320,302630,1,2,0:0:0:0:
300,316,302715,1,2,0:0:0:0:
336,302,302800,1,0,1:0:0:0:
512,219,302971,2,0,P|525:166|512:114,1,110.000003356934,8|2,0:0|0:0,0:0:0:0:
372,165,303312,6,0,L|264:188,1,110.000003356934,0|0,1:0|0:0,0:0:0:0:
78,98,303653,1,8,0:0:0:0:
190,46,303823,1,2,0:0:0:0:
190,46,303908,1,2,0:0:0:0:
190,46,303994,2,8,P|202:99|191:153,1,110.000003356934,2|0,0:0|1:0,0:0:0:0:
84,241,304335,2,0,P|71:294|82:347,1,110.000003356934,8|0,0:0|0:0,0:0:0:0:
213,289,304675,6,0,B|252:258|254:206|254:206|314:244|372:212,1,220.000006713867,0|8,1:0|0:0,0:0:0:0:
314,6,305187,1,2,0:0:0:0:
299,36,305273,1,2,0:0:0:0:
295,69,305358,1,2,0:0:0:0:
299,102,305442,1,2,0:0:0:0:
317,131,305528,1,0,1:0:0:0:
459,177,305698,1,8,0:0:0:0:
386,69,305869,1,2,0:0:0:0:
255,206,306039,6,0,P|203:220|151:205,1,110.000003356934,0|0,1:0|0:0,0:0:0:0:
0,293,306380,2,0,P|52:279|104:294,1,110.000003356934,8|2,0:0|0:0,0:0:0:0:
138,313,306636,1,2,0:0:0:0:
168,336,306721,2,0,L|274:308,1,110.000003356934,2|0,0:0|1:0,0:0:0:0:
151,99,307062,2,0,P|136:151|149:203,1,110.000003356934,8|0,0:0|0:0,0:0:0:0:
373,352,307403,5,0,1:0:0:0:
466,140,307573,1,2,0:0:0:0:
254,151,307744,1,12,0:0:0:0:
477,261,307914,1,2,0:0:0:0:
477,261,307999,1,2,0:0:0:0:
477,261,308085,1,2,0:0:0:0:
373,352,308255,1,0,1:0:0:0:
254,151,308425,1,8,0:0:0:0:
158,276,308596,1,2,0:0:0:0:
373,352,308766,6,0,P|389:271|370:192,1,165.000005035401,4|0,0:0|0:0,0:0:0:0:
355,169,309107,1,8,0:0:0:0:
216,40,309278,1,2,0:0:0:0:
204,44,309363,1,2,0:0:0:0:
192,48,309448,2,0,P|180:108|196:164,1,110.000003356934,2|0,0:0|1:0,0:0:0:0:
155,292,309789,2,0,L|264:272,1,110.000003356934,8|0,0:0|0:0,0:0:0:0:
481,331,310130,6,0,L|372:351,1,110.000003356934,0|0,1:0|0:0,0:0:0:0:
264,272,310471,1,8,0:0:0:0:
340,80,310641,1,2,0:0:0:0:
360,112,310727,1,2,0:0:0:0:
368,148,310812,1,2,0:0:0:0:
364,184,310897,1,2,0:0:0:0:
348,220,310982,1,0,1:0:0:0:
184,196,311153,2,0,L|75:216,1,110.000003356934,8|2,0:0|0:0,0:0:0:0:
48,40,311494,6,0,P|112:28|168:44,1,110.000003356934,0|0,1:0|0:0,0:0:0:0:
236,96,311749,1,0,0:0:0:0:
236,96,311835,2,0,P|300:108|356:92,1,110.000003356934,8|2,0:0|0:0,0:0:0:0:
432,48,312090,1,2,0:0:0:0:
432,48,312175,2,0,L|448:192,1,110.000003356934,2|0,0:0|1:0,0:0:0:0:
416,344,312516,1,8,0:0:0:0:
508,248,312687,1,0,0:0:0:0:
324,292,312857,6,0,L|204:292,1,110.000003356934,0|2,1:0|0:0,0:0:0:0:
80,336,313198,1,8,0:0:0:0:
210,152,313369,1,2,0:0:0:0:
230,184,313454,1,2,0:0:0:0:
238,220,313539,1,2,0:0:0:0:
230,256,313624,1,2,0:0:0:0:
214,292,313710,1,0,1:0:0:0:
56,192,313880,2,0,P|44:136|72:60,1,110.000003356934,8|2,0:0|0:0,0:0:0:0:
216,44,314221,6,0,B|272:60|272:60|352:36,1,110.000003356934,0|0,1:0|0:0,0:0:0:0:
496,136,314562,2,0,B|440:120|440:120|360:144,1,110.000003356934,8|2,0:0|0:0,0:0:0:0:
376,144,314817,1,2,0:0:0:0:
360,152,314903,2,0,P|374:206|351:273,1,110.000003356934,2|0,0:0|1:0,0:0:0:0:
180,348,315244,1,8,0:0:0:0:
280,204,315414,1,0,0:0:0:0:
424,348,315585,6,0,P|364:360|288:324,1,110.000003356934,0|0,1:0|0:0,0:0:0:0:
176,228,315925,1,8,0:0:0:0:
32,304,316096,1,2,0:0:0:0:
16,268,316181,1,2,0:0:0:0:
12,228,316266,1,2,0:0:0:0:
16,188,316352,1,2,0:0:0:0:
32,152,316437,1,0,1:0:0:0:
120,44,316607,2,0,L|228:92,1,110.000003356934,8|2,0:0|0:0,0:0:0:0:
416,160,316948,6,0,P|424:92|408:44,1,110.000003356934,0|0,1:0|0:0,0:0:0:0:
404,40,317204,1,0,0:0:0:0:
396,28,317289,1,8,0:0:0:0:
288,220,317460,1,2,0:0:0:0:
288,220,317545,1,2,0:0:0:0:
288,220,317630,2,0,L|396:268,1,110.000003356934,2|0,0:0|1:0,0:0:0:0:
328,112,317971,1,8,0:0:0:0:
176,176,318141,1,0,0:0:0:0:
244,320,318312,6,0,P|196:332|116:308,1,110.000003356934,0|2,1:0|0:0,0:0:0:0:
44,156,318653,2,0,P|92:144|172:168,1,110.000003356934,8|2,0:0|0:0,0:0:0:0:
164,164,318908,1,2,0:0:0:0:
176,176,318994,2,0,L|164:56,1,110.000003356934,2|0,0:0|1:0,0:0:0:0:
346,66,319335,2,0,L|336:176,1,110.000003356934,8|2,0:0|0:0,0:0:0:0:
456,352,319675,6,0,P|492:252|424:136,1,220.000006713867,4|8,0:0|0:0,0:0:0:0:
300,260,320187,1,2,0:0:0:0:
336,268,320272,1,2,0:0:0:0:
372,260,320357,1,2,0:0:0:0:
340,128,320528,1,0,1:0:0:0:
176,216,320698,2,0,P|184:280|168:352,1,110.000003356934,8|0,0:0|0:0,0:0:0:0:
12,140,321039,6,0,B|58:168|142:144|94:120|182:100|224:131,1,220.000006713867,0|8,1:0|0:0,0:0:0:0:
412,48,321550,1,2,0:0:0:0:
376,28,321636,1,2,0:0:0:0:
340,20,321721,1,2,0:0:0:0:
304,28,321806,1,2,0:0:0:0:
272,44,321891,1,0,1:0:0:0:
336,268,322062,1,8,0:0:0:0:
340,128,322232,1,2,0:0:0:0:
268,340,322403,6,0,P|216:348|140:332,1,110.000003356934,0|0,1:0|0:0,0:0:0:0:
152,332,322658,1,0,0:0:0:0:
144,324,322744,1,8,0:0:0:0:
64,184,322914,1,2,0:0:0:0:
64,184,322999,1,2,0:0:0:0:
64,184,323085,2,0,L|64:294,1,110.000003356934,2|0,0:0|1:0,0:0:0:0:
216,168,323425,2,0,L|216:58,1,110.000003356934,8|0,0:0|0:0,0:0:0:0:
272,240,323766,6,0,P|200:256|164:240,1,110.000003356934,0|0,1:0|0:0,0:0:0:0:
12,112,324107,2,0,P|84:96|120:112,1,110.000003356934,8|2,0:0|0:0,0:0:0:0:
124,116,324363,1,2,0:0:0:0:
132,124,324448,1,2,0:0:0:0:
64,294,324619,1,0,1:0:0:0:
272,240,324789,2,0,L|356:356,1,110.000003356934,8|2,0:0|0:0,0:0:0:0:
487,255,325130,6,0,P|499:179|475:111,1,110.000003356934,0|0,1:0|0:0,0:0:0:0:
455,63,325386,1,0,1:0:0:0:
455,63,325471,1,0,0:0:0:0:
244,152,325641,2,0,P|271:150|299:155,1,55.0000016784668,8|0,0:0|0:0,0:0:0:0:
367,235,325812,1,0,1:0:0:0:
167,231,325982,1,2,0:0:0:0:
271,59,326153,1,8,0:0:0:0:
271,59,326323,1,0,1:0:0:0:
271,319,326494,5,0,1:0:0:0:
271,319,326664,1,0,1:0:0:0:
35,287,326835,2,0,P|19:223|43:155,1,110.000003356934,8|10,0:0|0:0,0:0:0:0:
35,167,327090,1,2,0:0:0:0:
43,155,327175,1,2,0:0:0:0:
255,119,327346,1,0,1:0:0:0:
135,231,327516,1,10,0:0:0:0:
159,39,327687,1,0,1:0:0:0:
339,147,327857,6,0,B|391:199|351:295|351:295|299:371|187:343|227:211|307:227|351:295|351:295|359:323|395:351|439:335,1,527.999998388672,4|2,0:0|0:0,0:0:0:0:
256,192,329306,12,0,330414,0:0:0:0:
86,201,330585,6,0,P|60:147|68:88,1,119.999996337891,2|8,1:0|0:0,0:0:0:0:
175,73,331096,2,0,P|200:126|192:185,1,119.999996337891,2|0,0:1|1:0,0:0:0:0:
155,287,331607,2,0,L|163:346,1,59.9999981689454,10|0,0:1|0:0,0:0:0:0:
268,374,331948,1,0,0:0:0:0:
416,331,332119,6,0,P|389:319|360:317,2,59.9999981689454,2|8|0,0:1|0:0|0:0,0:0:0:0:
502,265,332630,2,0,L|512:205,1,59.9999981689454,2|0,0:1|1:0,0:0:0:0:
453,114,332971,2,0,L|444:54,1,59.9999981689454,10|0,0:1|0:0,0:0:0:0:
393,204,333312,6,0,P|333:209|279:187,1,119.999996337891,2|8,1:0|0:0,0:0:0:0:
234,88,333823,2,0,P|179:65|120:71,1,119.999996337891,2|0,0:1|1:0,0:0:0:0:
53,156,334335,2,0,L|64:214,1,59.9999981689454,10|0,0:1|0:0,0:0:0:0:
146,284,334675,1,0,1:0:0:0:
279,187,334846,6,0,L|290:129,2,59.9999981689454,2|8|0,0:1|0:0|0:0,0:0:0:0:
362,256,335357,2,0,L|421:248,1,59.9999981689454,2|0,0:1|1:0,0:0:0:0:
446,142,335698,2,0,L|387:150,1,59.9999981689454,10|0,0:1|0:0,0:0:0:0:
242,271,336039,6,0,L|361:256,1,119.999996337891,2|8,1:0|0:0,0:0:0:0:
414,350,336550,2,0,L|295:365,1,119.999996337891,2|0,0:1|1:0,0:0:0:0:
185,365,337062,2,0,L|125:358,1,59.9999981689454,10|0,0:1|0:0,0:0:0:0:
78,260,337403,1,0,1:0:0:0:
126,103,337573,6,0,L|186:96,2,59.9999981689454,2|8|0,0:1|0:0|0:0,0:0:0:0:
172,201,338085,2,0,L|232:208,1,59.9999981689454,2|0,0:1|1:0,0:0:0:0:
328,161,338425,2,0,L|388:154,1,59.9999981689454,10|0,0:1|0:0,0:0:0:0:
460,75,338766,6,0,P|438:129|450:187,1,119.999996337891,2|8,1:0|0:0,0:0:0:0:
370,262,339278,2,0,P|382:319|359:374,1,119.999996337891,2|0,0:1|1:0,0:0:0:0:
272,309,339789,2,0,L|261:249,1,59.9999981689454,10|0,0:1|0:0,0:0:0:0:
243,143,340130,1,0,0:0:0:0:
100,220,340300,6,0,P|130:221|158:211,2,59.9999981689454,2|8|0,0:1|0:0|0:0,0:0:0:0:
85,111,340812,2,0,P|113:100|143:101,1,59.9999981689454,2|0,0:1|0:0,0:0:0:0:
243,143,341153,1,10,0:1:0:0:
343,103,341323,1,0,0:0:0:0:
467,267,341494,6,0,P|412:289|354:278,1,119.999996337891,4|0,0:0|0:0,0:0:0:0:
273,211,342005,2,0,L|163:259,1,119.999996337891,2|0,0:1|0:0,0:0:0:0:
80,189,342516,2,0,P|76:160|84:131,1,59.9999981689454,2|0,0:1|0:0,0:0:0:0:
177,74,342857,1,0,0:0:0:0:
273,123,343028,6,0,P|302:126|331:118,2,59.9999981689454,2|0|0,0:1|0:0|0:0,0:0:0:0:
265,14,343539,2,0,P|293:5|323:9,1,59.9999981689454,2|0,0:1|0:0,0:0:0:0:
414,68,343880,2,0,L|405:127,1,59.9999981689454,2|0,0:1|0:0,0:0:0:0:
337,211,344221,6,0,L|218:230,1,119.999996337891,2|0,0:1|0:0,0:0:0:0:
110,235,344732,1,2,0:1:0:0:
110,235,344903,2,0,P|124:177|166:136,1,119.999996337891,2|2,0:1|0:1,0:0:0:0:
219,230,345414,1,0,0:0:0:0:
171,327,345585,1,0,0:0:0:0:
171,326,345755,6,0,P|224:302|283:310,1,119.999996337891,2|0,0:1|0:0,0:0:0:0:
373,370,346266,2,0,P|402:375|431:369,1,59.9999981689454,2|0,0:1|0:0,0:0:0:0:
504,288,346607,2,0,L|511:228,1,59.9999981689454,2|0,0:1|0:0,0:0:0:0:
445,142,346948,6,0,P|388:156|329:144,1,119.999996337891,2|0,0:1|0:0,0:0:0:0:
230,191,347460,2,0,P|171:179|113:193,1,119.999996337891,2|0,0:1|0:0,0:0:0:0:
118,301,347971,2,0,P|176:312|234:298,1,119.999996337891,2|0,0:1|0:0,0:0:0:0:
323,236,348482,6,0,P|335:208|334:178,2,59.9999981689454,2|0|0,0:1|0:0|0:0,0:0:0:0:
230,191,348994,2,0,P|200:194|175:210,1,59.9999981689454,2|0,0:1|0:0,0:0:0:0:
234,298,349335,2,0,P|251:321|278:335,1,59.9999981689454,2|0,0:1|0:0,0:0:0:0:
385,326,349675,6,0,P|423:281|429:222,1,119.999996337891,2|0,0:1|0:0,0:0:0:0:
463,118,350187,2,0,P|404:112|351:140,1,119.999996337891,2|0,0:1|0:0,0:0:0:0:
276,218,350698,2,0,B|217:233|217:233|159:218,1,119.999996337891,2|0,0:1|0:0,0:0:0:0:
57,180,351210,6,0,P|51:238|79:291,1,119.999996337891,2|0,0:1|0:0,0:0:0:0:
181,329,351721,2,0,L|239:341,1,59.9999981689454,2|0,0:1|0:0,0:0:0:0:
340,302,352062,2,0,L|398:289,1,59.9999981689454,2|0,0:1|0:0,0:0:0:0:
486,225,352403,5,0,0:0:0:0:
256,192,352488,12,0,360585,0:0:0:0:
