osu file format v14

[General]
AudioFilename: audio.mp3
AudioLeadIn: 0
PreviewTime: 285249
Countdown: 0
SampleSet: Normal
StackLeniency: 0.7
Mode: 1
LetterboxInBreaks: 0
WidescreenStoryboard: 0

[Editor]
DistanceSpacing: 0.3
BeatDivisor: 4
GridSize: 32
TimelineZoom: 2

[Metadata]
Title:Okaerinasai (tomatomerde Remix)
TitleUnicode:おかえりなさい (tomatomerde Remix)
Artist:Sakamoto Maaya
ArtistUnicode:坂本真綾
Creator:Akonine
Version:Reminiscence
Source:たまゆら~hitotose~
Tags:japanese jpop j-pop d&b drum_and_bass DnB female vocals vocalist
BeatmapID:3572290
BeatmapSetID:1746436

[Difficulty]
HPDrainRate:5
CircleSize:2
OverallDifficulty:7
ApproachRate:10
SliderMultiplier:1.4
SliderTickRate:1

[Events]
//Background and Video events
0,0,"sunflower22.png",0,-40
//Break Periods
2,259880,264685
2,279653,284799
//Storyboard Layer 0 (Background)
//Storyboard Layer 1 (Fail)
//Storyboard Layer 2 (Pass)
//Storyboard Layer 3 (Foreground)
//Storyboard Layer 4 (Overlay)
//Storyboard Sound Samples

[TimingPoints]
590,340.909090909091,4,1,0,90,1,0
44567,-105.263157894737,4,1,0,90,0,0
69112,-100,4,1,0,90,0,0
90590,-100,4,1,0,90,0,1
131499,-100,4,1,0,90,0,0
156385,-105.263157894737,4,1,0,90,0,0
180930,-100,4,1,0,90,0,0
202408,-100,4,1,0,90,0,1
243317,-100,4,1,0,90,0,0
259680,-111.111111111111,4,1,0,80,0,0
278771,-100,4,1,0,90,0,0
286953,-100,4,1,0,90,0,1
327862,-100,4,1,0,90,0,0
341840,-105.263157894737,4,1,0,90,0,0
352423,337.078651685393,4,1,0,90,1,8
352760,365.853658536585,4,1,0,90,1,0
353125,372.670807453416,4,1,0,90,1,0
354230,413.793103448276,4,1,0,90,1,0
354643,461.538461538462,4,1,0,90,1,0
355104,594.059405940594,4,1,0,90,1,0

[HitObjects]
256,192,19680,5,0,0:0:0:0:
256,192,20021,1,8,0:0:0:0:
256,192,20362,1,0,0:0:0:0:
256,192,20703,1,8,0:0:0:0:
256,192,21044,1,0,0:0:0:0:
256,192,21215,1,0,0:0:0:0:
256,192,21385,1,8,0:0:0:0:
256,192,21555,1,8,0:0:0:0:
256,192,21726,1,0,0:0:0:0:
256,192,21896,1,0,0:0:0:0:
256,192,22067,1,8,0:0:0:0:
256,192,22408,1,4,0:0:0:0:
256,192,22749,1,8,0:0:0:0:
256,192,22919,1,0,0:0:0:0:
256,192,23260,1,0,0:0:0:0:
256,192,23430,1,8,0:0:0:0:
256,192,23771,1,0,0:0:0:0:
256,192,23942,1,0,0:0:0:0:
256,192,24027,1,0,0:0:0:0:
256,192,24112,1,8,0:0:0:0:
256,192,24283,1,0,0:0:0:0:
256,192,24453,1,8,0:0:0:0:
256,192,24538,1,8,0:0:0:0:
256,192,24624,1,0,0:0:0:0:
256,192,24709,1,0,0:0:0:0:
256,192,24794,1,8,0:0:0:0:
256,192,24965,1,0,0:0:0:0:
256,192,25135,1,0,0:0:0:0:
256,192,25476,1,8,0:0:0:0:
256,192,25646,1,0,0:0:0:0:
256,192,25987,1,0,0:0:0:0:
256,192,26158,1,8,0:0:0:0:
256,192,26499,1,0,0:0:0:0:
256,192,26669,1,8,0:0:0:0:
256,192,26754,1,0,0:0:0:0:
256,192,26840,1,8,0:0:0:0:
256,192,26925,1,8,0:0:0:0:
256,192,27010,1,0,0:0:0:0:
256,192,27180,1,8,0:0:0:0:
256,192,27351,1,0,0:0:0:0:
256,192,27436,1,0,0:0:0:0:
256,192,27521,1,8,0:0:0:0:
256,192,27692,1,8,0:0:0:0:
256,192,27862,1,0,0:0:0:0:
256,192,28203,1,8,0:0:0:0:
256,192,28374,1,0,0:0:0:0:
256,192,28715,1,0,0:0:0:0:
256,192,28885,1,8,0:0:0:0:
256,192,29055,1,8,0:0:0:0:
256,192,29141,1,8,0:0:0:0:
256,192,29226,1,0,0:0:0:0:
256,192,29396,1,0,0:0:0:0:
256,192,29567,1,8,0:0:0:0:
256,192,29652,1,0,0:0:0:0:
256,192,29737,1,8,0:0:0:0:
256,192,29822,1,8,0:0:0:0:
256,192,29908,1,0,0:0:0:0:
256,192,30078,1,0,0:0:0:0:
256,192,30163,1,0,0:0:0:0:
256,192,30249,1,8,0:0:0:0:
256,192,30419,1,0,0:0:0:0:
256,192,30590,1,0,0:0:0:0:
256,192,30930,1,8,0:0:0:0:
256,192,31101,1,0,0:0:0:0:
256,192,31442,1,0,0:0:0:0:
256,192,31612,1,8,0:0:0:0:
256,192,31953,1,0,0:0:0:0:
256,192,32124,1,0,0:0:0:0:
256,192,32209,1,0,0:0:0:0:
256,192,32294,1,8,0:0:0:0:
256,192,32465,1,0,0:0:0:0:
256,192,32635,1,8,0:0:0:0:
256,192,32720,1,8,0:0:0:0:
256,192,32805,1,0,0:0:0:0:
256,192,32891,1,0,0:0:0:0:
256,192,32976,1,8,0:0:0:0:
256,192,33146,1,0,0:0:0:0:
256,192,33317,1,0,0:0:0:0:
256,192,33658,1,8,0:0:0:0:
256,192,33828,1,0,0:0:0:0:
256,192,34169,1,0,0:0:0:0:
256,192,34340,1,8,0:0:0:0:
256,192,34680,1,0,0:0:0:0:
256,192,34766,1,8,0:0:0:0:
256,192,34851,1,0,0:0:0:0:
256,192,34936,1,0,0:0:0:0:
256,192,35021,1,8,0:0:0:0:
256,192,35192,1,8,0:0:0:0:
256,192,35277,1,8,0:0:0:0:
256,192,35362,1,0,0:0:0:0:
256,192,35533,1,0,0:0:0:0:
256,192,35618,1,0,0:0:0:0:
256,192,35703,1,8,0:0:0:0:
256,192,35874,1,0,0:0:0:0:
256,192,36044,1,0,0:0:0:0:
256,192,36385,1,8,0:0:0:0:
256,192,36555,1,0,0:0:0:0:
256,192,36896,1,0,0:0:0:0:
256,192,37067,1,8,0:0:0:0:
256,192,37408,1,0,0:0:0:0:
256,192,37578,1,0,0:0:0:0:
256,192,37663,1,0,0:0:0:0:
256,192,37749,1,8,0:0:0:0:
256,192,37919,1,0,0:0:0:0:
256,192,38090,1,8,0:0:0:0:
256,192,38175,1,8,0:0:0:0:
256,192,38260,1,0,0:0:0:0:
256,192,38345,1,8,0:0:0:0:
256,192,38430,1,0,0:0:0:0:
256,192,38601,1,8,0:0:0:0:
256,192,38771,1,0,0:0:0:0:
256,192,39112,1,8,0:0:0:0:
256,192,39283,1,0,0:0:0:0:
256,192,39624,1,0,0:0:0:0:
256,192,39794,1,8,0:0:0:0:
256,192,40135,1,0,0:0:0:0:
256,192,40305,1,0,0:0:0:0:
256,192,40391,1,0,0:0:0:0:
256,192,40476,1,8,0:0:0:0:
256,192,40561,1,8,0:0:0:0:
256,192,40646,1,0,0:0:0:0:
256,192,40817,1,8,0:0:0:0:
256,192,40902,1,8,0:0:0:0:
256,192,40987,1,0,0:0:0:0:
256,192,41158,1,8,0:0:0:0:
256,192,41328,1,0,0:0:0:0:
256,192,41499,1,0,0:0:0:0:
256,192,41840,1,8,0:0:0:0:
256,192,42010,1,0,0:0:0:0:
256,192,42351,1,0,0:0:0:0:
256,192,42521,1,8,0:0:0:0:
256,192,42862,1,0,0:0:0:0:
256,192,43033,1,0,0:0:0:0:
256,192,43203,1,8,0:0:0:0:
256,192,43374,1,0,0:0:0:0:
256,192,43459,1,0,0:0:0:0:
256,192,43544,1,0,0:0:0:0:
256,192,43715,1,8,0:0:0:0:
256,192,43800,1,0,0:0:0:0:
256,192,43885,1,8,0:0:0:0:
256,192,44055,1,0,0:0:0:0:
256,192,44226,1,4,0:0:0:0:
256,192,44567,1,8,0:0:0:0:
256,192,44737,1,0,0:0:0:0:
256,192,45078,1,0,0:0:0:0:
256,192,45249,1,8,0:0:0:0:
256,192,45590,1,0,0:0:0:0:
256,192,45930,1,8,0:0:0:0:
256,192,46101,1,8,0:0:0:0:
256,192,46271,1,0,0:0:0:0:
256,192,46442,1,0,0:0:0:0:
256,192,46612,1,8,0:0:0:0:
256,192,46783,1,0,0:0:0:0:
256,192,46953,1,8,0:0:0:0:
256,192,47294,1,8,0:0:0:0:
256,192,47465,1,0,0:0:0:0:
256,192,47805,1,0,0:0:0:0:
256,192,47976,1,8,0:0:0:0:
256,192,48317,1,0,0:0:0:0:
256,192,48658,1,8,0:0:0:0:
256,192,48828,1,0,0:0:0:0:
256,192,49169,1,0,0:0:0:0:
256,192,49340,1,8,0:0:0:0:
256,192,49510,1,8,0:0:0:0:
256,192,49680,1,0,0:0:0:0:
256,192,50021,1,0,0:0:0:0:
256,192,50192,1,8,0:0:0:0:
256,192,50533,1,8,0:0:0:0:
256,192,50703,1,0,0:0:0:0:
256,192,50874,1,0,0:0:0:0:
256,192,51044,1,8,0:0:0:0:
256,192,51385,1,8,0:0:0:0:
256,192,51555,1,0,0:0:0:0:
256,192,51896,1,0,0:0:0:0:
256,192,52067,1,8,0:0:0:0:
256,192,52237,1,8,0:0:0:0:
256,192,52408,1,0,0:0:0:0:
256,192,52749,1,8,0:0:0:0:
256,192,52919,1,0,0:0:0:0:
256,192,53260,1,0,0:0:0:0:
256,192,53430,1,0,0:0:0:0:
256,192,53601,1,8,0:0:0:0:
256,192,53771,1,0,0:0:0:0:
256,192,54112,1,8,0:0:0:0:
256,192,54283,1,0,0:0:0:0:
256,192,54368,1,0,0:0:0:0:
256,192,54453,1,8,0:0:0:0:
256,192,54624,1,0,0:0:0:0:
256,192,54794,1,8,0:0:0:0:
256,192,54965,1,8,0:0:0:0:
256,192,55135,1,0,0:0:0:0:
256,192,55476,1,8,0:0:0:0:
256,192,55646,1,0,0:0:0:0:
256,192,55987,1,0,0:0:0:0:
256,192,56158,1,8,0:0:0:0:
256,192,56499,1,0,0:0:0:0:
256,192,56840,1,8,0:0:0:0:
256,192,57010,1,8,0:0:0:0:
256,192,57180,1,0,0:0:0:0:
256,192,57351,1,0,0:0:0:0:
256,192,57521,1,8,0:0:0:0:
256,192,57692,1,0,0:0:0:0:
256,192,57862,1,8,0:0:0:0:
256,192,58203,1,8,0:0:0:0:
256,192,58374,1,0,0:0:0:0:
256,192,58715,1,0,0:0:0:0:
256,192,58885,1,8,0:0:0:0:
256,192,59226,1,0,0:0:0:0:
256,192,59567,1,8,0:0:0:0:
256,192,59908,1,0,0:0:0:0:
256,192,60078,1,8,0:0:0:0:
256,192,60249,1,0,0:0:0:0:
256,192,60419,1,0,0:0:0:0:
256,192,60590,1,8,0:0:0:0:
256,192,60930,1,8,0:0:0:0:
256,192,61101,1,0,0:0:0:0:
256,192,61442,1,0,0:0:0:0:
256,192,61612,1,8,0:0:0:0:
256,192,61783,1,8,0:0:0:0:
256,192,61953,1,0,0:0:0:0:
256,192,62294,1,8,0:0:0:0:
256,192,62635,1,8,0:0:0:0:
256,192,62805,1,0,0:0:0:0:
256,192,62976,1,8,0:0:0:0:
256,192,63146,1,8,0:0:0:0:
256,192,63317,1,0,0:0:0:0:
256,192,63658,1,8,0:0:0:0:
256,192,63828,1,8,0:0:0:0:
256,192,63999,1,0,0:0:0:0:
256,192,64169,1,0,0:0:0:0:
256,192,64340,1,8,0:0:0:0:
256,192,64510,1,0,0:0:0:0:
256,192,64680,1,0,0:0:0:0:
256,192,65021,1,8,0:0:0:0:
256,192,65362,1,8,0:0:0:0:
256,192,65533,1,0,0:0:0:0:
256,192,65703,1,8,0:0:0:0:
256,192,65874,1,8,0:0:0:0:
256,192,66044,1,0,0:0:0:0:
256,192,66385,1,8,0:0:0:0:
256,192,66726,1,8,0:0:0:0:
256,192,66896,1,0,0:0:0:0:
256,192,67067,1,8,0:0:0:0:
256,192,67408,1,0,0:0:0:0:
256,192,67578,1,0,0:0:0:0:
256,192,67749,1,8,0:0:0:0:
256,192,67919,1,0,0:0:0:0:
256,192,68090,1,0,0:0:0:0:
256,192,68260,1,8,0:0:0:0:
256,192,68430,1,8,0:0:0:0:
256,192,68601,1,0,0:0:0:0:
256,192,68771,1,12,0:0:0:0:
256,192,69112,1,8,0:0:0:0:
256,192,69283,1,0,0:0:0:0:
256,192,69368,1,0,0:0:0:0:
256,192,69453,1,0,0:0:0:0:
256,192,69624,1,0,0:0:0:0:
256,192,69794,1,8,0:0:0:0:
256,192,69965,1,0,0:0:0:0:
256,192,70050,1,0,0:0:0:0:
256,192,70135,1,8,0:0:0:0:
256,192,70220,1,8,0:0:0:0:
256,192,70305,1,0,0:0:0:0:
256,192,70476,1,8,0:0:0:0:
256,192,70646,1,0,0:0:0:0:
256,192,70817,1,8,0:0:0:0:
256,192,70902,1,8,0:0:0:0:
256,192,70987,1,0,0:0:0:0:
256,192,71072,1,0,0:0:0:0:
256,192,71158,1,8,0:0:0:0:
256,192,71328,1,8,0:0:0:0:
256,192,71413,1,8,0:0:0:0:
256,192,71499,1,0,0:0:0:0:
256,192,71669,1,0,0:0:0:0:
256,192,71840,1,8,0:0:0:0:
256,192,72010,1,0,0:0:0:0:
256,192,72180,1,8,0:0:0:0:
256,192,72351,1,8,0:0:0:0:
256,192,72521,1,0,0:0:0:0:
256,192,72692,1,8,0:0:0:0:
256,192,72862,1,0,0:0:0:0:
256,192,73203,1,8,0:0:0:0:
256,192,73374,1,0,0:0:0:0:
256,192,73459,1,0,0:0:0:0:
256,192,73544,1,0,0:0:0:0:
256,192,73715,1,0,0:0:0:0:
256,192,73885,1,8,0:0:0:0:
256,192,73970,1,0,0:0:0:0:
256,192,74055,1,8,0:0:0:0:
256,192,74141,1,8,0:0:0:0:
256,192,74226,1,0,0:0:0:0:
256,192,74396,1,0,0:0:0:0:
256,192,74567,1,8,0:0:0:0:
256,192,74652,1,8,0:0:0:0:
256,192,74737,1,0,0:0:0:0:
256,192,74822,1,0,0:0:0:0:
256,192,74908,1,8,0:0:0:0:
256,192,75078,1,0,0:0:0:0:
256,192,75163,1,8,0:0:0:0:
256,192,75249,1,0,0:0:0:0:
256,192,75334,1,0,0:0:0:0:
256,192,75419,1,8,0:0:0:0:
256,192,75504,1,8,0:0:0:0:
256,192,75590,1,0,0:0:0:0:
256,192,75760,1,0,0:0:0:0:
256,192,75930,1,8,0:0:0:0:
256,192,76016,1,0,0:0:0:0:
256,192,76101,1,8,0:0:0:0:
256,192,76186,1,8,0:0:0:0:
256,192,76271,1,0,0:0:0:0:
256,192,76442,1,0,0:0:0:0:
256,192,76527,1,0,0:0:0:0:
256,192,76612,1,8,0:0:0:0:
256,192,76697,1,0,0:0:0:0:
256,192,76783,1,8,0:0:0:0:
256,192,76953,1,0,0:0:0:0:
256,192,77124,1,0,0:0:0:0:
256,192,77209,1,0,0:0:0:0:
256,192,77294,1,8,0:0:0:0:
256,192,77465,1,8,0:0:0:0:
256,192,77635,1,0,0:0:0:0:
256,192,77805,1,0,0:0:0:0:
256,192,77976,1,8,0:0:0:0:
256,192,78146,1,0,0:0:0:0:
256,192,78317,1,0,0:0:0:0:
256,192,78487,1,8,0:0:0:0:
256,192,78572,1,0,0:0:0:0:
256,192,78658,1,8,0:0:0:0:
256,192,78828,1,0,0:0:0:0:
256,192,78999,1,8,0:0:0:0:
256,192,79084,1,8,0:0:0:0:
256,192,79169,1,0,0:0:0:0:
256,192,79254,1,0,0:0:0:0:
256,192,79340,1,8,0:0:0:0:
256,192,79510,1,8,0:0:0:0:
256,192,79595,1,8,0:0:0:0:
256,192,79680,1,0,0:0:0:0:
256,192,79851,1,0,0:0:0:0:
256,192,80021,1,8,0:0:0:0:
256,192,80107,1,0,0:0:0:0:
256,192,80192,1,8,0:0:0:0:
256,192,80277,1,8,0:0:0:0:
256,192,80362,1,0,0:0:0:0:
256,192,80533,1,0,0:0:0:0:
256,192,80618,1,0,0:0:0:0:
256,192,80703,1,8,0:0:0:0:
256,192,80788,1,0,0:0:0:0:
256,192,80874,1,8,0:0:0:0:
256,192,81044,1,0,0:0:0:0:
256,192,81215,1,0,0:0:0:0:
256,192,81300,1,0,0:0:0:0:
256,192,81385,1,8,0:0:0:0:
256,192,81470,1,8,0:0:0:0:
256,192,81555,1,0,0:0:0:0:
256,192,81726,1,0,0:0:0:0:
256,192,81896,1,8,0:0:0:0:
256,192,81982,1,0,0:0:0:0:
256,192,82067,1,8,0:0:0:0:
256,192,82152,1,8,0:0:0:0:
256,192,82237,1,0,0:0:0:0:
256,192,82322,1,0,0:0:0:0:
256,192,82408,1,8,0:0:0:0:
256,192,82578,1,0,0:0:0:0:
256,192,82663,1,0,0:0:0:0:
256,192,82749,1,8,0:0:0:0:
256,192,82919,1,8,0:0:0:0:
256,192,83004,1,8,0:0:0:0:
256,192,83090,1,0,0:0:0:0:
256,192,83260,1,0,0:0:0:0:
256,192,83430,1,8,0:0:0:0:
256,192,83601,1,0,0:0:0:0:
256,192,83686,1,0,0:0:0:0:
256,192,83771,1,0,0:0:0:0:
256,192,84112,1,8,0:0:0:0:
256,192,84453,1,8,0:0:0:0:
256,192,84624,1,0,0:0:0:0:
256,192,84794,1,8,0:0:0:0:
256,192,85135,1,0,0:0:0:0:
256,192,85476,1,8,0:0:0:0:
256,192,85817,1,8,0:0:0:0:
256,192,85987,1,0,0:0:0:0:
256,192,86158,1,8,0:0:0:0:
256,192,86499,1,0,0:0:0:0:
256,192,86840,1,8,0:0:0:0:
256,192,87180,1,8,0:0:0:0:
256,192,87351,1,0,0:0:0:0:
256,192,87521,1,8,0:0:0:0:
256,192,87692,1,0,0:0:0:0:
256,192,87862,1,4,0:0:0:0:
256,192,88203,1,0,0:0:0:0:
256,192,88544,1,8,0:0:0:0:
256,192,88885,1,0,0:0:0:0:
256,192,89226,1,8,0:0:0:0:
256,192,89396,1,0,0:0:0:0:
256,192,89567,1,0,0:0:0:0:
256,192,89737,1,8,0:0:0:0:
256,192,89908,1,0,0:0:0:0:
256,192,90078,1,0,0:0:0:0:
256,192,90249,1,8,0:0:0:0:
256,192,90590,1,4,0:0:0:0:
256,192,90760,1,0,0:0:0:0:
256,192,90845,1,0,0:0:0:0:
256,192,90930,1,8,0:0:0:0:
256,192,91101,1,0,0:0:0:0:
256,192,91271,1,8,0:0:0:0:
256,192,91357,1,8,0:0:0:0:
256,192,91442,1,0,0:0:0:0:
256,192,91527,1,0,0:0:0:0:
256,192,91612,1,8,0:0:0:0:
256,192,91783,1,0,0:0:0:0:
256,192,91953,1,8,0:0:0:0:
256,192,92124,1,8,0:0:0:0:
256,192,92209,1,8,0:0:0:0:
256,192,92294,1,0,0:0:0:0:
256,192,92465,1,0,0:0:0:0:
256,192,92635,1,8,0:0:0:0:
256,192,92720,1,0,0:0:0:0:
256,192,92805,1,8,0:0:0:0:
256,192,92891,1,8,0:0:0:0:
256,192,92976,1,0,0:0:0:0:
256,192,93146,1,0,0:0:0:0:
256,192,93232,1,0,0:0:0:0:
256,192,93317,1,8,0:0:0:0:
256,192,93487,1,8,0:0:0:0:
256,192,93572,1,8,0:0:0:0:
256,192,93658,1,0,0:0:0:0:
256,192,93828,1,8,0:0:0:0:
256,192,93999,1,0,0:0:0:0:
256,192,94084,1,0,0:0:0:0:
256,192,94169,1,8,0:0:0:0:
256,192,94254,1,8,0:0:0:0:
256,192,94340,1,0,0:0:0:0:
256,192,94510,1,8,0:0:0:0:
256,192,94680,1,0,0:0:0:0:
256,192,94851,1,0,0:0:0:0:
256,192,94936,1,0,0:0:0:0:
256,192,95021,1,8,0:0:0:0:
256,192,95192,1,8,0:0:0:0:
256,192,95362,1,0,0:0:0:0:
256,192,95447,1,8,0:0:0:0:
256,192,95533,1,0,0:0:0:0:
256,192,95618,1,0,0:0:0:0:
256,192,95703,1,8,0:0:0:0:
256,192,95874,1,8,0:0:0:0:
256,192,95959,1,8,0:0:0:0:
256,192,96044,1,0,0:0:0:0:
256,192,96215,1,0,0:0:0:0:
256,192,96385,1,8,0:0:0:0:
256,192,96470,1,8,0:0:0:0:
256,192,96555,1,0,0:0:0:0:
256,192,96641,1,0,0:0:0:0:
256,192,96726,1,8,0:0:0:0:
256,192,96896,1,0,0:0:0:0:
256,192,97067,1,8,0:0:0:0:
256,192,97152,1,8,0:0:0:0:
256,192,97237,1,8,0:0:0:0:
256,192,97322,1,8,0:0:0:0:
256,192,97408,1,0,0:0:0:0:
256,192,97578,1,0,0:0:0:0:
256,192,97663,1,0,0:0:0:0:
256,192,97749,1,8,0:0:0:0:
256,192,97919,1,0,0:0:0:0:
256,192,98090,1,8,0:0:0:0:
256,192,98175,1,0,0:0:0:0:
256,192,98260,1,8,0:0:0:0:
256,192,98345,1,8,0:0:0:0:
256,192,98430,1,0,0:0:0:0:
256,192,98601,1,0,0:0:0:0:
256,192,98686,1,0,0:0:0:0:
256,192,98771,1,8,0:0:0:0:
256,192,98942,1,8,0:0:0:0:
256,192,99027,1,8,0:0:0:0:
256,192,99112,1,0,0:0:0:0:
256,192,99283,1,0,0:0:0:0:
256,192,99453,1,8,0:0:0:0:
256,192,99538,1,8,0:0:0:0:
256,192,99624,1,0,0:0:0:0:
256,192,99709,1,0,0:0:0:0:
256,192,99794,1,8,0:0:0:0:
256,192,99965,1,8,0:0:0:0:
256,192,100050,1,8,0:0:0:0:
256,192,100135,1,0,0:0:0:0:
256,192,100305,1,0,0:0:0:0:
256,192,100476,1,8,0:0:0:0:
256,192,100561,1,0,0:0:0:0:
256,192,100646,1,8,0:0:0:0:
256,192,100732,1,8,0:0:0:0:
256,192,100817,1,0,0:0:0:0:
256,192,100987,1,0,0:0:0:0:
256,192,101072,1,0,0:0:0:0:
256,192,101158,1,8,0:0:0:0:
256,192,101243,1,0,0:0:0:0:
256,192,101328,1,8,0:0:0:0:
256,192,101499,1,4,0:0:0:0:
256,192,101669,1,0,0:0:0:0:
256,192,101754,1,0,0:0:0:0:
256,192,101840,1,8,0:0:0:0:
256,192,102010,1,0,0:0:0:0:
256,192,102180,1,8,0:0:0:0:
256,192,102266,1,8,0:0:0:0:
256,192,102351,1,0,0:0:0:0:
256,192,102436,1,0,0:0:0:0:
256,192,102521,1,8,0:0:0:0:
256,192,102692,1,8,0:0:0:0:
256,192,102777,1,8,0:0:0:0:
256,192,102862,1,0,0:0:0:0:
256,192,103033,1,0,0:0:0:0:
256,192,103203,1,8,0:0:0:0:
256,192,103288,1,0,0:0:0:0:
256,192,103374,1,8,0:0:0:0:
256,192,103459,1,8,0:0:0:0:
256,192,103544,1,0,0:0:0:0:
256,192,103715,1,0,0:0:0:0:
256,192,103800,1,0,0:0:0:0:
256,192,103885,1,8,0:0:0:0:
256,192,103970,1,8,0:0:0:0:
256,192,104055,1,0,0:0:0:0:
256,192,104226,1,0,0:0:0:0:
256,192,104396,1,8,0:0:0:0:
256,192,104482,1,0,0:0:0:0:
256,192,104567,1,8,0:0:0:0:
256,192,104737,1,0,0:0:0:0:
256,192,104908,1,8,0:0:0:0:
256,192,105078,1,0,0:0:0:0:
256,192,105163,1,0,0:0:0:0:
256,192,105249,1,8,0:0:0:0:
256,192,105419,1,0,0:0:0:0:
256,192,105590,1,8,0:0:0:0:
256,192,105675,1,0,0:0:0:0:
256,192,105760,1,8,0:0:0:0:
256,192,105845,1,8,0:0:0:0:
256,192,105930,1,0,0:0:0:0:
256,192,106101,1,0,0:0:0:0:
256,192,106271,1,8,0:0:0:0:
256,192,106357,1,8,0:0:0:0:
256,192,106442,1,0,0:0:0:0:
256,192,106527,1,0,0:0:0:0:
256,192,106612,1,8,0:0:0:0:
256,192,106783,1,8,0:0:0:0:
256,192,106868,1,8,0:0:0:0:
256,192,106953,1,0,0:0:0:0:
256,192,107124,1,0,0:0:0:0:
256,192,107209,1,0,0:0:0:0:
256,192,107294,1,8,0:0:0:0:
256,192,107465,1,0,0:0:0:0:
256,192,107635,1,8,0:0:0:0:
256,192,107720,1,8,0:0:0:0:
256,192,107805,1,0,0:0:0:0:
256,192,107891,1,0,0:0:0:0:
256,192,107976,1,8,0:0:0:0:
256,192,108146,1,8,0:0:0:0:
256,192,108232,1,8,0:0:0:0:
256,192,108317,1,0,0:0:0:0:
256,192,108487,1,0,0:0:0:0:
256,192,108658,1,8,0:0:0:0:
256,192,108743,1,0,0:0:0:0:
256,192,108828,1,8,0:0:0:0:
256,192,108913,1,8,0:0:0:0:
256,192,108999,1,0,0:0:0:0:
256,192,109169,1,0,0:0:0:0:
256,192,109340,1,8,0:0:0:0:
256,192,109425,1,8,0:0:0:0:
256,192,109510,1,0,0:0:0:0:
256,192,109595,1,0,0:0:0:0:
256,192,109680,1,8,0:0:0:0:
256,192,109851,1,8,0:0:0:0:
256,192,109936,1,8,0:0:0:0:
256,192,110021,1,0,0:0:0:0:
256,192,110192,1,0,0:0:0:0:
256,192,110362,1,8,0:0:0:0:
256,192,110447,1,8,0:0:0:0:
256,192,110533,1,0,0:0:0:0:
256,192,110618,1,8,0:0:0:0:
256,192,110703,1,0,0:0:0:0:
256,192,110874,1,8,0:0:0:0:
256,192,111044,1,0,0:0:0:0:
256,192,111129,1,0,0:0:0:0:
256,192,111215,1,0,0:0:0:0:
256,192,111300,1,0,0:0:0:0:
256,192,111385,1,8,0:0:0:0:
256,192,111555,1,0,0:0:0:0:
256,192,111641,1,8,0:0:0:0:
256,192,111726,1,0,0:0:0:0:
256,192,111811,1,0,0:0:0:0:
256,192,111896,1,8,0:0:0:0:
256,192,111982,1,8,0:0:0:0:
256,192,112067,1,0,0:0:0:0:
256,192,112152,1,8,0:0:0:0:
256,192,112237,1,0,0:0:0:0:
256,192,112408,1,12,0:0:0:0:
256,192,112578,1,0,0:0:0:0:
256,192,112663,1,0,0:0:0:0:
256,192,112749,1,8,0:0:0:0:
256,192,112919,1,0,0:0:0:0:
256,192,113090,1,8,0:0:0:0:
256,192,113175,1,8,0:0:0:0:
256,192,113260,1,0,0:0:0:0:
256,192,113345,1,0,0:0:0:0:
256,192,113430,1,8,0:0:0:0:
256,192,113601,1,0,0:0:0:0:
256,192,113771,1,8,0:0:0:0:
256,192,113942,1,8,0:0:0:0:
256,192,114027,1,8,0:0:0:0:
256,192,114112,1,0,0:0:0:0:
256,192,114283,1,0,0:0:0:0:
256,192,114453,1,8,0:0:0:0:
256,192,114538,1,0,0:0:0:0:
256,192,114624,1,8,0:0:0:0:
256,192,114709,1,8,0:0:0:0:
256,192,114794,1,0,0:0:0:0:
256,192,114965,1,0,0:0:0:0:
256,192,115050,1,0,0:0:0:0:
256,192,115135,1,8,0:0:0:0:
256,192,115305,1,8,0:0:0:0:
256,192,115391,1,8,0:0:0:0:
256,192,115476,1,0,0:0:0:0:
256,192,115646,1,8,0:0:0:0:
256,192,115817,1,0,0:0:0:0:
256,192,115902,1,0,0:0:0:0:
256,192,115987,1,8,0:0:0:0:
256,192,116072,1,8,0:0:0:0:
256,192,116158,1,0,0:0:0:0:
256,192,116328,1,8,0:0:0:0:
256,192,116499,1,0,0:0:0:0:
256,192,116669,1,0,0:0:0:0:
256,192,116754,1,0,0:0:0:0:
256,192,116840,1,8,0:0:0:0:
256,192,117010,1,8,0:0:0:0:
256,192,117180,1,0,0:0:0:0:
256,192,117266,1,8,0:0:0:0:
256,192,117351,1,0,0:0:0:0:
256,192,117436,1,0,0:0:0:0:
256,192,117521,1,8,0:0:0:0:
256,192,117692,1,8,0:0:0:0:
256,192,117777,1,8,0:0:0:0:
256,192,117862,1,0,0:0:0:0:
256,192,118033,1,0,0:0:0:0:
256,192,118203,1,8,0:0:0:0:
256,192,118288,1,8,0:0:0:0:
256,192,118374,1,0,0:0:0:0:
256,192,118459,1,0,0:0:0:0:
256,192,118544,1,8,0:0:0:0:
256,192,118715,1,0,0:0:0:0:
256,192,118885,1,8,0:0:0:0:
256,192,118970,1,8,0:0:0:0:
256,192,119055,1,8,0:0:0:0:
256,192,119141,1,8,0:0:0:0:
256,192,119226,1,0,0:0:0:0:
256,192,119396,1,0,0:0:0:0:
256,192,119482,1,0,0:0:0:0:
256,192,119567,1,8,0:0:0:0:
256,192,119737,1,0,0:0:0:0:
256,192,119908,1,8,0:0:0:0:
256,192,119993,1,0,0:0:0:0:
256,192,120078,1,8,0:0:0:0:
256,192,120163,1,8,0:0:0:0:
256,192,120249,1,0,0:0:0:0:
256,192,120419,1,0,0:0:0:0:
256,192,120504,1,0,0:0:0:0:
256,192,120590,1,8,0:0:0:0:
256,192,120760,1,8,0:0:0:0:
256,192,120845,1,8,0:0:0:0:
256,192,120930,1,0,0:0:0:0:
256,192,121101,1,0,0:0:0:0:
256,192,121271,1,8,0:0:0:0:
256,192,121357,1,8,0:0:0:0:
256,192,121442,1,0,0:0:0:0:
256,192,121527,1,0,0:0:0:0:
256,192,121612,1,8,0:0:0:0:
256,192,121783,1,8,0:0:0:0:
256,192,121868,1,8,0:0:0:0:
256,192,121953,1,0,0:0:0:0:
256,192,122124,1,0,0:0:0:0:
256,192,122294,1,8,0:0:0:0:
256,192,122379,1,0,0:0:0:0:
256,192,122465,1,8,0:0:0:0:
256,192,122550,1,8,0:0:0:0:
256,192,122635,1,0,0:0:0:0:
256,192,122805,1,0,0:0:0:0:
256,192,122891,1,0,0:0:0:0:
256,192,122976,1,8,0:0:0:0:
256,192,123061,1,0,0:0:0:0:
256,192,123146,1,8,0:0:0:0:
256,192,123317,1,4,0:0:0:0:
256,192,123487,1,0,0:0:0:0:
256,192,123572,1,0,0:0:0:0:
256,192,123658,1,8,0:0:0:0:
256,192,123828,1,0,0:0:0:0:
256,192,123999,1,8,0:0:0:0:
256,192,124084,1,8,0:0:0:0:
256,192,124169,1,0,0:0:0:0:
256,192,124254,1,0,0:0:0:0:
256,192,124340,1,8,0:0:0:0:
256,192,124510,1,8,0:0:0:0:
256,192,124595,1,8,0:0:0:0:
256,192,124680,1,0,0:0:0:0:
256,192,124851,1,0,0:0:0:0:
256,192,125021,1,8,0:0:0:0:
256,192,125107,1,0,0:0:0:0:
256,192,125192,1,8,0:0:0:0:
256,192,125277,1,8,0:0:0:0:
256,192,125362,1,0,0:0:0:0:
256,192,125533,1,0,0:0:0:0:
256,192,125618,1,0,0:0:0:0:
256,192,125703,1,8,0:0:0:0:
256,192,125788,1,8,0:0:0:0:
256,192,125874,1,0,0:0:0:0:
256,192,126044,1,0,0:0:0:0:
256,192,126215,1,8,0:0:0:0:
256,192,126300,1,0,0:0:0:0:
256,192,126385,1,8,0:0:0:0:
256,192,126555,1,0,0:0:0:0:
256,192,126726,1,8,0:0:0:0:
256,192,126896,1,0,0:0:0:0:
256,192,126982,1,0,0:0:0:0:
256,192,127067,1,8,0:0:0:0:
256,192,127237,1,0,0:0:0:0:
256,192,127408,1,8,0:0:0:0:
256,192,127493,1,0,0:0:0:0:
256,192,127578,1,8,0:0:0:0:
256,192,127663,1,8,0:0:0:0:
256,192,127749,1,0,0:0:0:0:
256,192,127919,1,0,0:0:0:0:
256,192,128090,1,8,0:0:0:0:
256,192,128175,1,8,0:0:0:0:
256,192,128260,1,0,0:0:0:0:
256,192,128345,1,0,0:0:0:0:
256,192,128430,1,8,0:0:0:0:
256,192,128601,1,8,0:0:0:0:
256,192,128686,1,8,0:0:0:0:
256,192,128771,1,0,0:0:0:0:
256,192,129027,1,0,0:0:0:0:
256,192,129112,1,0,0:0:0:0:
256,192,129283,1,8,0:0:0:0:
256,192,129453,1,0,0:0:0:0:
256,192,129624,1,0,0:0:0:0:
256,192,129794,1,8,0:0:0:0:
256,192,129965,1,0,0:0:0:0:
256,192,130135,1,8,0:0:0:0:
256,192,130305,1,0,0:0:0:0:
256,192,130476,1,0,0:0:0:0:
256,192,130646,1,8,0:0:0:0:
256,192,130732,1,0,0:0:0:0:
256,192,130817,1,8,0:0:0:0:
256,192,130987,1,0,0:0:0:0:
256,192,131158,1,8,0:0:0:0:
256,192,131328,1,0,0:0:0:0:
256,192,131499,1,4,0:0:0:0:
256,192,133715,1,0,0:0:0:0:
256,192,133885,1,8,0:0:0:0:
256,192,134226,1,4,0:0:0:0:
256,192,134567,1,8,0:0:0:0:
256,192,134737,1,0,0:0:0:0:
256,192,135078,1,0,0:0:0:0:
256,192,135249,1,8,0:0:0:0:
256,192,135590,1,0,0:0:0:0:
256,192,135760,1,0,0:0:0:0:
256,192,135845,1,0,0:0:0:0:
256,192,135930,1,8,0:0:0:0:
256,192,136101,1,0,0:0:0:0:
256,192,136271,1,8,0:0:0:0:
256,192,136357,1,8,0:0:0:0:
256,192,136442,1,0,0:0:0:0:
256,192,136612,1,8,0:0:0:0:
256,192,136783,1,0,0:0:0:0:
256,192,136953,1,0,0:0:0:0:
256,192,137294,1,8,0:0:0:0:
256,192,137465,1,0,0:0:0:0:
256,192,137805,1,0,0:0:0:0:
256,192,137976,1,8,0:0:0:0:
256,192,138317,1,0,0:0:0:0:
256,192,138487,1,8,0:0:0:0:
256,192,138572,1,0,0:0:0:0:
256,192,138658,1,8,0:0:0:0:
256,192,138828,1,0,0:0:0:0:
256,192,138999,1,8,0:0:0:0:
256,192,139169,1,0,0:0:0:0:
256,192,139254,1,0,0:0:0:0:
256,192,139340,1,8,0:0:0:0:
256,192,139510,1,8,0:0:0:0:
256,192,139680,1,0,0:0:0:0:
256,192,140021,1,8,0:0:0:0:
256,192,140192,1,0,0:0:0:0:
256,192,140533,1,0,0:0:0:0:
256,192,140703,1,8,0:0:0:0:
256,192,140874,1,8,0:0:0:0:
256,192,140959,1,8,0:0:0:0:
256,192,141044,1,0,0:0:0:0:
256,192,141215,1,0,0:0:0:0:
256,192,141385,1,8,0:0:0:0:
256,192,141555,1,8,0:0:0:0:
256,192,141726,1,0,0:0:0:0:
256,192,141896,1,0,0:0:0:0:
256,192,141982,1,0,0:0:0:0:
256,192,142067,1,8,0:0:0:0:
256,192,142237,1,0,0:0:0:0:
256,192,142408,1,0,0:0:0:0:
256,192,142749,1,8,0:0:0:0:
256,192,142919,1,0,0:0:0:0:
256,192,143260,1,0,0:0:0:0:
256,192,143430,1,8,0:0:0:0:
256,192,143771,1,0,0:0:0:0:
256,192,143942,1,0,0:0:0:0:
256,192,144027,1,0,0:0:0:0:
256,192,144112,1,8,0:0:0:0:
256,192,144283,1,0,0:0:0:0:
256,192,144453,1,8,0:0:0:0:
256,192,144538,1,8,0:0:0:0:
256,192,144624,1,0,0:0:0:0:
256,192,144794,1,8,0:0:0:0:
256,192,144965,1,0,0:0:0:0:
256,192,145135,1,0,0:0:0:0:
256,192,145476,1,8,0:0:0:0:
256,192,145646,1,0,0:0:0:0:
256,192,145987,1,0,0:0:0:0:
256,192,146158,1,8,0:0:0:0:
256,192,146499,1,0,0:0:0:0:
256,192,146669,1,0,0:0:0:0:
256,192,146754,1,0,0:0:0:0:
256,192,146840,1,8,0:0:0:0:
256,192,147010,1,8,0:0:0:0:
256,192,147180,1,0,0:0:0:0:
256,192,147351,1,0,0:0:0:0:
256,192,147436,1,0,0:0:0:0:
256,192,147521,1,8,0:0:0:0:
256,192,147692,1,0,0:0:0:0:
256,192,147862,1,0,0:0:0:0:
256,192,148203,1,8,0:0:0:0:
256,192,148374,1,0,0:0:0:0:
256,192,148715,1,0,0:0:0:0:
256,192,148885,1,8,0:0:0:0:
256,192,149226,1,0,0:0:0:0:
256,192,149396,1,0,0:0:0:0:
256,192,149482,1,0,0:0:0:0:
256,192,149567,1,8,0:0:0:0:
256,192,149737,1,0,0:0:0:0:
256,192,149908,1,8,0:0:0:0:
256,192,150078,1,0,0:0:0:0:
256,192,150163,1,8,0:0:0:0:
256,192,150249,1,0,0:0:0:0:
256,192,150419,1,8,0:0:0:0:
256,192,150590,1,0,0:0:0:0:
256,192,150930,1,8,0:0:0:0:
256,192,151101,1,0,0:0:0:0:
256,192,151442,1,0,0:0:0:0:
256,192,151612,1,8,0:0:0:0:
256,192,151953,1,0,0:0:0:0:
256,192,152124,1,0,0:0:0:0:
256,192,152209,1,0,0:0:0:0:
256,192,152294,1,8,0:0:0:0:
256,192,152465,1,0,0:0:0:0:
256,192,152635,1,8,0:0:0:0:
256,192,152720,1,8,0:0:0:0:
256,192,152805,1,0,0:0:0:0:
256,192,152976,1,8,0:0:0:0:
256,192,153146,1,0,0:0:0:0:
256,192,153317,1,0,0:0:0:0:
256,192,153658,1,8,0:0:0:0:
256,192,153828,1,0,0:0:0:0:
256,192,154169,1,0,0:0:0:0:
256,192,154340,1,8,0:0:0:0:
256,192,154680,1,0,0:0:0:0:
256,192,154851,1,0,0:0:0:0:
256,192,155021,1,8,0:0:0:0:
256,192,155192,1,0,0:0:0:0:
256,192,155277,1,0,0:0:0:0:
256,192,155362,1,0,0:0:0:0:
256,192,155533,1,8,0:0:0:0:
256,192,155618,1,0,0:0:0:0:
256,192,155703,1,8,0:0:0:0:
256,192,155874,1,0,0:0:0:0:
256,192,156044,1,4,0:0:0:0:
256,192,156385,1,8,0:0:0:0:
256,192,156555,1,0,0:0:0:0:
256,192,156896,1,0,0:0:0:0:
256,192,157067,1,8,0:0:0:0:
256,192,157408,1,0,0:0:0:0:
256,192,157749,1,8,0:0:0:0:
256,192,157919,1,8,0:0:0:0:
256,192,158090,1,0,0:0:0:0:
256,192,158260,1,0,0:0:0:0:
256,192,158430,1,8,0:0:0:0:
256,192,158601,1,0,0:0:0:0:
256,192,158771,1,8,0:0:0:0:
256,192,159112,1,8,0:0:0:0:
256,192,159283,1,0,0:0:0:0:
256,192,159624,1,0,0:0:0:0:
256,192,159794,1,8,0:0:0:0:
256,192,160135,1,0,0:0:0:0:
256,192,160476,1,8,0:0:0:0:
256,192,160646,1,0,0:0:0:0:
256,192,160987,1,0,0:0:0:0:
256,192,161158,1,8,0:0:0:0:
256,192,161328,1,8,0:0:0:0:
256,192,161499,1,0,0:0:0:0:
256,192,161840,1,0,0:0:0:0:
256,192,162010,1,8,0:0:0:0:
256,192,162351,1,8,0:0:0:0:
256,192,162521,1,0,0:0:0:0:
256,192,162692,1,0,0:0:0:0:
256,192,162862,1,8,0:0:0:0:
256,192,163203,1,8,0:0:0:0:
256,192,163374,1,0,0:0:0:0:
256,192,163715,1,0,0:0:0:0:
256,192,163885,1,8,0:0:0:0:
256,192,164055,1,8,0:0:0:0:
256,192,164226,1,0,0:0:0:0:
256,192,164567,1,8,0:0:0:0:
256,192,164737,1,0,0:0:0:0:
256,192,165078,1,0,0:0:0:0:
256,192,165249,1,0,0:0:0:0:
256,192,165419,1,8,0:0:0:0:
256,192,165590,1,0,0:0:0:0:
256,192,165930,1,8,0:0:0:0:
256,192,166101,1,0,0:0:0:0:
256,192,166186,1,0,0:0:0:0:
256,192,166271,1,8,0:0:0:0:
256,192,166442,1,0,0:0:0:0:
256,192,166612,1,8,0:0:0:0:
256,192,166783,1,8,0:0:0:0:
256,192,166953,1,0,0:0:0:0:
256,192,167294,1,8,0:0:0:0:
256,192,167465,1,0,0:0:0:0:
256,192,167805,1,0,0:0:0:0:
256,192,167976,1,8,0:0:0:0:
256,192,168317,1,0,0:0:0:0:
256,192,168658,1,8,0:0:0:0:
256,192,168828,1,8,0:0:0:0:
256,192,168999,1,0,0:0:0:0:
256,192,169169,1,0,0:0:0:0:
256,192,169340,1,8,0:0:0:0:
256,192,169510,1,0,0:0:0:0:
256,192,169680,1,8,0:0:0:0:
256,192,170021,1,8,0:0:0:0:
256,192,170192,1,0,0:0:0:0:
256,192,170533,1,0,0:0:0:0:
256,192,170703,1,8,0:0:0:0:
256,192,171044,1,0,0:0:0:0:
256,192,171385,1,8,0:0:0:0:
256,192,171726,1,0,0:0:0:0:
256,192,171896,1,8,0:0:0:0:
256,192,172067,1,0,0:0:0:0:
256,192,172237,1,0,0:0:0:0:
256,192,172408,1,8,0:0:0:0:
256,192,172749,1,8,0:0:0:0:
256,192,172919,1,0,0:0:0:0:
256,192,173260,1,0,0:0:0:0:
256,192,173430,1,8,0:0:0:0:
256,192,173601,1,8,0:0:0:0:
256,192,173771,1,0,0:0:0:0:
256,192,174112,1,8,0:0:0:0:
256,192,174453,1,8,0:0:0:0:
256,192,174624,1,0,0:0:0:0:
256,192,174794,1,8,0:0:0:0:
256,192,174965,1,8,0:0:0:0:
256,192,175135,1,0,0:0:0:0:
256,192,175476,1,8,0:0:0:0:
256,192,175646,1,8,0:0:0:0:
256,192,175817,1,0,0:0:0:0:
256,192,175987,1,0,0:0:0:0:
256,192,176158,1,8,0:0:0:0:
256,192,176328,1,0,0:0:0:0:
256,192,176499,1,0,0:0:0:0:
256,192,176840,1,8,0:0:0:0:
256,192,177180,1,8,0:0:0:0:
256,192,177351,1,0,0:0:0:0:
256,192,177521,1,8,0:0:0:0:
256,192,177692,1,8,0:0:0:0:
256,192,177862,1,0,0:0:0:0:
256,192,178203,1,8,0:0:0:0:
256,192,178544,1,8,0:0:0:0:
256,192,178715,1,0,0:0:0:0:
256,192,178885,1,8,0:0:0:0:
256,192,179226,1,0,0:0:0:0:
256,192,179396,1,0,0:0:0:0:
256,192,179567,1,8,0:0:0:0:
256,192,179737,1,0,0:0:0:0:
256,192,179908,1,0,0:0:0:0:
256,192,180078,1,8,0:0:0:0:
256,192,180249,1,8,0:0:0:0:
256,192,180419,1,0,0:0:0:0:
256,192,180590,1,12,0:0:0:0:
256,192,180930,1,8,0:0:0:0:
256,192,181101,1,0,0:0:0:0:
256,192,181186,1,0,0:0:0:0:
256,192,181271,1,0,0:0:0:0:
256,192,181442,1,0,0:0:0:0:
256,192,181612,1,8,0:0:0:0:
256,192,181783,1,0,0:0:0:0:
256,192,181868,1,0,0:0:0:0:
256,192,181953,1,8,0:0:0:0:
256,192,182038,1,8,0:0:0:0:
256,192,182124,1,0,0:0:0:0:
256,192,182294,1,8,0:0:0:0:
256,192,182465,1,0,0:0:0:0:
256,192,182635,1,8,0:0:0:0:
256,192,182720,1,8,0:0:0:0:
256,192,182805,1,0,0:0:0:0:
256,192,182891,1,0,0:0:0:0:
256,192,182976,1,8,0:0:0:0:
256,192,183146,1,8,0:0:0:0:
256,192,183232,1,8,0:0:0:0:
256,192,183317,1,0,0:0:0:0:
256,192,183487,1,0,0:0:0:0:
256,192,183658,1,8,0:0:0:0:
256,192,183828,1,0,0:0:0:0:
256,192,183999,1,8,0:0:0:0:
256,192,184169,1,8,0:0:0:0:
256,192,184340,1,0,0:0:0:0:
256,192,184510,1,8,0:0:0:0:
256,192,184680,1,0,0:0:0:0:
256,192,185021,1,8,0:0:0:0:
256,192,185192,1,0,0:0:0:0:
256,192,185277,1,0,0:0:0:0:
256,192,185362,1,0,0:0:0:0:
256,192,185533,1,0,0:0:0:0:
256,192,185703,1,8,0:0:0:0:
256,192,185788,1,0,0:0:0:0:
256,192,185874,1,8,0:0:0:0:
256,192,185959,1,8,0:0:0:0:
256,192,186044,1,0,0:0:0:0:
256,192,186215,1,0,0:0:0:0:
256,192,186385,1,8,0:0:0:0:
256,192,186470,1,8,0:0:0:0:
256,192,186555,1,0,0:0:0:0:
256,192,186641,1,0,0:0:0:0:
256,192,186726,1,8,0:0:0:0:
256,192,186896,1,0,0:0:0:0:
256,192,186982,1,8,0:0:0:0:
256,192,187067,1,0,0:0:0:0:
256,192,187152,1,0,0:0:0:0:
256,192,187237,1,8,0:0:0:0:
256,192,187322,1,8,0:0:0:0:
256,192,187408,1,0,0:0:0:0:
256,192,187578,1,0,0:0:0:0:
256,192,187749,1,8,0:0:0:0:
256,192,187834,1,0,0:0:0:0:
256,192,187919,1,8,0:0:0:0:
256,192,188004,1,8,0:0:0:0:
256,192,188090,1,0,0:0:0:0:
256,192,188260,1,0,0:0:0:0:
256,192,188345,1,0,0:0:0:0:
256,192,188430,1,8,0:0:0:0:
256,192,188516,1,0,0:0:0:0:
256,192,188601,1,8,0:0:0:0:
256,192,188771,1,0,0:0:0:0:
256,192,188942,1,0,0:0:0:0:
256,192,189027,1,0,0:0:0:0:
256,192,189112,1,8,0:0:0:0:
256,192,189283,1,8,0:0:0:0:
256,192,189453,1,0,0:0:0:0:
256,192,189624,1,0,0:0:0:0:
256,192,189794,1,8,0:0:0:0:
256,192,189965,1,0,0:0:0:0:
256,192,190135,1,0,0:0:0:0:
256,192,190305,1,8,0:0:0:0:
256,192,190391,1,0,0:0:0:0:
256,192,190476,1,8,0:0:0:0:
256,192,190646,1,0,0:0:0:0:
256,192,190817,1,8,0:0:0:0:
256,192,190902,1,8,0:0:0:0:
256,192,190987,1,0,0:0:0:0:
256,192,191072,1,0,0:0:0:0:
256,192,191158,1,8,0:0:0:0:
256,192,191328,1,8,0:0:0:0:
256,192,191413,1,8,0:0:0:0:
256,192,191499,1,0,0:0:0:0:
256,192,191669,1,0,0:0:0:0:
256,192,191840,1,8,0:0:0:0:
256,192,191925,1,0,0:0:0:0:
256,192,192010,1,8,0:0:0:0:
256,192,192095,1,8,0:0:0:0:
256,192,192180,1,0,0:0:0:0:
256,192,192351,1,0,0:0:0:0:
256,192,192436,1,0,0:0:0:0:
256,192,192521,1,8,0:0:0:0:
256,192,192607,1,0,0:0:0:0:
256,192,192692,1,8,0:0:0:0:
256,192,192862,1,0,0:0:0:0:
256,192,193033,1,0,0:0:0:0:
256,192,193118,1,0,0:0:0:0:
256,192,193203,1,8,0:0:0:0:
256,192,193288,1,8,0:0:0:0:
256,192,193374,1,0,0:0:0:0:
256,192,193544,1,0,0:0:0:0:
256,192,193715,1,8,0:0:0:0:
256,192,193800,1,0,0:0:0:0:
256,192,193885,1,8,0:0:0:0:
256,192,193970,1,8,0:0:0:0:
256,192,194055,1,0,0:0:0:0:
256,192,194141,1,0,0:0:0:0:
256,192,194226,1,8,0:0:0:0:
256,192,194396,1,0,0:0:0:0:
256,192,194482,1,0,0:0:0:0:
256,192,194567,1,8,0:0:0:0:
256,192,194737,1,8,0:0:0:0:
256,192,194822,1,8,0:0:0:0:
256,192,194908,1,0,0:0:0:0:
256,192,195078,1,0,0:0:0:0:
256,192,195249,1,8,0:0:0:0:
256,192,195419,1,0,0:0:0:0:
256,192,195504,1,0,0:0:0:0:
256,192,195590,1,0,0:0:0:0:
256,192,195930,1,8,0:0:0:0:
256,192,196271,1,8,0:0:0:0:
256,192,196442,1,0,0:0:0:0:
256,192,196612,1,8,0:0:0:0:
256,192,196953,1,0,0:0:0:0:
256,192,197294,1,8,0:0:0:0:
256,192,197635,1,8,0:0:0:0:
256,192,197805,1,0,0:0:0:0:
256,192,197976,1,8,0:0:0:0:
256,192,198317,1,0,0:0:0:0:
256,192,198658,1,8,0:0:0:0:
256,192,198999,1,8,0:0:0:0:
256,192,199169,1,0,0:0:0:0:
256,192,199340,1,8,0:0:0:0:
256,192,199510,1,0,0:0:0:0:
256,192,199680,1,4,0:0:0:0:
256,192,200021,1,0,0:0:0:0:
256,192,200362,1,8,0:0:0:0:
256,192,200703,1,0,0:0:0:0:
256,192,201044,1,8,0:0:0:0:
256,192,201215,1,0,0:0:0:0:
256,192,201385,1,0,0:0:0:0:
256,192,201555,1,8,0:0:0:0:
256,192,201641,1,8,0:0:0:0:
256,192,201726,1,0,0:0:0:0:
256,192,201896,1,0,0:0:0:0:
256,192,202067,1,8,0:0:0:0:
256,192,202408,1,4,0:0:0:0:
256,192,202578,1,0,0:0:0:0:
256,192,202663,1,0,0:0:0:0:
256,192,202749,1,8,0:0:0:0:
256,192,202919,1,0,0:0:0:0:
256,192,203090,1,8,0:0:0:0:
256,192,203175,1,8,0:0:0:0:
256,192,203260,1,0,0:0:0:0:
256,192,203345,1,0,0:0:0:0:
256,192,203430,1,8,0:0:0:0:
256,192,203601,1,0,0:0:0:0:
256,192,203771,1,8,0:0:0:0:
256,192,203942,1,8,0:0:0:0:
256,192,204027,1,8,0:0:0:0:
256,192,204112,1,0,0:0:0:0:
256,192,204283,1,0,0:0:0:0:
256,192,204453,1,8,0:0:0:0:
256,192,204538,1,0,0:0:0:0:
256,192,204624,1,8,0:0:0:0:
256,192,204709,1,8,0:0:0:0:
256,192,204794,1,0,0:0:0:0:
256,192,204965,1,0,0:0:0:0:
256,192,205050,1,0,0:0:0:0:
256,192,205135,1,8,0:0:0:0:
256,192,205305,1,8,0:0:0:0:
256,192,205391,1,8,0:0:0:0:
256,192,205476,1,0,0:0:0:0:
256,192,205646,1,8,0:0:0:0:
256,192,205817,1,0,0:0:0:0:
256,192,205902,1,0,0:0:0:0:
256,192,205987,1,8,0:0:0:0:
256,192,206072,1,8,0:0:0:0:
256,192,206158,1,0,0:0:0:0:
256,192,206328,1,8,0:0:0:0:
256,192,206499,1,0,0:0:0:0:
256,192,206669,1,0,0:0:0:0:
256,192,206754,1,0,0:0:0:0:
256,192,206840,1,8,0:0:0:0:
256,192,207010,1,8,0:0:0:0:
256,192,207180,1,0,0:0:0:0:
256,192,207266,1,8,0:0:0:0:
256,192,207351,1,0,0:0:0:0:
256,192,207436,1,0,0:0:0:0:
256,192,207521,1,8,0:0:0:0:
256,192,207692,1,8,0:0:0:0:
256,192,207777,1,8,0:0:0:0:
256,192,207862,1,0,0:0:0:0:
256,192,208033,1,0,0:0:0:0:
256,192,208203,1,8,0:0:0:0:
256,192,208288,1,8,0:0:0:0:
256,192,208374,1,0,0:0:0:0:
256,192,208459,1,0,0:0:0:0:
256,192,208544,1,8,0:0:0:0:
256,192,208715,1,0,0:0:0:0:
256,192,208885,1,8,0:0:0:0:
256,192,208970,1,8,0:0:0:0:
256,192,209055,1,8,0:0:0:0:
256,192,209141,1,8,0:0:0:0:
256,192,209226,1,0,0:0:0:0:
256,192,209396,1,0,0:0:0:0:
256,192,209482,1,0,0:0:0:0:
256,192,209567,1,8,0:0:0:0:
256,192,209737,1,0,0:0:0:0:
256,192,209908,1,8,0:0:0:0:
256,192,209993,1,0,0:0:0:0:
256,192,210078,1,8,0:0:0:0:
256,192,210163,1,8,0:0:0:0:
256,192,210249,1,0,0:0:0:0:
256,192,210419,1,0,0:0:0:0:
256,192,210504,1,0,0:0:0:0:
256,192,210590,1,8,0:0:0:0:
256,192,210760,1,8,0:0:0:0:
256,192,210845,1,8,0:0:0:0:
256,192,210930,1,0,0:0:0:0:
256,192,211101,1,0,0:0:0:0:
256,192,211271,1,8,0:0:0:0:
256,192,211357,1,8,0:0:0:0:
256,192,211442,1,0,0:0:0:0:
256,192,211527,1,0,0:0:0:0:
256,192,211612,1,8,0:0:0:0:
256,192,211783,1,8,0:0:0:0:
256,192,211868,1,8,0:0:0:0:
256,192,211953,1,0,0:0:0:0:
256,192,212124,1,0,0:0:0:0:
256,192,212294,1,8,0:0:0:0:
256,192,212379,1,0,0:0:0:0:
256,192,212465,1,8,0:0:0:0:
256,192,212550,1,8,0:0:0:0:
256,192,212635,1,0,0:0:0:0:
256,192,212805,1,0,0:0:0:0:
256,192,212891,1,0,0:0:0:0:
256,192,212976,1,8,0:0:0:0:
256,192,213061,1,0,0:0:0:0:
256,192,213146,1,8,0:0:0:0:
256,192,213317,1,4,0:0:0:0:
256,192,213487,1,0,0:0:0:0:
256,192,213572,1,0,0:0:0:0:
256,192,213658,1,8,0:0:0:0:
256,192,213828,1,0,0:0:0:0:
256,192,213999,1,8,0:0:0:0:
256,192,214084,1,8,0:0:0:0:
256,192,214169,1,0,0:0:0:0:
256,192,214254,1,0,0:0:0:0:
256,192,214340,1,8,0:0:0:0:
256,192,214510,1,8,0:0:0:0:
256,192,214595,1,8,0:0:0:0:
256,192,214680,1,0,0:0:0:0:
256,192,214851,1,0,0:0:0:0:
256,192,215021,1,8,0:0:0:0:
256,192,215107,1,0,0:0:0:0:
256,192,215192,1,8,0:0:0:0:
256,192,215277,1,8,0:0:0:0:
256,192,215362,1,0,0:0:0:0:
256,192,215533,1,0,0:0:0:0:
256,192,215618,1,0,0:0:0:0:
256,192,215703,1,8,0:0:0:0:
256,192,215788,1,8,0:0:0:0:
256,192,215874,1,0,0:0:0:0:
256,192,216044,1,0,0:0:0:0:
256,192,216215,1,8,0:0:0:0:
256,192,216300,1,0,0:0:0:0:
256,192,216385,1,8,0:0:0:0:
256,192,216555,1,0,0:0:0:0:
256,192,216726,1,8,0:0:0:0:
256,192,216896,1,0,0:0:0:0:
256,192,216982,1,0,0:0:0:0:
256,192,217067,1,8,0:0:0:0:
256,192,217237,1,0,0:0:0:0:
256,192,217408,1,8,0:0:0:0:
256,192,217493,1,0,0:0:0:0:
256,192,217578,1,8,0:0:0:0:
256,192,217663,1,8,0:0:0:0:
256,192,217749,1,0,0:0:0:0:
256,192,217919,1,0,0:0:0:0:
256,192,218090,1,8,0:0:0:0:
256,192,218175,1,8,0:0:0:0:
256,192,218260,1,0,0:0:0:0:
256,192,218345,1,0,0:0:0:0:
256,192,218430,1,8,0:0:0:0:
256,192,218601,1,8,0:0:0:0:
256,192,218686,1,8,0:0:0:0:
256,192,218771,1,0,0:0:0:0:
256,192,218942,1,0,0:0:0:0:
256,192,219027,1,0,0:0:0:0:
256,192,219112,1,8,0:0:0:0:
256,192,219283,1,0,0:0:0:0:
256,192,219453,1,8,0:0:0:0:
256,192,219538,1,8,0:0:0:0:
256,192,219624,1,0,0:0:0:0:
256,192,219709,1,0,0:0:0:0:
256,192,219794,1,8,0:0:0:0:
256,192,219965,1,8,0:0:0:0:
256,192,220050,1,8,0:0:0:0:
256,192,220135,1,0,0:0:0:0:
256,192,220305,1,0,0:0:0:0:
256,192,220476,1,8,0:0:0:0:
256,192,220561,1,0,0:0:0:0:
256,192,220646,1,8,0:0:0:0:
256,192,220732,1,8,0:0:0:0:
256,192,220817,1,0,0:0:0:0:
256,192,220987,1,0,0:0:0:0:
256,192,221158,1,8,0:0:0:0:
256,192,221243,1,8,0:0:0:0:
256,192,221328,1,0,0:0:0:0:
256,192,221413,1,0,0:0:0:0:
256,192,221499,1,8,0:0:0:0:
256,192,221669,1,8,0:0:0:0:
256,192,221754,1,8,0:0:0:0:
256,192,221840,1,0,0:0:0:0:
256,192,222010,1,0,0:0:0:0:
256,192,222180,1,8,0:0:0:0:
256,192,222266,1,8,0:0:0:0:
256,192,222351,1,0,0:0:0:0:
256,192,222436,1,8,0:0:0:0:
256,192,222521,1,0,0:0:0:0:
256,192,222692,1,8,0:0:0:0:
256,192,222862,1,0,0:0:0:0:
256,192,222947,1,0,0:0:0:0:
256,192,223033,1,0,0:0:0:0:
256,192,223118,1,0,0:0:0:0:
256,192,223203,1,8,0:0:0:0:
256,192,223374,1,0,0:0:0:0:
256,192,223459,1,8,0:0:0:0:
256,192,223544,1,0,0:0:0:0:
256,192,223629,1,0,0:0:0:0:
256,192,223715,1,8,0:0:0:0:
256,192,223800,1,8,0:0:0:0:
256,192,223885,1,0,0:0:0:0:
256,192,223970,1,8,0:0:0:0:
256,192,224055,1,0,0:0:0:0:
256,192,224226,1,12,0:0:0:0:
256,192,224396,1,0,0:0:0:0:
256,192,224482,1,0,0:0:0:0:
256,192,224567,1,8,0:0:0:0:
256,192,224737,1,0,0:0:0:0:
256,192,224908,1,8,0:0:0:0:
256,192,224993,1,8,0:0:0:0:
256,192,225078,1,0,0:0:0:0:
256,192,225163,1,0,0:0:0:0:
256,192,225249,1,8,0:0:0:0:
256,192,225419,1,0,0:0:0:0:
256,192,225590,1,8,0:0:0:0:
256,192,225760,1,8,0:0:0:0:
256,192,225845,1,8,0:0:0:0:
256,192,225930,1,0,0:0:0:0:
256,192,226101,1,0,0:0:0:0:
256,192,226271,1,8,0:0:0:0:
256,192,226357,1,0,0:0:0:0:
256,192,226442,1,8,0:0:0:0:
256,192,226527,1,8,0:0:0:0:
256,192,226612,1,0,0:0:0:0:
256,192,226783,1,0,0:0:0:0:
256,192,226868,1,0,0:0:0:0:
256,192,226953,1,8,0:0:0:0:
256,192,227124,1,8,0:0:0:0:
256,192,227209,1,8,0:0:0:0:
256,192,227294,1,0,0:0:0:0:
256,192,227465,1,8,0:0:0:0:
256,192,227635,1,0,0:0:0:0:
256,192,227720,1,0,0:0:0:0:
256,192,227805,1,8,0:0:0:0:
256,192,227891,1,8,0:0:0:0:
256,192,227976,1,0,0:0:0:0:
256,192,228146,1,8,0:0:0:0:
256,192,228317,1,0,0:0:0:0:
256,192,228487,1,0,0:0:0:0:
256,192,228572,1,0,0:0:0:0:
256,192,228658,1,8,0:0:0:0:
256,192,228828,1,8,0:0:0:0:
256,192,228999,1,0,0:0:0:0:
256,192,229084,1,8,0:0:0:0:
256,192,229169,1,0,0:0:0:0:
256,192,229254,1,0,0:0:0:0:
256,192,229340,1,8,0:0:0:0:
256,192,229510,1,8,0:0:0:0:
256,192,229595,1,8,0:0:0:0:
256,192,229680,1,0,0:0:0:0:
256,192,229851,1,0,0:0:0:0:
256,192,230021,1,8,0:0:0:0:
256,192,230107,1,8,0:0:0:0:
256,192,230192,1,0,0:0:0:0:
256,192,230277,1,0,0:0:0:0:
256,192,230362,1,8,0:0:0:0:
256,192,230533,1,0,0:0:0:0:
256,192,230703,1,8,0:0:0:0:
256,192,230788,1,8,0:0:0:0:
256,192,230874,1,8,0:0:0:0:
256,192,230959,1,8,0:0:0:0:
256,192,231044,1,0,0:0:0:0:
256,192,231215,1,0,0:0:0:0:
256,192,231300,1,0,0:0:0:0:
256,192,231385,1,8,0:0:0:0:
256,192,231555,1,0,0:0:0:0:
256,192,231726,1,8,0:0:0:0:
256,192,231811,1,0,0:0:0:0:
256,192,231896,1,8,0:0:0:0:
256,192,231982,1,8,0:0:0:0:
256,192,232067,1,0,0:0:0:0:
256,192,232237,1,0,0:0:0:0:
256,192,232322,1,0,0:0:0:0:
256,192,232408,1,8,0:0:0:0:
256,192,232578,1,8,0:0:0:0:
256,192,232663,1,8,0:0:0:0:
256,192,232749,1,0,0:0:0:0:
256,192,232919,1,0,0:0:0:0:
256,192,233090,1,8,0:0:0:0:
256,192,233175,1,8,0:0:0:0:
256,192,233260,1,0,0:0:0:0:
256,192,233345,1,0,0:0:0:0:
256,192,233430,1,8,0:0:0:0:
256,192,233601,1,8,0:0:0:0:
256,192,233686,1,8,0:0:0:0:
256,192,233771,1,0,0:0:0:0:
256,192,233942,1,0,0:0:0:0:
256,192,234112,1,8,0:0:0:0:
256,192,234197,1,0,0:0:0:0:
256,192,234283,1,8,0:0:0:0:
256,192,234368,1,8,0:0:0:0:
256,192,234453,1,0,0:0:0:0:
256,192,234624,1,0,0:0:0:0:
256,192,234709,1,0,0:0:0:0:
256,192,234794,1,8,0:0:0:0:
256,192,234879,1,0,0:0:0:0:
256,192,234965,1,8,0:0:0:0:
256,192,235135,1,4,0:0:0:0:
256,192,235305,1,0,0:0:0:0:
256,192,235391,1,0,0:0:0:0:
256,192,235476,1,8,0:0:0:0:
256,192,235646,1,0,0:0:0:0:
256,192,235817,1,8,0:0:0:0:
256,192,235902,1,8,0:0:0:0:
256,192,235987,1,0,0:0:0:0:
256,192,236072,1,0,0:0:0:0:
256,192,236158,1,8,0:0:0:0:
256,192,236328,1,8,0:0:0:0:
256,192,236413,1,8,0:0:0:0:
256,192,236499,1,0,0:0:0:0:
256,192,236669,1,0,0:0:0:0:
256,192,236840,1,8,0:0:0:0:
256,192,236925,1,0,0:0:0:0:
256,192,237010,1,8,0:0:0:0:
256,192,237095,1,8,0:0:0:0:
256,192,237180,1,0,0:0:0:0:
256,192,237351,1,0,0:0:0:0:
256,192,237436,1,0,0:0:0:0:
256,192,237521,1,8,0:0:0:0:
256,192,237607,1,8,0:0:0:0:
256,192,237692,1,0,0:0:0:0:
256,192,237862,1,0,0:0:0:0:
256,192,238033,1,8,0:0:0:0:
256,192,238118,1,0,0:0:0:0:
256,192,238203,1,8,0:0:0:0:
256,192,238374,1,0,0:0:0:0:
256,192,238544,1,8,0:0:0:0:
256,192,238715,1,0,0:0:0:0:
256,192,238800,1,0,0:0:0:0:
256,192,238885,1,8,0:0:0:0:
256,192,239055,1,0,0:0:0:0:
256,192,239226,1,8,0:0:0:0:
256,192,239311,1,0,0:0:0:0:
256,192,239396,1,8,0:0:0:0:
256,192,239482,1,8,0:0:0:0:
256,192,239567,1,0,0:0:0:0:
256,192,239737,1,0,0:0:0:0:
256,192,239908,1,8,0:0:0:0:
256,192,239993,1,8,0:0:0:0:
256,192,240078,1,0,0:0:0:0:
256,192,240163,1,0,0:0:0:0:
256,192,240249,1,8,0:0:0:0:
256,192,240419,1,8,0:0:0:0:
256,192,240504,1,8,0:0:0:0:
256,192,240590,1,0,0:0:0:0:
256,192,240845,1,0,0:0:0:0:
256,192,240930,1,0,0:0:0:0:
256,192,241101,1,8,0:0:0:0:
256,192,241271,1,0,0:0:0:0:
256,192,241442,1,0,0:0:0:0:
256,192,241612,1,8,0:0:0:0:
256,192,241783,1,0,0:0:0:0:
256,192,241953,1,8,0:0:0:0:
256,192,242124,1,0,0:0:0:0:
256,192,242294,1,0,0:0:0:0:
256,192,242465,1,8,0:0:0:0:
256,192,242550,1,0,0:0:0:0:
256,192,242635,1,8,0:0:0:0:
256,192,242805,1,0,0:0:0:0:
256,192,242976,1,8,0:0:0:0:
256,192,243146,1,0,0:0:0:0:
256,192,243317,1,4,0:0:0:0:
256,192,246044,1,4,0:0:0:0:
256,192,246385,1,8,0:0:0:0:
256,192,246641,1,0,0:0:0:0:
256,192,246726,1,8,0:0:0:0:
256,192,246896,1,0,0:0:0:0:
256,192,247067,1,8,0:0:0:0:
256,192,247237,1,0,0:0:0:0:
256,192,247322,1,0,0:0:0:0:
256,192,247408,1,8,0:0:0:0:
256,192,247578,1,0,0:0:0:0:
256,192,247749,1,8,0:0:0:0:
256,192,248004,1,0,0:0:0:0:
256,192,248090,1,8,0:0:0:0:
256,192,248260,1,0,0:0:0:0:
256,192,248430,1,8,0:0:0:0:
256,192,248601,1,8,0:0:0:0:
256,192,248686,1,8,0:0:0:0:
256,192,248771,1,0,0:0:0:0:
256,192,248942,1,0,0:0:0:0:
256,192,249112,1,8,0:0:0:0:
256,192,249368,1,0,0:0:0:0:
256,192,249453,1,8,0:0:0:0:
256,192,249624,1,0,0:0:0:0:
256,192,249794,1,8,0:0:0:0:
256,192,249879,1,8,0:0:0:0:
256,192,249965,1,0,0:0:0:0:
256,192,250050,1,0,0:0:0:0:
256,192,250135,1,8,0:0:0:0:
256,192,250305,1,0,0:0:0:0:
256,192,250476,1,8,0:0:0:0:
256,192,250561,1,8,0:0:0:0:
256,192,250646,1,0,0:0:0:0:
256,192,250817,1,8,0:0:0:0:
256,192,250987,1,0,0:0:0:0:
256,192,251158,1,8,0:0:0:0:
256,192,251328,1,8,0:0:0:0:
256,192,251499,1,0,0:0:0:0:
256,192,251669,1,0,0:0:0:0:
256,192,251754,1,0,0:0:0:0:
256,192,251840,1,8,0:0:0:0:
256,192,252010,1,8,0:0:0:0:
256,192,252095,1,8,0:0:0:0:
256,192,252180,1,0,0:0:0:0:
256,192,252351,1,0,0:0:0:0:
256,192,252521,1,8,0:0:0:0:
256,192,252692,1,8,0:0:0:0:
256,192,252862,1,0,0:0:0:0:
256,192,253033,1,0,0:0:0:0:
256,192,253203,1,8,0:0:0:0:
256,192,253374,1,0,0:0:0:0:
256,192,253459,1,0,0:0:0:0:
256,192,253544,1,8,0:0:0:0:
256,192,253715,1,0,0:0:0:0:
256,192,253885,1,8,0:0:0:0:
256,192,253970,1,0,0:0:0:0:
256,192,254055,1,8,0:0:0:0:
256,192,254141,1,8,0:0:0:0:
256,192,254226,1,0,0:0:0:0:
256,192,254396,1,0,0:0:0:0:
256,192,254567,1,8,0:0:0:0:
256,192,254652,1,8,0:0:0:0:
256,192,254737,1,0,0:0:0:0:
256,192,254822,1,0,0:0:0:0:
256,192,254908,1,8,0:0:0:0:
256,192,255078,1,0,0:0:0:0:
256,192,255249,1,8,0:0:0:0:
256,192,255334,1,8,0:0:0:0:
256,192,255419,1,8,0:0:0:0:
256,192,255504,1,8,0:0:0:0:
256,192,255590,1,0,0:0:0:0:
256,192,255760,1,0,0:0:0:0:
256,192,255930,1,8,0:0:0:0:
256,192,256101,1,0,0:0:0:0:
256,192,256186,1,0,0:0:0:0:
256,192,256271,1,8,0:0:0:0:
256,192,256442,1,0,0:0:0:0:
256,192,256612,1,8,0:0:0:0:
256,192,256697,1,8,0:0:0:0:
256,192,256783,1,0,0:0:0:0:
256,192,256953,1,4,0:0:0:0:
256,192,259680,5,8,0:0:0:0:
256,192,265135,5,0,0:0:0:0:
256,192,269226,1,8,0:0:0:0:
256,192,269908,1,0,0:0:0:0:
256,192,270590,1,8,0:0:0:0:
256,192,271953,1,0,0:0:0:0:
256,192,272635,1,8,0:0:0:0:
256,192,273317,1,0,0:0:0:0:
256,192,274680,1,8,0:0:0:0:
256,192,275362,5,0,0:0:0:0:
256,192,276044,1,8,0:0:0:0:
256,192,278771,1,4,0:0:0:0:
256,192,279453,1,4,0:0:0:0:
256,192,285249,5,0,0:0:0:0:
256,192,285590,1,8,0:0:0:0:
256,192,285930,1,0,0:0:0:0:
256,192,286271,1,8,0:0:0:0:
256,192,286612,1,0,0:0:0:0:
256,192,286953,1,4,0:0:0:0:
256,192,287124,1,0,0:0:0:0:
256,192,287209,1,0,0:0:0:0:
256,192,287294,1,8,0:0:0:0:
256,192,287465,1,0,0:0:0:0:
256,192,287635,1,8,0:0:0:0:
256,192,287720,1,8,0:0:0:0:
256,192,287805,1,0,0:0:0:0:
256,192,287891,1,0,0:0:0:0:
256,192,287976,1,8,0:0:0:0:
256,192,288146,1,0,0:0:0:0:
256,192,288317,1,8,0:0:0:0:
256,192,288487,1,8,0:0:0:0:
256,192,288572,1,8,0:0:0:0:
256,192,288658,1,0,0:0:0:0:
256,192,288828,1,0,0:0:0:0:
256,192,288999,1,8,0:0:0:0:
256,192,289084,1,0,0:0:0:0:
256,192,289169,1,8,0:0:0:0:
256,192,289254,1,8,0:0:0:0:
256,192,289340,1,0,0:0:0:0:
256,192,289510,1,0,0:0:0:0:
256,192,289595,1,0,0:0:0:0:
256,192,289680,1,8,0:0:0:0:
256,192,289851,1,8,0:0:0:0:
256,192,289936,1,8,0:0:0:0:
256,192,290021,1,0,0:0:0:0:
256,192,290192,1,8,0:0:0:0:
256,192,290362,1,0,0:0:0:0:
256,192,290447,1,0,0:0:0:0:
256,192,290533,1,8,0:0:0:0:
256,192,290618,1,8,0:0:0:0:
256,192,290703,1,0,0:0:0:0:
256,192,290874,1,8,0:0:0:0:
256,192,291044,1,0,0:0:0:0:
256,192,291215,1,0,0:0:0:0:
256,192,291300,1,0,0:0:0:0:
256,192,291385,1,8,0:0:0:0:
256,192,291555,1,8,0:0:0:0:
256,192,291726,1,0,0:0:0:0:
256,192,291811,1,8,0:0:0:0:
256,192,291896,1,0,0:0:0:0:
256,192,291982,1,0,0:0:0:0:
256,192,292067,1,8,0:0:0:0:
256,192,292237,1,8,0:0:0:0:
256,192,292322,1,8,0:0:0:0:
256,192,292408,1,0,0:0:0:0:
256,192,292578,1,0,0:0:0:0:
256,192,292749,1,8,0:0:0:0:
256,192,292834,1,8,0:0:0:0:
256,192,292919,1,0,0:0:0:0:
256,192,293004,1,0,0:0:0:0:
256,192,293090,1,8,0:0:0:0:
256,192,293260,1,0,0:0:0:0:
256,192,293430,1,8,0:0:0:0:
256,192,293516,1,8,0:0:0:0:
256,192,293601,1,8,0:0:0:0:
256,192,293686,1,8,0:0:0:0:
256,192,293771,1,0,0:0:0:0:
256,192,293942,1,0,0:0:0:0:
256,192,294027,1,0,0:0:0:0:
256,192,294112,1,8,0:0:0:0:
256,192,294283,1,0,0:0:0:0:
256,192,294453,1,8,0:0:0:0:
256,192,294538,1,0,0:0:0:0:
256,192,294624,1,8,0:0:0:0:
256,192,294709,1,8,0:0:0:0:
256,192,294794,1,0,0:0:0:0:
256,192,294965,1,0,0:0:0:0:
256,192,295050,1,0,0:0:0:0:
256,192,295135,1,8,0:0:0:0:
256,192,295305,1,8,0:0:0:0:
256,192,295391,1,8,0:0:0:0:
256,192,295476,1,0,0:0:0:0:
256,192,295646,1,0,0:0:0:0:
256,192,295817,1,8,0:0:0:0:
256,192,295902,1,8,0:0:0:0:
256,192,295987,1,0,0:0:0:0:
256,192,296072,1,0,0:0:0:0:
256,192,296158,1,8,0:0:0:0:
256,192,296328,1,8,0:0:0:0:
256,192,296413,1,8,0:0:0:0:
256,192,296499,1,0,0:0:0:0:
256,192,296669,1,0,0:0:0:0:
256,192,296840,1,8,0:0:0:0:
256,192,296925,1,0,0:0:0:0:
256,192,297010,1,8,0:0:0:0:
256,192,297095,1,8,0:0:0:0:
256,192,297180,1,0,0:0:0:0:
256,192,297351,1,0,0:0:0:0:
256,192,297436,1,0,0:0:0:0:
256,192,297521,1,8,0:0:0:0:
256,192,297607,1,0,0:0:0:0:
256,192,297692,1,8,0:0:0:0:
256,192,297862,1,4,0:0:0:0:
256,192,298033,1,0,0:0:0:0:
256,192,298118,1,0,0:0:0:0:
256,192,298203,1,8,0:0:0:0:
256,192,298374,1,0,0:0:0:0:
256,192,298544,1,8,0:0:0:0:
256,192,298629,1,8,0:0:0:0:
256,192,298715,1,0,0:0:0:0:
256,192,298800,1,0,0:0:0:0:
256,192,298885,1,8,0:0:0:0:
256,192,299055,1,8,0:0:0:0:
256,192,299141,1,8,0:0:0:0:
256,192,299226,1,0,0:0:0:0:
256,192,299396,1,0,0:0:0:0:
256,192,299567,1,8,0:0:0:0:
256,192,299652,1,0,0:0:0:0:
256,192,299737,1,8,0:0:0:0:
256,192,299822,1,8,0:0:0:0:
256,192,299908,1,0,0:0:0:0:
256,192,300078,1,0,0:0:0:0:
256,192,300163,1,0,0:0:0:0:
256,192,300249,1,8,0:0:0:0:
256,192,300334,1,8,0:0:0:0:
256,192,300419,1,0,0:0:0:0:
256,192,300590,1,0,0:0:0:0:
256,192,300760,1,8,0:0:0:0:
256,192,300845,1,0,0:0:0:0:
256,192,300930,1,8,0:0:0:0:
256,192,301101,1,0,0:0:0:0:
256,192,301271,1,8,0:0:0:0:
256,192,301442,1,0,0:0:0:0:
256,192,301527,1,0,0:0:0:0:
256,192,301612,1,8,0:0:0:0:
256,192,301783,1,0,0:0:0:0:
256,192,301953,1,8,0:0:0:0:
256,192,302038,1,0,0:0:0:0:
256,192,302124,1,8,0:0:0:0:
256,192,302209,1,8,0:0:0:0:
256,192,302294,1,0,0:0:0:0:
256,192,302465,1,0,0:0:0:0:
256,192,302635,1,8,0:0:0:0:
256,192,302720,1,8,0:0:0:0:
256,192,302805,1,0,0:0:0:0:
256,192,302891,1,0,0:0:0:0:
256,192,302976,1,8,0:0:0:0:
256,192,303146,1,8,0:0:0:0:
256,192,303232,1,8,0:0:0:0:
256,192,303317,1,0,0:0:0:0:
256,192,303487,1,0,0:0:0:0:
256,192,303572,1,0,0:0:0:0:
256,192,303658,1,8,0:0:0:0:
256,192,303828,1,0,0:0:0:0:
256,192,303999,1,8,0:0:0:0:
256,192,304084,1,8,0:0:0:0:
256,192,304169,1,0,0:0:0:0:
256,192,304254,1,0,0:0:0:0:
256,192,304340,1,8,0:0:0:0:
256,192,304510,1,8,0:0:0:0:
256,192,304595,1,8,0:0:0:0:
256,192,304680,1,0,0:0:0:0:
256,192,304851,1,0,0:0:0:0:
256,192,305021,1,8,0:0:0:0:
256,192,305107,1,0,0:0:0:0:
256,192,305192,1,8,0:0:0:0:
256,192,305277,1,8,0:0:0:0:
256,192,305362,1,0,0:0:0:0:
256,192,305533,1,0,0:0:0:0:
256,192,305703,1,8,0:0:0:0:
256,192,305788,1,8,0:0:0:0:
256,192,305874,1,0,0:0:0:0:
256,192,305959,1,0,0:0:0:0:
256,192,306044,1,8,0:0:0:0:
256,192,306215,1,8,0:0:0:0:
256,192,306300,1,8,0:0:0:0:
256,192,306385,1,0,0:0:0:0:
256,192,306555,1,0,0:0:0:0:
256,192,306726,1,8,0:0:0:0:
256,192,306811,1,8,0:0:0:0:
256,192,306896,1,0,0:0:0:0:
256,192,306982,1,8,0:0:0:0:
256,192,307067,1,0,0:0:0:0:
256,192,307237,1,8,0:0:0:0:
256,192,307408,1,0,0:0:0:0:
256,192,307493,1,0,0:0:0:0:
256,192,307578,1,0,0:0:0:0:
256,192,307663,1,0,0:0:0:0:
256,192,307749,1,8,0:0:0:0:
256,192,307834,1,8,0:0:0:0:
256,192,307919,1,0,0:0:0:0:
256,192,308004,1,8,0:0:0:0:
256,192,308090,1,0,0:0:0:0:
256,192,308175,1,0,0:0:0:0:
256,192,308260,1,8,0:0:0:0:
256,192,308345,1,8,0:0:0:0:
256,192,308430,1,0,0:0:0:0:
256,192,308516,1,8,0:0:0:0:
256,192,308601,1,0,0:0:0:0:
256,192,308771,1,12,0:0:0:0:
256,192,308942,1,0,0:0:0:0:
256,192,309027,1,0,0:0:0:0:
256,192,309112,1,8,0:0:0:0:
256,192,309197,1,8,0:0:0:0:
256,192,309283,1,0,0:0:0:0:
256,192,309453,1,8,0:0:0:0:
256,192,309538,1,8,0:0:0:0:
256,192,309624,1,0,0:0:0:0:
256,192,309709,1,0,0:0:0:0:
256,192,309794,1,8,0:0:0:0:
256,192,309965,1,0,0:0:0:0:
256,192,310135,1,8,0:0:0:0:
256,192,310305,1,8,0:0:0:0:
256,192,310391,1,8,0:0:0:0:
256,192,310476,1,0,0:0:0:0:
256,192,310646,1,0,0:0:0:0:
256,192,310817,1,8,0:0:0:0:
256,192,310902,1,0,0:0:0:0:
256,192,310987,1,8,0:0:0:0:
256,192,311072,1,8,0:0:0:0:
256,192,311158,1,0,0:0:0:0:
256,192,311243,1,8,0:0:0:0:
256,192,311328,1,0,0:0:0:0:
256,192,311413,1,0,0:0:0:0:
256,192,311499,1,8,0:0:0:0:
256,192,311669,1,8,0:0:0:0:
256,192,311754,1,8,0:0:0:0:
256,192,311840,1,0,0:0:0:0:
256,192,312010,1,8,0:0:0:0:
256,192,312180,1,0,0:0:0:0:
256,192,312266,1,0,0:0:0:0:
256,192,312351,1,8,0:0:0:0:
256,192,312436,1,8,0:0:0:0:
256,192,312521,1,0,0:0:0:0:
256,192,312692,1,8,0:0:0:0:
256,192,312862,1,0,0:0:0:0:
256,192,313033,1,0,0:0:0:0:
256,192,313118,1,0,0:0:0:0:
256,192,313203,1,8,0:0:0:0:
256,192,313374,1,8,0:0:0:0:
256,192,313544,1,0,0:0:0:0:
256,192,313629,1,8,0:0:0:0:
256,192,313715,1,0,0:0:0:0:
256,192,313800,1,0,0:0:0:0:
256,192,313885,1,8,0:0:0:0:
256,192,313970,1,0,0:0:0:0:
256,192,314055,1,8,0:0:0:0:
256,192,314141,1,8,0:0:0:0:
256,192,314226,1,0,0:0:0:0:
256,192,314396,1,0,0:0:0:0:
256,192,314567,1,8,0:0:0:0:
256,192,314652,1,8,0:0:0:0:
256,192,314737,1,0,0:0:0:0:
256,192,314822,1,0,0:0:0:0:
256,192,314908,1,8,0:0:0:0:
256,192,315078,1,0,0:0:0:0:
256,192,315249,1,8,0:0:0:0:
256,192,315334,1,8,0:0:0:0:
256,192,315419,1,8,0:0:0:0:
256,192,315504,1,8,0:0:0:0:
256,192,315590,1,0,0:0:0:0:
256,192,315760,1,0,0:0:0:0:
256,192,315845,1,0,0:0:0:0:
256,192,315930,1,8,0:0:0:0:
256,192,316101,1,0,0:0:0:0:
256,192,316271,1,8,0:0:0:0:
256,192,316357,1,0,0:0:0:0:
256,192,316442,1,8,0:0:0:0:
256,192,316527,1,8,0:0:0:0:
256,192,316612,1,0,0:0:0:0:
256,192,316697,1,8,0:0:0:0:
256,192,316783,1,0,0:0:0:0:
256,192,316868,1,0,0:0:0:0:
256,192,316953,1,8,0:0:0:0:
256,192,317124,1,8,0:0:0:0:
256,192,317209,1,8,0:0:0:0:
256,192,317294,1,0,0:0:0:0:
256,192,317465,1,0,0:0:0:0:
256,192,317635,1,8,0:0:0:0:
256,192,317720,1,8,0:0:0:0:
256,192,317805,1,0,0:0:0:0:
256,192,317891,1,0,0:0:0:0:
256,192,317976,1,8,0:0:0:0:
256,192,318146,1,8,0:0:0:0:
256,192,318232,1,8,0:0:0:0:
256,192,318317,1,0,0:0:0:0:
256,192,318487,1,0,0:0:0:0:
256,192,318572,1,0,0:0:0:0:
256,192,318658,1,8,0:0:0:0:
256,192,318743,1,0,0:0:0:0:
256,192,318828,1,8,0:0:0:0:
256,192,318913,1,8,0:0:0:0:
256,192,318999,1,0,0:0:0:0:
256,192,319084,1,8,0:0:0:0:
256,192,319169,1,0,0:0:0:0:
256,192,319254,1,0,0:0:0:0:
256,192,319340,1,8,0:0:0:0:
256,192,319425,1,0,0:0:0:0:
256,192,319510,1,8,0:0:0:0:
256,192,319680,1,4,0:0:0:0:
256,192,319851,1,0,0:0:0:0:
256,192,319936,1,0,0:0:0:0:
256,192,320021,1,8,0:0:0:0:
256,192,320192,1,0,0:0:0:0:
256,192,320362,1,8,0:0:0:0:
256,192,320447,1,8,0:0:0:0:
256,192,320533,1,0,0:0:0:0:
256,192,320618,1,0,0:0:0:0:
256,192,320703,1,8,0:0:0:0:
256,192,320874,1,8,0:0:0:0:
256,192,320959,1,8,0:0:0:0:
256,192,321044,1,0,0:0:0:0:
256,192,321215,1,0,0:0:0:0:
256,192,321385,1,8,0:0:0:0:
256,192,321470,1,0,0:0:0:0:
256,192,321555,1,8,0:0:0:0:
256,192,321641,1,8,0:0:0:0:
256,192,321726,1,0,0:0:0:0:
256,192,321811,1,8,0:0:0:0:
256,192,321896,1,0,0:0:0:0:
256,192,321982,1,0,0:0:0:0:
256,192,322067,1,8,0:0:0:0:
256,192,322152,1,8,0:0:0:0:
256,192,322237,1,0,0:0:0:0:
256,192,322408,1,0,0:0:0:0:
256,192,322578,1,8,0:0:0:0:
256,192,322663,1,0,0:0:0:0:
256,192,322749,1,8,0:0:0:0:
256,192,322919,1,0,0:0:0:0:
256,192,323090,1,8,0:0:0:0:
256,192,323260,1,0,0:0:0:0:
256,192,323345,1,0,0:0:0:0:
256,192,323430,1,8,0:0:0:0:
256,192,323601,1,0,0:0:0:0:
256,192,323771,1,8,0:0:0:0:
256,192,323857,1,0,0:0:0:0:
256,192,323942,1,8,0:0:0:0:
256,192,324027,1,8,0:0:0:0:
256,192,324112,1,0,0:0:0:0:
256,192,324283,1,0,0:0:0:0:
256,192,324453,1,8,0:0:0:0:
256,192,324538,1,8,0:0:0:0:
256,192,324624,1,0,0:0:0:0:
256,192,324709,1,0,0:0:0:0:
256,192,324794,1,8,0:0:0:0:
256,192,324879,1,0,0:0:0:0:
256,192,324965,1,8,0:0:0:0:
256,192,325050,1,8,0:0:0:0:
256,192,325135,1,0,0:0:0:0:
256,192,325391,1,0,0:0:0:0:
256,192,325476,1,0,0:0:0:0:
256,192,325646,1,8,0:0:0:0:
256,192,325817,1,0,0:0:0:0:
256,192,325987,1,0,0:0:0:0:
256,192,326158,1,8,0:0:0:0:
256,192,326328,1,0,0:0:0:0:
256,192,326499,1,8,0:0:0:0:
256,192,326669,1,0,0:0:0:0:
256,192,326840,1,0,0:0:0:0:
256,192,327010,1,8,0:0:0:0:
256,192,327095,1,0,0:0:0:0:
256,192,327180,1,8,0:0:0:0:
256,192,327266,1,8,0:0:0:0:
256,192,327351,1,0,0:0:0:0:
256,192,327521,1,8,0:0:0:0:
256,192,327692,1,0,0:0:0:0:
256,192,327862,1,4,0:0:0:0:
256,192,330590,1,4,0:0:0:0:
256,192,330930,1,8,0:0:0:0:
256,192,331101,1,0,0:0:0:0:
256,192,331442,1,0,0:0:0:0:
256,192,331612,1,8,0:0:0:0:
256,192,331953,1,0,0:0:0:0:
256,192,332124,1,0,0:0:0:0:
256,192,332209,1,0,0:0:0:0:
256,192,332294,1,8,0:0:0:0:
256,192,332465,1,0,0:0:0:0:
256,192,332635,1,8,0:0:0:0:
256,192,332720,1,8,0:0:0:0:
256,192,332805,1,0,0:0:0:0:
256,192,332976,1,8,0:0:0:0:
256,192,333146,1,0,0:0:0:0:
256,192,333317,1,0,0:0:0:0:
256,192,333658,1,8,0:0:0:0:
256,192,333828,1,0,0:0:0:0:
256,192,334169,1,0,0:0:0:0:
256,192,334340,1,8,0:0:0:0:
256,192,334680,1,0,0:0:0:0:
256,192,334851,1,8,0:0:0:0:
256,192,334936,1,0,0:0:0:0:
256,192,335021,1,8,0:0:0:0:
256,192,335192,1,0,0:0:0:0:
256,192,335362,1,8,0:0:0:0:
256,192,335533,1,0,0:0:0:0:
256,192,335618,1,0,0:0:0:0:
256,192,335703,1,8,0:0:0:0:
256,192,335874,1,8,0:0:0:0:
256,192,336044,1,0,0:0:0:0:
256,192,336385,1,8,0:0:0:0:
256,192,336555,1,0,0:0:0:0:
256,192,336896,1,0,0:0:0:0:
256,192,337067,1,8,0:0:0:0:
256,192,337237,1,8,0:0:0:0:
256,192,337322,1,8,0:0:0:0:
256,192,337408,1,0,0:0:0:0:
256,192,337578,1,0,0:0:0:0:
256,192,337749,1,8,0:0:0:0:
256,192,337919,1,8,0:0:0:0:
256,192,338090,1,0,0:0:0:0:
256,192,338260,1,0,0:0:0:0:
256,192,338345,1,0,0:0:0:0:
256,192,338430,1,8,0:0:0:0:
256,192,338601,1,0,0:0:0:0:
256,192,338771,1,0,0:0:0:0:
256,192,339112,1,8,0:0:0:0:
256,192,339283,1,0,0:0:0:0:
256,192,339624,1,0,0:0:0:0:
256,192,339794,1,8,0:0:0:0:
256,192,340135,1,0,0:0:0:0:
256,192,340305,1,0,0:0:0:0:
256,192,340391,1,0,0:0:0:0:
256,192,340476,1,8,0:0:0:0:
256,192,340646,1,0,0:0:0:0:
256,192,340817,1,8,0:0:0:0:
256,192,340902,1,8,0:0:0:0:
256,192,340987,1,0,0:0:0:0:
256,192,341158,1,8,0:0:0:0:
256,192,341328,1,0,0:0:0:0:
256,192,341499,1,0,0:0:0:0:
256,192,341840,1,8,0:0:0:0:
256,192,342010,1,0,0:0:0:0:
256,192,342351,1,0,0:0:0:0:
256,192,342521,1,8,0:0:0:0:
256,192,342862,1,0,0:0:0:0:
256,192,343033,1,0,0:0:0:0:
256,192,343203,1,8,0:0:0:0:
256,192,343374,1,8,0:0:0:0:
256,192,343544,1,0,0:0:0:0:
256,192,343715,1,0,0:0:0:0:
256,192,343885,1,8,0:0:0:0:
256,192,344055,1,0,0:0:0:0:
256,192,344226,1,0,0:0:0:0:
256,192,344567,1,8,0:0:0:0:
256,192,344737,1,0,0:0:0:0:
256,192,345078,1,0,0:0:0:0:
256,192,345249,1,8,0:0:0:0:
256,192,345590,1,0,0:0:0:0:
256,192,345760,1,0,0:0:0:0:
256,192,345930,1,8,0:0:0:0:
256,192,346101,1,0,0:0:0:0:
256,192,346271,1,8,0:0:0:0:
256,192,346442,1,0,0:0:0:0:
256,192,346612,1,0,0:0:0:0:
256,192,346783,1,8,0:0:0:0:
256,192,346953,1,0,0:0:0:0:
256,192,347294,1,8,0:0:0:0:
256,192,347465,1,0,0:0:0:0:
256,192,347805,1,0,0:0:0:0:
256,192,347976,1,8,0:0:0:0:
256,192,348317,1,0,0:0:0:0:
256,192,348487,1,0,0:0:0:0:
256,192,348658,1,8,0:0:0:0:
256,192,348828,1,0,0:0:0:0:
256,192,348999,1,8,0:0:0:0:
256,192,349169,1,0,0:0:0:0:
256,192,349340,1,8,0:0:0:0:
256,192,349510,1,0,0:0:0:0:
256,192,349680,1,0,0:0:0:0:
256,192,350021,1,8,0:0:0:0:
256,192,350192,1,0,0:0:0:0:
256,192,350533,1,0,0:0:0:0:
256,192,350703,1,8,0:0:0:0:
256,192,351044,1,0,0:0:0:0:
256,192,351215,1,0,0:0:0:0:
256,192,351385,1,8,0:0:0:0:
256,192,351555,1,0,0:0:0:0:
256,192,351726,1,0,0:0:0:0:
256,192,351896,1,8,0:0:0:0:
256,192,352067,1,8,0:0:0:0:
256,192,352237,1,0,0:0:0:0:
256,192,352408,12,0,357480,0:0:0:0:
