osu file format v14

[General]
AudioFilename: audio.mp3
AudioLeadIn: 0
PreviewTime: 77066
Countdown: 0
SampleSet: Soft
StackLeniency: 0.9
Mode: 0
LetterboxInBreaks: 0
WidescreenStoryboard: 1

[Editor]
Bookmarks: 108661,243838
DistanceSpacing: 0.8
BeatDivisor: 4
GridSize: 32
TimelineZoom: 1.4

[Metadata]
Title:Mameshiba
TitleUnicode:マメシバ
Artist:Sakamoto Maaya
ArtistUnicode:坂本真綾
Creator:Keqing
Version:Summertime
Source:地球少女アルジュナ
Tags:iljaaz kowari 菅野よう子 yoko kanno Lucy everywhere japanese jpop j pop j-pop female vocals vocalist ending ed chikyuu shoujo arjuna earth girl
BeatmapID:3369723
BeatmapSetID:1650679

[Difficulty]
HPDrainRate:5
CircleSize:4
OverallDifficulty:7.8
ApproachRate:8.5
SliderMultiplier:1.74
SliderTickRate:1

[Events]
//Background and Video events
0,0,"92983746_p0.jpg",0,0
//Break Periods
2,158155,169510
//Storyboard Layer 0 (Background)
//Storyboard Layer 1 (Fail)
//Storyboard Layer 2 (Pass)
//Storyboard Layer 3 (Foreground)
//Storyboard Layer 4 (Overlay)
//Storyboard Sound Samples

[TimingPoints]
1000,384.615384615385,4,2,4,80,1,0
1000,-100,4,2,4,80,0,0
7153,-111.111111111111,4,2,4,80,0,0
10230,-111.111111111111,4,2,4,80,0,0
15230,372.670807453417,4,2,4,80,1,0
15230,-111.111111111111,4,2,4,80,0,0
15602,383.386581469649,4,2,4,80,1,0
15602,-111.111111111111,4,2,4,80,0,0
16368,384.615384615385,4,2,4,80,1,0
16368,-111.111111111111,4,2,4,80,0,0
25598,-111.111111111111,4,2,4,70,0,0
25983,-125,4,2,4,70,0,0
26944,-128.205128205128,4,2,4,70,0,0
27137,400.000000000001,4,2,4,70,1,0
28137,-125,4,2,4,70,0,0
28337,370.370370370371,4,2,4,70,1,0
28707,386.473429951691,4,2,4,70,1,0
28707,-125,4,2,4,70,0,0
31798,384.615384615385,4,2,4,70,1,0
31798,-125,4,2,4,70,0,0
36413,379.746835443038,4,2,4,70,1,0
37552,355.029585798817,4,2,4,70,1,0
37552,-125,4,2,4,70,0,0
37907,422.535211267606,4,2,4,70,1,0
37907,-125,4,2,4,70,0,0
38329,384.615384615385,4,2,4,70,1,0
38713,-125,4,2,4,70,0,0
39482,384.615384615385,4,2,4,70,1,0
39482,-125,4,2,4,70,0,0
40635,359.281437125749,4,2,4,70,1,0
40994,397.350993377484,4,2,4,70,1,0
40994,-125,4,2,4,70,0,0
41391,384.615384615385,4,2,4,70,1,0
41391,-125,4,2,4,70,0,0
42352,-124.223602484472,4,2,4,70,0,0
42544,379.746835443038,4,2,4,70,1,0
42544,-125,4,2,4,70,0,0
44062,405.405405405406,4,2,4,70,1,0
44062,-125,4,2,4,70,0,0
44467,384.615384615385,4,2,4,70,1,0
44467,-125,4,2,4,70,0,0
45620,384.615384615385,4,2,4,70,1,0
45620,-125,4,2,4,70,0,0
47158,392.156862745098,4,2,4,70,1,0
47158,-125,4,2,4,70,0,0
48530,392.156862745099,4,2,4,70,1,0
48922,-100,4,2,4,70,0,0
49118,377.358490566038,4,2,4,70,1,0
49118,-125,4,2,4,70,0,0
49275,-125,4,2,4,70,0,0
49872,363.636363636364,4,2,4,70,1,0
50235,392.156862745098,4,2,4,70,1,0
50235,-125,4,2,4,70,0,0
50627,384.615384615385,4,2,4,70,1,0
50627,-125,4,2,4,70,0,0
51780,387.096774193549,4,2,4,70,1,0
51780,-125,4,2,4,70,0,0
53296,-111.111111111111,4,2,4,80,0,0
54876,384.615384615385,4,2,4,80,1,0
54876,-111.111111111111,4,2,4,80,0,0
56029,370.370370370371,4,2,4,80,1,0
56399,400.000000000001,4,2,4,80,1,0
56399,-111.111111111111,4,2,4,80,0,0
56799,361.44578313253,4,2,4,80,1,0
57160,387.096774193549,4,2,4,80,1,0
57547,379.746835443038,4,2,4,80,1,0
57736,384.615384615385,4,2,4,80,1,0
57736,-111.111111111111,4,2,4,80,0,0
57928,384.615384615385,4,2,4,80,1,0
58312,384.615384615385,4,2,4,80,1,0
59465,384.615384615385,4,2,4,80,1,0
59465,-111.111111111111,4,2,4,80,0,0
59849,365.853658536586,4,2,4,80,1,0
59849,-111.111111111111,4,2,4,80,0,0
60214,402.68456375839,4,2,4,80,1,0
60616,384.615384615385,4,2,4,80,1,0
60808,-111.111111111111,4,2,4,80,0,0
61000,384.615384615385,4,2,4,80,1,0
61000,-111.111111111111,4,2,4,80,0,0
62153,372.670807453417,4,2,4,80,1,0
62525,394.736842105264,4,2,4,80,1,0
62525,-111.111111111111,4,2,4,80,0,0
62919,384.615384615385,4,2,4,80,1,0
62919,-111.111111111111,4,2,4,80,0,0
64072,384.615384615385,4,2,4,80,1,0
65610,387.096774193549,4,2,4,80,1,0
65610,-111.111111111111,4,2,4,80,0,0
71803,384.615384615385,4,2,4,80,1,0
71803,-111.111111111111,4,2,4,80,0,0
74495,348.837209302326,4,2,4,80,1,0
74843,402.68456375839,4,2,4,80,1,0
74843,-111.111111111111,4,2,4,80,0,0
75245,384.615384615385,4,2,4,80,1,0
75245,-111.111111111111,4,2,4,80,0,0
76398,384.615384615385,4,2,4,80,1,0
76398,-111.111111111111,4,2,4,80,0,0
77923,-100,4,2,4,90,0,0
82936,375.000000000001,4,2,4,90,1,0
84061,389.61038961039,4,2,4,90,1,0
87177,384.615384615385,4,2,4,90,1,0
87177,-100,4,2,4,80,0,0
87513,-111.111111111111,4,2,4,80,0,0
89869,372.670807453417,4,2,4,80,1,0
90241,392.156862745098,4,2,4,80,1,0
90241,-111.111111111111,4,2,4,80,0,0
90633,384.615384615385,4,2,4,80,1,0
90633,-111.111111111111,4,2,4,80,0,0
91786,384.615384615385,4,2,4,80,1,0
91786,-111.111111111111,4,2,4,80,0,0
94862,382.165605095542,4,2,4,80,1,0
96390,384.615384615385,4,2,4,80,1,0
96390,-111.111111111111,4,2,4,80,0,0
100813,-112.359550561798,4,2,4,80,0,0
101005,392.156862745098,4,2,4,80,1,0
101005,-111.111111111111,4,2,4,80,0,0
102573,384.615384615385,4,2,4,80,1,0
102573,-111.111111111111,4,2,4,80,0,0
105265,368.098159509203,4,2,4,80,1,0
105449,-111.111111111111,4,2,4,80,0,0
105633,402.68456375839,4,2,4,80,1,0
105633,-111.111111111111,4,2,4,80,0,0
106035,384.615384615385,4,2,4,80,1,0
106035,-111.111111111111,4,2,4,80,0,0
107188,384.615384615385,4,2,4,80,1,0
108341,365.853658536586,4,2,4,80,1,0
108661,-125,4,2,4,70,0,0
108706,384.615384615385,4,2,4,70,1,0
108706,-125,4,2,4,70,0,0
113706,377.952755905512,4,2,4,70,1,0
114839,402.68456375839,4,2,4,70,1,0
114839,-125,4,2,4,70,0,0
115241,384.615384615385,4,2,4,70,1,0
115241,-125,4,2,4,70,0,0
116394,384.615384615385,4,2,4,70,1,0
116394,-125,4,2,4,70,0,0
124038,-111.111111111111,4,2,4,80,0,0
125624,389.61038961039,4,2,4,80,1,0
125624,-111.111111111111,4,2,4,80,0,0
127182,384.615384615385,4,2,4,80,1,0
127182,-111.111111111111,4,2,4,80,0,0
128528,387.096774193549,4,2,4,80,1,0
128528,-111.111111111111,4,2,4,80,0,0
128721,387.096774193549,4,2,4,80,1,0
128721,-111.111111111111,4,2,4,80,0,0
130656,384.615384615385,4,2,4,80,1,0
130656,-111.111111111111,4,2,4,80,0,0
131809,384.615384615385,4,2,4,80,1,0
131809,-111.111111111111,4,2,4,80,0,0
147962,384.615384615385,4,2,4,80,1,0
147962,-111.111111111111,4,2,4,80,0,0
148683,-99.9999999999999,4,2,4,90,0,0
148731,382.165605095542,4,2,4,90,1,0
151788,384.615384615385,4,2,4,90,1,0
154480,370.370370370371,4,2,4,90,1,0
154850,392.156862745098,4,2,4,90,1,0
155242,384.615384615385,4,2,4,90,1,0
156203,-101.010101010101,4,2,4,90,0,0
156395,390.243902439025,4,2,4,90,1,0
157952,-100,4,2,4,60,0,0
157956,382.165605095542,4,2,4,60,1,0
170137,-142.857142857143,4,2,4,60,0,0
173242,384.615384615385,4,2,4,60,1,0
173242,-142.857142857143,4,2,4,60,0,0
180742,-140.056022408964,4,2,4,60,0,0
180934,368.098159509203,4,2,4,60,1,0
180934,-142.857142857143,4,2,4,60,0,0
182406,384.615384615385,4,2,4,60,1,0
182406,-142.857142857143,4,2,4,60,0,0
190098,372.670807453417,4,2,4,60,1,0
190098,-142.857142857143,4,2,4,60,0,0
191588,379.746835443038,4,2,4,80,1,0
191588,-111.111111111111,4,2,4,80,0,0
194625,384.615384615385,4,2,4,80,1,0
194625,-111.111111111111,4,2,4,80,0,0
197701,-111.111111111111,4,2,4,80,0,0
200729,-111.111111111111,4,2,4,80,0,0
202316,387.096774193549,4,2,4,80,1,0
202316,-111.111111111111,4,2,4,80,0,0
205412,382.165605095542,4,2,4,80,1,0
205412,-111.111111111111,4,2,4,80,0,0
210008,387.096774193549,4,2,4,80,1,0
210008,-111.111111111111,4,2,4,80,0,0
214653,384,4,2,4,80,1,0
214653,-111.111111111111,4,2,4,80,0,0
234557,-99.9999999999999,4,2,4,90,0,0
239229,389.610389610389,4,2,4,90,1,0
240787,392.156862745098,4,2,4,90,1,0
240787,-100,4,2,4,90,0,0
242159,-99.502487562189,4,2,4,90,0,0
242355,389.61038961039,4,2,4,90,1,0
243903,382.165605095542,4,2,4,90,1,1
250017,384.615384615385,4,2,4,90,1,1
263863,383.386581469649,4,2,4,90,1,1
268463,385.232744783307,4,2,4,90,1,1
275975,-100.502512562814,4,2,4,90,0,1
276167,389.61038961039,4,2,4,90,1,1
277725,382.775119617225,4,2,4,90,1,1
280787,385.232744783307,4,2,4,90,1,1
285217,-101.010101010101,4,2,4,90,0,1
285414,384.615384615385,4,2,4,90,1,1
293106,389.61038961039,4,2,4,90,1,1
294469,-99.009900990099,4,2,4,90,0,1
294664,383.386581469649,4,2,4,90,1,1
305398,387.096774193549,4,2,4,90,1,1
311591,382.165605095542,4,2,4,90,1,1
317705,384.862091084028,4,2,4,90,1,1
317897,-111.111111111111,4,2,4,80,0,0
342336,385.232744783306,4,2,4,80,1,0
343034,-111.111111111111,4,2,4,70,0,0
344575,-111.111111111111,4,2,4,60,0,0
346116,-111.111111111111,4,2,4,50,0,0
347657,-111.111111111111,4,2,4,40,0,0
349197,-111.111111111111,4,2,4,30,0,0
350738,-111.111111111111,4,2,4,20,0,0
352279,-111.111111111111,4,2,4,10,0,0
354591,-111.111111111111,4,2,4,40,0,0

[Colours]
Combo1 : 130,230,104
Combo2 : 165,205,245
Combo3 : 121,224,242
Combo4 : 84,235,179

[HitObjects]
417,220,6384,6,0,P|377:214|328:199,1,87,8|0,3:0|0:0,0:0:0:0:
332,200,6673,1,8,0:0:0:0:
332,200,6769,1,8,0:0:0:0:
216,297,6961,1,8,3:0:0:0:
118,246,7153,6,0,P|60:250|-3:337,2,156.599995220947,4|8|2,3:2|0:0|0:0,0:0:0:0:
216,297,8115,1,0,3:2:0:0:
156,96,8307,1,8,0:0:0:0:
257,181,8500,2,0,P|296:192|346:204,1,78.2999976104737,2|0,3:2|0:0,0:0:0:0:
492,106,8884,1,0,3:2:0:0:
368,42,9076,2,0,P|378:80|388:125,1,78.2999976104737,10|0,0:0|0:0,0:0:0:0:
485,281,9461,1,0,3:2:0:0:
485,281,9653,1,0,3:2:0:0:
351,203,9846,1,8,0:0:0:0:
232,357,10038,1,2,0:0:0:0:
232,357,10134,1,2,0:0:0:0:
232,357,10230,6,0,P|179:361|96:277,1,156.599995220947,6|8,3:2|0:0,0:0:0:0:
23,135,10903,1,8,0:0:0:0:
23,135,11000,2,0,P|61:142|106:152,1,78.2999976104737,2|0,3:2|3:2,0:0:0:0:
28,230,11384,1,8,0:0:0:0:
177,68,11576,2,0,P|194:147|210:227,1,156.599995220947,6|0,3:2|3:2,0:0:0:0:
376,317,12153,2,0,P|339:304|296:293,1,78.2999976104737,10|0,0:0|0:0,0:0:0:0:
128,380,12538,1,2,3:2:0:0:
224,298,12730,1,0,3:2:0:0:
28,230,12923,2,0,P|67:245|111:255,1,78.2999976104737,14|0,0:0|0:0,0:0:0:0:
376,104,13307,6,0,P|303:118|216:134,1,156.599995220947,6|8,3:2|0:0,0:0:0:0:
222,132,14076,1,2,3:2:0:0:
301,294,14269,1,0,3:2:0:0:
171,207,14461,1,10,0:0:0:0:
383,259,14653,2,0,P|390:220|395:176,1,78.2999976104737,6|0,3:2|0:0,0:0:0:0:
203,294,15038,1,0,3:2:0:0:
246,60,15230,2,0,P|237:99|228:143,1,78.2999976104737,10|0,0:0|0:0,0:0:0:0:
11,275,15602,2,0,P|49:265|91:257,1,78.2999976104737,0|0,3:2|0:0,0:0:0:0:
87,257,15889,1,8,0:0:0:0:
87,257,15985,1,8,0:0:0:0:
257,361,16177,1,0,3:2:0:0:
382,258,16368,6,0,P|325:225|228:210,1,156.599995220947,6|10,3:2|0:0,0:0:0:0:
236,209,17137,1,2,3:2:0:0:
120,349,17329,1,0,3:2:0:0:
52,252,17521,1,10,0:0:0:0:
231,308,17714,2,0,P|241:346|251:391,1,78.2999976104737,2|0,3:2|0:0,0:0:0:0:
126,189,18098,1,2,3:2:0:0:
126,189,18291,2,0,P|130:150|140:102,1,78.2999976104737,10|0,0:0|0:0,0:0:0:0:
137,111,18579,1,2,0:0:0:0:
137,111,18675,1,0,3:2:0:0:
52,252,18868,1,0,3:2:0:0:
232,186,19060,1,10,0:0:0:0:
327,344,19252,1,2,0:0:0:0:
327,344,19348,1,2,0:0:0:0:
327,344,19444,6,0,P|405:327|485:308,2,156.599995220947,6|8|0,3:2|0:0|3:2,0:0:0:0:
162,234,20406,1,0,3:2:0:0:
278,266,20598,1,10,0:0:0:0:
121,379,20791,2,0,P|111:340|104:302,1,78.2999976104737,2|0,3:2|0:0,0:0:0:0:
0,180,21175,1,0,3:2:0:0:
162,251,21368,1,10,0:0:0:0:
29,338,21560,1,2,0:0:0:0:
29,338,21656,1,2,0:0:0:0:
29,338,21752,1,2,3:2:0:0:
122,167,21944,1,0,3:2:0:0:
11,255,22137,1,10,0:0:0:0:
227,338,22329,1,2,0:0:0:0:
227,338,22521,6,0,P|240:274|249:168,1,156.599995220947,4|8,3:2|0:0,0:0:0:0:
248,183,23291,1,0,3:2:0:0:
391,68,23483,1,0,3:2:0:0:
331,0,23675,1,2,0:0:0:0:
482,114,23868,2,0,P|443:144|330:152,1,156.599995220947,10|0,0:0|3:2,0:0:0:0:
162,0,24444,2,0,P|170:40|177:82,1,78.2999976104737,10|0,0:0|0:0,0:0:0:0:
39,229,24829,1,2,3:2:0:0:
186,170,25021,1,2,0:0:0:0:
186,170,25118,1,8,0:0:0:0:
186,170,25214,1,8,0:0:0:0:
80,102,25406,1,0,3:2:0:0:
160,292,25598,6,0,P|210:288|324:247,1,156.599995220947,6|8,3:2|0:0,0:0:0:0:
310,254,26368,1,2,0:0:0:0:
437,361,26560,2,0,P|404:351|361:343,1,69.6,2|0,3:2|0:0,0:0:0:0:
512,212,26944,2,0,P|442:197|370:181,1,139.2,2|0,3:2|3:2,0:0:0:0:
245,38,27537,1,10,0:0:0:0:
245,38,27737,1,2,0:0:0:0:
347,87,27937,1,2,0:0:0:0:
206,148,28137,2,0,P|171:154|119:167,1,69.6,0|8,3:2|0:0,0:0:0:0:
41,251,28522,1,2,0:0:0:0:
17,29,28707,6,0,P|31:87|47:165,1,139.2,6|8,3:2|0:2,0:2:0:0:
234,355,29479,1,2,0:0:0:0:
184,293,29673,2,0,P|189:259|199:216,1,69.6,2|0,3:2|0:0,0:0:0:0:
0,384,30059,2,0,P|63:367|139:352,1,139.2,2|2,3:2|3:2,0:0:0:0:
312,233,30639,1,10,0:0:0:0:
234,355,30832,1,2,0:0:0:0:
119,83,31219,2,0,P|152:93|193:102,1,69.6,2|0,3:2|0:0,0:0:0:0:
402,157,31605,1,2,0:0:0:0:
440,50,31798,6,0,P|374:59|299:99,1,139.2,6|8,3:2|0:0,0:0:0:0:
117,236,32374,1,2,0:0:0:0:
117,236,32471,1,2,0:0:0:0:
117,236,32567,1,2,0:0:0:0:
186,100,32759,1,0,3:2:0:0:
416,374,33144,2,0,P|403:308|389:218,1,139.2,2|0,3:2|3:2,0:0:0:0:
512,104,33721,1,10,0:0:0:0:
512,104,33913,1,2,0:0:0:0:
484,263,34105,1,2,0:0:0:0:
339,165,34298,1,2,3:2:0:0:
492,296,34490,1,8,0:0:0:0:
301,380,34682,1,2,0:0:0:0:
301,380,34778,1,2,0:0:0:0:
301,380,34874,6,0,P|255:371|167:321,1,139.2,4|8,3:2|0:0,0:0:0:0:
91,116,35451,1,2,0:0:0:0:
0,384,35836,1,0,3:2:0:0:
74,310,36028,1,2,0:0:0:0:
145,235,36221,2,0,P|151:202|159:146,1,69.6,2|0,3:2|0:0,0:0:0:0:
97,35,36602,1,0,3:2:0:0:
241,127,36792,1,10,0:0:0:0:
208,13,36982,5,2,0:1:0:0:
148,234,37172,1,2,3:1:0:0:
16,98,37362,1,2,3:1:0:0:
265,224,37552,2,0,P|299:215|348:202,1,69.6,10|0,0:1|0:0,0:0:0:0:
492,137,37907,6,0,P|478:209|466:282,1,139.2,2|8,3:2|0:0,0:0:0:0:
467,273,38713,1,2,0:0:0:0:
266,221,38905,2,0,P|302:211|337:203,1,69.6,2|0,3:2|0:0,0:0:0:0:
211,384,39290,2,0,P|279:366|358:348,1,139.2,2|0,3:2|3:2,0:0:0:0:
107,261,39866,1,8,0:0:0:0:
107,261,40058,1,0,0:0:0:0:
195,293,40251,1,2,0:0:0:0:
57,384,40443,2,0,P|47:350|39:316,1,69.6,2|8,3:2|0:0,0:0:0:0:
154,163,40814,1,2,0:0:0:0:
154,163,40904,1,2,0:0:0:0:
154,163,40994,6,0,P|185:217|193:303,1,139.2,2|8,3:2|0:0,0:0:0:0:
0,0,41775,1,2,0:0:0:0:
108,73,41967,2,0,P|143:65|178:56,1,69.6,2|0,3:2|0:0,0:0:0:0:
18,196,42352,2,0,P|85:178|155:162,1,139.2,2|0,3:2|3:2,0:0:0:0:
333,279,42923,1,10,0:0:0:0:
258,190,43113,1,2,0:0:0:0:
258,190,43208,1,2,0:0:0:0:
258,190,43303,1,2,3:2:0:0:
194,292,43493,1,0,3:2:0:0:
349,195,43683,1,10,0:0:0:0:
196,90,43873,1,2,0:0:0:0:
196,90,43968,1,2,0:0:0:0:
196,90,44062,6,0,P|201:53|211:6,1,69.6,2|0,3:2|0:0,0:0:0:0:
349,195,44467,1,8,0:0:0:0:
438,107,44659,1,2,0:0:0:0:
438,107,44755,1,2,0:0:0:0:
438,107,44851,1,0,3:2:0:0:
257,163,45043,2,0,P|222:171|181:185,1,69.6,2|0,3:2|0:0,0:0:0:0:
441,340,45428,2,0,P|458:285|458:199,1,139.2,2|0,3:2|3:2,0:0:0:0:
283,91,46004,1,10,0:0:0:0:
379,0,46196,2,0,P|367:36|356:80,1,69.6,10|0,0:0|0:0,0:0:0:0:
190,181,46581,1,2,3:2:0:0:
263,267,46773,1,10,0:0:0:0:
364,232,46966,1,2,0:0:0:0:
364,232,47062,1,2,0:0:0:0:
364,232,47158,6,0,P|360:200|350:157,1,69.6,2|0,3:2|3:0,0:0:0:0:
173,266,47550,2,0,P|180:301|191:345,1,69.6,10|0,0:0|0:0,0:0:0:0:
20,35,48138,1,2,3:2:0:0:
151,122,48334,1,2,0:0:0:0:
11,197,48530,1,2,3:2:0:0:
289,49,48922,1,0,3:2:0:0:
151,122,49118,2,0,P|143:89|136:47,1,69.6,10|2,0:0|0:0,0:0:0:0:
328,135,49495,1,2,0:0:0:0:
232,189,49684,1,2,3:2:0:0:
289,49,49872,1,10,0:0:0:0:
418,152,50053,1,2,0:0:0:0:
418,152,50144,1,2,0:0:0:0:
418,152,50235,6,0,P|416:223|394:300,1,139.2,4|8,3:2|0:0,0:0:0:0:
232,189,50819,1,2,0:0:0:0:
293,374,51011,1,2,3:2:0:0:
110,289,51203,2,0,P|144:278|179:269,1,69.6,2|0,3:2|0:0,0:0:0:0:
322,112,51588,2,0,P|254:99|187:82,1,139.2,10|0,0:0|3:2,0:0:0:0:
382,220,52167,2,0,P|391:253|399:293,1,69.6,10|0,0:0|0:0,0:0:0:0:
439,127,52554,1,2,3:2:0:0:
282,212,52747,1,2,0:0:0:0:
282,212,52844,1,8,0:0:0:0:
282,212,52941,1,10,0:0:0:0:
338,0,53134,1,8,3:0:0:0:
110,101,53328,6,0,P|147:89|192:80,1,78.2999976104737,6|0,3:2|0:0,0:0:0:0:
338,0,53715,2,0,P|330:39|320:81,1,78.2999976104737,10|0,0:0|0:0,0:0:0:0:
282,212,54102,1,2,3:2:0:0:
253,133,54296,1,2,0:0:0:0:
382,220,54489,1,10,0:0:0:0:
213,315,54683,2,0,P|176:325|139:338,1,78.2999976104737,2|0,3:2|0:0,0:0:0:0:
8,172,55068,1,2,3:2:0:0:
157,250,55260,1,10,0:0:0:0:
20,384,55452,1,2,0:0:0:0:
20,384,55549,1,2,0:0:0:0:
20,384,55645,2,0,P|28:348|42:303,1,78.2999976104737,2|2,3:2|3:2,0:0:0:0:
125,69,56029,1,10,0:0:0:0:
8,172,56214,1,2,0:0:0:0:
257,108,56399,6,0,P|282:153|297:264,1,156.599995220947,6|8,3:2|0:2,0:2:0:0:
297,255,57160,1,2,3:2:0:0:
405,383,57353,1,2,3:2:0:0:
251,342,57547,1,10,0:0:0:0:
505,264,57736,2,0,P|469:277|429:289,1,78.2999976104737,6|0,3:2|0:0,0:0:0:0:
251,342,58120,1,2,3:2:0:0:
390,167,58312,1,10,0:0:0:0:
336,338,58504,1,2,0:0:0:0:
336,338,58600,1,2,0:0:0:0:
336,338,58696,1,0,3:2:0:0:
207,205,58888,1,2,3:2:0:0:
430,288,59081,1,10,0:0:0:0:
181,292,59273,1,2,0:0:0:0:
181,292,59369,1,2,0:0:0:0:
181,292,59465,6,0,P|143:302|94:324,1,78.2999976104737,4|0,3:2|0:0,0:0:0:0:
294,164,59849,2,0,P|310:87|326:7,1,156.599995220947,10|0,0:0|3:2,0:0:0:0:
479,189,60415,1,2,3:2:0:0:
386,116,60616,1,10,0:0:0:0:
503,18,60808,2,0,P|465:31|421:43,1,78.2999976104737,2|0,3:2|0:0,0:0:0:0:
215,109,61192,1,2,3:2:0:0:
325,10,61384,1,10,0:0:0:0:
400,198,61576,2,0,P|394:237|385:289,1,78.2999976104737,2|0,0:0|0:0,0:0:0:0:
247,364,61961,1,2,3:2:0:0:
294,164,62153,1,10,0:0:0:0:
150,274,62339,1,2,0:0:0:0:
150,274,62432,1,2,0:0:0:0:
150,274,62525,6,0,P|187:264|235:250,1,78.2999976104737,4|0,3:2|0:2,0:2:0:0:
400,198,62919,1,8,0:0:0:0:
115,4,63303,1,2,3:2:0:0:
169,130,63495,1,2,3:2:0:0:
206,0,63688,1,10,0:0:0:0:
60,116,63880,2,0,P|42:190|28:271,1,156.599995220947,4|0,3:2|3:2,0:0:0:0:
19,31,64456,1,10,0:0:0:0:
256,384,64841,1,2,3:2:0:0:
205,251,65033,1,2,0:0:0:0:
205,251,65129,1,8,0:0:0:0:
205,251,65225,1,8,0:0:0:0:
327,165,65418,1,2,0:0:0:0:
512,336,65610,6,0,P|439:332|350:296,1,156.599995220947,6|8,3:2|0:0,0:0:0:0:
361,302,66384,1,2,3:2:0:0:
213,82,66577,2,0,P|223:120|234:166,1,78.2999976104737,2|8,3:2|0:0,0:0:0:0:
17,288,66964,2,0,P|61:322|177:331,1,156.599995220947,2|2,3:2|3:2,0:0:0:0:
381,223,67545,1,10,0:0:0:0:
290,369,67739,1,2,0:0:0:0:
290,369,67835,1,2,0:0:0:0:
290,369,67932,2,0,P|279:333|268:292,1,78.2999976104737,2|0,3:2|3:2,0:0:0:0:
215,66,68319,1,10,0:0:0:0:
109,242,68513,1,2,0:0:0:0:
369,129,68706,6,0,P|407:139|447:151,1,78.2999976104737,6|0,3:2|0:0,0:0:0:0:
268,293,69093,2,0,P|244:234|236:123,1,156.599995220947,8|0,0:0|3:2,0:0:0:0:
77,0,69674,1,2,3:2:0:0:
215,66,69868,1,10,0:0:0:0:
0,121,70061,2,0,P|37:110|76:102,1,78.2999976104737,2|0,3:2|0:0,0:0:0:0:
283,216,70448,2,0,P|273:256|267:298,1,78.2999976104737,2|8,3:2|0:0,0:0:0:0:
117,374,70835,1,2,0:0:0:0:
117,374,70932,1,2,0:0:0:0:
117,374,71029,1,2,0:0:0:0:
126,238,71222,2,0,P|90:248|48:259,1,78.2999976104737,2|8,3:2|0:0,0:0:0:0:
189,319,71610,1,2,0:0:0:0:
189,319,71803,6,0,P|271:330|337:366,1,156.599995220947,4|8,3:2|0:0,0:0:0:0:
335,364,72572,1,0,3:2:0:0:
439,228,72764,1,2,3:2:0:0:
512,317,72956,1,8,0:0:0:0:
326,253,73149,2,0,P|288:241|235:225,1,78.2999976104737,6|0,3:2|0:0,0:0:0:0:
393,60,73533,2,0,P|405:99|415:141,1,78.2999976104737,2|8,3:2|0:0,0:0:0:0:
239,316,73918,2,0,P|217:264|215:145,1,156.599995220947,2|2,0:0|3:2,0:0:0:0:
74,6,74495,1,10,0:0:0:0:
6,117,74669,1,2,0:0:0:0:
218,34,74843,6,0,P|181:45|139:62,1,78.2999976104737,2|0,3:2|0:0,0:0:0:0:
210,164,75245,1,8,0:0:0:0:
95,300,75437,2,0,P|107:226|125:143,1,156.599995220947,2|2,0:0|3:2,0:0:0:0:
74,6,76014,1,2,0:0:0:0:
283,106,76206,2,0,P|320:115|367:129,1,78.2999976104737,14|0,0:0|0:0,0:0:0:0:
512,258,76590,1,2,0:0:0:0:
512,258,76686,1,2,0:0:0:0:
512,258,76782,2,0,P|474:265|419:278,1,78.2999976104737,8|0,0:0|0:0,0:0:0:0:
435,273,77071,1,8,0:0:0:0:
435,273,77167,1,10,0:0:0:0:
331,372,77359,2,0,P|310:324|309:204,1,156.599995220947,4|0,3:2|3:2,0:0:0:0:
497,30,77936,6,0,P|494:95|469:163,1,130.5,4|0,3:2|0:0,0:0:0:0:
472,156,78321,2,0,P|432:144|382:128,1,87,10|0,0:0|0:0,0:0:0:0:
254,0,78705,1,0,3:2:0:0:
304,221,78898,1,0,3:2:0:0:
168,134,79090,1,8,0:0:0:0:
408,36,79282,2,0,P|366:49|324:65,1,87,6|0,3:2|0:0,0:0:0:0:
429,260,79667,2,0,P|438:302|448:350,1,87,2|8,3:2|0:2,0:2:0:0:
311,228,80051,1,2,0:0:0:0:
311,228,80148,1,2,0:0:0:0:
311,228,80244,2,0,P|316:188|326:134,1,87,2|0,3:2|3:2,0:0:0:0:
182,268,80628,1,8,0:0:0:0:
90,212,80821,1,2,0:0:0:0:
90,212,80917,1,2,0:0:0:0:
90,212,81013,6,0,P|60:266|58:384,1,174,6|8,3:2|0:0,0:0:0:0:
55,376,81782,1,2,0:0:0:0:
182,268,81974,1,0,3:2:0:0:
12,305,82167,1,8,0:0:0:0:
262,338,82359,2,0,P|306:330|351:317,1,87,6|0,3:2|0:0,0:0:0:0:
104,126,82744,2,0,P|96:169|89:214,1,87,2|8,3:2|0:0,0:0:0:0:
68,384,83123,1,2,0:0:0:0:
68,384,83217,1,2,0:0:0:0:
68,384,83311,1,2,3:2:0:0:
182,268,83498,1,2,3:2:0:0:
262,338,83686,1,10,0:0:0:0:
101,292,83873,1,2,0:0:0:0:
246,196,84061,6,0,P|331:181|421:168,1,174,6|8,3:2|0:0,0:0:0:0:
219,53,84645,2,0,P|179:43|135:30,1,87,6|0,3:2|0:0,0:0:0:0:
323,0,85035,2,0,P|331:42|338:90,1,87,6|8,3:2|0:0,0:0:0:0:
101,292,85424,2,0,P|84:245|97:120,1,174,6|0,3:2|0:0,0:0:0:0:
254,217,86009,1,2,3:2:0:0:
219,53,86203,1,2,0:0:0:0:
219,53,86398,6,0,L|203:147,1,87,8|0,3:3|0:0,0:0:0:0:
204,138,86690,1,8,0:0:0:0:
204,138,86788,1,8,0:0:0:0:
339,221,86983,1,8,0:3:0:0:
417,168,87177,6,0,P|446:251|440:343,1,174,6|8,3:2|0:0,0:0:0:0:
441,335,87946,2,0,P|403:342|356:355,1,78.2999976104737,0|0,3:2|3:2,0:0:0:0:
226,269,88330,1,8,0:0:0:0:
282,192,88523,2,0,P|300:227|320:263,1,78.2999976104737,0|0,3:2|0:0,0:0:0:0:
212,381,88907,1,0,3:2:0:0:
144,317,89100,2,0,P|106:305|60:292,1,78.2999976104737,10|0,0:0|0:0,0:0:0:0:
69,294,89388,1,2,0:0:0:0:
69,294,89484,1,2,0:0:0:0:
166,177,89677,1,0,3:2:0:0:
95,215,89869,1,10,0:0:0:0:
7,81,90055,1,2,0:0:0:0:
7,81,90148,1,2,0:0:0:0:
7,81,90241,6,0,P|71:51|167:48,1,156.599995220947,4|8,3:2|0:0,0:0:0:0:
155,46,91017,2,0,P|195:57|235:68,1,78.2999976104737,0|0,3:2|3:2,0:0:0:0:
342,233,91402,1,8,0:0:0:0:
333,0,91594,2,0,P|317:72|301:163,1,156.599995220947,12|0,0:0|3:2,0:0:0:0:
493,54,92170,1,8,0:0:0:0:
424,111,92362,2,0,P|416:75|408:28,1,78.2999976104737,2|0,0:0|3:2,0:0:0:0:
302,153,92747,1,0,3:2:0:0:
230,66,92939,2,0,P|193:57|148:42,1,78.2999976104737,10|0,0:0|0:0,0:0:0:0:
25,268,93324,6,0,P|77:262|177:201,1,156.599995220947,6|8,3:2|0:0,0:0:0:0:
166,211,94093,1,0,3:2:0:0:
279,372,94286,2,0,P|271:335|260:295,1,78.2999976104737,0|2,3:2|0:3,0:0:0:0:
384,160,94670,2,0,P|437:177|506:254,1,156.599995220947,12|0,0:0|3:2,0:0:0:0:
282,194,95244,1,8,0:0:0:0:
387,322,95435,1,2,0:0:0:0:
310,112,95626,1,2,3:2:0:0:
161,256,95817,1,2,0:0:0:0:
130,245,95912,1,8,0:0:0:0:
99,246,96008,1,8,0:0:0:0:
71,262,96104,1,8,0:0:0:0:
58,286,96199,1,0,3:2:0:0:
126,335,96390,6,0,P|207:354|287:377,1,156.599995220947,6|8,3:2|0:0,0:0:0:0:
277,374,97159,1,2,3:2:0:0:
370,245,97351,2,0,P|379:284|387:329,1,78.2999976104737,0|8,3:2|0:0,0:0:0:0:
188,164,97736,2,0,P|202:238|214:333,1,156.599995220947,6|0,3:2|3:2,0:0:0:0:
313,141,98313,2,0,P|320:104|327:57,1,78.2999976104737,10|0,0:0|0:0,0:0:0:0:
222,0,98697,1,2,3:2:0:0:
243,75,98890,1,0,3:2:0:0:
389,8,99082,1,10,0:0:0:0:
462,156,99274,1,2,0:0:0:0:
462,156,99370,1,2,0:0:0:0:
462,156,99466,6,0,P|451:235|438:315,1,156.599995220947,2|8,3:2|0:0,0:0:0:0:
438,310,100236,1,2,3:2:0:0:
285,205,100428,2,0,P|321:218|369:233,1,78.2999976104737,2|8,3:2|0:0,0:0:0:0:
212,318,100813,2,0,P|286:341|370:372,1,156.599995220947,6|0,3:2|3:2,0:0:0:0:
188,164,101397,1,10,0:0:0:0:
285,205,101593,2,0,P|250:222|208:245,1,78.2999976104737,2|0,0:0|3:2,0:0:0:0:
77,384,101985,1,2,3:2:0:0:
212,318,102181,1,10,0:0:0:0:
58,192,102377,1,2,3:2:0:0:
121,299,102573,6,0,P|130:260|140:214,1,78.2999976104737,6|0,3:2|0:0,0:0:0:0:
347,94,102957,1,10,0:0:0:0:
285,205,103149,1,2,0:0:0:0:
243,52,103342,1,2,3:2:0:0:
376,180,103534,2,0,P|389:218|399:259,1,78.2999976104737,2|8,3:2|0:0,0:0:0:0:
210,157,103919,2,0,P|137:173|45:195,1,156.599995220947,2|0,3:2|3:2,0:2:0:0:
260,78,104496,2,0,P|266:42|273:-6,1,78.2999976104737,10|2,0:0|0:0,0:0:0:0:
272,0,104784,1,2,0:0:0:0:
272,0,104880,1,0,3:2:0:0:
171,76,105072,1,0,3:2:0:0:
300,192,105265,1,10,0:0:0:0:
212,318,105449,6,0,P|216:282|228:234,1,78.2999976104737,2|0,0:0|3:2,0:0:0:0:
409,89,105834,2,0,P|371:103|333:115,1,78.2999976104737,2|8,0:0|0:0,0:0:0:0:
57,191,106227,2,0,P|93:176|134:162,1,78.2999976104737,2|0,0:0|3:2,0:0:0:0:
324,270,106611,1,0,3:2:0:0:
260,78,106804,1,8,0:0:0:0:
439,211,106996,2,0,P|428:287|411:376,1,156.599995220947,6|0,3:2|3:2,0:0:0:0:
289,173,107572,1,8,0:0:0:0:
212,318,107764,5,2,0:1:0:0:
377,123,107957,1,2,3:1:0:0:
209,214,108149,1,2,3:1:0:0:
209,214,108245,1,8,0:0:0:0:
209,214,108341,1,8,0:0:0:0:
324,270,108523,1,2,0:1:0:0:
260,78,108706,6,0,P|192:64|111:49,1,139.2,4|8,3:2|0:0,0:0:0:0:
123,51,109475,1,2,3:2:0:0:
35,218,109667,2,0,P|26:185|13:143,1,69.6,2|0,3:2|0:0,0:0:0:0:
167,291,110052,2,0,P|148:223|127:152,1,139.2,2|0,3:2|3:2,0:0:0:0:
260,78,110629,1,10,0:0:0:0:
200,31,110821,1,2,0:0:0:0:
265,160,111013,1,2,0:0:0:0:
371,50,111205,2,0,P|380:85|389:124,1,69.6,2|0,3:2|0:0,0:0:0:0:
489,216,111590,1,2,0:0:0:0:
489,216,111686,1,2,0:0:0:0:
489,216,111782,6,0,P|426:230|344:254,1,139.2,6|8,3:2|0:0,0:0:0:0:
354,250,112552,1,2,0:0:0:0:
484,371,112744,2,0,P|450:361|416:352,1,69.6,0|0,3:2|0:0,0:0:0:0:
272,155,113129,2,0,P|259:225|246:311,1,139.2,2|0,3:2|3:2,0:0:0:0:
86,380,113705,1,10,0:0:0:0:
159,312,113895,1,2,0:0:0:0:
159,312,113990,1,2,0:0:0:0:
159,312,114083,1,2,0:0:0:0:
218,362,114272,1,2,3:2:0:0:
147,203,114461,1,10,0:0:0:0:
272,155,114650,1,2,0:0:0:0:
71,266,114839,6,0,P|37:256|-3:242,1,69.6,6|0,3:2|0:0,0:0:0:0:
218,362,115241,2,0,P|285:344|355:331,1,139.2,10|2,0:0|0:0,0:0:0:0:
480,194,115817,1,2,3:2:0:0:
426,293,116010,1,2,0:0:0:0:
272,155,116202,2,0,P|336:128|411:120,1,139.2,2|0,3:2|3:2,0:0:0:0:
285,258,116778,1,10,0:0:0:0:
188,96,116970,2,0,P|178:132|172:164,1,69.6,2|0,0:0|0:0,0:0:0:0:
42,324,117355,1,2,3:2:0:0:
188,252,117547,1,10,0:0:0:0:
53,151,117740,1,2,0:0:0:0:
154,363,117932,6,0,P|201:357|294:307,1,139.2,6|8,3:2|0:0,0:0:0:0:
497,85,118893,1,2,3:2:0:0:
424,164,119086,1,2,0:0:0:0:
375,69,119278,2,0,P|367:35|360:-9,1,69.6,2|0,3:2|0:0,0:0:0:0:
497,85,119663,1,2,3:2:0:0:
424,164,119855,2,0,P|391:174|339:187,1,69.6,10|2,0:0|0:0,0:0:0:0:
375,69,120240,1,2,3:2:0:0:
512,172,120432,1,2,3:2:0:0:
445,9,120624,1,10,0:0:0:0:
299,115,120817,1,2,0:0:0:0:
299,115,120913,1,2,0:0:0:0:
299,115,121009,6,0,P|234:102|143:89,1,139.2,4|8,3:2|0:0,0:0:0:0:
9,185,121586,1,2,0:0:0:0:
41,30,121778,2,0,P|52:65|61:102,1,69.6,2|8,3:2|0:0,0:0:0:0:
217,239,122163,1,2,0:0:0:0:
99,340,122355,2,0,P|108:274|122:195,1,139.2,2|0,3:2|3:2,0:0:0:0:
166,0,122932,1,8,0:0:0:0:
60,96,123124,1,2,0:0:0:0:
261,27,123317,1,2,3:2:0:0:
129,210,123509,1,2,0:0:0:0:
129,210,123605,1,8,0:0:0:0:
129,210,123701,1,8,0:0:0:0:
67,4,123893,1,8,3:0:0:0:
286,169,124086,6,0,P|358:142|441:134,2,156.599995220947,6|8|0,3:2|0:0|3:2,0:0:0:0:
156,94,125047,1,2,0:0:0:0:
266,255,125240,1,10,0:0:0:0:
266,13,125432,2,0,P|255:52|246:94,1,78.2999976104737,2|0,3:2|0:0,0:0:0:0:
129,210,125818,1,2,3:2:0:0:
291,166,126012,1,10,0:0:0:0:
82,65,126208,2,0,P|120:78|157:94,1,78.2999976104737,2|0,0:0|3:2,0:0:0:0:
266,255,126597,1,2,3:2:0:0:
367,53,126792,1,10,0:0:0:0:
214,177,126986,1,2,0:0:0:0:
214,177,127084,1,2,0:0:0:0:
214,177,127182,6,0,P|225:255|241:342,1,156.599995220947,6|8,3:2|0:0,0:0:0:0:
238,331,127951,1,2,3:2:0:0:
342,373,128143,1,2,3:2:0:0:
188,258,128335,1,8,0:0:0:0:
391,144,128528,2,0,P|386:185|378:227,1,78.2999976104737,6|0,3:2|0:0,0:0:0:0:
342,373,128914,1,2,3:2:0:0:
214,177,129107,1,10,0:0:0:0:
417,315,129301,1,2,0:0:0:0:
417,315,129398,1,2,0:0:0:0:
417,315,129494,2,0,P|457:324|498:334,1,78.2999976104737,2|2,3:2|3:2,0:0:0:0:
391,144,129881,1,10,0:0:0:0:
243,336,130075,1,2,0:0:0:0:
163,249,130269,6,0,P|179:172|196:88,1,156.599995220947,6|8,3:2|0:2,0:2:0:0:
110,1,130848,1,0,0:0:0:0:
60,168,131040,1,0,3:2:0:0:
19,69,131232,1,2,3:2:0:0:
211,179,131425,1,10,0:0:0:0:
47,329,131617,2,0,P|54:291|66:246,1,78.2999976104737,2|0,3:2|0:0,0:0:0:0:
110,82,132001,1,0,3:2:0:0:
245,270,132193,1,10,0:0:0:0:
40,181,132385,1,2,0:0:0:0:
40,181,132482,1,2,0:0:0:0:
40,181,132578,2,0,P|78:170|129:159,1,78.2999976104737,2|0,3:2|3:2,0:0:0:0:
284,38,132962,1,10,0:0:0:0:
251,276,133155,1,2,0:0:0:0:
251,276,133251,1,2,0:0:0:0:
251,276,133347,5,4,3:2:0:0:
206,142,133539,1,2,3:2:0:0:
396,164,133732,2,0,P|358:175|308:188,1,78.2999976104737,10|0,0:0|0:0,0:0:0:0:
135,333,134116,1,2,3:2:0:0:
209,147,134308,1,2,3:2:0:0:
209,147,134501,1,2,0:0:0:0:
12,211,134693,2,0,P|89:231|172:256,1,156.599995220947,12|0,0:0|3:2,0:0:0:0:
373,383,135270,1,10,0:0:0:0:
284,232,135462,1,2,0:0:0:0:
245,343,135655,1,2,3:2:0:0:
457,237,135847,1,2,0:0:0:0:
457,237,135943,1,8,0:0:0:0:
457,237,136039,1,10,0:0:0:0:
373,383,136232,1,8,3:0:0:0:
284,232,136424,6,0,P|295:153|310:65,1,156.599995220947,6|8,3:2|0:0,0:0:0:0:
307,77,137193,1,2,3:2:0:0:
162,253,137385,1,0,3:2:0:0:
330,160,137578,1,10,0:0:0:0:
150,12,137770,2,0,P|161:48|172:90,1,78.2999976104737,6|0,3:2|0:0,0:0:0:0:
254,361,138155,2,0,P|217:347|174:334,1,78.2999976104737,2|8,3:2|0:0,0:0:0:0:
366,264,138539,1,2,0:0:0:0:
366,264,138635,1,2,0:0:0:0:
366,264,138732,2,0,P|404:254|452:245,1,78.2999976104737,0|2,3:2|3:2,0:0:0:0:
330,160,139116,1,10,0:0:0:0:
461,339,139308,1,2,0:0:0:0:
232,207,139501,6,0,P|155:220|69:239,1,156.599995220947,6|8,3:2|0:0,0:0:0:0:
78,236,140270,1,0,3:2:0:0:
254,361,140462,1,2,3:2:0:0:
143,142,140655,1,10,0:0:0:0:
120,384,140847,2,0,P|127:347|134:297,1,78.2999976104737,2|0,3:2|0:0,0:0:0:0:
239,116,141232,1,0,3:2:0:0:
84,237,141424,1,8,0:0:0:0:
298,284,141616,1,2,0:0:0:0:
298,284,141712,1,2,0:0:0:0:
298,284,141808,2,0,P|334:275|375:267,1,78.2999976104737,2|2,3:2|3:2,0:0:0:0:
512,199,142193,1,10,0:0:0:0:
407,380,142385,1,2,0:0:0:0:
413,166,142578,6,0,P|398:88|382:6,1,156.599995220947,6|8,3:2|0:0,0:0:0:0:
383,12,143347,1,2,3:2:0:0:
222,160,143539,1,0,3:2:0:0:
144,74,143732,1,10,0:0:0:0:
338,140,143924,2,0,P|377:154|419:167,1,78.2999976104737,2|0,3:2|0:0,0:0:0:0:
192,250,144308,1,2,3:2:0:0:
259,51,144501,1,10,0:0:0:0:
99,188,144693,2,0,P|60:198|5:212,1,78.2999976104737,2|0,0:0|3:2,0:0:0:0:
222,160,145078,1,2,3:2:0:0:
144,74,145270,1,10,0:0:0:0:
192,250,145462,1,2,3:2:0:0:
338,140,145655,6,0,P|412:122|500:106,1,156.599995220947,6|2,3:2|3:2,0:0:0:0:
292,28,146232,2,0,P|254:17|215:3,1,78.2999976104737,10|0,0:0|0:0,0:0:0:0:
304,224,146616,1,2,3:2:0:0:
144,74,146808,1,10,0:0:0:0:
24,295,147001,2,0,P|61:282|102:270,1,78.2999976104737,2|0,0:0|0:0,0:0:0:0:
288,380,147385,1,2,3:2:0:0:
219,140,147578,2,0,P|209:178|202:220,1,78.2999976104737,10|0,0:0|0:0,0:0:0:0:
202,216,147866,1,10,0:0:0:0:
202,216,147962,1,10,0:0:0:0:
403,319,148154,2,0,P|423:265|432:167,1,156.599995220947,6|0,3:2|3:2,0:2:0:0:
259,24,148731,6,0,P|200:36|131:52,1,130.5,6|0,3:2|0:0,0:0:0:0:
131,51,149113,2,0,P|89:39|39:27,1,87,10|0,0:0|0:0,0:0:0:0:
219,140,149495,1,2,3:2:0:0:
105,282,149686,1,0,3:2:0:0:
131,51,149877,1,10,0:0:0:0:
309,163,150068,2,0,P|224:178|139:197,1,174,6|2,3:2|3:2,0:0:0:0:
0,88,150642,1,10,0:0:0:0:
105,282,150833,2,0,P|98:321|87:370,1,87,2|0,0:0|3:2,0:0:0:0:
219,140,151215,1,0,3:2:0:0:
29,225,151406,1,10,0:0:0:0:
242,309,151597,1,2,0:0:0:0:
242,309,151693,1,2,0:0:0:0:
242,309,151788,6,0,P|299:296|373:283,1,130.5,6|0,3:2|0:0,0:0:0:0:
369,283,152172,2,0,P|407:296|456:310,1,87,10|0,0:0|0:0,0:0:0:0:
321,182,152557,1,2,3:2:0:0:
341,374,152749,1,0,3:2:0:0:
227,210,152941,1,10,0:0:0:0:
456,40,153134,2,0,P|455:131|429:211,1,174,6|0,3:2|3:2,0:0:0:0:
236,306,153711,1,10,0:0:0:0:
332,190,153903,1,2,0:0:0:0:
332,190,153999,1,2,0:0:0:0:
332,190,154095,1,2,3:2:0:0:
357,288,154287,1,2,3:2:0:0:
249,112,154480,1,10,0:0:0:0:
429,202,154666,1,2,0:0:0:0:
150,272,154850,6,0,P|106:281|61:291,1,87,6|0,3:2|0:0,0:0:0:0:
65,291,155144,1,8,0:0:0:0:
65,291,155242,1,8,0:0:0:0:
249,112,155434,2,0,P|256:75|264:22,1,87,6|0,3:2|0:0,0:0:0:0:
141,156,155818,1,8,3:0:0:0:
309,349,156011,1,10,0:0:0:0:
361,213,156203,2,0,P|300:213|195:258,1,174,6|0,3:2|0:0,0:0:0:0:
58,384,156784,1,2,0:0:0:0:
58,384,156979,2,0,P|63:344|72:296,1,87,2|0,0:0|0:0,0:0:0:0:
147,160,157369,1,2,0:0:0:0:
147,160,157564,1,2,0:0:0:0:
58,204,157760,1,2,0:0:0:0:
202,251,157955,1,6,0:0:0:0:
383,257,170185,5,4,0:0:0:0:
383,257,170567,1,2,0:0:0:0:
321,301,170758,2,0,P|260:287|200:276,1,121.799996282959,2|2,0:0|0:0,0:0:0:0:
5,239,171523,1,2,0:0:0:0:
5,239,171714,2,0,P|16:283|17:364,1,121.799996282959,2|2,0:0|0:0,0:0:0:0:
125,183,172287,2,0,P|136:121|148:53,1,121.799996282959,2|2,0:0|0:0,0:0:0:0:
321,301,173051,1,2,0:0:0:0:
409,251,173242,6,0,P|400:312|393:375,1,121.799996282959,2|2,0:0|0:0,0:0:0:0:
317,207,173818,2,0,P|286:201|255:194,1,60.8999981414796,2|0,0:0|0:0,0:0:0:0:
425,153,174203,2,0,P|456:141|487:133,1,60.8999981414796,2|0,0:0|0:0,0:0:0:0:
324,5,174588,1,2,0:0:0:0:
324,5,174780,2,0,P|334:66|343:131,1,121.799996282959,2|0,0:0|0:0,0:0:0:0:
409,250,175357,1,2,0:0:0:0:
258,224,175549,1,2,0:0:0:0:
258,224,175741,2,0,P|287:213|322:205,1,60.8999981414796,2|0,0:0|0:0,0:0:0:0:
482,133,176126,1,2,0:0:0:0:
409,250,176318,5,2,0:0:0:0:
113,40,176703,1,2,0:0:0:0:
113,40,176895,2,0,P|102:101|95:162,1,121.799996282959,2|2,0:0|0:0,0:0:0:0:
0,384,177665,1,2,0:0:0:0:
0,384,177857,2,0,P|32:374|61:368,1,60.8999981414796,2|0,0:0|0:0,0:0:0:0:
178,282,178241,1,2,0:0:0:0:
178,282,178434,2,0,P|171:316|167:350,1,60.8999981414796,2|0,0:0|0:0,0:0:0:0:
27,248,178818,2,0,P|14:191|-2:123,1,121.799996282959,2|0,0:0|0:0,0:0:0:0:
113,40,179395,5,2,0:0:0:0:
297,258,179780,1,2,0:0:0:0:
297,258,179972,2,0,P|241:267|173:283,1,121.799996282959,2|2,0:0|0:0,0:0:0:0:
493,377,180742,2,0,P|506:339|508:255,1,121.799996282959,2|0,0:0|0:0,0:0:0:0:
465,196,181302,1,2,0:0:0:0:
392,230,181486,1,2,0:0:0:0:
300,121,181670,2,0,P|269:113|236:105,1,60.8999981414796,2|0,0:0|0:0,0:0:0:0:
192,49,182038,1,2,0:0:0:0:
192,49,182222,1,2,0:0:0:0:
52,128,182406,6,0,P|37:188|26:250,1,121.799996282959,6|0,0:0|0:0,0:0:0:0:
179,381,182982,1,4,0:0:0:0:
219,315,183175,1,2,0:0:0:0:
103,334,183367,2,0,P|70:338|28:350,1,60.8999981414796,2|0,0:0|0:0,0:0:0:0:
192,237,183752,1,2,0:0:0:0:
304,308,183944,2,0,P|366:324|427:337,1,121.799996282959,2|2,0:0|0:0,0:0:0:0:
192,237,184521,2,0,P|185:209|180:171,1,60.8999981414796,2|0,0:0|0:0,0:0:0:0:
320,13,184905,2,0,P|334:71|344:134,1,121.799996282959,2|2,0:0|0:0,0:0:0:0:
395,198,185482,6,0,P|343:185|269:169,1,121.799996282959,6|0,0:0|0:0,0:0:0:0:
157,75,186059,1,0,0:0:0:0:
101,130,186252,1,2,0:0:0:0:
245,44,186444,2,0,P|236:75|230:106,1,60.8999981414796,2|0,0:0|0:0,0:0:0:0:
1,258,186829,2,0,P|62:244|129:226,1,121.799996282959,2|0,0:0|0:0,0:0:0:0:
276,170,187405,1,2,0:0:0:0:
242,359,187598,2,0,P|236:331|229:291,1,60.8999981414796,2|0,0:0|0:0,0:0:0:0:
101,130,187982,2,0,P|132:139|164:150,1,60.8999981414796,2|0,0:0|0:0,0:0:0:0:
132,330,188367,1,2,0:0:0:0:
320,248,188559,6,0,P|380:233|443:220,1,121.799996282959,6|2,0:0|0:0,0:0:0:0:
283,60,189136,2,0,P|225:48|153:30,1,121.799996282959,6|0,0:0|0:0,0:0:0:0:
24,154,189713,1,2,0:0:0:0:
24,154,189905,1,2,0:0:0:0:
111,108,190098,2,0,P|125:167|129:229,1,121.799996282959,6|0,0:0|0:0,0:0:0:0:
268,363,190658,1,2,0:0:0:0:
268,363,190844,2,0,P|271:333|282:293,1,60.8999981414796,2|0,0:0|0:0,0:0:0:0:
346,149,191217,2,0,P|317:158|266:172,1,60.8999981414796,2|0,0:0|0:0,0:0:0:0:
21,293,191588,6,0,P|70:305|173:357,1,156.599995220947,6|0,3:2|0:0,0:0:0:0:
346,149,192157,2,0,P|338:113|325:68,1,78.2999976104737,6|0,3:2|0:0,0:0:0:0:
512,233,192537,1,0,3:2:0:0:
436,167,192727,2,0,P|427:205|420:257,1,78.2999976104737,10|0,0:0|0:0,0:0:0:0:
391,384,193106,5,6,3:2:0:0:
512,233,193296,1,8,3:3:0:0:
301,278,193486,1,0,3:0:0:0:
512,346,193676,2,0,P|474:331|434:319,1,78.2999976104737,6|0,3:2|0:0,0:0:0:0:
346,149,194056,1,0,3:0:0:0:
147,310,194246,2,0,P|225:296|313:274,1,156.599995220947,6|0,3:2|0:0,0:0:0:0:
300,277,195394,5,0,3:2:0:0:
101,70,195586,2,0,P|91:109|85:154,1,78.2999976104737,12|0,0:0|0:0,0:0:0:0:
20,267,195971,1,0,3:2:0:0:
241,177,196163,2,0,P|280:166|320:158,1,78.2999976104737,8|0,0:0|0:0,0:0:0:0:
101,70,196548,1,2,3:2:0:0:
276,359,196836,1,8,0:0:0:0:
276,359,196932,2,0,P|282:318|291:273,1,78.2999976104737,8|0,0:0|0:0,0:0:0:0:
289,281,197221,1,8,0:0:0:0:
289,281,197317,1,8,0:0:0:0:
180,340,197509,1,0,3:0:0:0:
363,232,197701,6,0,P|441:254|513:277,1,156.599995220947,6|8,3:2|0:0,0:0:0:0:
512,276,198470,2,0,P|502:240|492:199,1,78.2999976104737,2|0,3:2|3:2,0:0:0:0:
320,79,198854,1,8,0:0:0:0:
458,16,199047,2,0,P|450:56|442:95,1,78.2999976104737,2|0,3:2|0:0,0:0:0:0:
268,165,199431,1,0,3:2:0:0:
363,232,199624,1,8,0:0:0:0:
211,314,199816,1,2,0:0:0:0:
211,314,199912,1,2,0:0:0:0:
211,314,200008,2,0,P|173:303|127:292,1,78.2999976104737,0|0,3:2|3:2,0:0:0:0:
19,174,200393,1,8,0:0:0:0:
37,384,200585,1,2,0:0:0:0:
37,384,200681,1,2,0:0:0:0:
37,384,200778,6,0,P|50:313|72:215,1,156.599995220947,6|8,3:2|0:0,0:0:0:0:
68,230,201547,1,2,3:2:0:0:
170,132,201739,1,0,3:2:0:0:
211,314,201931,1,8,0:0:0:0:
412,251,202124,2,0,P|340:234|248:214,1,156.599995220947,2|0,3:2|3:2,0:0:0:0:
32,53,202702,2,0,P|45:91|62:131,1,78.2999976104737,10|0,0:0|0:0,0:0:0:0:
27,361,203089,2,0,P|62:344|104:327,1,78.2999976104737,2|0,3:2|0:0,0:0:0:0:
278,140,203476,2,0,P|266:179|258:219,1,78.2999976104737,10|0,0:0|0:0,0:0:0:0:
466,350,203864,6,0,P|485:305|494:190,1,156.599995220947,6|8,3:2|0:2,0:2:0:0:
495,198,204638,1,0,3:2:0:0:
358,292,204831,1,0,3:2:0:0:
415,58,205025,1,8,0:0:0:0:
278,140,205218,2,0,P|241:152|180:167,1,78.2999976104737,2|0,3:2|0:0,0:0:0:0:
41,28,205603,1,0,3:2:0:0:
168,74,205794,1,10,0:0:0:0:
40,187,205985,1,2,0:0:0:0:
40,187,206081,1,2,0:0:0:0:
40,187,206176,2,0,P|51:227|64:264,1,78.2999976104737,0|0,3:2|3:2,0:0:0:0:
238,366,206558,1,10,0:0:0:0:
155,240,206749,1,2,0:0:0:0:
0,361,206940,6,0,P|76:342|159:326,1,156.599995220947,6|8,3:2|0:0,0:0:0:0:
343,210,207514,1,2,0:0:0:0:
238,366,207705,1,0,3:2:0:0:
262,239,207896,1,0,3:2:0:0:
283,113,208087,1,10,0:0:0:0:
459,266,208278,2,0,P|424:274|372:291,1,78.2999976104737,2|8,3:2|0:0,0:0:0:0:
126,144,208660,2,0,P|164:155|211:168,1,78.2999976104737,2|8,3:2|0:0,0:0:0:0:
201,165,209233,1,8,3:0:0:0:
248,375,209424,1,2,0:0:0:0:
248,375,209520,1,8,0:0:0:0:
248,375,209615,1,8,0:0:0:0:
343,210,209806,1,8,3:0:0:0:
152,327,210008,6,0,P|80:308|-4:290,1,156.599995220947,6|8,3:2|0:0,0:0:0:0:
0,290,210782,1,0,3:2:0:0:
110,208,210975,1,2,3:2:0:0:
248,375,211169,1,10,0:0:0:0:
212,143,211362,2,0,P|220:186|226:230,1,78.2999976104737,2|0,3:2|0:2,0:2:0:0:
152,327,211749,1,2,3:2:0:0:
343,210,211943,1,10,0:0:0:0:
466,369,212137,1,2,0:0:0:0:
466,369,212233,1,2,0:0:0:0:
466,369,212330,2,0,P|460:330|453:291,1,78.2999976104737,2|0,3:2|3:2,0:2:0:0:
409,105,212717,1,10,0:0:0:0:
512,208,212911,1,2,0:0:0:0:
305,295,213104,6,0,P|228:313|150:327,1,156.599995220947,6|8,3:2|0:0,0:0:0:0:
151,326,213878,1,2,3:2:0:0:
212,143,214072,1,0,3:2:0:0:
110,208,214265,1,10,0:0:0:0:
305,295,214459,2,0,P|341:307|381:318,1,78.2999976104737,2|0,3:2|0:0,0:0:0:0:
512,229,214845,1,2,3:2:0:0:
464,375,215037,1,10,0:0:0:0:
402,198,215229,1,2,0:0:0:0:
402,198,215325,1,2,0:0:0:0:
402,198,215421,2,0,P|391:161|382:113,1,78.2999976104737,0|0,3:2|3:2,0:0:0:0:
306,294,215805,1,10,0:0:0:0:
475,145,215997,1,2,0:0:0:0:
296,18,216189,6,0,P|371:34|456:56,1,156.599995220947,6|8,3:2|0:0,0:0:0:0:
217,147,216861,1,8,0:0:0:0:
217,147,216957,2,0,P|177:153|124:164,1,78.2999976104737,0|2,3:2|3:2,0:0:0:0:
51,81,217341,1,10,0:0:0:0:
15,310,217533,2,0,P|36:233|61:157,1,156.599995220947,6|0,3:2|3:2,0:0:0:0:
198,13,218109,1,10,0:0:0:0:
323,127,218301,1,2,0:0:0:0:
323,127,218397,1,2,0:0:0:0:
323,127,218493,2,0,P|361:138|407:158,1,78.2999976104737,0|0,3:2|3:2,0:0:0:0:
258,265,218877,1,10,0:0:0:0:
258,265,219069,1,2,0:0:0:0:
402,363,219261,6,0,P|393:325|381:284,1,78.2999976104737,6|0,3:2|0:0,0:0:0:0:
179,165,219645,2,0,P|165:244|152:336,1,156.599995220947,10|0,0:0|3:2,0:0:0:0:
314,156,220221,1,2,3:2:0:0:
258,265,220413,1,2,0:0:0:0:
113,99,220605,2,0,P|150:86|197:73,1,78.2999976104737,10|0,0:0|0:0,0:0:0:0:
377,22,220989,1,0,3:2:0:0:
237,4,221181,1,10,0:0:0:0:
393,113,221373,1,2,0:0:0:0:
258,265,221565,1,2,3:2:0:0:
302,77,221757,1,2,0:0:0:0:
302,77,221853,1,8,0:0:0:0:
302,77,221949,1,8,0:0:0:0:
444,204,222141,1,8,3:0:0:0:
179,165,222333,6,0,P|105:177|21:195,1,156.599995220947,6|8,3:2|0:0,0:0:0:0:
25,193,223101,1,2,3:2:0:0:
258,265,223293,1,0,3:2:0:0:
120,313,223485,1,10,0:0:0:0:
321,204,223677,2,0,P|334:242|346:280,1,78.2999976104737,6|0,3:2|0:0,0:0:0:0:
512,376,224061,1,2,3:2:0:0:
439,281,224253,1,8,0:0:0:0:
286,356,224445,1,2,0:0:0:0:
286,356,224541,1,2,0:0:0:0:
286,356,224637,2,0,P|248:347|205:334,1,78.2999976104737,2|2,3:2|3:2,0:0:0:0:
30,199,225021,1,8,0:0:0:0:
120,313,225213,1,2,0:0:0:0:
188,245,225405,6,0,P|207:187|216:86,1,156.599995220947,6|8,3:2|0:0,0:0:0:0:
216,92,226173,2,0,P|210:52|205:10,1,78.2999976104737,2|2,3:2|3:2,0:0:0:0:
348,159,226557,1,10,0:0:0:0:
303,49,226749,2,0,P|340:59|383:75,1,78.2999976104737,2|0,3:2|0:0,0:0:0:0:
244,183,227133,1,2,3:2:0:0:
432,139,227325,1,10,0:0:0:0:
408,323,227517,2,0,P|396:285|382:244,1,78.2999976104737,2|0,0:0|3:2,0:0:0:0:
303,49,227901,1,0,3:2:0:0:
432,139,228093,1,10,0:0:0:0:
303,259,228285,1,2,0:0:0:0:
303,259,228381,1,2,0:0:0:0:
303,259,228477,6,0,P|258:242|148:231,1,156.599995220947,6|8,3:2|0:0,0:0:0:0:
150,230,229245,2,0,P|114:243|69:257,1,78.2999976104737,0|2,3:2|3:2,0:0:0:0:
176,120,229629,1,10,0:0:0:0:
12,142,229821,2,0,P|49:154|92:165,1,78.2999976104737,2|0,3:2|0:0,0:0:0:0:
201,336,230205,1,2,3:2:0:0:
242,198,230397,1,10,0:2:0:0:
75,255,230589,2,0,P|65:293|59:333,1,78.2999976104737,2|0,0:0|3:2,0:0:0:0:
305,273,230973,1,2,0:0:0:0:
305,273,231069,1,0,3:2:0:0:
305,273,231165,1,8,0:0:0:0:
129,384,231357,1,2,0:0:0:0:
145,93,231549,6,0,P|152:132|160:181,1,78.2999976104737,6|0,3:2|3:2,0:0:0:0:
307,378,231933,1,10,0:0:0:0:
75,255,232125,1,2,0:0:0:0:
300,182,232317,2,0,P|338:192|385:208,1,78.2999976104737,2|2,3:2|3:2,0:0:0:0:
506,342,232701,1,10,0:0:0:0:
402,286,232893,1,2,0:0:0:0:
483,165,233085,2,0,P|491:129|498:79,1,78.2999976104737,10|0,0:0|0:0,0:0:0:0:
497,88,233373,1,8,3:0:0:0:
497,88,233469,1,0,3:0:0:0:
370,0,233757,1,8,0:0:0:0:
370,0,233853,1,8,0:0:0:0:
254,97,234045,2,0,P|179:77|86:58,1,156.599995220947,4|0,3:2|3:2,0:0:0:0:
237,202,234621,6,0,P|281:194|332:182,1,87,6|0,3:2|0:0,0:0:0:0:
497,316,235005,1,10,0:0:0:0:
415,208,235197,1,2,0:0:0:0:
317,382,235389,1,0,3:2:0:0:
401,303,235581,1,0,3:2:0:0:
237,202,235773,1,10,0:0:0:0:
400,37,235965,2,0,P|412:77|423:123,1,87,6|0,3:2|0:0,0:0:0:0:
401,303,236349,1,2,3:2:0:0:
499,171,236541,1,10,0:0:0:0:
237,202,236733,2,0,P|279:212|325:227,1,87,2|0,0:0|3:2,0:0:0:0:
497,316,237117,1,2,3:2:0:0:
341,143,237309,1,10,0:0:0:0:
317,382,237501,1,2,0:0:0:0:
411,244,237693,6,0,P|328:259|232:282,1,174,6|8,3:2|0:0,0:0:0:0:
86,360,238269,1,2,0:0:0:0:
110,248,238461,1,0,3:2:0:0:
134,133,238653,1,0,3:2:0:0:
24,286,238845,1,10,0:0:0:0:
237,202,239037,2,0,P|280:211|329:225,1,87,6|0,3:2|0:0,0:0:0:0:
86,360,239422,1,2,3:2:0:0:
46,173,239617,1,8,0:0:0:0:
251,293,239813,2,0,P|207:305|162:313,1,87,2|0,0:0|3:2,0:0:0:0:
302,131,240203,1,0,3:2:0:0:
158,228,240397,1,10,0:0:0:0:
358,381,240592,1,2,0:0:0:0:
443,275,240787,6,0,P|436:234|430:176,1,87,6|0,3:2|0:0,0:0:0:0:
431,188,241081,1,8,3:0:0:0:
431,188,241179,1,0,3:2:0:0:
285,38,241375,2,0,P|326:48|371:63,1,87,6|0,3:2|0:0,0:0:0:0:
140,143,241767,2,0,P|181:154|226:170,1,87,2|8,3:2|0:0,0:0:0:0:
340,305,242159,2,0,P|269:339|164:340,1,174,6|0,3:2|3:2,0:0:0:0:
223,168,242744,1,2,3:2:0:0:
223,168,243329,1,0,3:2:0:0:
273,370,243523,1,10,0:0:0:0:
156,249,243718,1,2,3:2:0:0:
340,114,243903,6,0,P|332:157|323:204,1,87,6|0,3:2|0:0,0:0:0:0:
175,342,244285,1,10,0:0:0:0:
423,279,244476,2,0,P|381:294|337:305,1,87,2|0,0:0|3:2,0:0:0:0:
137,159,244858,1,0,3:2:0:0:
175,342,245049,1,2,0:0:0:0:
4,292,245240,2,0,P|44:280|90:270,1,87,10|0,0:0|0:0,0:0:0:0:
236,136,245623,1,0,3:2:0:0:
37,136,245814,2,0,P|79:151|129:172,1,87,10|0,0:0|0:0,0:0:0:0:
259,327,246196,1,2,3:2:0:0:
191,207,246387,1,2,3:2:0:0:
83,361,246578,1,8,0:0:0:0:
296,247,246769,1,2,0:0:0:0:
296,247,246865,1,2,0:0:0:0:
296,247,246960,6,0,P|361:262|428:280,1,130.5,2|0,3:2|0:0,0:0:0:0:
422,278,247342,2,0,P|463:269|516:261,1,87,10|2,0:0|0:0,0:0:0:0:
333,335,247724,1,10,0:0:0:0:
430,181,247916,1,0,3:2:0:0:
489,345,248107,1,0,3:2:0:0:
306,158,248298,2,0,P|297:200|290:252,1,87,10|0,0:0|0:0,0:0:0:0:
409,377,248680,1,0,3:2:0:0:
189,243,248871,2,0,P|207:286|229:331,1,87,10|0,0:0|0:0,0:0:0:0:
430,181,249253,1,0,3:2:0:0:
333,335,249444,1,2,3:2:0:0:
182,118,249635,1,10,0:0:0:0:
300,251,249826,1,2,0:0:0:0:
300,251,249922,1,2,0:0:0:0:
300,251,250017,6,0,P|219:268|116:292,1,174,6|8,3:2|0:0,0:0:0:0:
283,155,250593,1,2,0:0:0:0:
115,52,250786,2,0,P|105:95|95:142,1,87,2|0,3:2|3:2,0:0:0:0:
229,304,251170,1,2,0:2:0:0:
4,181,251363,2,0,P|44:204|90:228,1,87,10|0,0:0|0:0,0:0:0:0:
283,155,251747,1,0,3:2:0:0:
51,326,251939,2,0,P|92:307|144:279,1,87,10|0,0:0|0:0,0:0:0:0:
115,52,252324,1,2,3:2:0:0:
226,219,252516,1,2,3:2:0:0:
96,136,252709,1,8,0:0:0:0:
290,40,252901,1,2,0:0:0:0:
290,40,252997,1,2,0:0:0:0:
290,40,253093,6,0,P|351:59|441:84,1,130.5,6|0,3:2|0:0,0:0:0:0:
414,77,253478,2,0,P|458:66|505:57,1,87,10|0,0:0|3:2,0:0:0:0:
322,141,253863,1,10,0:0:0:0:
494,243,254055,1,2,0:0:0:0:
414,77,254247,1,2,3:2:0:0:
340,342,254439,2,0,P|349:299|359:257,1,87,10|0,0:0|0:0,0:0:0:0:
498,150,254824,1,2,3:2:0:0:
246,184,255016,2,0,P|283:160|326:138,1,87,10|0,0:0|0:0,0:0:0:0:
494,243,255401,1,2,3:2:0:0:
340,342,255593,1,2,3:2:0:0:
421,85,255786,1,10,0:0:0:0:
448,329,255978,1,2,3:2:0:0:
246,184,256170,6,0,P|185:166|90:141,1,130.5,4|0,3:2|0:0,0:0:0:0:
120,148,256555,2,0,P|78:161|21:177,1,87,10|0,0:0|0:0,0:0:0:0:
209,76,256939,1,2,3:2:0:0:
126,245,257132,1,0,3:2:0:0:
51,82,257324,1,2,0:0:0:0:
246,184,257516,2,0,P|255:226|262:272,1,87,10|0,0:0|0:0,0:0:0:0:
128,384,257901,1,2,3:2:0:0:
343,321,258093,2,0,P|304:341|260:362,1,87,10|0,0:0|0:0,0:0:0:0:
163,157,258478,2,0,P|206:169|254:187,1,87,2|0,3:2|3:2,0:0:0:0:
448,342,258863,1,10,0:0:0:0:
384,195,259055,1,2,0:0:0:0:
168,276,259247,2,0,P|126:287|69:301,1,87,2|0,3:2|3:2,0:0:0:0:
245,183,259632,1,10,0:0:0:0:
337,384,259824,2,0,P|345:342|358:296,1,87,2|8,3:2|0:0,0:0:0:0:
427,96,260209,1,2,3:2:0:0:
497,245,260401,1,2,3:2:0:0:
259,86,260593,6,0,P|219:100|171:114,1,87,10|0,0:0|0:0,0:0:0:0:
83,297,260978,1,2,3:2:0:0:
0,163,261170,2,0,P|41:176|104:195,1,87,10|0,0:0|0:0,0:0:0:0:
82,189,261459,1,8,0:0:0:0:
82,189,261555,1,8,0:0:0:0:
208,384,261747,2,0,P|198:338|192:290,1,87,2|8,3:2|0:0,0:0:0:0:
176,112,262132,1,2,3:2:0:0:
350,185,262324,6,0,P|309:193|247:210,1,87,6|0,3:2|3:2,0:0:0:0:
432,316,262709,1,10,0:0:0:0:
490,151,262901,1,2,0:0:0:0:
339,295,263093,2,0,P|348:337|359:384,1,87,2|0,3:2|3:2,0:0:0:0:
265,204,263478,1,2,0:0:0:0:
512,245,263670,2,0,P|472:233|417:219,1,87,10|0,0:0|0:0,0:0:0:0:
221,353,264054,1,2,3:2:0:0:
324,72,264246,2,0,P|337:113|348:158,1,87,10|0,0:0|0:0,0:0:0:0:
456,326,264629,1,2,3:2:0:0:
265,204,264821,1,2,3:2:0:0:
357,379,265013,1,10,0:0:0:0:
493,158,265204,1,2,0:0:0:0:
289,292,265396,2,0,P|243:281|177:262,1,87,6|0,3:2|3:2,0:0:0:0:
33,113,265780,1,10,0:0:0:0:
118,326,265971,1,2,0:0:0:0:
173,74,266163,2,0,P|161:113|151:163,1,87,2|8,3:2|0:0,0:0:0:0:
151,158,266450,1,8,0:0:0:0:
151,158,266546,1,0,3:2:0:0:
22,304,266738,1,0,3:2:0:0:
211,278,266930,5,8,0:0:0:0:
211,278,267026,1,8,0:0:0:0:
211,278,267121,1,8,0:0:0:0:
62,211,267313,1,0,3:2:0:0:
206,376,267505,1,8,0:0:0:0:
22,304,267696,1,2,3:2:0:0:
267,188,267888,1,2,0:0:0:0:
267,188,267984,1,8,0:0:0:0:
267,188,268080,2,0,P|311:196|365:210,1,87,10|8,0:2|3:0,0:0:0:0:
351,206,268367,1,8,0:0:0:0:
351,206,268463,6,0,P|337:117|322:29,1,174,6|8,3:2|0:0,0:0:0:0:
512,152,269040,1,2,0:0:0:0:
444,0,269233,2,0,P|438:45|430:88,1,87,2|0,3:2|3:2,0:0:0:0:
335,285,269618,1,10,0:0:0:0:
512,152,269811,2,0,P|470:167|422:182,1,87,6|0,3:2|0:0,0:0:0:0:
256,105,270196,1,0,3:2:0:0:
498,304,270388,2,0,P|458:284|413:259,1,87,10|0,0:0|0:0,0:0:0:0:
336,24,270774,1,2,3:2:0:0:
429,179,270966,1,2,3:2:0:0:
256,105,271159,1,8,0:0:0:0:
213,273,271352,1,2,3:2:0:0:
213,273,271544,6,0,P|127:263|37:226,1,174,0|10,3:2|0:0,0:0:0:0:
267,355,272122,2,0,P|310:343|364:330,1,87,2|0,0:0|3:2,0:0:0:0:
455,210,272507,1,2,3:2:0:0:
213,184,272700,2,0,P|253:199|296:220,1,87,10|0,0:0|3:2,0:0:0:0:
440,298,273085,1,2,0:0:0:0:
267,355,273278,1,2,3:2:0:0:
345,74,273470,2,0,P|362:116|374:158,1,87,10|0,0:0|0:0,0:0:0:0:
512,268,273856,1,2,3:2:0:0:
292,218,274048,1,2,3:2:0:0:
487,154,274241,1,8,0:0:0:0:
368,372,274434,1,2,3:2:0:0:
368,372,274530,1,2,3:2:0:0:
368,372,274626,6,0,P|373:309|386:236,1,130.5,6|0,3:2|0:0,0:0:0:0:
384,242,275011,2,0,P|380:201|370:144,1,87,10|0,0:0|0:0,0:0:0:0:
465,337,275396,1,0,3:2:0:0:
292,218,275589,1,0,3:2:0:0:
487,154,275782,1,10,0:0:0:0:
269,317,275975,2,0,P|193:297|96:274,1,174,6|0,3:2|3:2,0:0:0:0:
272,133,276556,2,0,P|283:176|292:221,1,87,10|0,0:0|0:0,0:0:0:0:
155,59,276946,1,2,3:2:0:0:
199,217,277141,1,2,3:2:0:0:
70,107,277335,1,10,0:0:0:0:
310,63,277530,1,2,0:0:0:0:
199,217,277725,6,0,P|158:203|104:188,1,87,2|0,3:2|3:2,0:0:0:0:
155,59,278107,1,10,0:0:0:0:
295,267,278299,2,0,P|260:293|228:322,1,87,2|0,0:0|3:2,0:0:0:0:
272,133,278681,1,2,3:2:0:0:
398,268,278873,2,0,P|415:307|436:348,1,87,10|0,0:0|3:2,0:0:0:0:
295,267,279256,1,0,0:2:0:0:
418,111,279447,1,0,3:2:0:0:
512,220,279638,2,0,P|473:208|418:195,1,87,10|0,0:0|0:0,0:0:0:0:
283,0,280021,1,2,3:2:0:0:
418,111,280213,1,2,3:2:0:0:
199,217,280404,1,10,0:0:0:0:
280,139,280596,1,2,0:0:0:0:
280,139,280691,1,2,0:0:0:0:
280,139,280787,6,0,P|299:202|319:283,1,130.5,6|0,3:2|0:0,0:0:0:0:
314,264,281172,2,0,P|309:311|307:359,1,87,10|0,0:0|0:0,0:0:0:0:
371,171,281557,1,2,3:2:0:0:
199,217,281749,1,2,3:2:0:0:
391,322,281942,1,10,0:0:0:0:
280,139,282135,2,0,P|285:94|293:45,1,87,6|0,3:2|0:0,0:0:0:0:
76,142,282520,1,0,3:2:0:0:
82,32,282712,2,0,P|122:49|161:70,1,87,10|0,0:0|0:0,0:0:0:0:
160,69,283001,1,2,0:0:0:0:
160,69,283098,1,0,3:2:0:0:
71,254,283290,1,0,3:2:0:0:
269,149,283483,1,10,0:0:0:0:
141,201,283676,1,0,3:2:0:0:
316,346,283868,2,0,P|321:305|328:251,1,87,2|0,3:2|0:0,0:0:0:0:
482,115,284253,1,10,0:0:0:0:
367,30,284446,1,2,0:0:0:0:
418,190,284639,2,0,P|426:229|434:279,1,87,2|0,3:2|3:2,0:0:0:0:
269,149,285024,1,10,0:0:0:0:
69,291,285217,6,0,P|150:266|243:241,1,174,6|0,3:2|3:2,0:0:0:0:
367,30,285798,1,10,0:0:0:0:
184,111,285990,1,6,3:2:0:0:
327,259,286183,1,2,0:0:0:0:
256,31,286375,1,2,3:2:0:0:
436,114,286567,1,10,0:0:0:0:
217,221,286760,1,4,3:2:0:0:
396,376,286952,6,0,P|415:322|415:198,1,174,6|8,3:2|0:0,0:0:0:0:
256,31,287529,1,2,0:0:0:0:
436,114,287721,2,0,P|392:125|345:141,1,87,2|0,3:2|3:2,0:0:0:0:
217,221,288106,1,2,0:0:0:0:
19,58,288298,2,0,P|99:82|196:115,1,174,12|0,0:0|3:2,0:0:0:0:
26,290,288875,1,10,0:0:0:0:
140,179,289067,1,2,0:0:0:0:
140,179,289163,1,8,0:0:0:0:
140,179,289260,1,0,3:2:0:0:
42,209,289452,1,0,3:2:0:0:
173,355,289644,1,10,0:0:0:0:
267,147,289836,1,2,0:0:0:0:
384,238,290029,2,0,P|394:278|404:324,1,87,2|0,3:2|3:2,0:0:0:0:
485,126,290413,1,10,0:0:0:0:
245,231,290606,2,0,P|254:188|269:139,1,87,2|0,0:0|3:2,0:0:0:0:
197,0,290990,1,0,3:2:0:0:
368,127,291183,1,2,0:0:0:0:
215,336,291375,6,0,P|257:326|305:313,1,87,12|0,0:0|0:0,0:0:0:0:
165,166,291760,1,2,3:2:0:0:
423,238,291952,2,0,P|383:225|334:212,1,87,10|0,0:0|0:0,0:0:0:0:
101,278,292336,1,2,3:2:0:0:
247,80,292529,2,0,P|252:105|256:130,1,43.5,2|8,0:0|0:0,0:0:0:0:
430,330,292721,1,8,0:0:0:0:
430,330,292817,1,8,0:0:0:0:
430,330,292913,1,8,0:0:0:0:
430,330,293010,1,8,0:0:0:0:
430,330,293106,6,0,P|449:276|446:148,1,174,4|8,3:2|0:0,0:0:0:0:
251,245,293690,1,2,0:0:0:0:
327,41,293885,2,0,P|338:81|349:133,1,87,2|0,3:2|3:2,0:0:0:0:
486,259,294274,1,10,0:0:0:0:
265,153,294469,2,0,P|180:169|94:185,1,174,6|0,3:2|3:2,0:0:0:0:
234,330,295047,2,0,P|240:288|253:235,1,87,10|0,0:0|0:0,0:0:0:0:
306,54,295430,1,2,3:2:0:0:
179,138,295622,1,2,3:2:0:0:
341,298,295814,1,8,0:0:0:0:
265,153,296005,1,0,3:2:0:0:
476,175,296197,6,0,P|435:186|371:199,1,87,2|0,3:2|0:0,0:0:0:0:
234,330,296580,1,8,0:0:0:0:
445,320,296772,2,0,P|405:306|361:286,1,87,2|0,0:0|3:2,0:0:0:0:
265,153,297156,1,2,3:2:0:0:
234,330,297347,1,10,0:0:0:0:
348,111,297539,2,0,P|340:70|329:16,1,87,2|0,3:2|0:0,0:0:0:0:
476,174,297921,1,2,3:2:0:0:
250,238,298113,1,10,0:0:0:0:
364,287,298305,1,0,3:2:0:0:
265,153,298496,1,2,3:2:0:0:
323,370,298688,1,2,3:2:0:0:
398,210,298880,1,10,0:0:0:0:
173,287,299072,1,2,0:0:0:0:
173,287,299167,1,2,0:0:0:0:
173,287,299264,6,0,P|97:256|3:239,1,174,6|8,3:2|0:0,0:0:0:0:
265,153,299839,1,2,0:0:0:0:
105,60,300031,2,0,P|116:103|130:146,1,87,2|0,3:2|3:2,0:0:0:0:
58,337,300414,1,10,0:0:0:0:
281,171,300606,2,0,P|268:252|249:355,1,174,6|0,3:2|3:2,0:0:0:0:
251,342,301372,5,8,0:0:0:0:
129,143,301564,1,2,0:0:0:0:
173,287,301755,1,2,3:2:0:0:
318,97,301947,1,10,0:0:0:0:
452,202,302139,1,2,3:2:0:0:
429,33,302331,2,0,P|416:74|405:119,1,87,2|0,3:2|3:3,0:3:0:0:
346,332,302715,1,10,0:0:0:0:
333,182,302906,2,0,P|327:138|316:89,1,87,2|0,0:0|3:2,0:0:0:0:
452,202,303290,1,0,3:2:0:0:
276,266,303481,1,2,0:0:0:0:
429,291,303673,6,0,P|472:301|513:315,1,87,10|0,0:0|0:0,0:0:0:0:
333,182,304056,1,0,3:2:0:0:
426,378,304247,1,10,0:0:0:0:
276,266,304439,1,2,0:0:0:0:
429,291,304631,1,2,3:2:0:0:
227,380,304823,2,0,P|221:359|217:334,1,43.5,2|8,0:0|0:0,0:0:0:0:
349,193,305015,1,8,0:0:0:0:
349,193,305111,1,8,0:0:0:0:
349,193,305207,1,0,3:0:0:0:
349,193,305302,1,0,3:0:0:0:
349,193,305398,6,0,P|374:111|373:16,1,174,6|10,3:2|0:0,0:0:0:0:
187,130,305979,1,2,0:0:0:0:
91,106,306172,2,0,P|101:148|117:195,1,87,2|0,3:2|3:2,0:0:0:0:
276,266,306559,1,10,0:0:0:0:
13,305,306753,2,0,P|94:279|184:256,1,174,6|0,3:2|3:2,0:0:0:0:
374,23,307333,2,0,P|364:69|351:116,1,87,10|0,0:0|0:0,0:0:0:0:
380,287,307721,1,2,3:2:0:0:
264,179,307914,1,0,3:2:0:0:
443,220,308108,1,10,0:0:0:0:
317,377,308301,1,2,3:2:0:0:
353,107,308495,2,0,P|362:64|374:22,1,87,2|0,3:2|3:2,0:0:0:0:
264,179,308882,1,10,0:0:0:0:
511,89,309075,2,0,P|475:113|433:136,1,87,2|0,0:0|3:2,0:0:0:0:
277,39,309462,1,2,3:2:0:0:
443,220,309656,1,2,0:0:0:0:
264,179,309850,6,0,P|184:206|111:258,1,174,14|0,0:0|3:2,0:0:0:0:
42,87,310430,2,0,P|84:102|139:120,1,87,10|0,0:0|0:0,0:0:0:0:
244,292,310817,1,2,3:2:0:0:
222,95,311011,1,2,3:2:0:0:
51,185,311204,1,10,0:0:0:0:
51,185,311398,1,2,3:2:0:0:
244,291,311591,6,0,P|297:283|401:214,1,174,6|8,3:2|0:0,0:0:0:0:
503,70,312164,1,2,0:0:0:0:
388,125,312355,1,0,3:2:0:0:
508,277,312546,1,4,3:2:0:0:
474,146,312737,1,2,0:0:0:0:
341,299,312928,2,0,P|332:340|327:386,1,87,10|0,0:0|0:0,0:0:0:0:
206,192,313311,1,2,3:2:0:0:
130,257,313502,2,0,P|119:218|108:167,1,87,10|0,0:0|0:0,0:0:0:0:
291,48,313884,1,2,3:2:0:0:
168,116,314075,1,0,3:2:0:0:
31,0,314266,2,0,P|75:13|118:28,1,87,10|0,0:0|0:0,0:0:0:0:
0,181,314648,1,2,3:2:0:0:
212,280,314839,1,12,0:0:0:0:
109,172,315030,1,0,3:2:0:0:
172,373,315221,1,0,3:2:0:0:
261,133,315413,1,12,0:0:0:0:
322,292,315604,1,2,0:0:0:0:
133,185,315795,1,2,3:2:0:0:
293,37,315986,1,12,0:0:0:0:
164,96,316177,1,2,0:0:0:0:
322,292,316368,2,0,P|332:249|338:198,1,87,2|8,3:2|0:2,0:0:0:0:
458,89,316750,1,2,0:2:0:0:
292,137,316941,1,6,3:2:0:0:
450,269,317132,1,2,0:0:0:0:
450,269,317228,1,8,0:0:0:0:
450,269,317323,2,0,P|389:277|308:295,1,130.5,0|8,3:2|0:0,0:0:0:0:
321,291,317705,6,0,P|279:276|229:264,1,87,6|0,3:2|0:0,0:0:0:0:
418,367,318089,1,12,0:0:0:0:
413,120,318282,2,0,P|397:159|384:206,1,78.2999976104737,2|0,0:0|3:2,0:0:0:0:
238,265,318666,1,0,3:2:0:0:
286,181,318859,1,2,0:0:0:0:
177,373,319051,2,0,P|214:360|260:350,1,78.2999976104737,10|0,0:0|0:0,0:0:0:0:
99,168,319436,1,2,3:2:0:0:
179,110,319629,2,0,P|189:149|197:191,1,78.2999976104737,10|0,0:0|0:0,0:0:0:0:
177,373,320014,1,2,3:2:0:0:
113,275,320206,1,0,3:2:0:0:
252,351,320398,1,8,0:0:0:0:
97,384,320591,1,2,3:2:0:0:
319,252,320783,2,0,P|359:264|399:280,1,78.2999976104737,2|0,3:2|0:0,0:0:0:0:
196,186,321168,1,10,0:0:0:0:
318,81,321361,1,2,0:0:0:0:
318,81,321553,2,0,P|308:120|291:162,1,78.2999976104737,2|0,3:2|3:2,0:0:0:0:
230,279,321938,1,8,0:0:0:0:
396,166,322130,1,2,3:2:0:0:
196,186,322323,1,2,0:0:0:0:
351,350,322515,1,2,3:2:0:0:
302,237,322708,1,10,0:0:0:0:
230,279,322900,1,2,0:0:0:0:
435,299,323092,2,0,P|447:338|457:385,1,78.2999976104737,2|0,3:2|3:2,0:2:0:0:
196,186,323477,2,0,P|202:146|213:99,1,78.2999976104737,10|0,0:0|0:0,0:0:0:0:
0,365,323862,6,0,P|43:339|154:325,1,156.599995220947,6|8,3:2|0:0,0:0:0:0:
302,237,324439,1,2,0:0:0:0:
302,237,324632,2,0,P|293:275|283:317,1,78.2999976104737,0|0,3:2|3:2,0:0:0:0:
111,142,325017,1,10,0:0:0:0:
199,204,325209,2,0,P|161:215|121:230,1,78.2999976104737,2|0,3:2|0:0,0:0:0:0:
279,68,325594,1,2,3:2:0:0:
111,142,325786,1,10,0:0:0:0:
302,237,325979,1,2,0:0:0:0:
172,15,326171,2,0,P|180:54|191:97,1,78.2999976104737,2|0,3:2|3:2,0:0:0:0:
124,228,326556,1,10,0:0:0:0:
288,151,326749,1,2,0:0:0:0:
406,309,326941,6,0,P|429:259|423:146,1,156.599995220947,6|8,3:2|0:0,0:0:0:0:
302,17,327518,1,2,0:0:0:0:
440,63,327711,2,0,P|404:77|366:95,1,78.2999976104737,2|0,3:2|3:2,0:0:0:0:
217,229,328096,1,10,0:0:0:0:
473,365,328288,2,0,P|400:343|301:317,1,156.599995220947,12|0,0:0|3:2,0:0:0:0:
120,209,328865,2,0,P|129:247|142:292,1,78.2999976104737,8|0,0:2|0:0,0:0:0:0:
296,165,329250,2,0,P|304:127|312:85,1,78.2999976104737,0|0,3:2|0:2,0:2:0:0:
311,88,329539,1,10,0:0:0:0:
311,88,329635,1,8,0:0:0:0:
507,205,329827,1,2,0:0:0:0:
507,205,329924,1,8,0:0:0:0:
507,205,330020,6,0,P|441:230|353:241,1,156.599995220947,6|8,3:2|0:0,0:0:0:0:
199,88,330597,1,2,0:0:0:0:
263,6,330790,2,0,P|281:42|302:78,1,78.2999976104737,2|0,3:2|3:2,0:0:0:0:
167,213,331175,1,10,0:0:0:0:
238,383,331367,2,0,P|252:313|271:226,1,156.599995220947,6|0,3:2|3:2,0:0:0:0:
461,96,331944,2,0,P|424:111|375:130,1,78.2999976104737,10|0,0:0|0:0,0:0:0:0:
199,88,332329,1,2,3:2:0:0:
356,240,332522,1,0,3:2:0:0:
300,74,332714,1,8,0:0:0:0:
236,160,332906,1,2,0:0:0:0:
174,249,333099,6,0,P|136:236|96:220,1,78.2999976104737,2|0,3:2|3:2,0:0:0:0:
238,383,333484,1,10,0:0:0:0:
74,362,333676,1,2,0:0:0:0:
74,362,333869,2,0,P|109:347|157:334,1,78.2999976104737,2|0,3:2|3:2,0:0:0:0:
276,229,334253,1,2,0:0:0:0:
400,339,334446,2,0,P|417:293|422:174,1,156.599995220947,12|0,0:0|3:2,0:0:0:0:
241,48,335023,1,8,0:0:0:0:
430,92,335216,1,2,0:0:0:0:
430,92,335312,1,8,0:0:0:0:
430,92,335408,2,0,P|389:80|352:71,1,78.2999976104737,2|0,3:2|3:2,0:0:0:0:
168,182,335793,1,10,0:0:0:0:
241,48,335985,1,0,3:2:0:0:
47,130,336178,6,0,P|58:201|76:292,1,156.599995220947,6|8,3:2|0:0,0:0:0:0:
263,142,336755,1,2,0:0:0:0:
226,347,336947,2,0,P|230:310|239:259,1,78.2999976104737,0|0,3:2|3:2,0:0:0:0:
153,93,337332,1,10,0:0:0:0:
380,193,337525,2,0,P|345:203|304:218,1,78.2999976104737,12|0,0:0|0:0,0:0:0:0:
141,358,337910,1,2,3:2:0:0:
201,193,338102,1,8,0:0:0:0:
336,305,338294,1,8,3:0:0:0:
336,305,338391,1,8,3:0:0:0:
336,305,338487,1,0,3:0:0:0:
226,347,338679,1,0,3:2:0:0:
305,217,338872,1,10,0:0:0:0:
305,217,339064,1,2,0:0:0:0:
148,267,339257,6,0,P|112:276|69:285,1,78.2999976104737,2|0,3:2|0:0,0:0:0:0:
226,347,339641,1,12,0:0:0:0:
201,193,339834,1,2,0:0:0:0:
336,305,340026,1,2,0:0:0:0:
136,356,340219,1,2,3:2:0:0:
275,142,340411,1,10,0:0:0:0:
111,187,340604,2,0,P|120:223|134:265,1,78.2999976104737,6|0,3:2|0:0,0:0:0:0:
305,384,340988,1,2,3:2:0:0:
181,124,341181,2,0,P|188:88|203:38,1,78.2999976104737,10|0,0:0|0:0,0:0:0:0:
350,214,341566,1,2,3:2:0:0:
426,152,341758,1,8,0:0:0:0:
437,166,341854,1,8,0:0:0:0:
444,182,341951,1,8,0:0:0:0:
447,200,342047,1,8,0:0:0:0:
447,221,342143,1,8,3:0:0:0:
301,305,342336,1,4,3:2:0:0:
256,192,342432,12,4,354663,3:2:0:0:
