osu file format v14

[General]
AudioFilename: audio.mp3
AudioLeadIn: 0
PreviewTime: 57369
Countdown: 1
SampleSet: Soft
StackLeniency: 0.7
Mode: 0
LetterboxInBreaks: 0
WidescreenStoryboard: 0

[Editor]
DistanceSpacing: 1.6
BeatDivisor: 4
GridSize: 32
TimelineZoom: 1

[Metadata]
Title:Hajimari no Umi -TV Size-
TitleUnicode:はじまりの海 -TV Size-
Artist:Sakamoto Maaya
ArtistUnicode:坂本真綾
Creator:Cordi
Version:April
Source:たまゆら ~more aggressive~
Tags:tamayura 2013 short
BeatmapID:1540164
BeatmapSetID:729683

[Difficulty]
HPDrainRate:6
CircleSize:3.5
OverallDifficulty:6
ApproachRate:7.5
SliderMultiplier:1.5
SliderTickRate:1

[Events]
//Background and Video events
0,0,"bg.jpg",0,0
//Break Periods
2,80197,81013
//Storyboard Layer 0 (Background)
//Storyboard Layer 1 (Fail)
//Storyboard Layer 2 (Pass)
//Storyboard Layer 3 (Foreground)
//Storyboard Sound Samples

[TimingPoints]
675,508.474576271186,4,2,1,60,1,0
675,-200,4,2,1,60,0,0
3217,-200,4,2,1,5,0,0
3471,-200,4,2,1,60,0,0
3725,-200,4,2,1,5,0,0
3980,-200,4,2,1,60,0,0
4488,-200,4,2,1,5,0,0
4742,-200,4,2,1,60,0,0
7285,-200,4,2,1,5,0,0
7539,-200,4,2,1,60,0,0
7793,-200,4,2,1,5,0,0
8047,-200,4,2,1,60,0,0
8556,-200,4,2,1,5,0,0
8810,-200,4,2,1,60,0,0
15674,-66.6666666666667,4,2,1,75,0,0
15929,-66.6666666666667,4,2,1,5,0,0
16183,-100,4,2,1,75,0,0
16946,-100,4,2,1,70,0,0
23556,-100,4,2,50,70,0,0
23810,-100,4,2,55,70,0,0
24064,-100,4,2,54,70,0,0
24319,-100,4,2,50,70,0,0
24573,-100,4,2,45,70,0,0
24827,-100,4,2,43,70,0,0
25081,-100,4,2,45,70,0,0
25336,-100,4,2,1,70,0,0
30674,-200,4,2,1,70,0,0
31183,-200,4,2,1,5,0,0
31437,-200,4,2,1,70,0,0
31946,-66.6666666666667,4,2,1,70,0,0
32200,-66.6666666666667,4,2,1,5,0,0
32454,-80,4,2,1,70,0,0
32708,-100,4,2,1,70,0,0
35759,-200,4,2,1,70,0,0
36522,-100,4,2,1,70,0,0
39319,-100,4,2,38,75,0,0
39827,-100,4,2,42,75,0,0
40336,-100,4,2,43,75,0,0
40844,-100,4,2,45,75,0,0
41352,-133.333333333333,4,2,47,60,0,0
41861,-133.333333333333,4,2,1,60,0,0
55590,-100,4,2,1,75,0,0
57242,-100,4,2,2,75,0,0
57624,-80,4,2,1,80,0,1
65124,-80,4,2,1,5,0,1
65251,-66.6666666666667,4,2,1,80,0,1
65632,-66.6666666666667,4,2,1,5,0,1
65759,-80,4,2,1,80,0,1
69827,-133.333333333333,4,2,52,60,0,0
70336,-133.333333333333,4,2,50,60,0,0
70844,-133.333333333333,4,2,57,60,0,0
71352,-133.333333333333,4,2,54,60,0,0
71861,-133.333333333333,4,2,52,60,0,0
72369,-133.333333333333,4,2,50,60,0,0
72878,-133.333333333333,4,2,47,60,0,0
73386,-133.333333333333,4,2,50,60,0,0
73895,-133.333333333333,4,2,52,60,0,0
74403,-133.333333333333,4,2,50,60,0,0
74912,-133.333333333333,4,2,57,60,0,0
75420,-133.333333333333,4,2,54,60,0,0
75674,-133.333333333333,4,2,52,60,0,0
76437,-133.333333333333,4,2,50,60,0,0
76691,-133.333333333333,4,2,52,60,0,0
77200,-133.333333333333,4,2,50,60,0,0
77454,-133.333333333333,4,2,47,60,0,0
77963,-133.333333333333,4,2,52,60,0,0
78471,-133.333333333333,4,2,50,60,0,0
78980,-133.333333333333,4,2,57,60,0,0
79488,-133.333333333333,4,2,54,60,0,0
79742,-133.333333333333,4,2,50,60,0,0
79806,-133.333333333333,4,2,47,60,0,0
79997,-133.333333333333,4,2,50,60,0,0
82030,-133.333333333333,4,2,1,40,0,0
87115,-133.333333333333,4,2,1,5,0,0

[Colours]
Combo1 : 190,230,120
Combo2 : 128,255,255
Combo3 : 255,170,213
Combo4 : 252,204,139

[HitObjects]
27,116,675,5,2,0:0:0:0:
27,116,1183,2,0,P|63:102|103:101,1,75,2|0,0:0|0:0,0:0:0:0:
156,224,1946,1,0,0:0:0:0:
198,136,2200,1,0,0:0:0:0:
251,274,2454,2,0,P|303:290|363:290,1,112.5,2|0,0:0|0:0,0:0:0:0:
463,173,3471,2,0,L|459:217,1,37.5,2|0,0:0|0:0,0:0:0:0:
470,98,3980,2,0,L|461:186,1,75,2|0,0:0|0:0,0:0:0:0:
310,347,4742,5,2,0:0:0:0:
310,347,5251,2,0,P|290:308|289:267,1,75,2|0,0:0|0:0,0:0:0:0:
321,130,6013,1,0,0:0:0:0:
240,189,6268,1,0,0:0:0:0:
221,59,6522,2,0,P|170:36|102:38,1,112.5,2|0,0:0|0:0,0:0:0:0:
39,207,7539,2,0,L|35:163,1,37.5,2|0,0:0|0:0,0:0:0:0:
27,95,8048,2,0,L|34:169,1,75,2|0,0:0|0:0,0:0:0:0:
211,325,8810,6,0,P|226:292|230:245,1,75,2|0,0:0|0:0,0:0:0:0:
212,125,9573,1,0,0:0:0:0:
212,125,9827,2,0,L|217:170,2,37.5,2|0|0,0:0|0:0|0:0,0:0:0:0:
119,264,10590,2,0,B|156:261|188:250|188:250|243:255,1,112.5,2|0,0:0|0:0,0:0:0:0:
476,105,11861,1,2,0:0:0:0:
476,105,12115,2,0,L|391:108,1,75,2|0,0:0|0:0,0:0:0:0:
153,59,12878,6,0,P|162:78|166:100,1,37.5,2|0,0:0|0:0,0:0:0:0:
137,244,13386,1,0,0:0:0:0:
320,159,13641,2,0,P|286:145|249:141,1,75,2|0,0:0|0:0,0:0:0:0:
137,244,14403,2,0,L|221:235,1,75,2|0,0:0|0:0,0:0:0:0:
371,303,15166,1,0,0:0:0:0:
347,195,15420,1,0,0:0:0:0:
277,285,15674,6,0,P|325:320|370:306,1,112.500004291535,2|0,0:0|0:0,0:0:0:0:
371,304,16183,5,2,0:0:0:0:
149,356,16437,1,8,0:0:0:0:
135,52,16946,5,12,0:1:0:0:
221,184,17200,1,2,0:0:0:0:
223,58,17454,1,8,0:0:0:0:
107,164,17708,1,2,0:0:0:0:
223,255,17963,2,0,P|230:217|215:176,1,75,10|0,0:1|0:0,0:0:0:0:
95,254,18471,1,8,0:0:0:0:
303,134,18725,6,0,B|398:120|398:120|464:134,1,150,10|8,0:1|0:1,0:0:0:0:
489,32,19488,2,0,L|484:189,1,150,10|0,0:0|0:0,0:0:0:0:
405,323,20251,1,8,0:1:0:0:
405,323,20505,2,0,P|390:279|392:234,1,75,8|8,0:0|0:1,0:0:0:0:
246,295,21013,6,0,L|93:288,1,150,10|8,0:1|0:0,0:0:0:0:
66,135,21776,1,10,0:1:0:0:
66,135,22030,2,0,P|104:138|135:155,1,75,10|0,0:1|0:0,0:0:0:0:
96,288,22539,1,8,0:0:0:0:
165,58,22793,2,0,B|253:41|253:41|317:55,1,150,10|10,0:1|0:1,0:0:0:0:
319,204,23556,5,10,0:0:0:0:
409,37,23810,1,2,0:0:0:0:
410,237,24064,1,2,0:0:0:0:
311,53,24318,1,10,0:1:0:0:
435,125,24573,1,10,0:0:0:0:
247,152,24827,1,2,0:0:0:0:
435,125,25081,6,0,P|474:127|511:141,1,75,10|0,0:1|0:0,0:0:0:0:
431,301,25590,1,8,0:0:0:0:
363,232,25844,1,2,0:0:0:0:
256,338,26098,2,0,P|218:343|180:335,1,75,10|0,0:1|0:0,0:0:0:0:
83,263,26607,1,8,0:0:0:0:
215,74,26861,6,0,B|217:114|229:140|229:140|219:177|219:177|223:232,1,150,2|2,0:0|0:0,0:0:0:0:
284,312,27624,1,8,0:0:0:0:
284,312,27878,1,0,0:0:0:0:
138,168,28132,2,0,P|93:155|62:160,1,75,2|10,0:0|0:1,0:0:0:0:
94,305,28641,2,0,L|176:293,1,75,8|0,0:0|0:0,0:0:0:0:
328,140,29149,6,0,P|313:183|316:217,1,75,10|0,0:1|0:0,0:0:0:0:
358,311,29658,1,8,0:0:0:0:
461,213,29912,2,0,B|384:199|384:199|314:211,1,150,10|8,0:1|0:1,0:0:0:0:
166,274,30674,6,0,L|245:278,1,75,12|0,0:0|0:0,0:0:0:0:
314,211,31438,1,0,0:0:0:0:
358,311,31692,1,8,0:0:0:0:
410,215,31946,6,0,P|356:188|314:210,1,112.500004291535,10|0,0:1|0:0,0:0:0:0:
246,117,32454,6,0,L|340:108,1,93.75,10|8,0:1|0:0,0:0:0:0:
425,35,32963,1,8,0:1:0:0:
233,206,33217,6,0,P|191:185|154:180,1,75,10|0,0:1|0:0,0:0:0:0:
207,355,33725,1,8,0:0:0:0:
289,286,33980,1,2,0:0:0:0:
95,263,34234,2,0,P|96:301|108:338,1,75,10|0,0:1|0:0,0:0:0:0:
299,179,34742,1,8,0:0:0:0:
299,179,34997,2,0,B|286:125|286:125|291:96|291:96|275:74|268:32,1,150,10|10,0:1|0:1,0:0:0:0:
403,169,35759,6,0,B|481:183,1,75,12|0,0:0|0:0,0:0:0:0:
477,78,36522,5,8,0:1:0:0:
440,84,36776,5,8,0:1:0:0:
403,91,37030,5,8,0:1:0:0:
270,41,37285,5,8,0:1:0:0:
239,194,37539,1,2,0:0:0:0:
239,194,37793,2,0,P|271:207|312:208,1,75,10|0,0:0|0:0,0:0:0:0:
156,249,38302,2,0,B|113:245|71:234|71:234|42:246|2:249,1,150,10|8,0:1|0:0,0:0:0:0:
9,248,39064,1,2,0:0:0:0:
241,70,39319,6,0,L|246:145,1,75,10|0,0:1|0:0,0:0:0:0:
160,323,39827,2,0,L|155:248,1,75,10|0,0:0|0:0,0:0:0:0:
260,39,40336,6,0,L|265:114,1,75,10|0,0:1|0:0,0:0:0:0:
179,292,40844,2,0,L|174:217,1,75,10|0,0:0|0:0,0:0:0:0:
264,113,41352,6,0,P|317:101|377:105,1,112.500004291535,10|0,0:1|0:0,0:0:0:0:
451,164,42115,1,2,0:0:0:0:
451,164,42369,2,0,L|449:278,1,112.500004291535,10|8,0:1|0:0,0:0:0:0:
139,329,43386,6,0,P|127:288|128:255,1,56.2500021457673,10|0,0:1|0:0,0:0:0:0:
172,140,43895,2,0,P|184:181|183:214,1,56.2500021457673,2|8,0:0|0:1,0:0:0:0:
16,281,44403,2,0,B|51:278|83:268|83:268|128:275,1,112.500004291535,10|8,0:1|0:0,0:0:0:0:
243,347,45166,1,2,0:0:0:0:
243,347,45420,6,0,P|291:318|346:311,1,112.500004291535,10|0,0:1|0:0,0:0:0:0:
443,345,46183,1,0,0:0:0:0:
443,345,46437,2,0,P|436:311|438:280,1,56.2500021457673,10|2,0:1|0:0,0:0:0:0:
490,143,46946,2,0,P|489:171|485:198,1,56.2500021457673,8|2,0:0|0:0,0:0:0:0:
408,68,47454,6,0,L|346:64,2,56.2500021457673,10|0|0,0:1|0:0|0:0,0:0:0:0:
273,136,48217,1,10,0:1:0:0:
376,169,48471,2,0,P|376:113|351:63,1,112.500004291535,10|8,0:1|0:0,0:0:0:0:
116,302,49488,6,0,P|146:294|173:283,1,56.2500021457673,10|0,0:1|0:0,0:0:0:0:
234,208,49997,2,0,P|260:223|287:234,1,56.2500021457673,2|0,0:0|0:0,0:0:0:0:
393,188,50505,2,0,P|376:250|380:304,1,112.500004291535,10|10,0:1|0:0,0:0:0:0:
307,34,51522,6,0,P|319:62|323:88,1,56.2500021457673,10|0,0:1|0:0,0:0:0:0:
196,162,52030,2,0,P|224:149|250:145,1,56.2500021457673,2|8,0:0|0:1,0:0:0:0:
393,188,52539,2,0,L|337:181,2,56.2500021457673,10|0|8,0:1|0:0|0:0,0:0:0:0:
491,134,53302,1,8,0:1:0:0:
307,34,53556,6,0,P|300:68|302:98,1,56.2500021457673,10|0,0:1|0:0,0:0:0:0:
368,316,54064,2,0,P|375:282|373:252,1,56.2500021457673,2|8,0:0|0:1,0:0:0:0:
282,19,54573,2,0,P|266:50|260:79,1,56.2500021457673,10|0,0:1|0:0,0:0:0:0:
442,212,55081,2,0,L|503:218,1,56.2500021457673,10|0,0:0|0:0,0:0:0:0:
229,315,55590,5,10,0:0:0:0:
221,284,56098,5,10,0:0:0:0:
403,321,56607,5,10,0:0:0:0:
213,253,56861,1,8,0:1:0:0:
339,176,57115,1,8,0:0:0:0:
339,176,57242,1,8,0:0:0:0:
339,176,57369,1,8,0:0:0:0:
89,46,57624,6,0,P|75:92|82:142,1,93.75,14|0,0:1|0:0,0:0:0:0:
213,253,58132,2,0,P|227:207|220:157,1,93.75,10|0,0:0|0:0,0:0:0:0:
80,136,58641,2,0,B|120:136|159:127|159:127|200:140|200:140|234:133|269:133,1,187.5,10|8,0:1|0:0,0:0:0:0:
464,195,59403,1,2,0:0:0:0:
464,195,59658,6,0,B|456:149|456:149|464:99,1,93.75,8|2,0:1|0:0,0:0:0:0:
372,254,60166,2,0,L|276:249,1,93.75,8|0,0:0|0:0,0:0:0:0:
80,136,60674,1,10,0:1:0:0:
120,324,60929,1,2,0:0:0:0:
219,174,61183,1,10,0:0:0:0:
12,218,61438,1,0,0:0:0:0:
225,364,61691,6,0,P|240:321|238:274,1,93.75,10|0,0:1|0:0,0:0:0:0:
204,82,62200,2,0,L|220:179,1,93.75,10|0,0:0|0:0,0:0:0:0:
329,331,62708,2,0,B|367:326|394:305|394:305|438:326|438:326|461:312|513:314,1,187.5,10|8,0:1|0:0,0:0:0:0:
503,313,63471,1,2,0:0:0:0:
452,70,63725,5,8,0:1:0:0:
319,235,63980,1,2,0:0:0:0:
376,21,64234,1,8,0:0:0:0:
468,191,64489,1,2,0:0:0:0:
468,191,64742,2,0,P|419:145|349:146,1,140.625,10|0,0:1|0:0,0:0:0:0:
319,235,65251,6,0,P|355:294|385:232,1,168.750006437302,6|0,0:0|0:0,0:0:0:0:
252,169,65759,6,0,B|201:160|201:160|158:166,1,93.75,10|0,0:1|0:0,0:0:0:0:
21,262,66268,2,0,P|64:243|118:242,1,93.75,10|0,0:0|0:0,0:0:0:0:
245,352,66776,2,0,B|259:261|259:261|245:225|245:225|251:169,1,187.5,10|8,0:1|0:0,0:0:0:0:
464,16,67539,6,0,B|467:56|476:89|476:89|457:113|447:138|447:138|461:167|465:196,1,187.5,10|8,0:1|0:1,0:0:0:0:
251,168,68302,2,0,B|202:159|202:159|157:168,1,93.75,10|0,0:0|0:0,0:0:0:0:
373,360,68810,2,0,B|357:231|357:231|322:277,1,187.5,10|8,0:1|0:0,0:0:0:0:
322,276,69827,6,0,L|442:285,1,112.500004291535,10|2,0:1|0:0,0:0:0:0:
500,224,70590,1,0,0:0:0:0:
423,138,70844,2,0,P|413:165|414:192,1,56.2500021457673,2|0,0:0|0:0,0:0:0:0:
504,99,71352,2,0,L|506:42,1,56.2500021457673,2|0,0:0|0:0,0:0:0:0:
342,88,71861,6,0,P|290:96|229:87,1,112.500004291535,10|2,0:1|0:0,0:0:0:0:
90,74,72624,1,0,0:0:0:0:
90,73,72878,2,0,P|115:62|143:58,1,56.2500021457673,2|0,0:0|0:0,0:0:0:0:
242,180,73386,1,2,0:0:0:0:
242,180,73895,6,0,L|128:172,1,112.500004291535,10|2,0:1|0:0,0:0:0:0:
58,226,74658,1,0,0:0:0:0:
58,226,74912,2,0,P|40:175|60:116,1,112.500004291535,10|2,0:1|0:0,0:0:0:0:
155,26,75674,6,0,B|276:22,1,112.500004291535,2|0,0:0|0:0,0:0:0:0:
333,151,76437,1,2,0:0:0:0:
332,150,76691,2,0,P|326:123|329:95,1,56.2500021457673,2|0,0:0|0:0,0:0:0:0:
423,156,77200,1,2,0:0:0:0:
375,234,77454,1,2,0:0:0:0:
375,234,77963,6,0,B|301:224|301:224|260:233,1,112.500004291535,10|2,0:1|0:0,0:0:0:0:
207,162,78725,1,0,0:0:0:0:
207,162,78980,2,0,P|231:215|230:274,1,112.500004291535,2|2,0:0|0:0,0:0:0:0:
155,317,79742,2,0,L|139:317,1,14.0625005364418,0|2,0:0|0:0,0:0:0:0:
73,352,79997,5,2,0:0:0:0:
256,192,82030,12,0,87115,0:0:0:0:
