osu file format v14

[General]
AudioFilename: audio.mp3
AudioLeadIn: 0
PreviewTime: 59005
Countdown: 0
SampleSet: Normal
StackLeniency: 0.7
Mode: 1
LetterboxInBreaks: 0
WidescreenStoryboard: 0

[Editor]
DistanceSpacing: 0.8
BeatDivisor: 2
GridSize: 32
TimelineZoom: 1.179999

[Metadata]
Title:UNDEAD HEART (IKARI NO Warriors)
TitleUnicode:UNDEAD HEART (怒りのWarriors)
Artist:Sakamoto Eizo x Takahama Yusuke
ArtistUnicode:坂本英三×高濱祐輔
Creator:ARGENTINE DREAM
Version:Futsuu
Source:太鼓の達人 イエローVer.
Tags:taiko no tatsujin yellow version thrash metal namco original animetal
BeatmapID:1642074
BeatmapSetID:781915

[Difficulty]
HPDrainRate:6
CircleSize:2
OverallDifficulty:4
ApproachRate:5
SliderMultiplier:1.4
SliderTickRate:1

[Events]
//Background and Video events
0,0,"undeadheart.jpg",0,100
//Break Periods
//Storyboard Layer 0 (Background)
//Storyboard Layer 1 (Fail)
//Storyboard Layer 2 (Pass)
//Storyboard Layer 3 (Foreground)
//Storyboard Sound Samples

[TimingPoints]
150,285.714285714286,4,1,0,75,1,0
150,-125,4,1,0,75,0,0
56007,285.714285714286,4,1,0,75,1,0
56007,-125,4,1,0,75,0,0
57149,285.714285714286,5,1,0,75,1,0
57149,-125,4,1,0,75,0,0
58434,285.714285714286,4,1,0,75,1,0
58434,-125,4,1,0,75,0,0
59576,-125,4,1,0,75,0,1
77862,-125,4,1,0,75,0,0
96148,-125,4,1,0,75,0,1
119005,-125,4,1,0,75,0,0

[HitObjects]
224,224,292,5,0,0:0:0:0:
224,224,864,1,0,0:0:0:0:
224,224,1435,1,0,0:0:0:0:
256,192,2007,2,0,L|256:160,4,28
224,224,2578,1,0,0:0:0:0:
224,224,3150,1,0,0:0:0:0:
224,224,3721,1,0,0:0:0:0:
256,192,4292,2,0,L|256:160,4,28
224,224,4864,1,0,0:0:0:0:
224,224,5435,1,0,0:0:0:0:
224,224,6007,1,0,0:0:0:0:
256,192,6578,2,0,L|256:160,4,28
224,224,7150,1,0,0:0:0:0:
224,224,7721,1,0,0:0:0:0:
224,224,8007,1,0,0:0:0:0:
224,160,8150,1,8,0:0:0:0:
224,160,8435,1,8,0:0:0:0:
224,160,8578,1,8,0:0:0:0:
224,160,8864,1,8,0:0:0:0:
224,160,9007,1,8,0:0:0:0:
224,224,9292,1,0,0:0:0:0:
224,160,9578,1,8,0:0:0:0:
224,160,9721,1,8,0:0:0:0:
224,160,9864,1,8,0:0:0:0:
224,224,10150,1,0,0:0:0:0:
224,224,10292,1,0,0:0:0:0:
224,160,10578,1,8,0:0:0:0:
224,160,10864,1,8,0:0:0:0:
224,160,11292,1,8,0:0:0:0:
224,160,11578,1,8,0:0:0:0:
224,224,11721,1,0,0:0:0:0:
224,224,12007,1,0,0:0:0:0:
224,224,12292,1,0,0:0:0:0:
224,160,12435,1,8,0:0:0:0:
224,160,12721,1,8,0:0:0:0:
224,160,12864,1,8,0:0:0:0:
224,160,13435,1,8,0:0:0:0:
224,160,13578,1,8,0:0:0:0:
224,224,13864,1,0,0:0:0:0:
224,160,14150,1,8,0:0:0:0:
224,160,14435,1,8,0:0:0:0:
224,224,14721,1,0,0:0:0:0:
224,224,14864,1,0,0:0:0:0:
224,160,15150,1,8,0:0:0:0:
224,160,15435,1,8,0:0:0:0:
224,224,15721,1,0,0:0:0:0:
224,224,15864,1,0,0:0:0:0:
288,160,16150,1,12,0:0:0:0:
224,224,16435,1,0,0:0:0:0:
224,224,16721,1,0,0:0:0:0:
288,160,17007,1,12,0:0:0:0:
224,224,17292,1,0,0:0:0:0:
224,224,17435,1,0,0:0:0:0:
288,160,17721,1,12,0:0:0:0:
288,160,18007,1,12,0:0:0:0:
288,224,18435,1,4,0:0:0:0:
224,160,18721,1,8,0:0:0:0:
224,160,18864,1,8,0:0:0:0:
224,160,19007,1,8,0:0:0:0:
224,224,19292,1,0,0:0:0:0:
224,224,19435,1,0,0:0:0:0:
224,160,19721,1,8,0:0:0:0:
224,160,20007,1,8,0:0:0:0:
224,160,20435,1,8,0:0:0:0:
224,160,20721,1,8,0:0:0:0:
224,224,20864,1,0,0:0:0:0:
224,224,21150,1,0,0:0:0:0:
224,224,21435,1,0,0:0:0:0:
224,160,21578,1,8,0:0:0:0:
224,224,21864,1,0,0:0:0:0:
224,224,22007,1,0,0:0:0:0:
224,160,22578,1,8,0:0:0:0:
224,160,22721,1,8,0:0:0:0:
224,224,23007,1,0,0:0:0:0:
224,160,23292,1,8,0:0:0:0:
224,160,23578,1,8,0:0:0:0:
224,224,23864,1,0,0:0:0:0:
224,224,24007,1,0,0:0:0:0:
224,160,24292,1,8,0:0:0:0:
224,160,24578,1,8,0:0:0:0:
224,224,24864,1,0,0:0:0:0:
224,224,25007,1,0,0:0:0:0:
288,160,25292,1,12,0:0:0:0:
224,224,25578,5,0,0:0:0:0:
224,224,25721,5,0,0:0:0:0:
224,224,25864,5,0,0:0:0:0:
288,160,26435,1,12,0:0:0:0:
288,160,26864,1,12,0:0:0:0:
288,160,27292,1,12,0:0:0:0:
288,224,27578,1,0,0:0:0:0:
224,160,27864,1,8,0:0:0:0:
224,160,28007,1,8,0:0:0:0:
224,160,28150,1,8,0:0:0:0:
224,224,28435,1,0,0:0:0:0:
224,224,28578,1,0,0:0:0:0:
224,160,28864,1,8,0:0:0:0:
224,160,29150,1,8,0:0:0:0:
224,224,29578,1,0,0:0:0:0:
224,224,29721,1,0,0:0:0:0:
224,224,29864,1,0,0:0:0:0:
224,160,30150,1,8,0:0:0:0:
224,160,30435,1,8,0:0:0:0:
224,224,31007,1,0,0:0:0:0:
224,160,31292,1,8,0:0:0:0:
224,160,31435,1,8,0:0:0:0:
224,160,31721,1,8,0:0:0:0:
224,160,31864,1,8,0:0:0:0:
224,224,32150,1,0,0:0:0:0:
224,160,32435,1,8,0:0:0:0:
224,160,32721,1,8,0:0:0:0:
224,224,33007,1,0,0:0:0:0:
224,224,33150,1,0,0:0:0:0:
224,160,33435,1,8,0:0:0:0:
224,160,33721,1,8,0:0:0:0:
224,224,34150,1,0,0:0:0:0:
224,160,34435,1,8,0:0:0:0:
224,160,35007,1,8,0:0:0:0:
224,160,35150,1,8,0:0:0:0:
224,160,35292,1,8,0:0:0:0:
224,160,35578,1,8,0:0:0:0:
224,160,35864,1,8,0:0:0:0:
224,160,36007,1,8,0:0:0:0:
288,224,36292,1,4,0:0:0:0:
288,160,36721,1,12,0:0:0:0:
224,160,37007,1,8,0:0:0:0:
224,160,37150,1,8,0:0:0:0:
224,160,37292,1,8,0:0:0:0:
224,224,37578,1,0,0:0:0:0:
224,224,37721,1,0,0:0:0:0:
224,160,38007,1,8,0:0:0:0:
224,160,38292,1,8,0:0:0:0:
224,224,38721,1,0,0:0:0:0:
224,224,38864,1,0,0:0:0:0:
224,224,39007,1,0,0:0:0:0:
224,160,39292,1,8,0:0:0:0:
224,160,39578,1,8,0:0:0:0:
224,224,40150,1,0,0:0:0:0:
224,160,40435,1,8,0:0:0:0:
224,160,40578,1,8,0:0:0:0:
224,160,40864,1,8,0:0:0:0:
224,160,41007,1,8,0:0:0:0:
224,224,41292,1,0,0:0:0:0:
224,160,41578,1,8,0:0:0:0:
224,160,41864,1,8,0:0:0:0:
224,224,42150,1,0,0:0:0:0:
224,224,42292,1,0,0:0:0:0:
224,160,42578,1,8,0:0:0:0:
224,160,42864,1,8,0:0:0:0:
224,224,43292,1,0,0:0:0:0:
288,160,43578,1,12,0:0:0:0:
224,224,43864,1,0,0:0:0:0:
224,224,44007,1,0,0:0:0:0:
224,224,44150,1,0,0:0:0:0:
224,160,44435,1,8,0:0:0:0:
224,160,44721,1,8,0:0:0:0:
224,224,45292,1,0,0:0:0:0:
224,224,45435,1,0,0:0:0:0:
224,224,45578,1,0,0:0:0:0:
288,160,45864,1,12,0:0:0:0:
224,224,46150,1,0,0:0:0:0:
288,160,46435,5,12,0:0:0:0:
224,224,47007,1,0,0:0:0:0:
224,160,47578,5,8,0:0:0:0:
224,160,47721,5,8,0:0:0:0:
224,160,47864,5,8,0:0:0:0:
224,224,48150,5,0,0:0:0:0:
224,160,48435,5,8,0:0:0:0:
224,160,49007,5,8,0:0:0:0:
224,224,49292,1,0,0:0:0:0:
224,224,49578,5,0,0:0:0:0:
224,160,49864,1,8,0:0:0:0:
224,160,50150,5,8,0:0:0:0:
288,224,50435,5,4,0:0:0:0:
288,160,51007,5,12,0:0:0:0:
224,224,51292,1,0,0:0:0:0:
224,160,51578,5,8,0:0:0:0:
224,160,51721,5,8,0:0:0:0:
224,224,52150,5,0,0:0:0:0:
224,224,52435,1,0,0:0:0:0:
288,160,52721,5,12,0:0:0:0:
224,224,53150,5,0,0:0:0:0:
224,160,53578,5,8,0:0:0:0:
224,224,54007,5,0,0:0:0:0:
224,160,54435,5,8,0:0:0:0:
288,224,54864,5,4,0:0:0:0:
224,224,55292,5,0,0:0:0:0:
224,160,55721,5,8,0:0:0:0:
288,224,56007,5,4,0:0:0:0:
224,224,56292,5,0,0:0:0:0:
224,224,56578,5,0,0:0:0:0:
224,160,56864,1,8,0:0:0:0:
224,160,57007,1,8,0:0:0:0:
288,224,57291,5,4,0:0:0:0:
288,224,57720,5,4,0:0:0:0:
288,224,58149,5,4,0:0:0:0:
224,160,59005,5,8,0:0:0:0:
224,160,59148,5,8,0:0:0:0:
224,160,59291,1,8,0:0:0:0:
288,224,59576,1,4,0:0:0:0:
224,224,60148,1,0,0:0:0:0:
224,160,60434,5,8,0:0:0:0:
224,224,60719,1,0,0:0:0:0:
224,224,60862,1,0,0:0:0:0:
224,160,61005,5,8,0:0:0:0:
224,160,61291,1,8,0:0:0:0:
224,160,61576,5,8,0:0:0:0:
224,224,61862,1,0,0:0:0:0:
224,224,62434,1,0,0:0:0:0:
224,160,62719,5,8,0:0:0:0:
224,224,63005,1,0,0:0:0:0:
224,224,63148,1,0,0:0:0:0:
224,224,63291,5,0,0:0:0:0:
224,160,63576,1,8,0:0:0:0:
224,160,63862,5,8,0:0:0:0:
224,224,64148,1,0,0:0:0:0:
224,224,64719,1,0,0:0:0:0:
224,160,65005,5,8,0:0:0:0:
224,224,65291,1,0,0:0:0:0:
224,160,65576,1,8,0:0:0:0:
224,160,65862,1,8,0:0:0:0:
224,224,66434,1,0,0:0:0:0:
224,160,66719,5,8,0:0:0:0:
224,160,66862,5,8,0:0:0:0:
224,224,67005,1,0,0:0:0:0:
224,160,67291,5,8,0:0:0:0:
224,160,67434,5,8,0:0:0:0:
224,224,67576,1,0,0:0:0:0:
224,224,67862,5,0,0:0:0:0:
224,224,68005,1,0,0:0:0:0:
224,160,68291,5,8,0:0:0:0:
224,160,68434,5,8,0:0:0:0:
224,160,68576,5,8,0:0:0:0:
224,160,68719,1,8,0:0:0:0:
224,224,69291,1,0,0:0:0:0:
224,160,69576,5,8,0:0:0:0:
224,224,69719,1,0,0:0:0:0:
224,160,69862,5,8,0:0:0:0:
224,160,70148,5,8,0:0:0:0:
224,224,70434,5,0,0:0:0:0:
224,224,70576,1,0,0:0:0:0:
224,160,70719,5,8,0:0:0:0:
224,224,71005,1,0,0:0:0:0:
224,224,71576,1,0,0:0:0:0:
224,160,71862,5,8,0:0:0:0:
224,224,72005,1,0,0:0:0:0:
224,160,72148,5,8,0:0:0:0:
224,160,72434,5,8,0:0:0:0:
224,224,72719,1,0,0:0:0:0:
224,224,72862,1,0,0:0:0:0:
224,160,73005,5,8,0:0:0:0:
224,160,73291,5,8,0:0:0:0:
224,224,73576,5,0,0:0:0:0:
224,224,73862,1,0,0:0:0:0:
224,224,74434,5,0,0:0:0:0:
224,224,74719,5,0,0:0:0:0:
224,160,75005,5,8,0:0:0:0:
224,160,75148,5,8,0:0:0:0:
224,160,75291,5,8,0:0:0:0:
224,160,75576,5,8,0:0:0:0:
224,224,75719,1,0,0:0:0:0:
224,160,75862,5,8,0:0:0:0:
224,160,76148,5,8,0:0:0:0:
224,160,76291,5,8,0:0:0:0:
288,224,76576,5,4,0:0:0:0:
256,192,76862,12,0,77434,0:0:0:0:
256,192,77862,6,0,L|256:160,12,28
224,160,79005,1,8,0:0:0:0:
224,160,79148,1,8,0:0:0:0:
224,224,79291,1,0,0:0:0:0:
224,224,79434,1,0,0:0:0:0:
224,160,79862,1,8,0:0:0:0:
224,160,80148,1,8,0:0:0:0:
224,224,80434,1,0,0:0:0:0:
224,160,80719,1,8,0:0:0:0:
224,160,80862,1,8,0:0:0:0:
224,224,81005,1,0,0:0:0:0:
224,160,81291,1,8,0:0:0:0:
224,160,81434,1,8,0:0:0:0:
224,224,81862,1,0,0:0:0:0:
224,224,82005,1,0,0:0:0:0:
256,192,82434,2,0,L|256:160,8,28
224,224,83291,1,0,0:0:0:0:
224,224,83434,1,0,0:0:0:0:
224,160,83576,1,8,0:0:0:0:
224,224,83862,1,0,0:0:0:0:
224,224,84005,1,0,0:0:0:0:
224,160,84434,1,8,0:0:0:0:
224,224,84719,1,0,0:0:0:0:
224,224,85005,1,0,0:0:0:0:
224,160,85291,1,8,0:0:0:0:
224,224,85576,1,0,0:0:0:0:
224,224,85719,1,0,0:0:0:0:
224,160,85862,1,8,0:0:0:0:
224,224,86148,1,0,0:0:0:0:
224,160,86434,1,8,0:0:0:0:
288,160,87005,1,12,0:0:0:0:
224,160,87291,1,8,0:0:0:0:
224,224,87434,1,0,0:0:0:0:
224,160,87862,1,8,0:0:0:0:
224,160,88005,1,8,0:0:0:0:
224,224,88148,1,0,0:0:0:0:
224,160,88434,1,8,0:0:0:0:
224,224,88576,1,0,0:0:0:0:
224,224,89005,1,0,0:0:0:0:
224,160,89291,1,8,0:0:0:0:
224,224,89576,1,0,0:0:0:0:
224,160,89862,1,8,0:0:0:0:
224,160,90005,1,8,0:0:0:0:
224,224,90148,1,0,0:0:0:0:
224,160,90434,1,8,0:0:0:0:
224,160,90576,1,8,0:0:0:0:
224,224,91005,1,0,0:0:0:0:
224,224,91148,1,0,0:0:0:0:
224,160,91576,1,8,0:0:0:0:
224,224,91719,1,0,0:0:0:0:
224,224,91862,1,0,0:0:0:0:
224,160,92148,1,8,0:0:0:0:
224,224,92291,1,0,0:0:0:0:
224,160,92719,5,8,0:0:0:0:
224,160,92862,5,8,0:0:0:0:
224,224,93291,1,0,0:0:0:0:
224,224,93434,1,0,0:0:0:0:
224,160,93576,1,8,0:0:0:0:
256,192,93862,6,0,L|256:160,16,28
256,192,95291,12,0,95862,0:0:0:0:
288,224,96148,5,4,0:0:0:0:
224,224,96719,1,0,0:0:0:0:
224,160,97005,5,8,0:0:0:0:
224,224,97291,1,0,0:0:0:0:
224,224,97434,1,0,0:0:0:0:
224,160,97576,5,8,0:0:0:0:
224,160,97862,1,8,0:0:0:0:
224,160,98148,5,8,0:0:0:0:
224,224,98434,1,0,0:0:0:0:
224,224,99005,1,0,0:0:0:0:
224,160,99291,5,8,0:0:0:0:
224,224,99576,1,0,0:0:0:0:
224,224,99719,1,0,0:0:0:0:
224,160,99862,5,8,0:0:0:0:
224,224,100148,1,0,0:0:0:0:
224,160,100434,5,8,0:0:0:0:
288,224,100719,1,4,0:0:0:0:
224,224,101291,1,0,0:0:0:0:
224,160,101576,5,8,0:0:0:0:
224,224,101862,1,0,0:0:0:0:
224,224,102148,1,0,0:0:0:0:
224,160,102434,1,8,0:0:0:0:
224,160,102719,1,8,0:0:0:0:
288,224,103005,1,4,0:0:0:0:
224,160,103291,5,8,0:0:0:0:
224,160,103434,5,8,0:0:0:0:
224,224,103576,1,0,0:0:0:0:
224,160,103862,5,8,0:0:0:0:
224,160,104005,5,8,0:0:0:0:
224,224,104148,1,0,0:0:0:0:
224,224,104434,5,0,0:0:0:0:
224,224,104576,1,0,0:0:0:0:
224,160,104862,5,8,0:0:0:0:
224,160,105005,5,8,0:0:0:0:
224,160,105148,5,8,0:0:0:0:
224,160,105291,1,8,0:0:0:0:
224,224,105862,1,0,0:0:0:0:
224,160,106148,5,8,0:0:0:0:
224,224,106291,1,0,0:0:0:0:
224,160,106434,5,8,0:0:0:0:
224,160,106719,5,8,0:0:0:0:
224,224,107005,5,0,0:0:0:0:
224,224,107148,1,0,0:0:0:0:
224,160,107291,5,8,0:0:0:0:
224,224,107576,1,0,0:0:0:0:
224,224,108148,1,0,0:0:0:0:
224,160,108434,5,8,0:0:0:0:
224,224,108576,1,0,0:0:0:0:
224,160,108719,5,8,0:0:0:0:
224,160,109005,5,8,0:0:0:0:
224,160,109291,1,8,0:0:0:0:
224,160,109434,5,8,0:0:0:0:
224,160,109576,5,8,0:0:0:0:
288,224,109862,5,4,0:0:0:0:
224,224,110434,1,0,0:0:0:0:
224,224,110576,1,0,0:0:0:0:
224,160,110719,5,8,0:0:0:0:
224,160,111005,5,8,0:0:0:0:
224,224,111576,5,0,0:0:0:0:
224,224,111719,5,0,0:0:0:0:
224,160,111862,5,8,0:0:0:0:
224,160,112148,5,8,0:0:0:0:
224,160,112434,5,8,0:0:0:0:
224,160,112719,5,8,0:0:0:0:
224,160,112862,5,8,0:0:0:0:
224,224,113291,1,0,0:0:0:0:
224,224,113576,5,0,0:0:0:0:
224,224,113719,1,0,0:0:0:0:
224,160,114005,5,8,0:0:0:0:
224,160,114148,1,8,0:0:0:0:
288,224,114434,1,4,0:0:0:0:
288,160,114719,1,12,0:0:0:0:
288,224,115005,1,4,0:0:0:0:
288,160,115291,1,12,0:0:0:0:
288,224,115576,1,4,0:0:0:0:
288,160,115862,1,12,0:0:0:0:
288,224,116148,1,4,0:0:0:0:
288,160,116434,1,12,0:0:0:0:
288,224,116719,1,4,0:0:0:0:
288,224,117005,1,4,0:0:0:0:
288,224,117291,1,4,0:0:0:0:
288,224,117434,1,4,0:0:0:0:
288,224,117576,1,4,0:0:0:0:
288,224,117862,1,4,0:0:0:0:
288,224,118148,1,4,0:0:0:0:
288,224,118291,1,4,0:0:0:0:
288,160,118719,1,12,0:0:0:0:
288,224,119005,1,4,0:0:0:0:
224,160,119291,1,8,0:0:0:0:
224,160,119434,1,8,0:0:0:0:
224,160,119576,1,8,0:0:0:0:
224,224,119862,1,0,0:0:0:0:
224,224,120005,1,0,0:0:0:0:
224,160,120291,1,8,0:0:0:0:
224,160,120576,1,8,0:0:0:0:
224,160,121005,1,8,0:0:0:0:
224,224,121291,1,0,0:0:0:0:
224,224,121434,1,0,0:0:0:0:
224,224,121719,1,0,0:0:0:0:
224,160,122005,1,8,0:0:0:0:
224,160,122148,1,8,0:0:0:0:
224,224,122434,1,0,0:0:0:0:
224,224,122576,1,0,0:0:0:0:
224,160,123148,1,8,0:0:0:0:
224,160,123291,1,8,0:0:0:0:
224,224,123576,1,0,0:0:0:0:
224,160,123862,1,8,0:0:0:0:
288,160,124148,1,12,0:0:0:0:
224,224,124434,1,0,0:0:0:0:
224,224,124576,1,0,0:0:0:0:
288,160,124862,1,12,0:0:0:0:
288,224,125291,1,4,0:0:0:0:
224,224,125576,1,0,0:0:0:0:
288,160,125862,1,12,0:0:0:0:
224,160,126148,1,8,0:0:0:0:
224,160,126291,1,8,0:0:0:0:
224,224,126434,1,0,0:0:0:0:
224,224,126719,1,0,0:0:0:0:
288,160,127005,1,12,0:0:0:0:
288,224,127434,1,4,0:0:0:0:
288,160,127862,1,12,0:0:0:0:
224,160,128434,1,8,0:0:0:0:
224,160,128719,1,8,0:0:0:0:
224,160,129005,1,8,0:0:0:0:
256,192,129291,2,0,L|256:160,8,28
224,160,130148,1,8,0:0:0:0:
288,224,130434,1,4,0:0:0:0:
288,160,130719,1,12,0:0:0:0:
288,160,131005,1,12,0:0:0:0:
288,160,131434,1,12,0:0:0:0:
224,160,131862,5,8,0:0:0:0:
224,224,132005,1,0,0:0:0:0:
224,160,132148,5,8,0:0:0:0:
224,224,132434,1,0,0:0:0:0:
224,224,132576,1,0,0:0:0:0:
224,160,132719,5,8,0:0:0:0:
224,224,133005,1,0,0:0:0:0:
224,160,133148,5,8,0:0:0:0:
288,160,133576,5,12,0:0:0:0:
256,192,133719,12,0,134434,0:0:0:0:
