osu file format v14

[General]
AudioFilename: 7105.mp3
AudioLeadIn: 0
PreviewTime: -1
Countdown: 0
SampleSet: None
StackLeniency: 0.7
Mode: 3
LetterboxInBreaks: 0
SpecialStyle: 0
WidescreenStoryboard: 0

[Editor]
DistanceSpacing: 0.8
BeatDivisor: 16
GridSize: 32
TimelineZoom: 1

[Metadata]
Title:Hachidaijigoku Jakontensei Kyousou Sanbika
TitleUnicode:Hachidaijigoku Jakontensei Kyousou Sanbika
Artist:Sakamirito
ArtistUnicode:Sakamirito
Creator:MowseChow
Version:4k [1.05x Rate]
Source:tekno's blooming hibiscus garden
Tags:tekno
BeatmapID:4556671
BeatmapSetID:2160801

[Difficulty]
HPDrainRate:8
CircleSize:4
OverallDifficulty:9
ApproachRate:5
SliderMultiplier:1.4
SliderTickRate:1

[Events]
//Background and Video events
0,0,"7.jpg",0,0
//Break Periods
//Storyboard Layer 0 (Background)
//Storyboard Layer 1 (Fail)
//Storyboard Layer 2 (Pass)
//Storyboard Layer 3 (Foreground)
//Storyboard Layer 4 (Overlay)
//Storyboard Sound Samples

[TimingPoints]
116,281.491906666667,4,1,0,100,1,0

[HitObjects]
192,192,64,5,0,0:0:0:0:
320,192,64,1,0,0:0:0:0:
448,192,64,1,0,0:0:0:0:
64,192,158,1,0,0:0:0:0:
192,192,158,1,0,0:0:0:0:
320,192,158,1,0,0:0:0:0:
64,192,251,1,0,0:0:0:0:
320,192,251,1,0,0:0:0:0:
448,192,251,1,0,0:0:0:0:
64,192,346,1,0,0:0:0:0:
192,192,346,1,0,0:0:0:0:
320,192,346,1,0,0:0:0:0:
448,192,346,1,0,0:0:0:0:
192,192,439,1,0,0:0:0:0:
320,192,439,1,0,0:0:0:0:
448,192,439,1,0,0:0:0:0:
64,192,533,1,0,0:0:0:0:
192,192,533,1,0,0:0:0:0:
448,192,533,1,0,0:0:0:0:
320,192,627,128,0,909:0:0:0:0:
448,192,627,128,0,909:0:0:0:0:
64,192,909,1,0,0:0:0:0:
192,192,909,1,0,0:0:0:0:
64,192,1002,1,0,0:0:0:0:
192,192,1002,1,0,0:0:0:0:
320,192,1002,1,0,0:0:0:0:
192,192,1096,1,0,0:0:0:0:
320,192,1096,1,0,0:0:0:0:
448,192,1096,1,0,0:0:0:0:
64,192,1190,1,0,0:0:0:0:
192,192,1190,1,0,0:0:0:0:
320,192,1190,1,0,0:0:0:0:
448,192,1190,1,0,0:0:0:0:
64,192,1284,1,0,0:0:0:0:
320,192,1284,1,0,0:0:0:0:
448,192,1284,1,0,0:0:0:0:
64,192,1377,1,0,0:0:0:0:
192,192,1377,1,0,0:0:0:0:
448,192,1377,1,0,0:0:0:0:
64,192,1471,128,0,1752:0:0:0:0:
192,192,1471,128,0,1752:0:0:0:0:
320,192,1752,1,0,0:0:0:0:
448,192,1752,1,0,0:0:0:0:
64,192,2034,1,0,0:0:0:0:
192,192,2034,1,0,0:0:0:0:
320,192,2034,1,0,0:0:0:0:
448,192,2034,1,0,0:0:0:0:
64,192,2316,1,0,0:0:0:0:
192,192,2316,1,0,0:0:0:0:
320,192,2316,1,0,0:0:0:0:
448,192,2316,1,0,0:0:0:0:
64,192,2410,1,0,0:0:0:0:
192,192,2410,1,0,0:0:0:0:
320,192,2410,1,0,0:0:0:0:
64,192,2504,1,0,0:0:0:0:
320,192,2504,1,0,0:0:0:0:
448,192,2504,1,0,0:0:0:0:
64,192,2597,1,0,0:0:0:0:
192,192,2597,1,0,0:0:0:0:
320,192,2597,1,0,0:0:0:0:
448,192,2597,1,0,0:0:0:0:
192,192,2691,1,0,0:0:0:0:
320,192,2691,1,0,0:0:0:0:
448,192,2691,1,0,0:0:0:0:
64,192,2785,1,0,0:0:0:0:
192,192,2785,1,0,0:0:0:0:
448,192,2785,1,0,0:0:0:0:
64,192,2879,128,0,3160:0:0:0:0:
192,192,2879,128,0,3160:0:0:0:0:
320,192,3160,1,0,0:0:0:0:
448,192,3160,1,0,0:0:0:0:
64,192,3254,1,0,0:0:0:0:
192,192,3254,1,0,0:0:0:0:
448,192,3254,1,0,0:0:0:0:
192,192,3348,1,0,0:0:0:0:
320,192,3348,1,0,0:0:0:0:
448,192,3348,1,0,0:0:0:0:
64,192,3442,1,0,0:0:0:0:
192,192,3442,1,0,0:0:0:0:
320,192,3442,1,0,0:0:0:0:
448,192,3442,1,0,0:0:0:0:
64,192,3535,1,0,0:0:0:0:
192,192,3535,1,0,0:0:0:0:
320,192,3535,1,0,0:0:0:0:
64,192,3630,1,0,0:0:0:0:
320,192,3630,1,0,0:0:0:0:
448,192,3630,1,0,0:0:0:0:
320,192,3723,128,0,4005:0:0:0:0:
448,192,3723,128,0,4005:0:0:0:0:
64,192,4005,1,0,0:0:0:0:
192,192,4005,1,0,0:0:0:0:
64,192,4286,1,0,0:0:0:0:
192,192,4286,1,0,0:0:0:0:
320,192,4286,1,0,0:0:0:0:
448,192,4286,1,0,0:0:0:0:
64,192,4568,1,0,0:0:0:0:
192,192,4568,1,0,0:0:0:0:
320,192,4568,1,0,0:0:0:0:
448,192,4568,1,0,0:0:0:0:
64,192,4662,1,0,0:0:0:0:
192,192,4662,1,0,0:0:0:0:
320,192,4662,1,0,0:0:0:0:
192,192,4755,1,0,0:0:0:0:
320,192,4755,1,0,0:0:0:0:
448,192,4755,1,0,0:0:0:0:
64,192,4850,1,0,0:0:0:0:
192,192,4850,1,0,0:0:0:0:
320,192,4850,1,0,0:0:0:0:
448,192,4850,1,0,0:0:0:0:
64,192,4943,1,0,0:0:0:0:
192,192,4943,1,0,0:0:0:0:
448,192,4943,1,0,0:0:0:0:
64,192,5037,1,0,0:0:0:0:
320,192,5037,1,0,0:0:0:0:
448,192,5037,1,0,0:0:0:0:
64,192,5130,128,0,5412:0:0:0:0:
192,192,5130,128,0,5412:0:0:0:0:
320,192,5412,1,0,0:0:0:0:
448,192,5412,1,0,0:0:0:0:
64,192,5506,1,0,0:0:0:0:
192,192,5506,1,0,0:0:0:0:
320,192,5506,1,0,0:0:0:0:
64,192,5600,1,0,0:0:0:0:
320,192,5600,1,0,0:0:0:0:
448,192,5600,1,0,0:0:0:0:
64,192,5693,1,0,0:0:0:0:
192,192,5693,1,0,0:0:0:0:
320,192,5693,1,0,0:0:0:0:
448,192,5693,1,0,0:0:0:0:
64,192,5788,1,0,0:0:0:0:
192,192,5788,1,0,0:0:0:0:
448,192,5788,1,0,0:0:0:0:
192,192,5881,1,0,0:0:0:0:
320,192,5881,1,0,0:0:0:0:
448,192,5881,1,0,0:0:0:0:
320,192,5975,128,0,6256:0:0:0:0:
448,192,5975,128,0,6256:0:0:0:0:
64,192,6256,1,0,0:0:0:0:
192,192,6256,1,0,0:0:0:0:
64,192,6538,1,0,0:0:0:0:
192,192,6538,1,0,0:0:0:0:
320,192,6538,1,0,0:0:0:0:
448,192,6538,1,0,0:0:0:0:
64,192,6820,1,0,0:0:0:0:
192,192,6820,1,0,0:0:0:0:
320,192,6820,1,0,0:0:0:0:
448,192,6820,1,0,0:0:0:0:
320,192,6890,1,0,0:0:0:0:
448,192,6890,1,0,0:0:0:0:
64,192,6960,1,0,0:0:0:0:
192,192,6960,1,0,0:0:0:0:
320,192,6960,1,0,0:0:0:0:
448,192,6960,1,0,0:0:0:0:
64,192,7030,1,0,0:0:0:0:
192,192,7030,1,0,0:0:0:0:
64,192,7101,1,0,0:0:0:0:
192,192,7101,1,0,0:0:0:0:
320,192,7101,1,0,0:0:0:0:
448,192,7101,1,0,0:0:0:0:
192,192,7171,1,0,0:0:0:0:
320,192,7171,1,0,0:0:0:0:
64,192,7242,1,0,0:0:0:0:
192,192,7242,1,0,0:0:0:0:
320,192,7242,1,0,0:0:0:0:
448,192,7242,1,0,0:0:0:0:
64,192,7312,1,0,0:0:0:0:
448,192,7312,1,0,0:0:0:0:
64,192,7383,1,0,0:0:0:0:
192,192,7383,1,0,0:0:0:0:
320,192,7383,1,0,0:0:0:0:
448,192,7383,1,0,0:0:0:0:
320,192,7453,1,0,0:0:0:0:
448,192,7453,1,0,0:0:0:0:
64,192,7524,1,0,0:0:0:0:
192,192,7524,1,0,0:0:0:0:
320,192,7524,1,0,0:0:0:0:
448,192,7524,1,0,0:0:0:0:
64,192,7593,1,0,0:0:0:0:
320,192,7593,1,0,0:0:0:0:
64,192,7664,1,0,0:0:0:0:
192,192,7664,1,0,0:0:0:0:
320,192,7664,1,0,0:0:0:0:
448,192,7664,1,0,0:0:0:0:
64,192,7734,1,0,0:0:0:0:
192,192,7734,1,0,0:0:0:0:
64,192,7805,1,0,0:0:0:0:
192,192,7805,1,0,0:0:0:0:
320,192,7805,1,0,0:0:0:0:
448,192,7805,1,0,0:0:0:0:
192,192,7875,1,0,0:0:0:0:
320,192,7875,1,0,0:0:0:0:
64,192,7946,1,0,0:0:0:0:
192,192,7946,1,0,0:0:0:0:
320,192,7946,1,0,0:0:0:0:
448,192,7946,1,0,0:0:0:0:
64,192,8016,1,0,0:0:0:0:
192,192,8016,1,0,0:0:0:0:
448,192,8016,1,0,0:0:0:0:
64,192,8087,1,0,0:0:0:0:
192,192,8087,1,0,0:0:0:0:
320,192,8087,1,0,0:0:0:0:
448,192,8087,1,0,0:0:0:0:
64,192,8157,1,0,0:0:0:0:
320,192,8157,1,0,0:0:0:0:
448,192,8157,1,0,0:0:0:0:
64,192,8227,1,0,0:0:0:0:
192,192,8227,1,0,0:0:0:0:
320,192,8227,1,0,0:0:0:0:
448,192,8227,1,0,0:0:0:0:
64,192,8297,1,0,0:0:0:0:
192,192,8297,1,0,0:0:0:0:
320,192,8297,1,0,0:0:0:0:
64,192,8368,1,0,0:0:0:0:
192,192,8368,1,0,0:0:0:0:
320,192,8368,1,0,0:0:0:0:
448,192,8368,1,0,0:0:0:0:
192,192,8438,1,0,0:0:0:0:
320,192,8438,1,0,0:0:0:0:
448,192,8438,1,0,0:0:0:0:
64,192,8509,1,0,0:0:0:0:
192,192,8509,1,0,0:0:0:0:
320,192,8509,1,0,0:0:0:0:
448,192,8509,1,0,0:0:0:0:
64,192,8579,1,0,0:0:0:0:
192,192,8579,1,0,0:0:0:0:
320,192,8579,1,0,0:0:0:0:
448,192,8579,1,0,0:0:0:0:
64,192,8650,1,0,0:0:0:0:
192,192,8650,1,0,0:0:0:0:
320,192,8650,1,0,0:0:0:0:
448,192,8650,1,0,0:0:0:0:
64,192,8720,1,0,0:0:0:0:
192,192,8720,1,0,0:0:0:0:
320,192,8720,1,0,0:0:0:0:
448,192,8720,1,0,0:0:0:0:
64,192,8790,1,0,0:0:0:0:
192,192,8790,1,0,0:0:0:0:
320,192,8790,1,0,0:0:0:0:
448,192,8790,1,0,0:0:0:0:
64,192,8860,1,0,0:0:0:0:
192,192,8860,1,0,0:0:0:0:
320,192,8860,1,0,0:0:0:0:
448,192,8860,1,0,0:0:0:0:
64,192,8930,1,0,0:0:0:0:
192,192,8930,1,0,0:0:0:0:
320,192,8930,1,0,0:0:0:0:
448,192,8930,1,0,0:0:0:0:
64,192,9001,1,0,0:0:0:0:
192,192,9001,1,0,0:0:0:0:
320,192,9001,1,0,0:0:0:0:
448,192,9001,1,0,0:0:0:0:
64,192,9071,1,0,0:0:0:0:
192,192,9071,1,0,0:0:0:0:
320,192,9071,1,0,0:0:0:0:
448,192,9071,1,0,0:0:0:0:
64,192,9142,1,0,0:0:0:0:
192,192,9142,1,0,0:0:0:0:
64,192,9212,1,0,0:0:0:0:
192,192,9212,1,0,0:0:0:0:
320,192,9212,1,0,0:0:0:0:
448,192,9212,1,0,0:0:0:0:
320,192,9283,1,0,0:0:0:0:
448,192,9283,1,0,0:0:0:0:
64,192,9353,1,0,0:0:0:0:
192,192,9353,1,0,0:0:0:0:
320,192,9353,1,0,0:0:0:0:
448,192,9353,1,0,0:0:0:0:
64,192,9424,1,0,0:0:0:0:
192,192,9424,1,0,0:0:0:0:
448,192,9424,1,0,0:0:0:0:
64,192,9493,1,0,0:0:0:0:
192,192,9493,1,0,0:0:0:0:
320,192,9493,1,0,0:0:0:0:
448,192,9493,1,0,0:0:0:0:
192,192,9564,1,0,0:0:0:0:
320,192,9564,1,0,0:0:0:0:
64,192,9634,1,0,0:0:0:0:
320,192,9634,1,0,0:0:0:0:
448,192,9634,1,0,0:0:0:0:
192,192,9705,1,0,0:0:0:0:
448,192,9705,1,0,0:0:0:0:
64,192,9775,1,0,0:0:0:0:
192,192,9775,1,0,0:0:0:0:
320,192,9775,1,0,0:0:0:0:
448,192,9775,1,0,0:0:0:0:
64,192,9846,1,0,0:0:0:0:
320,192,9846,1,0,0:0:0:0:
64,192,9916,1,0,0:0:0:0:
192,192,9916,1,0,0:0:0:0:
320,192,9916,1,0,0:0:0:0:
448,192,9916,1,0,0:0:0:0:
64,192,9987,1,0,0:0:0:0:
192,192,9987,1,0,0:0:0:0:
448,192,9987,1,0,0:0:0:0:
64,192,10057,1,0,0:0:0:0:
192,192,10057,1,0,0:0:0:0:
320,192,10057,1,0,0:0:0:0:
448,192,10057,1,0,0:0:0:0:
320,192,10128,1,0,0:0:0:0:
448,192,10128,1,0,0:0:0:0:
64,192,10197,1,0,0:0:0:0:
192,192,10197,1,0,0:0:0:0:
320,192,10197,1,0,0:0:0:0:
64,192,10268,1,0,0:0:0:0:
448,192,10268,1,0,0:0:0:0:
64,192,10338,1,0,0:0:0:0:
192,192,10338,1,0,0:0:0:0:
320,192,10338,1,0,0:0:0:0:
448,192,10338,1,0,0:0:0:0:
192,192,10409,1,0,0:0:0:0:
320,192,10409,1,0,0:0:0:0:
64,192,10479,1,0,0:0:0:0:
192,192,10479,1,0,0:0:0:0:
320,192,10479,1,0,0:0:0:0:
448,192,10479,1,0,0:0:0:0:
64,192,10550,1,0,0:0:0:0:
320,192,10550,1,0,0:0:0:0:
448,192,10550,1,0,0:0:0:0:
64,192,10620,1,0,0:0:0:0:
192,192,10620,1,0,0:0:0:0:
320,192,10620,1,0,0:0:0:0:
448,192,10620,1,0,0:0:0:0:
64,192,10690,1,0,0:0:0:0:
192,192,10690,1,0,0:0:0:0:
64,192,10761,1,0,0:0:0:0:
320,192,10761,1,0,0:0:0:0:
448,192,10761,1,0,0:0:0:0:
192,192,10830,1,0,0:0:0:0:
448,192,10830,1,0,0:0:0:0:
64,192,10901,1,0,0:0:0:0:
192,192,10901,1,0,0:0:0:0:
320,192,10901,1,0,0:0:0:0:
448,192,10901,1,0,0:0:0:0:
320,192,10971,1,0,0:0:0:0:
448,192,10971,1,0,0:0:0:0:
64,192,11042,1,0,0:0:0:0:
192,192,11042,1,0,0:0:0:0:
320,192,11042,1,0,0:0:0:0:
448,192,11042,1,0,0:0:0:0:
64,192,11112,1,0,0:0:0:0:
192,192,11112,1,0,0:0:0:0:
320,192,11112,1,0,0:0:0:0:
64,192,11183,1,0,0:0:0:0:
192,192,11183,1,0,0:0:0:0:
320,192,11183,1,0,0:0:0:0:
448,192,11183,1,0,0:0:0:0:
64,192,11253,1,0,0:0:0:0:
448,192,11253,1,0,0:0:0:0:
64,192,11324,1,0,0:0:0:0:
320,192,11324,1,0,0:0:0:0:
448,192,11324,1,0,0:0:0:0:
192,192,11394,1,0,0:0:0:0:
320,192,11394,1,0,0:0:0:0:
64,192,11464,1,0,0:0:0:0:
192,192,11464,1,0,0:0:0:0:
320,192,11464,1,0,0:0:0:0:
448,192,11464,1,0,0:0:0:0:
320,192,11534,1,0,0:0:0:0:
448,192,11534,1,0,0:0:0:0:
64,192,11605,1,0,0:0:0:0:
192,192,11605,1,0,0:0:0:0:
320,192,11605,1,0,0:0:0:0:
448,192,11605,1,0,0:0:0:0:
64,192,11675,1,0,0:0:0:0:
192,192,11675,1,0,0:0:0:0:
448,192,11675,1,0,0:0:0:0:
64,192,11746,1,0,0:0:0:0:
192,192,11746,1,0,0:0:0:0:
320,192,11746,1,0,0:0:0:0:
448,192,11746,1,0,0:0:0:0:
64,192,11816,1,0,0:0:0:0:
320,192,11816,1,0,0:0:0:0:
64,192,11887,1,0,0:0:0:0:
192,192,11887,1,0,0:0:0:0:
448,192,11887,1,0,0:0:0:0:
192,192,11957,1,0,0:0:0:0:
320,192,11957,1,0,0:0:0:0:
64,192,12028,1,0,0:0:0:0:
192,192,12028,1,0,0:0:0:0:
320,192,12028,1,0,0:0:0:0:
448,192,12028,1,0,0:0:0:0:
64,192,12097,1,0,0:0:0:0:
448,192,12097,1,0,0:0:0:0:
64,192,12168,1,0,0:0:0:0:
192,192,12168,1,0,0:0:0:0:
320,192,12168,1,0,0:0:0:0:
448,192,12168,1,0,0:0:0:0:
64,192,12238,1,0,0:0:0:0:
192,192,12238,1,0,0:0:0:0:
320,192,12238,1,0,0:0:0:0:
64,192,12309,1,0,0:0:0:0:
192,192,12309,1,0,0:0:0:0:
320,192,12309,1,0,0:0:0:0:
448,192,12309,1,0,0:0:0:0:
192,192,12379,1,0,0:0:0:0:
448,192,12379,1,0,0:0:0:0:
64,192,12450,1,0,0:0:0:0:
320,192,12450,1,0,0:0:0:0:
448,192,12450,1,0,0:0:0:0:
64,192,12520,1,0,0:0:0:0:
192,192,12520,1,0,0:0:0:0:
64,192,12590,1,0,0:0:0:0:
192,192,12590,1,0,0:0:0:0:
320,192,12590,1,0,0:0:0:0:
448,192,12590,1,0,0:0:0:0:
320,192,12661,1,0,0:0:0:0:
448,192,12661,1,0,0:0:0:0:
64,192,12730,1,0,0:0:0:0:
192,192,12730,1,0,0:0:0:0:
320,192,12730,1,0,0:0:0:0:
448,192,12730,1,0,0:0:0:0:
64,192,12801,1,0,0:0:0:0:
192,192,12801,1,0,0:0:0:0:
448,192,12801,1,0,0:0:0:0:
64,192,12871,1,0,0:0:0:0:
192,192,12871,1,0,0:0:0:0:
320,192,12871,1,0,0:0:0:0:
448,192,12871,1,0,0:0:0:0:
64,192,12942,1,0,0:0:0:0:
320,192,12942,1,0,0:0:0:0:
64,192,13012,1,0,0:0:0:0:
192,192,13012,1,0,0:0:0:0:
448,192,13012,1,0,0:0:0:0:
320,192,13083,1,0,0:0:0:0:
448,192,13083,1,0,0:0:0:0:
64,192,13153,1,0,0:0:0:0:
192,192,13153,1,0,0:0:0:0:
320,192,13153,1,0,0:0:0:0:
448,192,13153,1,0,0:0:0:0:
64,192,13224,1,0,0:0:0:0:
192,192,13224,1,0,0:0:0:0:
64,192,13294,1,0,0:0:0:0:
192,192,13294,1,0,0:0:0:0:
320,192,13294,1,0,0:0:0:0:
448,192,13294,1,0,0:0:0:0:
192,192,13365,1,0,0:0:0:0:
320,192,13365,1,0,0:0:0:0:
448,192,13365,1,0,0:0:0:0:
64,192,13434,1,0,0:0:0:0:
192,192,13434,1,0,0:0:0:0:
320,192,13434,1,0,0:0:0:0:
448,192,13434,1,0,0:0:0:0:
64,192,13505,1,0,0:0:0:0:
320,192,13505,1,0,0:0:0:0:
448,192,13505,1,0,0:0:0:0:
64,192,13575,1,0,0:0:0:0:
192,192,13575,1,0,0:0:0:0:
448,192,13575,1,0,0:0:0:0:
192,192,13646,1,0,0:0:0:0:
320,192,13646,1,0,0:0:0:0:
64,192,13716,1,0,0:0:0:0:
192,192,13716,1,0,0:0:0:0:
320,192,13716,1,0,0:0:0:0:
448,192,13716,1,0,0:0:0:0:
320,192,13787,1,0,0:0:0:0:
448,192,13787,1,0,0:0:0:0:
64,192,13857,1,0,0:0:0:0:
192,192,13857,1,0,0:0:0:0:
320,192,13857,1,0,0:0:0:0:
448,192,13857,1,0,0:0:0:0:
64,192,13928,1,0,0:0:0:0:
192,192,13928,1,0,0:0:0:0:
448,192,13928,1,0,0:0:0:0:
64,192,13998,1,0,0:0:0:0:
192,192,13998,1,0,0:0:0:0:
320,192,13998,1,0,0:0:0:0:
448,192,13998,1,0,0:0:0:0:
192,192,14068,1,0,0:0:0:0:
320,192,14068,1,0,0:0:0:0:
64,192,14138,1,0,0:0:0:0:
320,192,14138,1,0,0:0:0:0:
448,192,14138,1,0,0:0:0:0:
64,192,14209,1,0,0:0:0:0:
192,192,14209,1,0,0:0:0:0:
64,192,14279,1,0,0:0:0:0:
192,192,14279,1,0,0:0:0:0:
320,192,14279,1,0,0:0:0:0:
448,192,14279,1,0,0:0:0:0:
320,192,14350,1,0,0:0:0:0:
448,192,14350,1,0,0:0:0:0:
64,192,14420,1,0,0:0:0:0:
192,192,14420,1,0,0:0:0:0:
320,192,14420,1,0,0:0:0:0:
448,192,14420,1,0,0:0:0:0:
64,192,14490,1,0,0:0:0:0:
192,192,14490,1,0,0:0:0:0:
320,192,14490,1,0,0:0:0:0:
64,192,14561,1,0,0:0:0:0:
192,192,14561,1,0,0:0:0:0:
320,192,14561,1,0,0:0:0:0:
448,192,14561,1,0,0:0:0:0:
64,192,14631,1,0,0:0:0:0:
448,192,14631,1,0,0:0:0:0:
64,192,14701,1,0,0:0:0:0:
192,192,14701,1,0,0:0:0:0:
320,192,14701,1,0,0:0:0:0:
192,192,14771,1,0,0:0:0:0:
448,192,14771,1,0,0:0:0:0:
64,192,14842,1,0,0:0:0:0:
192,192,14842,1,0,0:0:0:0:
320,192,14842,1,0,0:0:0:0:
448,192,14842,1,0,0:0:0:0:
64,192,14912,1,0,0:0:0:0:
320,192,14912,1,0,0:0:0:0:
64,192,14983,1,0,0:0:0:0:
192,192,14983,1,0,0:0:0:0:
320,192,14983,1,0,0:0:0:0:
448,192,14983,1,0,0:0:0:0:
192,192,15053,1,0,0:0:0:0:
320,192,15053,1,0,0:0:0:0:
448,192,15053,1,0,0:0:0:0:
64,192,15124,1,0,0:0:0:0:
192,192,15124,1,0,0:0:0:0:
320,192,15124,1,0,0:0:0:0:
448,192,15124,1,0,0:0:0:0:
64,192,15194,1,0,0:0:0:0:
192,192,15194,1,0,0:0:0:0:
64,192,15265,1,0,0:0:0:0:
320,192,15265,1,0,0:0:0:0:
448,192,15265,1,0,0:0:0:0:
192,192,15334,1,0,0:0:0:0:
448,192,15334,1,0,0:0:0:0:
64,192,15405,1,0,0:0:0:0:
192,192,15405,1,0,0:0:0:0:
320,192,15405,1,0,0:0:0:0:
448,192,15405,1,0,0:0:0:0:
320,192,15475,1,0,0:0:0:0:
448,192,15475,1,0,0:0:0:0:
64,192,15546,1,0,0:0:0:0:
192,192,15546,1,0,0:0:0:0:
320,192,15546,1,0,0:0:0:0:
448,192,15546,1,0,0:0:0:0:
64,192,15616,1,0,0:0:0:0:
192,192,15616,1,0,0:0:0:0:
320,192,15616,1,0,0:0:0:0:
64,192,15687,1,0,0:0:0:0:
192,192,15687,1,0,0:0:0:0:
320,192,15687,1,0,0:0:0:0:
448,192,15687,1,0,0:0:0:0:
64,192,15757,1,0,0:0:0:0:
448,192,15757,1,0,0:0:0:0:
192,192,15828,1,0,0:0:0:0:
320,192,15828,1,0,0:0:0:0:
448,192,15828,1,0,0:0:0:0:
64,192,15898,1,0,0:0:0:0:
320,192,15898,1,0,0:0:0:0:
64,192,15969,1,0,0:0:0:0:
192,192,15969,1,0,0:0:0:0:
320,192,15969,1,0,0:0:0:0:
448,192,15969,1,0,0:0:0:0:
192,192,16038,1,0,0:0:0:0:
320,192,16038,1,0,0:0:0:0:
64,192,16109,1,0,0:0:0:0:
192,192,16109,1,0,0:0:0:0:
320,192,16109,1,0,0:0:0:0:
448,192,16109,1,0,0:0:0:0:
64,192,16179,1,0,0:0:0:0:
192,192,16179,1,0,0:0:0:0:
448,192,16179,1,0,0:0:0:0:
64,192,16250,1,0,0:0:0:0:
192,192,16250,1,0,0:0:0:0:
320,192,16250,1,0,0:0:0:0:
448,192,16250,1,0,0:0:0:0:
320,192,16320,1,0,0:0:0:0:
448,192,16320,1,0,0:0:0:0:
64,192,16390,1,0,0:0:0:0:
192,192,16390,1,0,0:0:0:0:
448,192,16390,1,0,0:0:0:0:
192,192,16461,1,0,0:0:0:0:
320,192,16461,1,0,0:0:0:0:
64,192,16531,1,0,0:0:0:0:
192,192,16531,1,0,0:0:0:0:
320,192,16531,1,0,0:0:0:0:
448,192,16531,1,0,0:0:0:0:
64,192,16602,1,0,0:0:0:0:
448,192,16602,1,0,0:0:0:0:
64,192,16671,1,0,0:0:0:0:
192,192,16671,1,0,0:0:0:0:
320,192,16671,1,0,0:0:0:0:
448,192,16671,1,0,0:0:0:0:
64,192,16742,1,0,0:0:0:0:
192,192,16742,1,0,0:0:0:0:
320,192,16742,1,0,0:0:0:0:
64,192,16812,1,0,0:0:0:0:
192,192,16812,1,0,0:0:0:0:
320,192,16812,1,0,0:0:0:0:
448,192,16812,1,0,0:0:0:0:
192,192,16883,1,0,0:0:0:0:
448,192,16883,1,0,0:0:0:0:
64,192,16953,1,0,0:0:0:0:
192,192,16953,1,0,0:0:0:0:
320,192,16953,1,0,0:0:0:0:
448,192,16953,1,0,0:0:0:0:
64,192,17024,1,0,0:0:0:0:
192,192,17024,1,0,0:0:0:0:
320,192,17024,1,0,0:0:0:0:
64,192,17094,1,0,0:0:0:0:
320,192,17094,1,0,0:0:0:0:
448,192,17094,1,0,0:0:0:0:
64,192,17165,1,0,0:0:0:0:
192,192,17165,1,0,0:0:0:0:
448,192,17165,1,0,0:0:0:0:
64,192,17235,1,0,0:0:0:0:
192,192,17235,1,0,0:0:0:0:
320,192,17235,1,0,0:0:0:0:
448,192,17235,1,0,0:0:0:0:
192,192,17305,1,0,0:0:0:0:
320,192,17305,1,0,0:0:0:0:
448,192,17305,1,0,0:0:0:0:
64,192,17375,1,0,0:0:0:0:
320,192,17375,1,0,0:0:0:0:
448,192,17375,1,0,0:0:0:0:
64,192,17446,1,0,0:0:0:0:
192,192,17446,1,0,0:0:0:0:
320,192,17446,1,0,0:0:0:0:
64,192,17516,1,0,0:0:0:0:
192,192,17516,1,0,0:0:0:0:
320,192,17516,1,0,0:0:0:0:
448,192,17516,1,0,0:0:0:0:
64,192,17587,1,0,0:0:0:0:
192,192,17587,1,0,0:0:0:0:
320,192,17587,1,0,0:0:0:0:
448,192,17587,1,0,0:0:0:0:
64,192,17657,1,0,0:0:0:0:
192,192,17657,1,0,0:0:0:0:
320,192,17657,1,0,0:0:0:0:
448,192,17657,1,0,0:0:0:0:
64,192,17728,1,0,0:0:0:0:
192,192,17728,1,0,0:0:0:0:
320,192,17728,1,0,0:0:0:0:
448,192,17728,1,0,0:0:0:0:
64,192,17798,1,0,0:0:0:0:
192,192,17798,1,0,0:0:0:0:
320,192,17798,1,0,0:0:0:0:
448,192,17798,1,0,0:0:0:0:
64,192,17869,1,0,0:0:0:0:
192,192,17869,1,0,0:0:0:0:
320,192,17869,1,0,0:0:0:0:
448,192,17869,1,0,0:0:0:0:
64,192,17938,1,0,0:0:0:0:
192,192,17938,1,0,0:0:0:0:
320,192,17938,1,0,0:0:0:0:
448,192,17938,1,0,0:0:0:0:
64,192,18009,1,0,0:0:0:0:
192,192,18009,1,0,0:0:0:0:
320,192,18009,1,0,0:0:0:0:
448,192,18009,1,0,0:0:0:0:
64,192,18079,1,0,0:0:0:0:
192,192,18079,1,0,0:0:0:0:
320,192,18079,1,0,0:0:0:0:
448,192,18079,1,0,0:0:0:0:
64,192,18361,1,0,0:0:0:0:
192,192,18361,1,0,0:0:0:0:
320,192,18642,1,0,0:0:0:0:
192,192,18924,1,0,0:0:0:0:
320,192,18924,1,0,0:0:0:0:
320,192,19065,128,0,19346:0:0:0:0:
448,192,19065,1,0,0:0:0:0:
64,192,19487,1,0,0:0:0:0:
192,192,19487,1,0,0:0:0:0:
320,192,19769,1,0,0:0:0:0:
192,192,20050,1,0,0:0:0:0:
448,192,20050,1,0,0:0:0:0:
64,192,20331,128,0,20612:0:0:0:0:
192,192,20612,1,0,0:0:0:0:
64,192,20753,1,0,0:0:0:0:
320,192,20753,128,0,22020:0:0:0:0:
64,192,20894,1,0,0:0:0:0:
64,192,21035,1,0,0:0:0:0:
64,192,21175,1,0,0:0:0:0:
64,192,21316,1,0,0:0:0:0:
64,192,21457,1,0,0:0:0:0:
64,192,21598,1,0,0:0:0:0:
64,192,21739,1,0,0:0:0:0:
64,192,21879,1,0,0:0:0:0:
64,192,22020,1,0,0:0:0:0:
320,192,22302,1,0,0:0:0:0:
192,192,22583,1,0,0:0:0:0:
448,192,22583,1,0,0:0:0:0:
320,192,22865,1,0,0:0:0:0:
192,192,23006,1,0,0:0:0:0:
448,192,23287,128,0,23569:0:0:0:0:
64,192,23569,1,0,0:0:0:0:
192,192,23850,1,0,0:0:0:0:
448,192,23990,1,0,0:0:0:0:
192,192,24272,1,0,0:0:0:0:
320,192,24272,1,0,0:0:0:0:
64,192,24553,1,0,0:0:0:0:
448,192,24553,1,0,0:0:0:0:
192,192,24835,1,0,0:0:0:0:
320,192,25116,1,0,0:0:0:0:
64,192,25257,1,0,0:0:0:0:
192,192,25257,128,0,26453:0:0:0:0:
448,192,25398,1,0,0:0:0:0:
448,192,25539,1,0,0:0:0:0:
448,192,25680,1,0,0:0:0:0:
448,192,25820,1,0,0:0:0:0:
448,192,25961,1,0,0:0:0:0:
448,192,26102,1,0,0:0:0:0:
448,192,26243,1,0,0:0:0:0:
448,192,26383,1,0,0:0:0:0:
64,192,26524,1,0,0:0:0:0:
192,192,26524,1,0,0:0:0:0:
320,192,26524,1,0,0:0:0:0:
448,192,26524,1,0,0:0:0:0:
320,192,26665,1,0,0:0:0:0:
448,192,26665,1,0,0:0:0:0:
64,192,26735,1,0,0:0:0:0:
192,192,26735,1,0,0:0:0:0:
64,192,26806,1,0,0:0:0:0:
192,192,26806,1,0,0:0:0:0:
320,192,26806,1,0,0:0:0:0:
448,192,26806,1,0,0:0:0:0:
64,192,26876,1,0,0:0:0:0:
320,192,26876,1,0,0:0:0:0:
448,192,26876,1,0,0:0:0:0:
64,192,26947,1,0,0:0:0:0:
192,192,26947,1,0,0:0:0:0:
320,192,26947,1,0,0:0:0:0:
448,192,26947,1,0,0:0:0:0:
192,192,27016,1,0,0:0:0:0:
320,192,27016,1,0,0:0:0:0:
448,192,27016,1,0,0:0:0:0:
64,192,27087,1,0,0:0:0:0:
192,192,27087,1,0,0:0:0:0:
320,192,27087,1,0,0:0:0:0:
448,192,27087,1,0,0:0:0:0:
64,192,27157,1,0,0:0:0:0:
192,192,27157,1,0,0:0:0:0:
64,192,27228,1,0,0:0:0:0:
192,192,27228,1,0,0:0:0:0:
320,192,27228,1,0,0:0:0:0:
448,192,27228,1,0,0:0:0:0:
320,192,27298,1,0,0:0:0:0:
448,192,27298,1,0,0:0:0:0:
64,192,27369,1,0,0:0:0:0:
192,192,27369,1,0,0:0:0:0:
320,192,27369,1,0,0:0:0:0:
448,192,27369,1,0,0:0:0:0:
64,192,27439,1,0,0:0:0:0:
448,192,27439,1,0,0:0:0:0:
64,192,27510,1,0,0:0:0:0:
192,192,27510,1,0,0:0:0:0:
320,192,27510,1,0,0:0:0:0:
448,192,27510,1,0,0:0:0:0:
192,192,27580,1,0,0:0:0:0:
320,192,27580,1,0,0:0:0:0:
64,192,27650,1,0,0:0:0:0:
320,192,27650,1,0,0:0:0:0:
448,192,27650,1,0,0:0:0:0:
192,192,27720,1,0,0:0:0:0:
448,192,27720,1,0,0:0:0:0:
64,192,27790,1,0,0:0:0:0:
192,192,27790,1,0,0:0:0:0:
320,192,27790,1,0,0:0:0:0:
448,192,27790,1,0,0:0:0:0:
64,192,27861,1,0,0:0:0:0:
192,192,27861,1,0,0:0:0:0:
64,192,27931,1,0,0:0:0:0:
192,192,27931,1,0,0:0:0:0:
320,192,27931,1,0,0:0:0:0:
448,192,27931,1,0,0:0:0:0:
64,192,28002,1,0,0:0:0:0:
448,192,28002,1,0,0:0:0:0:
64,192,28072,1,0,0:0:0:0:
192,192,28072,1,0,0:0:0:0:
320,192,28072,1,0,0:0:0:0:
448,192,28072,1,0,0:0:0:0:
320,192,28143,1,0,0:0:0:0:
448,192,28143,1,0,0:0:0:0:
64,192,28213,1,0,0:0:0:0:
192,192,28213,1,0,0:0:0:0:
320,192,28213,1,0,0:0:0:0:
64,192,28284,1,0,0:0:0:0:
448,192,28284,1,0,0:0:0:0:
64,192,28353,1,0,0:0:0:0:
192,192,28353,1,0,0:0:0:0:
320,192,28353,1,0,0:0:0:0:
448,192,28353,1,0,0:0:0:0:
192,192,28424,1,0,0:0:0:0:
320,192,28424,1,0,0:0:0:0:
64,192,28494,1,0,0:0:0:0:
192,192,28494,1,0,0:0:0:0:
320,192,28494,1,0,0:0:0:0:
448,192,28494,1,0,0:0:0:0:
320,192,28565,1,0,0:0:0:0:
448,192,28565,1,0,0:0:0:0:
64,192,28635,1,0,0:0:0:0:
192,192,28635,1,0,0:0:0:0:
320,192,28635,1,0,0:0:0:0:
448,192,28635,1,0,0:0:0:0:
64,192,28706,1,0,0:0:0:0:
192,192,28706,1,0,0:0:0:0:
64,192,28776,1,0,0:0:0:0:
320,192,28776,1,0,0:0:0:0:
448,192,28776,1,0,0:0:0:0:
192,192,28847,1,0,0:0:0:0:
448,192,28847,1,0,0:0:0:0:
64,192,28917,1,0,0:0:0:0:
192,192,28917,1,0,0:0:0:0:
320,192,28917,1,0,0:0:0:0:
448,192,28917,1,0,0:0:0:0:
64,192,28987,1,0,0:0:0:0:
320,192,28987,1,0,0:0:0:0:
64,192,29057,1,0,0:0:0:0:
192,192,29057,1,0,0:0:0:0:
320,192,29057,1,0,0:0:0:0:
448,192,29057,1,0,0:0:0:0:
64,192,29128,1,0,0:0:0:0:
192,192,29128,1,0,0:0:0:0:
64,192,29198,1,0,0:0:0:0:
192,192,29198,1,0,0:0:0:0:
320,192,29198,1,0,0:0:0:0:
448,192,29198,1,0,0:0:0:0:
320,192,29269,1,0,0:0:0:0:
448,192,29269,1,0,0:0:0:0:
64,192,29339,1,0,0:0:0:0:
192,192,29339,1,0,0:0:0:0:
448,192,29339,1,0,0:0:0:0:
192,192,29410,1,0,0:0:0:0:
320,192,29410,1,0,0:0:0:0:
64,192,29480,1,0,0:0:0:0:
192,192,29480,1,0,0:0:0:0:
320,192,29480,1,0,0:0:0:0:
448,192,29480,1,0,0:0:0:0:
64,192,29550,1,0,0:0:0:0:
448,192,29550,1,0,0:0:0:0:
64,192,29620,1,0,0:0:0:0:
192,192,29620,1,0,0:0:0:0:
320,192,29620,1,0,0:0:0:0:
448,192,29620,1,0,0:0:0:0:
64,192,29690,1,0,0:0:0:0:
192,192,29690,1,0,0:0:0:0:
64,192,29761,1,0,0:0:0:0:
192,192,29761,1,0,0:0:0:0:
320,192,29761,1,0,0:0:0:0:
448,192,29761,1,0,0:0:0:0:
320,192,29831,1,0,0:0:0:0:
448,192,29831,1,0,0:0:0:0:
64,192,29902,1,0,0:0:0:0:
192,192,29902,1,0,0:0:0:0:
320,192,29902,1,0,0:0:0:0:
192,192,29972,1,0,0:0:0:0:
448,192,29972,1,0,0:0:0:0:
64,192,30043,1,0,0:0:0:0:
192,192,30043,1,0,0:0:0:0:
320,192,30043,1,0,0:0:0:0:
448,192,30043,1,0,0:0:0:0:
64,192,30113,1,0,0:0:0:0:
320,192,30113,1,0,0:0:0:0:
64,192,30184,1,0,0:0:0:0:
192,192,30184,1,0,0:0:0:0:
320,192,30184,1,0,0:0:0:0:
448,192,30184,1,0,0:0:0:0:
64,192,30254,1,0,0:0:0:0:
192,192,30254,1,0,0:0:0:0:
64,192,30324,1,0,0:0:0:0:
192,192,30324,1,0,0:0:0:0:
320,192,30324,1,0,0:0:0:0:
448,192,30324,1,0,0:0:0:0:
192,192,30394,1,0,0:0:0:0:
448,192,30394,1,0,0:0:0:0:
64,192,30465,1,0,0:0:0:0:
192,192,30465,1,0,0:0:0:0:
320,192,30465,1,0,0:0:0:0:
64,192,30535,1,0,0:0:0:0:
448,192,30535,1,0,0:0:0:0:
64,192,30606,1,0,0:0:0:0:
192,192,30606,1,0,0:0:0:0:
320,192,30606,1,0,0:0:0:0:
448,192,30606,1,0,0:0:0:0:
192,192,30676,1,0,0:0:0:0:
320,192,30676,1,0,0:0:0:0:
64,192,30747,1,0,0:0:0:0:
192,192,30747,1,0,0:0:0:0:
320,192,30747,1,0,0:0:0:0:
448,192,30747,1,0,0:0:0:0:
320,192,30817,1,0,0:0:0:0:
448,192,30817,1,0,0:0:0:0:
64,192,30888,1,0,0:0:0:0:
192,192,30888,1,0,0:0:0:0:
320,192,30888,1,0,0:0:0:0:
448,192,30888,1,0,0:0:0:0:
64,192,30957,1,0,0:0:0:0:
448,192,30957,1,0,0:0:0:0:
192,192,31028,1,0,0:0:0:0:
320,192,31028,1,0,0:0:0:0:
448,192,31028,1,0,0:0:0:0:
64,192,31098,1,0,0:0:0:0:
192,192,31098,1,0,0:0:0:0:
64,192,31169,1,0,0:0:0:0:
192,192,31169,1,0,0:0:0:0:
320,192,31169,1,0,0:0:0:0:
448,192,31169,1,0,0:0:0:0:
320,192,31239,1,0,0:0:0:0:
448,192,31239,1,0,0:0:0:0:
64,192,31310,1,0,0:0:0:0:
192,192,31310,1,0,0:0:0:0:
320,192,31310,1,0,0:0:0:0:
448,192,31310,1,0,0:0:0:0:
64,192,31380,1,0,0:0:0:0:
448,192,31380,1,0,0:0:0:0:
64,192,31450,1,0,0:0:0:0:
192,192,31450,1,0,0:0:0:0:
320,192,31450,1,0,0:0:0:0:
448,192,31450,1,0,0:0:0:0:
64,192,31521,1,0,0:0:0:0:
192,192,31521,1,0,0:0:0:0:
320,192,31521,1,0,0:0:0:0:
64,192,31590,1,0,0:0:0:0:
192,192,31590,1,0,0:0:0:0:
448,192,31590,1,0,0:0:0:0:
192,192,31661,1,0,0:0:0:0:
320,192,31661,1,0,0:0:0:0:
448,192,31661,1,0,0:0:0:0:
64,192,31731,1,0,0:0:0:0:
192,192,31731,1,0,0:0:0:0:
320,192,31731,1,0,0:0:0:0:
448,192,31731,1,0,0:0:0:0:
64,192,31802,1,0,0:0:0:0:
448,192,31802,1,0,0:0:0:0:
64,192,31872,1,0,0:0:0:0:
192,192,31872,1,0,0:0:0:0:
320,192,31872,1,0,0:0:0:0:
448,192,31872,1,0,0:0:0:0:
192,192,31943,1,0,0:0:0:0:
320,192,31943,1,0,0:0:0:0:
64,192,32013,1,0,0:0:0:0:
192,192,32013,1,0,0:0:0:0:
320,192,32013,1,0,0:0:0:0:
448,192,32013,1,0,0:0:0:0:
320,192,32084,1,0,0:0:0:0:
448,192,32084,1,0,0:0:0:0:
64,192,32154,1,0,0:0:0:0:
192,192,32154,1,0,0:0:0:0:
320,192,32154,1,0,0:0:0:0:
64,192,32224,1,0,0:0:0:0:
448,192,32224,1,0,0:0:0:0:
64,192,32294,1,0,0:0:0:0:
192,192,32294,1,0,0:0:0:0:
320,192,32294,1,0,0:0:0:0:
448,192,32294,1,0,0:0:0:0:
64,192,32365,1,0,0:0:0:0:
192,192,32365,1,0,0:0:0:0:
64,192,32435,1,0,0:0:0:0:
192,192,32435,1,0,0:0:0:0:
320,192,32435,1,0,0:0:0:0:
448,192,32435,1,0,0:0:0:0:
320,192,32506,1,0,0:0:0:0:
448,192,32506,1,0,0:0:0:0:
64,192,32576,1,0,0:0:0:0:
192,192,32576,1,0,0:0:0:0:
320,192,32576,1,0,0:0:0:0:
448,192,32576,1,0,0:0:0:0:
64,192,32647,1,0,0:0:0:0:
320,192,32647,1,0,0:0:0:0:
64,192,32717,1,0,0:0:0:0:
192,192,32717,1,0,0:0:0:0:
448,192,32717,1,0,0:0:0:0:
192,192,32788,1,0,0:0:0:0:
320,192,32788,1,0,0:0:0:0:
64,192,32857,1,0,0:0:0:0:
192,192,32857,1,0,0:0:0:0:
320,192,32857,1,0,0:0:0:0:
448,192,32857,1,0,0:0:0:0:
64,192,32928,1,0,0:0:0:0:
192,192,32928,1,0,0:0:0:0:
64,192,32998,1,0,0:0:0:0:
192,192,32998,1,0,0:0:0:0:
320,192,32998,1,0,0:0:0:0:
448,192,32998,1,0,0:0:0:0:
320,192,33069,1,0,0:0:0:0:
448,192,33069,1,0,0:0:0:0:
64,192,33139,1,0,0:0:0:0:
192,192,33139,1,0,0:0:0:0:
320,192,33139,1,0,0:0:0:0:
448,192,33139,1,0,0:0:0:0:
192,192,33210,1,0,0:0:0:0:
448,192,33210,1,0,0:0:0:0:
64,192,33280,1,0,0:0:0:0:
320,192,33280,1,0,0:0:0:0:
448,192,33280,1,0,0:0:0:0:
64,192,33350,1,0,0:0:0:0:
192,192,33350,1,0,0:0:0:0:
64,192,33421,1,0,0:0:0:0:
192,192,33421,1,0,0:0:0:0:
320,192,33421,1,0,0:0:0:0:
448,192,33421,1,0,0:0:0:0:
64,192,33491,1,0,0:0:0:0:
448,192,33491,1,0,0:0:0:0:
64,192,33561,1,0,0:0:0:0:
192,192,33561,1,0,0:0:0:0:
320,192,33561,1,0,0:0:0:0:
448,192,33561,1,0,0:0:0:0:
192,192,33631,1,0,0:0:0:0:
448,192,33631,1,0,0:0:0:0:
64,192,33702,1,0,0:0:0:0:
192,192,33702,1,0,0:0:0:0:
320,192,33702,1,0,0:0:0:0:
448,192,33702,1,0,0:0:0:0:
64,192,33772,1,0,0:0:0:0:
192,192,33772,1,0,0:0:0:0:
192,192,33843,1,0,0:0:0:0:
320,192,33843,1,0,0:0:0:0:
448,192,33843,1,0,0:0:0:0:
64,192,33913,1,0,0:0:0:0:
448,192,33913,1,0,0:0:0:0:
64,192,33984,1,0,0:0:0:0:
192,192,33984,1,0,0:0:0:0:
320,192,33984,1,0,0:0:0:0:
448,192,33984,1,0,0:0:0:0:
192,192,34054,1,0,0:0:0:0:
320,192,34054,1,0,0:0:0:0:
64,192,34125,1,0,0:0:0:0:
192,192,34125,1,0,0:0:0:0:
320,192,34125,1,0,0:0:0:0:
448,192,34125,1,0,0:0:0:0:
64,192,34194,1,0,0:0:0:0:
192,192,34194,1,0,0:0:0:0:
64,192,34265,1,0,0:0:0:0:
192,192,34265,1,0,0:0:0:0:
320,192,34265,1,0,0:0:0:0:
448,192,34265,1,0,0:0:0:0:
320,192,34335,1,0,0:0:0:0:
448,192,34335,1,0,0:0:0:0:
64,192,34406,1,0,0:0:0:0:
192,192,34406,1,0,0:0:0:0:
448,192,34406,1,0,0:0:0:0:
64,192,34476,1,0,0:0:0:0:
320,192,34476,1,0,0:0:0:0:
64,192,34547,1,0,0:0:0:0:
192,192,34547,1,0,0:0:0:0:
320,192,34547,1,0,0:0:0:0:
448,192,34547,1,0,0:0:0:0:
192,192,34617,1,0,0:0:0:0:
448,192,34617,1,0,0:0:0:0:
64,192,34688,1,0,0:0:0:0:
192,192,34688,1,0,0:0:0:0:
320,192,34688,1,0,0:0:0:0:
448,192,34688,1,0,0:0:0:0:
320,192,34758,1,0,0:0:0:0:
448,192,34758,1,0,0:0:0:0:
64,192,34828,1,0,0:0:0:0:
192,192,34828,1,0,0:0:0:0:
320,192,34828,1,0,0:0:0:0:
448,192,34828,1,0,0:0:0:0:
64,192,34898,1,0,0:0:0:0:
192,192,34898,1,0,0:0:0:0:
64,192,34969,1,0,0:0:0:0:
320,192,34969,1,0,0:0:0:0:
448,192,34969,1,0,0:0:0:0:
192,192,35039,1,0,0:0:0:0:
448,192,35039,1,0,0:0:0:0:
64,192,35110,1,0,0:0:0:0:
192,192,35110,1,0,0:0:0:0:
320,192,35110,1,0,0:0:0:0:
448,192,35110,1,0,0:0:0:0:
64,192,35180,1,0,0:0:0:0:
320,192,35180,1,0,0:0:0:0:
64,192,35250,1,0,0:0:0:0:
192,192,35250,1,0,0:0:0:0:
320,192,35250,1,0,0:0:0:0:
448,192,35250,1,0,0:0:0:0:
192,192,35321,1,0,0:0:0:0:
448,192,35321,1,0,0:0:0:0:
64,192,35391,1,0,0:0:0:0:
192,192,35391,1,0,0:0:0:0:
320,192,35391,1,0,0:0:0:0:
448,192,35391,1,0,0:0:0:0:
64,192,35461,1,0,0:0:0:0:
320,192,35461,1,0,0:0:0:0:
64,192,35531,1,0,0:0:0:0:
192,192,35531,1,0,0:0:0:0:
448,192,35531,1,0,0:0:0:0:
320,192,35602,1,0,0:0:0:0:
448,192,35602,1,0,0:0:0:0:
64,192,35672,1,0,0:0:0:0:
192,192,35672,1,0,0:0:0:0:
320,192,35672,1,0,0:0:0:0:
448,192,35672,1,0,0:0:0:0:
64,192,35743,1,0,0:0:0:0:
192,192,35743,1,0,0:0:0:0:
64,192,35813,1,0,0:0:0:0:
192,192,35813,1,0,0:0:0:0:
320,192,35813,1,0,0:0:0:0:
448,192,35813,1,0,0:0:0:0:
64,192,35884,1,0,0:0:0:0:
192,192,35884,1,0,0:0:0:0:
320,192,35884,1,0,0:0:0:0:
448,192,35884,1,0,0:0:0:0:
64,192,35954,1,0,0:0:0:0:
192,192,35954,1,0,0:0:0:0:
320,192,35954,1,0,0:0:0:0:
448,192,35954,1,0,0:0:0:0:
64,192,36025,1,0,0:0:0:0:
192,192,36025,1,0,0:0:0:0:
320,192,36025,1,0,0:0:0:0:
448,192,36025,1,0,0:0:0:0:
64,192,36095,1,0,0:0:0:0:
192,192,36095,1,0,0:0:0:0:
320,192,36095,1,0,0:0:0:0:
448,192,36095,1,0,0:0:0:0:
192,192,36235,1,0,0:0:0:0:
64,192,36376,1,0,0:0:0:0:
192,192,36376,1,0,0:0:0:0:
320,192,36376,1,0,0:0:0:0:
448,192,36376,1,0,0:0:0:0:
64,192,36447,1,0,0:0:0:0:
192,192,36447,1,0,0:0:0:0:
64,192,36517,1,0,0:0:0:0:
192,192,36517,1,0,0:0:0:0:
320,192,36517,1,0,0:0:0:0:
448,192,36517,1,0,0:0:0:0:
64,192,36588,1,0,0:0:0:0:
192,192,36588,1,0,0:0:0:0:
64,192,36658,1,0,0:0:0:0:
192,192,36658,1,0,0:0:0:0:
320,192,36658,1,0,0:0:0:0:
448,192,36658,1,0,0:0:0:0:
320,192,36729,1,0,0:0:0:0:
448,192,36729,1,0,0:0:0:0:
64,192,36798,1,0,0:0:0:0:
192,192,36798,1,0,0:0:0:0:
320,192,36798,1,0,0:0:0:0:
448,192,36798,1,0,0:0:0:0:
320,192,36869,1,0,0:0:0:0:
448,192,36869,1,0,0:0:0:0:
64,192,36939,1,0,0:0:0:0:
192,192,36939,1,0,0:0:0:0:
320,192,36939,1,0,0:0:0:0:
448,192,36939,1,0,0:0:0:0:
64,192,37080,1,0,0:0:0:0:
448,192,37080,1,0,0:0:0:0:
64,192,37221,1,0,0:0:0:0:
192,192,37221,1,0,0:0:0:0:
320,192,37221,1,0,0:0:0:0:
448,192,37221,1,0,0:0:0:0:
192,192,37362,1,0,0:0:0:0:
320,192,37362,1,0,0:0:0:0:
64,192,37502,1,0,0:0:0:0:
192,192,37502,1,0,0:0:0:0:
320,192,37502,1,0,0:0:0:0:
448,192,37502,1,0,0:0:0:0:
320,192,37572,1,0,0:0:0:0:
448,192,37572,1,0,0:0:0:0:
64,192,37643,1,0,0:0:0:0:
192,192,37643,1,0,0:0:0:0:
320,192,37643,1,0,0:0:0:0:
448,192,37643,1,0,0:0:0:0:
320,192,37713,1,0,0:0:0:0:
448,192,37713,1,0,0:0:0:0:
64,192,37784,1,0,0:0:0:0:
192,192,37784,1,0,0:0:0:0:
320,192,37784,1,0,0:0:0:0:
448,192,37784,1,0,0:0:0:0:
64,192,37854,1,0,0:0:0:0:
192,192,37854,1,0,0:0:0:0:
64,192,37925,1,0,0:0:0:0:
192,192,37925,1,0,0:0:0:0:
320,192,37925,1,0,0:0:0:0:
448,192,37925,1,0,0:0:0:0:
64,192,37995,1,0,0:0:0:0:
192,192,37995,1,0,0:0:0:0:
64,192,38065,1,0,0:0:0:0:
192,192,38065,1,0,0:0:0:0:
320,192,38065,1,0,0:0:0:0:
448,192,38065,1,0,0:0:0:0:
192,192,38206,1,0,0:0:0:0:
320,192,38206,1,0,0:0:0:0:
64,192,38347,1,0,0:0:0:0:
192,192,38347,1,0,0:0:0:0:
320,192,38347,1,0,0:0:0:0:
448,192,38347,1,0,0:0:0:0:
64,192,38417,1,0,0:0:0:0:
192,192,38417,1,0,0:0:0:0:
64,192,38488,1,0,0:0:0:0:
192,192,38488,1,0,0:0:0:0:
320,192,38488,1,0,0:0:0:0:
448,192,38488,1,0,0:0:0:0:
64,192,38558,1,0,0:0:0:0:
448,192,38558,1,0,0:0:0:0:
64,192,38629,1,0,0:0:0:0:
192,192,38629,1,0,0:0:0:0:
320,192,38629,1,0,0:0:0:0:
448,192,38629,1,0,0:0:0:0:
320,192,38699,1,0,0:0:0:0:
448,192,38699,1,0,0:0:0:0:
64,192,38769,1,0,0:0:0:0:
192,192,38769,1,0,0:0:0:0:
320,192,38769,1,0,0:0:0:0:
448,192,38769,1,0,0:0:0:0:
64,192,38839,1,0,0:0:0:0:
192,192,38839,1,0,0:0:0:0:
64,192,38910,1,0,0:0:0:0:
320,192,38910,1,0,0:0:0:0:
448,192,38910,1,0,0:0:0:0:
192,192,38980,1,0,0:0:0:0:
448,192,38980,1,0,0:0:0:0:
64,192,39050,1,0,0:0:0:0:
192,192,39050,1,0,0:0:0:0:
320,192,39050,1,0,0:0:0:0:
448,192,39050,1,0,0:0:0:0:
64,192,39121,1,0,0:0:0:0:
320,192,39121,1,0,0:0:0:0:
64,192,39191,1,0,0:0:0:0:
192,192,39191,1,0,0:0:0:0:
320,192,39191,1,0,0:0:0:0:
448,192,39191,1,0,0:0:0:0:
64,192,39262,1,0,0:0:0:0:
192,192,39262,1,0,0:0:0:0:
64,192,39332,1,0,0:0:0:0:
192,192,39332,1,0,0:0:0:0:
320,192,39332,1,0,0:0:0:0:
448,192,39332,1,0,0:0:0:0:
320,192,39402,1,0,0:0:0:0:
448,192,39402,1,0,0:0:0:0:
64,192,39472,1,0,0:0:0:0:
192,192,39472,1,0,0:0:0:0:
320,192,39472,1,0,0:0:0:0:
64,192,39543,1,0,0:0:0:0:
448,192,39543,1,0,0:0:0:0:
64,192,39613,1,0,0:0:0:0:
192,192,39613,1,0,0:0:0:0:
320,192,39613,1,0,0:0:0:0:
448,192,39613,1,0,0:0:0:0:
192,192,39684,1,0,0:0:0:0:
320,192,39684,1,0,0:0:0:0:
64,192,39754,1,0,0:0:0:0:
192,192,39754,1,0,0:0:0:0:
320,192,39754,1,0,0:0:0:0:
448,192,39754,1,0,0:0:0:0:
64,192,39825,1,0,0:0:0:0:
192,192,39825,1,0,0:0:0:0:
64,192,39895,1,0,0:0:0:0:
192,192,39895,1,0,0:0:0:0:
320,192,39895,1,0,0:0:0:0:
448,192,39895,1,0,0:0:0:0:
320,192,39966,1,0,0:0:0:0:
448,192,39966,1,0,0:0:0:0:
64,192,40035,1,0,0:0:0:0:
192,192,40035,1,0,0:0:0:0:
448,192,40035,1,0,0:0:0:0:
64,192,40106,1,0,0:0:0:0:
320,192,40106,1,0,0:0:0:0:
64,192,40176,1,0,0:0:0:0:
192,192,40176,1,0,0:0:0:0:
320,192,40176,1,0,0:0:0:0:
448,192,40176,1,0,0:0:0:0:
64,192,40247,1,0,0:0:0:0:
192,192,40247,1,0,0:0:0:0:
320,192,40247,1,0,0:0:0:0:
64,192,40317,1,0,0:0:0:0:
192,192,40317,1,0,0:0:0:0:
320,192,40317,1,0,0:0:0:0:
448,192,40317,1,0,0:0:0:0:
192,192,40388,1,0,0:0:0:0:
320,192,40388,1,0,0:0:0:0:
448,192,40388,1,0,0:0:0:0:
64,192,40458,1,0,0:0:0:0:
192,192,40458,1,0,0:0:0:0:
320,192,40458,1,0,0:0:0:0:
448,192,40458,1,0,0:0:0:0:
64,192,40529,1,0,0:0:0:0:
448,192,40529,1,0,0:0:0:0:
64,192,40599,1,0,0:0:0:0:
192,192,40599,1,0,0:0:0:0:
320,192,40599,1,0,0:0:0:0:
448,192,40599,1,0,0:0:0:0:
192,192,40739,1,0,0:0:0:0:
448,192,40739,1,0,0:0:0:0:
64,192,40880,1,0,0:0:0:0:
192,192,40880,1,0,0:0:0:0:
320,192,40880,1,0,0:0:0:0:
448,192,40880,1,0,0:0:0:0:
320,192,40950,1,0,0:0:0:0:
448,192,40950,1,0,0:0:0:0:
64,192,41021,1,0,0:0:0:0:
192,192,41021,1,0,0:0:0:0:
320,192,41021,1,0,0:0:0:0:
448,192,41021,1,0,0:0:0:0:
320,192,41091,1,0,0:0:0:0:
448,192,41091,1,0,0:0:0:0:
64,192,41162,1,0,0:0:0:0:
192,192,41162,1,0,0:0:0:0:
320,192,41162,1,0,0:0:0:0:
448,192,41162,1,0,0:0:0:0:
64,192,41232,1,0,0:0:0:0:
192,192,41232,1,0,0:0:0:0:
64,192,41302,1,0,0:0:0:0:
192,192,41302,1,0,0:0:0:0:
320,192,41302,1,0,0:0:0:0:
448,192,41302,1,0,0:0:0:0:
64,192,41372,1,0,0:0:0:0:
192,192,41372,1,0,0:0:0:0:
64,192,41443,1,0,0:0:0:0:
192,192,41443,1,0,0:0:0:0:
320,192,41443,1,0,0:0:0:0:
448,192,41443,1,0,0:0:0:0:
64,192,41584,1,0,0:0:0:0:
448,192,41584,1,0,0:0:0:0:
64,192,41725,1,0,0:0:0:0:
192,192,41725,1,0,0:0:0:0:
320,192,41725,1,0,0:0:0:0:
448,192,41725,1,0,0:0:0:0:
192,192,41866,1,0,0:0:0:0:
320,192,41866,1,0,0:0:0:0:
64,192,42006,1,0,0:0:0:0:
192,192,42006,1,0,0:0:0:0:
320,192,42006,1,0,0:0:0:0:
448,192,42006,1,0,0:0:0:0:
320,192,42076,1,0,0:0:0:0:
448,192,42076,1,0,0:0:0:0:
64,192,42147,1,0,0:0:0:0:
192,192,42147,1,0,0:0:0:0:
320,192,42147,1,0,0:0:0:0:
448,192,42147,1,0,0:0:0:0:
320,192,42217,1,0,0:0:0:0:
448,192,42217,1,0,0:0:0:0:
64,192,42288,1,0,0:0:0:0:
192,192,42288,1,0,0:0:0:0:
320,192,42288,1,0,0:0:0:0:
448,192,42288,1,0,0:0:0:0:
64,192,42358,1,0,0:0:0:0:
192,192,42358,1,0,0:0:0:0:
64,192,42429,1,0,0:0:0:0:
192,192,42429,1,0,0:0:0:0:
320,192,42429,1,0,0:0:0:0:
448,192,42429,1,0,0:0:0:0:
64,192,42499,1,0,0:0:0:0:
192,192,42499,1,0,0:0:0:0:
64,192,42570,1,0,0:0:0:0:
192,192,42570,1,0,0:0:0:0:
320,192,42570,1,0,0:0:0:0:
448,192,42570,1,0,0:0:0:0:
192,192,42710,1,0,0:0:0:0:
320,192,42710,1,0,0:0:0:0:
64,192,42850,1,0,0:0:0:0:
192,192,42850,1,0,0:0:0:0:
320,192,42850,1,0,0:0:0:0:
448,192,42850,1,0,0:0:0:0:
64,192,42921,1,0,0:0:0:0:
192,192,42921,1,0,0:0:0:0:
64,192,42991,1,0,0:0:0:0:
192,192,42991,1,0,0:0:0:0:
320,192,42991,1,0,0:0:0:0:
448,192,42991,1,0,0:0:0:0:
64,192,43062,1,0,0:0:0:0:
448,192,43062,1,0,0:0:0:0:
64,192,43132,1,0,0:0:0:0:
192,192,43132,1,0,0:0:0:0:
320,192,43132,1,0,0:0:0:0:
448,192,43132,1,0,0:0:0:0:
192,192,43203,1,0,0:0:0:0:
320,192,43203,1,0,0:0:0:0:
64,192,43272,1,0,0:0:0:0:
192,192,43272,1,0,0:0:0:0:
320,192,43272,1,0,0:0:0:0:
448,192,43272,1,0,0:0:0:0:
320,192,43343,1,0,0:0:0:0:
448,192,43343,1,0,0:0:0:0:
64,192,43413,1,0,0:0:0:0:
192,192,43413,1,0,0:0:0:0:
448,192,43413,1,0,0:0:0:0:
64,192,43484,1,0,0:0:0:0:
320,192,43484,1,0,0:0:0:0:
64,192,43554,1,0,0:0:0:0:
192,192,43554,1,0,0:0:0:0:
320,192,43554,1,0,0:0:0:0:
448,192,43554,1,0,0:0:0:0:
64,192,43625,1,0,0:0:0:0:
192,192,43625,1,0,0:0:0:0:
64,192,43695,1,0,0:0:0:0:
192,192,43695,1,0,0:0:0:0:
320,192,43695,1,0,0:0:0:0:
448,192,43695,1,0,0:0:0:0:
192,192,43766,1,0,0:0:0:0:
448,192,43766,1,0,0:0:0:0:
64,192,43836,1,0,0:0:0:0:
192,192,43836,1,0,0:0:0:0:
320,192,43836,1,0,0:0:0:0:
448,192,43836,1,0,0:0:0:0:
64,192,43906,1,0,0:0:0:0:
320,192,43906,1,0,0:0:0:0:
448,192,43906,1,0,0:0:0:0:
64,192,43976,1,0,0:0:0:0:
192,192,43976,1,0,0:0:0:0:
320,192,43976,1,0,0:0:0:0:
192,192,44047,1,0,0:0:0:0:
320,192,44047,1,0,0:0:0:0:
448,192,44047,1,0,0:0:0:0:
64,192,44117,1,0,0:0:0:0:
320,192,44117,1,0,0:0:0:0:
448,192,44117,1,0,0:0:0:0:
64,192,44188,1,0,0:0:0:0:
192,192,44188,1,0,0:0:0:0:
448,192,44188,1,0,0:0:0:0:
64,192,44258,1,0,0:0:0:0:
192,192,44258,1,0,0:0:0:0:
320,192,44258,1,0,0:0:0:0:
448,192,44258,1,0,0:0:0:0:
192,192,44329,1,0,0:0:0:0:
320,192,44329,1,0,0:0:0:0:
448,192,44329,1,0,0:0:0:0:
64,192,44399,1,0,0:0:0:0:
192,192,44399,1,0,0:0:0:0:
448,192,44399,1,0,0:0:0:0:
64,192,44470,1,0,0:0:0:0:
192,192,44470,1,0,0:0:0:0:
320,192,44470,1,0,0:0:0:0:
64,192,44540,1,0,0:0:0:0:
192,192,44540,1,0,0:0:0:0:
320,192,44540,1,0,0:0:0:0:
448,192,44540,1,0,0:0:0:0:
64,192,44610,1,0,0:0:0:0:
320,192,44610,1,0,0:0:0:0:
448,192,44610,1,0,0:0:0:0:
64,192,44680,1,0,0:0:0:0:
192,192,44680,1,0,0:0:0:0:
320,192,44680,1,0,0:0:0:0:
448,192,44680,1,0,0:0:0:0:
64,192,44750,1,0,0:0:0:0:
192,192,44750,1,0,0:0:0:0:
320,192,44750,1,0,0:0:0:0:
448,192,44750,1,0,0:0:0:0:
64,192,44821,1,0,0:0:0:0:
192,192,44821,1,0,0:0:0:0:
320,192,44821,1,0,0:0:0:0:
448,192,44821,1,0,0:0:0:0:
320,192,44891,1,0,0:0:0:0:
448,192,44891,1,0,0:0:0:0:
64,192,44962,1,0,0:0:0:0:
192,192,44962,1,0,0:0:0:0:
320,192,44962,1,0,0:0:0:0:
448,192,44962,1,0,0:0:0:0:
64,192,45032,1,0,0:0:0:0:
192,192,45032,1,0,0:0:0:0:
320,192,45032,1,0,0:0:0:0:
448,192,45032,1,0,0:0:0:0:
64,192,45103,1,0,0:0:0:0:
192,192,45103,1,0,0:0:0:0:
320,192,45103,1,0,0:0:0:0:
448,192,45103,1,0,0:0:0:0:
64,192,45313,1,0,0:0:0:0:
192,192,45313,1,0,0:0:0:0:
320,192,45313,1,0,0:0:0:0:
192,192,45525,1,0,0:0:0:0:
320,192,45525,1,0,0:0:0:0:
448,192,45525,1,0,0:0:0:0:
64,192,45666,1,0,0:0:0:0:
192,192,45666,1,0,0:0:0:0:
320,192,45666,1,0,0:0:0:0:
448,192,45666,1,0,0:0:0:0:
320,192,45736,1,0,0:0:0:0:
448,192,45736,1,0,0:0:0:0:
64,192,45807,1,0,0:0:0:0:
192,192,45807,1,0,0:0:0:0:
320,192,45807,1,0,0:0:0:0:
448,192,45807,1,0,0:0:0:0:
64,192,45876,1,0,0:0:0:0:
192,192,45876,1,0,0:0:0:0:
64,192,45947,1,0,0:0:0:0:
192,192,45947,1,0,0:0:0:0:
320,192,45947,1,0,0:0:0:0:
448,192,45947,1,0,0:0:0:0:
64,192,46017,1,0,0:0:0:0:
192,192,46017,1,0,0:0:0:0:
320,192,46017,1,0,0:0:0:0:
448,192,46017,1,0,0:0:0:0:
64,192,46088,1,0,0:0:0:0:
192,192,46088,1,0,0:0:0:0:
320,192,46088,1,0,0:0:0:0:
448,192,46088,1,0,0:0:0:0:
64,192,46158,1,0,0:0:0:0:
192,192,46158,1,0,0:0:0:0:
320,192,46158,1,0,0:0:0:0:
448,192,46158,1,0,0:0:0:0:
64,192,46229,1,0,0:0:0:0:
192,192,46229,1,0,0:0:0:0:
320,192,46229,1,0,0:0:0:0:
448,192,46229,1,0,0:0:0:0:
320,192,46299,1,0,0:0:0:0:
448,192,46299,1,0,0:0:0:0:
64,192,46370,1,0,0:0:0:0:
192,192,46370,1,0,0:0:0:0:
320,192,46370,1,0,0:0:0:0:
448,192,46370,1,0,0:0:0:0:
64,192,46440,1,0,0:0:0:0:
192,192,46440,1,0,0:0:0:0:
64,192,46510,1,0,0:0:0:0:
192,192,46510,1,0,0:0:0:0:
320,192,46510,1,0,0:0:0:0:
448,192,46510,1,0,0:0:0:0:
64,192,46580,1,0,0:0:0:0:
448,192,46580,1,0,0:0:0:0:
64,192,46650,1,0,0:0:0:0:
192,192,46650,1,0,0:0:0:0:
320,192,46650,1,0,0:0:0:0:
448,192,46650,1,0,0:0:0:0:
192,192,46721,1,0,0:0:0:0:
320,192,46721,1,0,0:0:0:0:
64,192,46791,1,0,0:0:0:0:
192,192,46791,1,0,0:0:0:0:
448,192,46791,1,0,0:0:0:0:
64,192,46862,1,0,0:0:0:0:
320,192,46862,1,0,0:0:0:0:
64,192,46932,1,0,0:0:0:0:
192,192,46932,1,0,0:0:0:0:
320,192,46932,1,0,0:0:0:0:
448,192,46932,1,0,0:0:0:0:
320,192,47003,1,0,0:0:0:0:
448,192,47003,1,0,0:0:0:0:
64,192,47073,1,0,0:0:0:0:
192,192,47073,1,0,0:0:0:0:
320,192,47073,1,0,0:0:0:0:
448,192,47073,1,0,0:0:0:0:
64,192,47143,1,0,0:0:0:0:
448,192,47143,1,0,0:0:0:0:
64,192,47213,1,0,0:0:0:0:
192,192,47213,1,0,0:0:0:0:
320,192,47213,1,0,0:0:0:0:
448,192,47213,1,0,0:0:0:0:
64,192,47284,1,0,0:0:0:0:
192,192,47284,1,0,0:0:0:0:
192,192,47354,1,0,0:0:0:0:
320,192,47354,1,0,0:0:0:0:
448,192,47354,1,0,0:0:0:0:
64,192,47425,1,0,0:0:0:0:
448,192,47425,1,0,0:0:0:0:
64,192,47495,1,0,0:0:0:0:
192,192,47495,1,0,0:0:0:0:
320,192,47495,1,0,0:0:0:0:
448,192,47495,1,0,0:0:0:0:
192,192,47566,1,0,0:0:0:0:
320,192,47566,1,0,0:0:0:0:
64,192,47636,1,0,0:0:0:0:
192,192,47636,1,0,0:0:0:0:
320,192,47636,1,0,0:0:0:0:
448,192,47636,1,0,0:0:0:0:
64,192,47707,1,0,0:0:0:0:
192,192,47707,1,0,0:0:0:0:
64,192,47777,1,0,0:0:0:0:
192,192,47777,1,0,0:0:0:0:
320,192,47777,1,0,0:0:0:0:
448,192,47777,1,0,0:0:0:0:
320,192,47847,1,0,0:0:0:0:
448,192,47847,1,0,0:0:0:0:
64,192,47917,1,0,0:0:0:0:
192,192,47917,1,0,0:0:0:0:
448,192,47917,1,0,0:0:0:0:
64,192,47988,1,0,0:0:0:0:
320,192,47988,1,0,0:0:0:0:
64,192,48058,1,0,0:0:0:0:
192,192,48058,1,0,0:0:0:0:
320,192,48058,1,0,0:0:0:0:
448,192,48058,1,0,0:0:0:0:
192,192,48129,1,0,0:0:0:0:
448,192,48129,1,0,0:0:0:0:
64,192,48199,1,0,0:0:0:0:
192,192,48199,1,0,0:0:0:0:
320,192,48199,1,0,0:0:0:0:
448,192,48199,1,0,0:0:0:0:
320,192,48270,1,0,0:0:0:0:
448,192,48270,1,0,0:0:0:0:
64,192,48340,1,0,0:0:0:0:
192,192,48340,1,0,0:0:0:0:
320,192,48340,1,0,0:0:0:0:
448,192,48340,1,0,0:0:0:0:
64,192,48410,1,0,0:0:0:0:
192,192,48410,1,0,0:0:0:0:
64,192,48480,1,0,0:0:0:0:
320,192,48480,1,0,0:0:0:0:
448,192,48480,1,0,0:0:0:0:
192,192,48550,1,0,0:0:0:0:
320,192,48550,1,0,0:0:0:0:
64,192,48621,1,0,0:0:0:0:
192,192,48621,1,0,0:0:0:0:
320,192,48621,1,0,0:0:0:0:
448,192,48621,1,0,0:0:0:0:
64,192,48691,1,0,0:0:0:0:
448,192,48691,1,0,0:0:0:0:
64,192,48762,1,0,0:0:0:0:
192,192,48762,1,0,0:0:0:0:
320,192,48762,1,0,0:0:0:0:
448,192,48762,1,0,0:0:0:0:
320,192,48832,1,0,0:0:0:0:
448,192,48832,1,0,0:0:0:0:
64,192,48903,1,0,0:0:0:0:
192,192,48903,1,0,0:0:0:0:
320,192,48903,1,0,0:0:0:0:
448,192,48903,1,0,0:0:0:0:
64,192,48973,1,0,0:0:0:0:
192,192,48973,1,0,0:0:0:0:
448,192,48973,1,0,0:0:0:0:
192,192,49044,1,0,0:0:0:0:
320,192,49044,1,0,0:0:0:0:
448,192,49044,1,0,0:0:0:0:
64,192,49113,1,0,0:0:0:0:
192,192,49113,1,0,0:0:0:0:
320,192,49113,1,0,0:0:0:0:
64,192,49184,1,0,0:0:0:0:
192,192,49184,1,0,0:0:0:0:
448,192,49184,1,0,0:0:0:0:
64,192,49254,1,0,0:0:0:0:
320,192,49254,1,0,0:0:0:0:
448,192,49254,1,0,0:0:0:0:
64,192,49325,1,0,0:0:0:0:
192,192,49325,1,0,0:0:0:0:
320,192,49325,1,0,0:0:0:0:
448,192,49325,1,0,0:0:0:0:
192,192,49395,1,0,0:0:0:0:
320,192,49395,1,0,0:0:0:0:
448,192,49395,1,0,0:0:0:0:
64,192,49466,1,0,0:0:0:0:
192,192,49466,1,0,0:0:0:0:
448,192,49466,1,0,0:0:0:0:
64,192,49536,1,0,0:0:0:0:
192,192,49536,1,0,0:0:0:0:
320,192,49536,1,0,0:0:0:0:
192,192,49607,1,0,0:0:0:0:
320,192,49607,1,0,0:0:0:0:
448,192,49607,1,0,0:0:0:0:
64,192,49677,1,0,0:0:0:0:
320,192,49677,1,0,0:0:0:0:
448,192,49677,1,0,0:0:0:0:
64,192,49747,1,0,0:0:0:0:
192,192,49747,1,0,0:0:0:0:
448,192,49747,1,0,0:0:0:0:
192,192,49817,1,0,0:0:0:0:
320,192,49817,1,0,0:0:0:0:
448,192,49817,1,0,0:0:0:0:
64,192,49888,1,0,0:0:0:0:
192,192,49888,1,0,0:0:0:0:
320,192,49888,1,0,0:0:0:0:
448,192,49888,1,0,0:0:0:0:
64,192,49958,1,0,0:0:0:0:
320,192,49958,1,0,0:0:0:0:
448,192,49958,1,0,0:0:0:0:
64,192,50029,1,0,0:0:0:0:
192,192,50029,1,0,0:0:0:0:
320,192,50029,1,0,0:0:0:0:
64,192,50099,1,0,0:0:0:0:
192,192,50099,1,0,0:0:0:0:
448,192,50099,1,0,0:0:0:0:
192,192,50170,1,0,0:0:0:0:
320,192,50170,1,0,0:0:0:0:
448,192,50170,1,0,0:0:0:0:
320,192,50240,1,0,0:0:0:0:
448,192,50240,1,0,0:0:0:0:
64,192,50310,1,0,0:0:0:0:
192,192,50310,1,0,0:0:0:0:
320,192,50310,1,0,0:0:0:0:
448,192,50310,1,0,0:0:0:0:
64,192,50381,1,0,0:0:0:0:
192,192,50381,1,0,0:0:0:0:
64,192,50450,1,0,0:0:0:0:
192,192,50450,1,0,0:0:0:0:
320,192,50450,1,0,0:0:0:0:
448,192,50450,1,0,0:0:0:0:
64,192,50521,1,0,0:0:0:0:
448,192,50521,1,0,0:0:0:0:
64,192,50591,1,0,0:0:0:0:
192,192,50591,1,0,0:0:0:0:
320,192,50591,1,0,0:0:0:0:
448,192,50591,1,0,0:0:0:0:
192,192,50662,1,0,0:0:0:0:
320,192,50662,1,0,0:0:0:0:
448,192,50662,1,0,0:0:0:0:
64,192,50732,1,0,0:0:0:0:
320,192,50732,1,0,0:0:0:0:
448,192,50732,1,0,0:0:0:0:
64,192,50803,1,0,0:0:0:0:
192,192,50803,1,0,0:0:0:0:
320,192,50803,1,0,0:0:0:0:
64,192,50873,1,0,0:0:0:0:
192,192,50873,1,0,0:0:0:0:
320,192,50873,1,0,0:0:0:0:
448,192,50873,1,0,0:0:0:0:
64,192,50944,1,0,0:0:0:0:
448,192,50944,1,0,0:0:0:0:
64,192,51014,1,0,0:0:0:0:
192,192,51014,1,0,0:0:0:0:
320,192,51014,1,0,0:0:0:0:
448,192,51014,1,0,0:0:0:0:
192,192,51084,1,0,0:0:0:0:
320,192,51084,1,0,0:0:0:0:
64,192,51154,1,0,0:0:0:0:
192,192,51154,1,0,0:0:0:0:
320,192,51154,1,0,0:0:0:0:
448,192,51154,1,0,0:0:0:0:
64,192,51225,1,0,0:0:0:0:
192,192,51225,1,0,0:0:0:0:
192,192,51295,1,0,0:0:0:0:
320,192,51295,1,0,0:0:0:0:
448,192,51295,1,0,0:0:0:0:
64,192,51366,1,0,0:0:0:0:
448,192,51366,1,0,0:0:0:0:
64,192,51436,1,0,0:0:0:0:
192,192,51436,1,0,0:0:0:0:
320,192,51436,1,0,0:0:0:0:
448,192,51436,1,0,0:0:0:0:
320,192,51507,1,0,0:0:0:0:
448,192,51507,1,0,0:0:0:0:
64,192,51577,1,0,0:0:0:0:
192,192,51577,1,0,0:0:0:0:
320,192,51577,1,0,0:0:0:0:
448,192,51577,1,0,0:0:0:0:
64,192,51648,1,0,0:0:0:0:
192,192,51648,1,0,0:0:0:0:
64,192,51717,1,0,0:0:0:0:
192,192,51717,1,0,0:0:0:0:
320,192,51717,1,0,0:0:0:0:
448,192,51717,1,0,0:0:0:0:
192,192,51788,1,0,0:0:0:0:
448,192,51788,1,0,0:0:0:0:
64,192,51858,1,0,0:0:0:0:
320,192,51858,1,0,0:0:0:0:
448,192,51858,1,0,0:0:0:0:
192,192,51929,1,0,0:0:0:0:
320,192,51929,1,0,0:0:0:0:
64,192,51999,1,0,0:0:0:0:
192,192,51999,1,0,0:0:0:0:
320,192,51999,1,0,0:0:0:0:
448,192,51999,1,0,0:0:0:0:
320,192,52070,1,0,0:0:0:0:
448,192,52070,1,0,0:0:0:0:
64,192,52140,1,0,0:0:0:0:
192,192,52140,1,0,0:0:0:0:
320,192,52140,1,0,0:0:0:0:
448,192,52140,1,0,0:0:0:0:
64,192,52210,1,0,0:0:0:0:
192,192,52210,1,0,0:0:0:0:
64,192,52281,1,0,0:0:0:0:
192,192,52281,1,0,0:0:0:0:
320,192,52281,1,0,0:0:0:0:
448,192,52281,1,0,0:0:0:0:
64,192,52350,1,0,0:0:0:0:
320,192,52350,1,0,0:0:0:0:
64,192,52421,1,0,0:0:0:0:
192,192,52421,1,0,0:0:0:0:
448,192,52421,1,0,0:0:0:0:
320,192,52491,1,0,0:0:0:0:
448,192,52491,1,0,0:0:0:0:
64,192,52562,1,0,0:0:0:0:
192,192,52562,1,0,0:0:0:0:
320,192,52562,1,0,0:0:0:0:
448,192,52562,1,0,0:0:0:0:
64,192,52632,1,0,0:0:0:0:
448,192,52632,1,0,0:0:0:0:
64,192,52703,1,0,0:0:0:0:
192,192,52703,1,0,0:0:0:0:
320,192,52703,1,0,0:0:0:0:
448,192,52703,1,0,0:0:0:0:
64,192,52773,1,0,0:0:0:0:
320,192,52773,1,0,0:0:0:0:
64,192,52844,1,0,0:0:0:0:
192,192,52844,1,0,0:0:0:0:
320,192,52844,1,0,0:0:0:0:
448,192,52844,1,0,0:0:0:0:
320,192,52914,1,0,0:0:0:0:
448,192,52914,1,0,0:0:0:0:
64,192,52985,1,0,0:0:0:0:
192,192,52985,1,0,0:0:0:0:
320,192,52985,1,0,0:0:0:0:
64,192,53054,1,0,0:0:0:0:
448,192,53054,1,0,0:0:0:0:
64,192,53125,1,0,0:0:0:0:
192,192,53125,1,0,0:0:0:0:
320,192,53125,1,0,0:0:0:0:
448,192,53125,1,0,0:0:0:0:
192,192,53195,1,0,0:0:0:0:
320,192,53195,1,0,0:0:0:0:
64,192,53266,1,0,0:0:0:0:
192,192,53266,1,0,0:0:0:0:
320,192,53266,1,0,0:0:0:0:
448,192,53266,1,0,0:0:0:0:
320,192,53336,1,0,0:0:0:0:
448,192,53336,1,0,0:0:0:0:
64,192,53407,1,0,0:0:0:0:
192,192,53407,1,0,0:0:0:0:
320,192,53407,1,0,0:0:0:0:
448,192,53407,1,0,0:0:0:0:
64,192,53477,1,0,0:0:0:0:
192,192,53477,1,0,0:0:0:0:
64,192,53548,1,0,0:0:0:0:
320,192,53548,1,0,0:0:0:0:
448,192,53548,1,0,0:0:0:0:
192,192,53618,1,0,0:0:0:0:
448,192,53618,1,0,0:0:0:0:
64,192,53688,1,0,0:0:0:0:
192,192,53688,1,0,0:0:0:0:
320,192,53688,1,0,0:0:0:0:
448,192,53688,1,0,0:0:0:0:
64,192,53758,1,0,0:0:0:0:
320,192,53758,1,0,0:0:0:0:
64,192,53829,1,0,0:0:0:0:
192,192,53829,1,0,0:0:0:0:
320,192,53829,1,0,0:0:0:0:
448,192,53829,1,0,0:0:0:0:
64,192,53899,1,0,0:0:0:0:
192,192,53899,1,0,0:0:0:0:
64,192,53970,1,0,0:0:0:0:
192,192,53970,1,0,0:0:0:0:
320,192,53970,1,0,0:0:0:0:
448,192,53970,1,0,0:0:0:0:
320,192,54040,1,0,0:0:0:0:
448,192,54040,1,0,0:0:0:0:
64,192,54110,1,0,0:0:0:0:
192,192,54110,1,0,0:0:0:0:
448,192,54110,1,0,0:0:0:0:
64,192,54181,1,0,0:0:0:0:
320,192,54181,1,0,0:0:0:0:
64,192,54251,1,0,0:0:0:0:
192,192,54251,1,0,0:0:0:0:
320,192,54251,1,0,0:0:0:0:
448,192,54251,1,0,0:0:0:0:
192,192,54321,1,0,0:0:0:0:
320,192,54321,1,0,0:0:0:0:
448,192,54321,1,0,0:0:0:0:
64,192,54391,1,0,0:0:0:0:
192,192,54391,1,0,0:0:0:0:
320,192,54391,1,0,0:0:0:0:
448,192,54391,1,0,0:0:0:0:
64,192,54462,1,0,0:0:0:0:
192,192,54462,1,0,0:0:0:0:
320,192,54462,1,0,0:0:0:0:
64,192,54532,1,0,0:0:0:0:
320,192,54532,1,0,0:0:0:0:
448,192,54532,1,0,0:0:0:0:
64,192,54603,1,0,0:0:0:0:
192,192,54603,1,0,0:0:0:0:
448,192,54603,1,0,0:0:0:0:
64,192,54673,1,0,0:0:0:0:
192,192,54673,1,0,0:0:0:0:
320,192,54673,1,0,0:0:0:0:
448,192,54673,1,0,0:0:0:0:
320,192,54744,1,0,0:0:0:0:
448,192,54744,1,0,0:0:0:0:
64,192,54814,1,0,0:0:0:0:
192,192,54814,1,0,0:0:0:0:
320,192,54814,1,0,0:0:0:0:
448,192,54814,1,0,0:0:0:0:
64,192,54885,1,0,0:0:0:0:
192,192,54885,1,0,0:0:0:0:
64,192,54954,1,0,0:0:0:0:
192,192,54954,1,0,0:0:0:0:
320,192,54954,1,0,0:0:0:0:
448,192,54954,1,0,0:0:0:0:
64,192,55025,1,0,0:0:0:0:
192,192,55025,1,0,0:0:0:0:
320,192,55025,1,0,0:0:0:0:
448,192,55025,1,0,0:0:0:0:
64,192,55095,1,0,0:0:0:0:
192,192,55095,1,0,0:0:0:0:
320,192,55095,1,0,0:0:0:0:
448,192,55095,1,0,0:0:0:0:
64,192,55166,1,0,0:0:0:0:
192,192,55166,1,0,0:0:0:0:
320,192,55166,1,0,0:0:0:0:
448,192,55166,1,0,0:0:0:0:
64,192,55236,1,0,0:0:0:0:
192,192,55236,1,0,0:0:0:0:
320,192,55236,1,0,0:0:0:0:
448,192,55236,1,0,0:0:0:0:
320,192,55307,1,0,0:0:0:0:
448,192,55307,1,0,0:0:0:0:
64,192,55377,1,0,0:0:0:0:
192,192,55377,1,0,0:0:0:0:
320,192,55377,1,0,0:0:0:0:
448,192,55377,1,0,0:0:0:0:
64,192,55448,1,0,0:0:0:0:
448,192,55448,1,0,0:0:0:0:
64,192,55518,1,0,0:0:0:0:
192,192,55518,1,0,0:0:0:0:
320,192,55518,1,0,0:0:0:0:
448,192,55518,1,0,0:0:0:0:
64,192,55588,1,0,0:0:0:0:
192,192,55588,1,0,0:0:0:0:
64,192,55658,1,0,0:0:0:0:
192,192,55658,1,0,0:0:0:0:
320,192,55658,1,0,0:0:0:0:
448,192,55658,1,0,0:0:0:0:
320,192,55729,1,0,0:0:0:0:
448,192,55729,1,0,0:0:0:0:
64,192,55799,1,0,0:0:0:0:
192,192,55799,1,0,0:0:0:0:
448,192,55799,1,0,0:0:0:0:
64,192,55870,1,0,0:0:0:0:
320,192,55870,1,0,0:0:0:0:
64,192,55940,1,0,0:0:0:0:
192,192,55940,1,0,0:0:0:0:
320,192,55940,1,0,0:0:0:0:
448,192,55940,1,0,0:0:0:0:
192,192,56010,1,0,0:0:0:0:
448,192,56010,1,0,0:0:0:0:
64,192,56081,1,0,0:0:0:0:
192,192,56081,1,0,0:0:0:0:
320,192,56081,1,0,0:0:0:0:
448,192,56081,1,0,0:0:0:0:
320,192,56151,1,0,0:0:0:0:
448,192,56151,1,0,0:0:0:0:
64,192,56222,1,0,0:0:0:0:
192,192,56222,1,0,0:0:0:0:
320,192,56222,1,0,0:0:0:0:
448,192,56222,1,0,0:0:0:0:
64,192,56291,1,0,0:0:0:0:
192,192,56291,1,0,0:0:0:0:
192,192,56362,1,0,0:0:0:0:
320,192,56362,1,0,0:0:0:0:
448,192,56362,1,0,0:0:0:0:
64,192,56432,1,0,0:0:0:0:
448,192,56432,1,0,0:0:0:0:
64,192,56503,1,0,0:0:0:0:
192,192,56503,1,0,0:0:0:0:
320,192,56503,1,0,0:0:0:0:
448,192,56503,1,0,0:0:0:0:
192,192,56573,1,0,0:0:0:0:
320,192,56573,1,0,0:0:0:0:
64,192,56644,1,0,0:0:0:0:
192,192,56644,1,0,0:0:0:0:
320,192,56644,1,0,0:0:0:0:
448,192,56644,1,0,0:0:0:0:
320,192,56714,1,0,0:0:0:0:
448,192,56714,1,0,0:0:0:0:
64,192,56785,1,0,0:0:0:0:
192,192,56785,1,0,0:0:0:0:
320,192,56785,1,0,0:0:0:0:
448,192,56785,1,0,0:0:0:0:
64,192,56855,1,0,0:0:0:0:
192,192,56855,1,0,0:0:0:0:
64,192,56925,1,0,0:0:0:0:
320,192,56925,1,0,0:0:0:0:
448,192,56925,1,0,0:0:0:0:
192,192,56995,1,0,0:0:0:0:
448,192,56995,1,0,0:0:0:0:
64,192,57066,1,0,0:0:0:0:
192,192,57066,1,0,0:0:0:0:
320,192,57066,1,0,0:0:0:0:
448,192,57066,1,0,0:0:0:0:
320,192,57136,1,0,0:0:0:0:
448,192,57136,1,0,0:0:0:0:
64,192,57207,1,0,0:0:0:0:
192,192,57207,1,0,0:0:0:0:
320,192,57207,1,0,0:0:0:0:
448,192,57207,1,0,0:0:0:0:
64,192,57277,1,0,0:0:0:0:
192,192,57277,1,0,0:0:0:0:
64,192,57348,1,0,0:0:0:0:
192,192,57348,1,0,0:0:0:0:
320,192,57348,1,0,0:0:0:0:
448,192,57348,1,0,0:0:0:0:
64,192,57418,1,0,0:0:0:0:
448,192,57418,1,0,0:0:0:0:
64,192,57489,1,0,0:0:0:0:
192,192,57489,1,0,0:0:0:0:
448,192,57489,1,0,0:0:0:0:
192,192,57558,1,0,0:0:0:0:
320,192,57558,1,0,0:0:0:0:
64,192,57629,1,0,0:0:0:0:
192,192,57629,1,0,0:0:0:0:
320,192,57629,1,0,0:0:0:0:
448,192,57629,1,0,0:0:0:0:
64,192,57699,1,0,0:0:0:0:
448,192,57699,1,0,0:0:0:0:
64,192,57770,1,0,0:0:0:0:
192,192,57770,1,0,0:0:0:0:
320,192,57770,1,0,0:0:0:0:
448,192,57770,1,0,0:0:0:0:
320,192,57840,1,0,0:0:0:0:
448,192,57840,1,0,0:0:0:0:
64,192,57910,1,0,0:0:0:0:
192,192,57910,1,0,0:0:0:0:
320,192,57910,1,0,0:0:0:0:
448,192,57910,1,0,0:0:0:0:
64,192,57981,1,0,0:0:0:0:
192,192,57981,1,0,0:0:0:0:
64,192,58051,1,0,0:0:0:0:
320,192,58051,1,0,0:0:0:0:
448,192,58051,1,0,0:0:0:0:
192,192,58122,1,0,0:0:0:0:
448,192,58122,1,0,0:0:0:0:
64,192,58191,1,0,0:0:0:0:
192,192,58191,1,0,0:0:0:0:
320,192,58191,1,0,0:0:0:0:
448,192,58191,1,0,0:0:0:0:
64,192,58262,1,0,0:0:0:0:
320,192,58262,1,0,0:0:0:0:
64,192,58332,1,0,0:0:0:0:
192,192,58332,1,0,0:0:0:0:
320,192,58332,1,0,0:0:0:0:
448,192,58332,1,0,0:0:0:0:
64,192,58403,1,0,0:0:0:0:
192,192,58403,1,0,0:0:0:0:
64,192,58473,1,0,0:0:0:0:
192,192,58473,1,0,0:0:0:0:
320,192,58473,1,0,0:0:0:0:
448,192,58473,1,0,0:0:0:0:
320,192,58544,1,0,0:0:0:0:
448,192,58544,1,0,0:0:0:0:
64,192,58614,1,0,0:0:0:0:
192,192,58614,1,0,0:0:0:0:
320,192,58614,1,0,0:0:0:0:
64,192,58685,1,0,0:0:0:0:
448,192,58685,1,0,0:0:0:0:
64,192,58755,1,0,0:0:0:0:
192,192,58755,1,0,0:0:0:0:
320,192,58755,1,0,0:0:0:0:
448,192,58755,1,0,0:0:0:0:
192,192,58826,1,0,0:0:0:0:
320,192,58826,1,0,0:0:0:0:
64,192,58895,1,0,0:0:0:0:
192,192,58895,1,0,0:0:0:0:
320,192,58895,1,0,0:0:0:0:
448,192,58895,1,0,0:0:0:0:
64,192,58966,1,0,0:0:0:0:
192,192,58966,1,0,0:0:0:0:
64,192,59036,1,0,0:0:0:0:
192,192,59036,1,0,0:0:0:0:
320,192,59036,1,0,0:0:0:0:
448,192,59036,1,0,0:0:0:0:
320,192,59107,1,0,0:0:0:0:
448,192,59107,1,0,0:0:0:0:
64,192,59177,1,0,0:0:0:0:
192,192,59177,1,0,0:0:0:0:
448,192,59177,1,0,0:0:0:0:
64,192,59248,1,0,0:0:0:0:
320,192,59248,1,0,0:0:0:0:
64,192,59318,1,0,0:0:0:0:
192,192,59318,1,0,0:0:0:0:
320,192,59318,1,0,0:0:0:0:
448,192,59318,1,0,0:0:0:0:
64,192,59389,1,0,0:0:0:0:
192,192,59389,1,0,0:0:0:0:
64,192,59459,1,0,0:0:0:0:
192,192,59459,1,0,0:0:0:0:
320,192,59459,1,0,0:0:0:0:
448,192,59459,1,0,0:0:0:0:
192,192,59529,1,0,0:0:0:0:
320,192,59529,1,0,0:0:0:0:
448,192,59529,1,0,0:0:0:0:
64,192,59599,1,0,0:0:0:0:
192,192,59599,1,0,0:0:0:0:
320,192,59599,1,0,0:0:0:0:
448,192,59599,1,0,0:0:0:0:
64,192,59670,1,0,0:0:0:0:
320,192,59670,1,0,0:0:0:0:
448,192,59670,1,0,0:0:0:0:
64,192,59740,1,0,0:0:0:0:
192,192,59740,1,0,0:0:0:0:
320,192,59740,1,0,0:0:0:0:
448,192,59740,1,0,0:0:0:0:
64,192,59810,1,0,0:0:0:0:
192,192,59810,1,0,0:0:0:0:
64,192,59881,1,0,0:0:0:0:
192,192,59881,1,0,0:0:0:0:
320,192,59881,1,0,0:0:0:0:
448,192,59881,1,0,0:0:0:0:
192,192,59951,1,0,0:0:0:0:
320,192,59951,1,0,0:0:0:0:
64,192,60022,1,0,0:0:0:0:
192,192,60022,1,0,0:0:0:0:
320,192,60022,1,0,0:0:0:0:
448,192,60022,1,0,0:0:0:0:
64,192,60092,1,0,0:0:0:0:
448,192,60092,1,0,0:0:0:0:
64,192,60162,1,0,0:0:0:0:
192,192,60162,1,0,0:0:0:0:
320,192,60162,1,0,0:0:0:0:
448,192,60162,1,0,0:0:0:0:
320,192,60232,1,0,0:0:0:0:
448,192,60232,1,0,0:0:0:0:
64,192,60303,1,0,0:0:0:0:
192,192,60303,1,0,0:0:0:0:
448,192,60303,1,0,0:0:0:0:
64,192,60373,1,0,0:0:0:0:
320,192,60373,1,0,0:0:0:0:
64,192,60444,1,0,0:0:0:0:
192,192,60444,1,0,0:0:0:0:
320,192,60444,1,0,0:0:0:0:
448,192,60444,1,0,0:0:0:0:
64,192,60514,1,0,0:0:0:0:
192,192,60514,1,0,0:0:0:0:
64,192,60585,1,0,0:0:0:0:
192,192,60585,1,0,0:0:0:0:
320,192,60585,1,0,0:0:0:0:
448,192,60585,1,0,0:0:0:0:
192,192,60655,1,0,0:0:0:0:
448,192,60655,1,0,0:0:0:0:
64,192,60726,1,0,0:0:0:0:
192,192,60726,1,0,0:0:0:0:
320,192,60726,1,0,0:0:0:0:
448,192,60726,1,0,0:0:0:0:
64,192,60795,1,0,0:0:0:0:
320,192,60795,1,0,0:0:0:0:
192,192,60866,1,0,0:0:0:0:
320,192,60866,1,0,0:0:0:0:
448,192,60866,1,0,0:0:0:0:
192,192,60936,1,0,0:0:0:0:
320,192,60936,1,0,0:0:0:0:
64,192,61007,1,0,0:0:0:0:
192,192,61007,1,0,0:0:0:0:
320,192,61007,1,0,0:0:0:0:
448,192,61007,1,0,0:0:0:0:
64,192,61077,1,0,0:0:0:0:
192,192,61077,1,0,0:0:0:0:
64,192,61148,1,0,0:0:0:0:
192,192,61148,1,0,0:0:0:0:
320,192,61148,1,0,0:0:0:0:
448,192,61148,1,0,0:0:0:0:
320,192,61218,1,0,0:0:0:0:
448,192,61218,1,0,0:0:0:0:
64,192,61289,1,0,0:0:0:0:
192,192,61289,1,0,0:0:0:0:
320,192,61289,1,0,0:0:0:0:
448,192,61289,1,0,0:0:0:0:
64,192,61359,1,0,0:0:0:0:
320,192,61359,1,0,0:0:0:0:
192,192,61429,1,0,0:0:0:0:
320,192,61429,1,0,0:0:0:0:
448,192,61429,1,0,0:0:0:0:
64,192,61499,1,0,0:0:0:0:
192,192,61499,1,0,0:0:0:0:
64,192,61570,1,0,0:0:0:0:
192,192,61570,1,0,0:0:0:0:
320,192,61570,1,0,0:0:0:0:
448,192,61570,1,0,0:0:0:0:
192,192,61640,1,0,0:0:0:0:
448,192,61640,1,0,0:0:0:0:
64,192,61710,1,0,0:0:0:0:
192,192,61710,1,0,0:0:0:0:
320,192,61710,1,0,0:0:0:0:
448,192,61710,1,0,0:0:0:0:
320,192,61781,1,0,0:0:0:0:
448,192,61781,1,0,0:0:0:0:
64,192,61851,1,0,0:0:0:0:
192,192,61851,1,0,0:0:0:0:
320,192,61851,1,0,0:0:0:0:
448,192,61851,1,0,0:0:0:0:
64,192,61922,1,0,0:0:0:0:
192,192,61922,1,0,0:0:0:0:
64,192,61992,1,0,0:0:0:0:
320,192,61992,1,0,0:0:0:0:
448,192,61992,1,0,0:0:0:0:
192,192,62063,1,0,0:0:0:0:
320,192,62063,1,0,0:0:0:0:
64,192,62132,1,0,0:0:0:0:
192,192,62132,1,0,0:0:0:0:
320,192,62132,1,0,0:0:0:0:
448,192,62132,1,0,0:0:0:0:
64,192,62203,1,0,0:0:0:0:
448,192,62203,1,0,0:0:0:0:
64,192,62273,1,0,0:0:0:0:
192,192,62273,1,0,0:0:0:0:
320,192,62273,1,0,0:0:0:0:
448,192,62273,1,0,0:0:0:0:
320,192,62344,1,0,0:0:0:0:
448,192,62344,1,0,0:0:0:0:
64,192,62414,1,0,0:0:0:0:
192,192,62414,1,0,0:0:0:0:
320,192,62414,1,0,0:0:0:0:
448,192,62414,1,0,0:0:0:0:
64,192,62485,1,0,0:0:0:0:
192,192,62485,1,0,0:0:0:0:
64,192,62555,1,0,0:0:0:0:
320,192,62555,1,0,0:0:0:0:
448,192,62555,1,0,0:0:0:0:
192,192,62626,1,0,0:0:0:0:
448,192,62626,1,0,0:0:0:0:
64,192,62696,1,0,0:0:0:0:
192,192,62696,1,0,0:0:0:0:
320,192,62696,1,0,0:0:0:0:
448,192,62696,1,0,0:0:0:0:
320,192,62766,1,0,0:0:0:0:
448,192,62766,1,0,0:0:0:0:
64,192,62836,1,0,0:0:0:0:
192,192,62836,1,0,0:0:0:0:
320,192,62836,1,0,0:0:0:0:
448,192,62836,1,0,0:0:0:0:
64,192,62907,1,0,0:0:0:0:
192,192,62907,1,0,0:0:0:0:
64,192,62977,1,0,0:0:0:0:
192,192,62977,1,0,0:0:0:0:
320,192,62977,1,0,0:0:0:0:
448,192,62977,1,0,0:0:0:0:
320,192,63048,1,0,0:0:0:0:
448,192,63048,1,0,0:0:0:0:
64,192,63118,1,0,0:0:0:0:
192,192,63118,1,0,0:0:0:0:
320,192,63118,1,0,0:0:0:0:
448,192,63118,1,0,0:0:0:0:
64,192,63189,1,0,0:0:0:0:
192,192,63189,1,0,0:0:0:0:
64,192,63259,1,0,0:0:0:0:
192,192,63259,1,0,0:0:0:0:
320,192,63259,1,0,0:0:0:0:
448,192,63259,1,0,0:0:0:0:
320,192,63330,1,0,0:0:0:0:
448,192,63330,1,0,0:0:0:0:
64,192,63399,1,0,0:0:0:0:
192,192,63399,1,0,0:0:0:0:
320,192,63399,1,0,0:0:0:0:
448,192,63399,1,0,0:0:0:0:
64,192,63470,1,0,0:0:0:0:
192,192,63470,1,0,0:0:0:0:
64,192,63540,1,0,0:0:0:0:
192,192,63540,1,0,0:0:0:0:
320,192,63540,1,0,0:0:0:0:
448,192,63540,1,0,0:0:0:0:
320,192,63610,1,0,0:0:0:0:
448,192,63610,1,0,0:0:0:0:
64,192,63681,1,0,0:0:0:0:
192,192,63681,1,0,0:0:0:0:
320,192,63681,1,0,0:0:0:0:
448,192,63681,1,0,0:0:0:0:
64,192,63751,1,0,0:0:0:0:
192,192,63751,1,0,0:0:0:0:
64,192,63822,1,0,0:0:0:0:
192,192,63822,1,0,0:0:0:0:
320,192,63822,1,0,0:0:0:0:
448,192,63822,1,0,0:0:0:0:
64,192,63892,1,0,0:0:0:0:
192,192,63892,1,0,0:0:0:0:
320,192,63892,1,0,0:0:0:0:
448,192,63892,1,0,0:0:0:0:
64,192,63963,1,0,0:0:0:0:
192,192,63963,1,0,0:0:0:0:
320,192,63963,1,0,0:0:0:0:
448,192,63963,1,0,0:0:0:0:
64,192,64032,1,0,0:0:0:0:
192,192,64032,1,0,0:0:0:0:
320,192,64032,1,0,0:0:0:0:
448,192,64032,1,0,0:0:0:0:
64,192,64103,1,0,0:0:0:0:
192,192,64103,1,0,0:0:0:0:
320,192,64103,1,0,0:0:0:0:
448,192,64103,1,0,0:0:0:0:
64,192,64173,1,0,0:0:0:0:
192,192,64173,1,0,0:0:0:0:
320,192,64173,1,0,0:0:0:0:
448,192,64173,1,0,0:0:0:0:
64,192,64244,1,0,0:0:0:0:
192,192,64244,1,0,0:0:0:0:
320,192,64244,1,0,0:0:0:0:
448,192,64244,1,0,0:0:0:0:
192,192,64338,1,0,0:0:0:0:
320,192,64338,1,0,0:0:0:0:
448,192,64338,1,0,0:0:0:0:
64,192,64431,1,0,0:0:0:0:
192,192,64431,1,0,0:0:0:0:
448,192,64431,1,0,0:0:0:0:
64,192,64526,1,0,0:0:0:0:
192,192,64526,1,0,0:0:0:0:
320,192,64526,1,0,0:0:0:0:
448,192,64526,1,0,0:0:0:0:
64,192,64619,1,0,0:0:0:0:
192,192,64619,1,0,0:0:0:0:
320,192,64619,1,0,0:0:0:0:
64,192,64713,1,0,0:0:0:0:
320,192,64713,1,0,0:0:0:0:
448,192,64713,1,0,0:0:0:0:
64,192,64807,128,0,65089:0:0:0:0:
192,192,64807,128,0,65089:0:0:0:0:
320,192,65089,1,0,0:0:0:0:
448,192,65089,1,0,0:0:0:0:
192,192,65182,1,0,0:0:0:0:
320,192,65182,1,0,0:0:0:0:
448,192,65182,1,0,0:0:0:0:
64,192,65276,1,0,0:0:0:0:
192,192,65276,1,0,0:0:0:0:
320,192,65276,1,0,0:0:0:0:
64,192,65370,1,0,0:0:0:0:
192,192,65370,1,0,0:0:0:0:
320,192,65370,1,0,0:0:0:0:
448,192,65370,1,0,0:0:0:0:
64,192,65464,1,0,0:0:0:0:
192,192,65464,1,0,0:0:0:0:
448,192,65464,1,0,0:0:0:0:
64,192,65557,1,0,0:0:0:0:
320,192,65557,1,0,0:0:0:0:
448,192,65557,1,0,0:0:0:0:
320,192,65651,128,0,65933:0:0:0:0:
448,192,65651,128,0,65933:0:0:0:0:
64,192,65933,1,0,0:0:0:0:
192,192,65933,1,0,0:0:0:0:
64,192,66214,1,0,0:0:0:0:
192,192,66214,1,0,0:0:0:0:
320,192,66214,1,0,0:0:0:0:
448,192,66214,1,0,0:0:0:0:
64,192,66496,1,0,0:0:0:0:
192,192,66496,1,0,0:0:0:0:
320,192,66496,1,0,0:0:0:0:
448,192,66496,1,0,0:0:0:0:
192,192,66590,1,0,0:0:0:0:
320,192,66590,1,0,0:0:0:0:
448,192,66590,1,0,0:0:0:0:
64,192,66684,1,0,0:0:0:0:
192,192,66684,1,0,0:0:0:0:
448,192,66684,1,0,0:0:0:0:
64,192,66777,1,0,0:0:0:0:
192,192,66777,1,0,0:0:0:0:
320,192,66777,1,0,0:0:0:0:
448,192,66777,1,0,0:0:0:0:
64,192,66871,1,0,0:0:0:0:
192,192,66871,1,0,0:0:0:0:
320,192,66871,1,0,0:0:0:0:
64,192,66965,1,0,0:0:0:0:
320,192,66965,1,0,0:0:0:0:
448,192,66965,1,0,0:0:0:0:
320,192,67059,128,0,67340:0:0:0:0:
448,192,67059,128,0,67340:0:0:0:0:
64,192,67340,1,0,0:0:0:0:
192,192,67340,1,0,0:0:0:0:
64,192,67434,1,0,0:0:0:0:
320,192,67434,1,0,0:0:0:0:
448,192,67434,1,0,0:0:0:0:
64,192,67528,1,0,0:0:0:0:
192,192,67528,1,0,0:0:0:0:
320,192,67528,1,0,0:0:0:0:
64,192,67622,1,0,0:0:0:0:
192,192,67622,1,0,0:0:0:0:
320,192,67622,1,0,0:0:0:0:
448,192,67622,1,0,0:0:0:0:
192,192,67715,1,0,0:0:0:0:
320,192,67715,1,0,0:0:0:0:
448,192,67715,1,0,0:0:0:0:
64,192,67810,1,0,0:0:0:0:
192,192,67810,1,0,0:0:0:0:
448,192,67810,1,0,0:0:0:0:
64,192,67904,128,0,68185:0:0:0:0:
192,192,67904,128,0,68185:0:0:0:0:
320,192,68185,1,0,0:0:0:0:
448,192,68185,1,0,0:0:0:0:
64,192,68467,1,0,0:0:0:0:
192,192,68467,1,0,0:0:0:0:
320,192,68467,1,0,0:0:0:0:
448,192,68467,1,0,0:0:0:0:
64,192,68748,1,0,0:0:0:0:
192,192,68748,1,0,0:0:0:0:
320,192,68748,1,0,0:0:0:0:
448,192,68748,1,0,0:0:0:0:
192,192,68842,1,0,0:0:0:0:
320,192,68842,1,0,0:0:0:0:
448,192,68842,1,0,0:0:0:0:
64,192,68935,1,0,0:0:0:0:
192,192,68935,1,0,0:0:0:0:
320,192,68935,1,0,0:0:0:0:
64,192,69030,1,0,0:0:0:0:
192,192,69030,1,0,0:0:0:0:
320,192,69030,1,0,0:0:0:0:
448,192,69030,1,0,0:0:0:0:
64,192,69123,1,0,0:0:0:0:
320,192,69123,1,0,0:0:0:0:
448,192,69123,1,0,0:0:0:0:
64,192,69217,1,0,0:0:0:0:
192,192,69217,1,0,0:0:0:0:
448,192,69217,1,0,0:0:0:0:
320,192,69310,128,0,69592:0:0:0:0:
448,192,69310,128,0,69592:0:0:0:0:
64,192,69592,1,0,0:0:0:0:
192,192,69592,1,0,0:0:0:0:
192,192,69686,1,0,0:0:0:0:
320,192,69686,1,0,0:0:0:0:
448,192,69686,1,0,0:0:0:0:
64,192,69780,1,0,0:0:0:0:
192,192,69780,1,0,0:0:0:0:
448,192,69780,1,0,0:0:0:0:
64,192,69873,1,0,0:0:0:0:
192,192,69873,1,0,0:0:0:0:
320,192,69873,1,0,0:0:0:0:
448,192,69873,1,0,0:0:0:0:
64,192,69968,1,0,0:0:0:0:
320,192,69968,1,0,0:0:0:0:
448,192,69968,1,0,0:0:0:0:
64,192,70062,1,0,0:0:0:0:
192,192,70062,1,0,0:0:0:0:
320,192,70062,1,0,0:0:0:0:
64,192,70155,128,0,70437:0:0:0:0:
192,192,70155,128,0,70437:0:0:0:0:
320,192,70437,1,0,0:0:0:0:
448,192,70437,1,0,0:0:0:0:
64,192,70718,1,0,0:0:0:0:
192,192,70718,1,0,0:0:0:0:
320,192,70718,1,0,0:0:0:0:
448,192,70718,1,0,0:0:0:0:
64,192,71000,1,0,0:0:0:0:
192,192,71000,1,0,0:0:0:0:
320,192,71000,1,0,0:0:0:0:
448,192,71000,1,0,0:0:0:0:
320,192,71070,1,0,0:0:0:0:
448,192,71070,1,0,0:0:0:0:
64,192,71141,1,0,0:0:0:0:
192,192,71141,1,0,0:0:0:0:
320,192,71141,1,0,0:0:0:0:
448,192,71141,1,0,0:0:0:0:
192,192,71210,1,0,0:0:0:0:
320,192,71210,1,0,0:0:0:0:
64,192,71281,1,0,0:0:0:0:
192,192,71281,1,0,0:0:0:0:
320,192,71281,1,0,0:0:0:0:
448,192,71281,1,0,0:0:0:0:
64,192,71351,1,0,0:0:0:0:
192,192,71351,1,0,0:0:0:0:
64,192,71422,1,0,0:0:0:0:
192,192,71422,1,0,0:0:0:0:
320,192,71422,1,0,0:0:0:0:
448,192,71422,1,0,0:0:0:0:
64,192,71492,1,0,0:0:0:0:
448,192,71492,1,0,0:0:0:0:
64,192,71563,1,0,0:0:0:0:
192,192,71563,1,0,0:0:0:0:
320,192,71563,1,0,0:0:0:0:
448,192,71563,1,0,0:0:0:0:
192,192,71633,1,0,0:0:0:0:
320,192,71633,1,0,0:0:0:0:
64,192,71704,1,0,0:0:0:0:
192,192,71704,1,0,0:0:0:0:
320,192,71704,1,0,0:0:0:0:
448,192,71704,1,0,0:0:0:0:
320,192,71774,1,0,0:0:0:0:
448,192,71774,1,0,0:0:0:0:
64,192,71844,1,0,0:0:0:0:
192,192,71844,1,0,0:0:0:0:
320,192,71844,1,0,0:0:0:0:
448,192,71844,1,0,0:0:0:0:
64,192,71914,1,0,0:0:0:0:
192,192,71914,1,0,0:0:0:0:
64,192,71985,1,0,0:0:0:0:
192,192,71985,1,0,0:0:0:0:
320,192,71985,1,0,0:0:0:0:
448,192,71985,1,0,0:0:0:0:
64,192,72055,1,0,0:0:0:0:
448,192,72055,1,0,0:0:0:0:
64,192,72126,1,0,0:0:0:0:
192,192,72126,1,0,0:0:0:0:
320,192,72126,1,0,0:0:0:0:
448,192,72126,1,0,0:0:0:0:
192,192,72196,1,0,0:0:0:0:
320,192,72196,1,0,0:0:0:0:
448,192,72196,1,0,0:0:0:0:
64,192,72267,1,0,0:0:0:0:
192,192,72267,1,0,0:0:0:0:
320,192,72267,1,0,0:0:0:0:
448,192,72267,1,0,0:0:0:0:
64,192,72337,1,0,0:0:0:0:
192,192,72337,1,0,0:0:0:0:
448,192,72337,1,0,0:0:0:0:
64,192,72408,1,0,0:0:0:0:
192,192,72408,1,0,0:0:0:0:
320,192,72408,1,0,0:0:0:0:
448,192,72408,1,0,0:0:0:0:
64,192,72477,1,0,0:0:0:0:
192,192,72477,1,0,0:0:0:0:
320,192,72477,1,0,0:0:0:0:
64,192,72548,1,0,0:0:0:0:
192,192,72548,1,0,0:0:0:0:
320,192,72548,1,0,0:0:0:0:
448,192,72548,1,0,0:0:0:0:
64,192,72618,1,0,0:0:0:0:
320,192,72618,1,0,0:0:0:0:
448,192,72618,1,0,0:0:0:0:
64,192,72689,1,0,0:0:0:0:
192,192,72689,1,0,0:0:0:0:
320,192,72689,1,0,0:0:0:0:
448,192,72689,1,0,0:0:0:0:
64,192,72759,1,0,0:0:0:0:
192,192,72759,1,0,0:0:0:0:
320,192,72759,1,0,0:0:0:0:
448,192,72759,1,0,0:0:0:0:
64,192,72830,1,0,0:0:0:0:
192,192,72830,1,0,0:0:0:0:
320,192,72830,1,0,0:0:0:0:
448,192,72830,1,0,0:0:0:0:
64,192,72900,1,0,0:0:0:0:
192,192,72900,1,0,0:0:0:0:
320,192,72900,1,0,0:0:0:0:
448,192,72900,1,0,0:0:0:0:
64,192,72970,1,0,0:0:0:0:
192,192,72970,1,0,0:0:0:0:
320,192,72970,1,0,0:0:0:0:
448,192,72970,1,0,0:0:0:0:
64,192,73041,1,0,0:0:0:0:
192,192,73041,1,0,0:0:0:0:
320,192,73041,1,0,0:0:0:0:
448,192,73041,1,0,0:0:0:0:
64,192,73111,1,0,0:0:0:0:
192,192,73111,1,0,0:0:0:0:
320,192,73111,1,0,0:0:0:0:
448,192,73111,1,0,0:0:0:0:
64,192,73181,1,0,0:0:0:0:
192,192,73181,1,0,0:0:0:0:
320,192,73181,1,0,0:0:0:0:
448,192,73181,1,0,0:0:0:0:
64,192,73251,1,0,0:0:0:0:
192,192,73251,1,0,0:0:0:0:
320,192,73251,1,0,0:0:0:0:
448,192,73251,1,0,0:0:0:0:
64,192,73322,1,0,0:0:0:0:
192,192,73322,1,0,0:0:0:0:
64,192,73392,1,0,0:0:0:0:
192,192,73392,1,0,0:0:0:0:
320,192,73392,1,0,0:0:0:0:
448,192,73392,1,0,0:0:0:0:
192,192,73463,1,0,0:0:0:0:
320,192,73463,1,0,0:0:0:0:
64,192,73533,1,0,0:0:0:0:
192,192,73533,1,0,0:0:0:0:
320,192,73533,1,0,0:0:0:0:
448,192,73533,1,0,0:0:0:0:
320,192,73604,1,0,0:0:0:0:
448,192,73604,1,0,0:0:0:0:
64,192,73674,1,0,0:0:0:0:
192,192,73674,1,0,0:0:0:0:
320,192,73674,1,0,0:0:0:0:
448,192,73674,1,0,0:0:0:0:
64,192,73745,1,0,0:0:0:0:
192,192,73745,1,0,0:0:0:0:
448,192,73745,1,0,0:0:0:0:
192,192,73814,1,0,0:0:0:0:
320,192,73814,1,0,0:0:0:0:
448,192,73814,1,0,0:0:0:0:
64,192,73885,1,0,0:0:0:0:
320,192,73885,1,0,0:0:0:0:
448,192,73885,1,0,0:0:0:0:
64,192,73955,1,0,0:0:0:0:
192,192,73955,1,0,0:0:0:0:
320,192,73955,1,0,0:0:0:0:
448,192,73955,1,0,0:0:0:0:
64,192,74026,1,0,0:0:0:0:
192,192,74026,1,0,0:0:0:0:
320,192,74026,1,0,0:0:0:0:
64,192,74096,1,0,0:0:0:0:
192,192,74096,1,0,0:0:0:0:
320,192,74096,1,0,0:0:0:0:
448,192,74096,1,0,0:0:0:0:
192,192,74167,1,0,0:0:0:0:
320,192,74167,1,0,0:0:0:0:
448,192,74167,1,0,0:0:0:0:
64,192,74237,1,0,0:0:0:0:
192,192,74237,1,0,0:0:0:0:
320,192,74237,1,0,0:0:0:0:
448,192,74237,1,0,0:0:0:0:
64,192,74308,1,0,0:0:0:0:
192,192,74308,1,0,0:0:0:0:
64,192,74378,1,0,0:0:0:0:
320,192,74378,1,0,0:0:0:0:
448,192,74378,1,0,0:0:0:0:
192,192,74448,1,0,0:0:0:0:
320,192,74448,1,0,0:0:0:0:
64,192,74518,1,0,0:0:0:0:
192,192,74518,1,0,0:0:0:0:
320,192,74518,1,0,0:0:0:0:
448,192,74518,1,0,0:0:0:0:
320,192,74589,1,0,0:0:0:0:
448,192,74589,1,0,0:0:0:0:
64,192,74659,1,0,0:0:0:0:
192,192,74659,1,0,0:0:0:0:
320,192,74659,1,0,0:0:0:0:
448,192,74659,1,0,0:0:0:0:
64,192,74730,1,0,0:0:0:0:
192,192,74730,1,0,0:0:0:0:
64,192,74800,1,0,0:0:0:0:
192,192,74800,1,0,0:0:0:0:
320,192,74800,1,0,0:0:0:0:
448,192,74800,1,0,0:0:0:0:
192,192,74870,1,0,0:0:0:0:
320,192,74870,1,0,0:0:0:0:
64,192,74941,1,0,0:0:0:0:
192,192,74941,1,0,0:0:0:0:
448,192,74941,1,0,0:0:0:0:
320,192,75011,1,0,0:0:0:0:
448,192,75011,1,0,0:0:0:0:
64,192,75081,1,0,0:0:0:0:
192,192,75081,1,0,0:0:0:0:
320,192,75081,1,0,0:0:0:0:
448,192,75081,1,0,0:0:0:0:
64,192,75151,1,0,0:0:0:0:
448,192,75151,1,0,0:0:0:0:
64,192,75222,1,0,0:0:0:0:
192,192,75222,1,0,0:0:0:0:
320,192,75222,1,0,0:0:0:0:
448,192,75222,1,0,0:0:0:0:
192,192,75292,1,0,0:0:0:0:
320,192,75292,1,0,0:0:0:0:
64,192,75363,1,0,0:0:0:0:
192,192,75363,1,0,0:0:0:0:
320,192,75363,1,0,0:0:0:0:
448,192,75363,1,0,0:0:0:0:
64,192,75433,1,0,0:0:0:0:
192,192,75433,1,0,0:0:0:0:
64,192,75504,1,0,0:0:0:0:
320,192,75504,1,0,0:0:0:0:
448,192,75504,1,0,0:0:0:0:
64,192,75574,1,0,0:0:0:0:
448,192,75574,1,0,0:0:0:0:
64,192,75645,1,0,0:0:0:0:
192,192,75645,1,0,0:0:0:0:
320,192,75645,1,0,0:0:0:0:
448,192,75645,1,0,0:0:0:0:
320,192,75714,1,0,0:0:0:0:
448,192,75714,1,0,0:0:0:0:
64,192,75785,1,0,0:0:0:0:
192,192,75785,1,0,0:0:0:0:
320,192,75785,1,0,0:0:0:0:
448,192,75785,1,0,0:0:0:0:
192,192,75855,1,0,0:0:0:0:
320,192,75855,1,0,0:0:0:0:
64,192,75926,1,0,0:0:0:0:
192,192,75926,1,0,0:0:0:0:
320,192,75926,1,0,0:0:0:0:
448,192,75926,1,0,0:0:0:0:
64,192,75996,1,0,0:0:0:0:
448,192,75996,1,0,0:0:0:0:
192,192,76067,1,0,0:0:0:0:
320,192,76067,1,0,0:0:0:0:
448,192,76067,1,0,0:0:0:0:
64,192,76137,1,0,0:0:0:0:
320,192,76137,1,0,0:0:0:0:
64,192,76208,1,0,0:0:0:0:
192,192,76208,1,0,0:0:0:0:
320,192,76208,1,0,0:0:0:0:
448,192,76208,1,0,0:0:0:0:
192,192,76278,1,0,0:0:0:0:
448,192,76278,1,0,0:0:0:0:
64,192,76349,1,0,0:0:0:0:
192,192,76349,1,0,0:0:0:0:
320,192,76349,1,0,0:0:0:0:
448,192,76349,1,0,0:0:0:0:
320,192,76418,1,0,0:0:0:0:
448,192,76418,1,0,0:0:0:0:
64,192,76489,1,0,0:0:0:0:
192,192,76489,1,0,0:0:0:0:
320,192,76489,1,0,0:0:0:0:
448,192,76489,1,0,0:0:0:0:
64,192,76559,1,0,0:0:0:0:
192,192,76559,1,0,0:0:0:0:
192,192,76630,1,0,0:0:0:0:
320,192,76630,1,0,0:0:0:0:
448,192,76630,1,0,0:0:0:0:
64,192,76700,1,0,0:0:0:0:
448,192,76700,1,0,0:0:0:0:
64,192,76770,1,0,0:0:0:0:
192,192,76770,1,0,0:0:0:0:
320,192,76770,1,0,0:0:0:0:
448,192,76770,1,0,0:0:0:0:
192,192,76841,1,0,0:0:0:0:
320,192,76841,1,0,0:0:0:0:
64,192,76911,1,0,0:0:0:0:
192,192,76911,1,0,0:0:0:0:
320,192,76911,1,0,0:0:0:0:
448,192,76911,1,0,0:0:0:0:
320,192,76982,1,0,0:0:0:0:
448,192,76982,1,0,0:0:0:0:
64,192,77051,1,0,0:0:0:0:
192,192,77051,1,0,0:0:0:0:
320,192,77051,1,0,0:0:0:0:
448,192,77051,1,0,0:0:0:0:
64,192,77122,1,0,0:0:0:0:
320,192,77122,1,0,0:0:0:0:
192,192,77192,1,0,0:0:0:0:
320,192,77192,1,0,0:0:0:0:
448,192,77192,1,0,0:0:0:0:
64,192,77263,1,0,0:0:0:0:
192,192,77263,1,0,0:0:0:0:
64,192,77333,1,0,0:0:0:0:
192,192,77333,1,0,0:0:0:0:
320,192,77333,1,0,0:0:0:0:
448,192,77333,1,0,0:0:0:0:
192,192,77404,1,0,0:0:0:0:
448,192,77404,1,0,0:0:0:0:
64,192,77474,1,0,0:0:0:0:
192,192,77474,1,0,0:0:0:0:
320,192,77474,1,0,0:0:0:0:
448,192,77474,1,0,0:0:0:0:
64,192,77545,1,0,0:0:0:0:
448,192,77545,1,0,0:0:0:0:
64,192,77615,1,0,0:0:0:0:
192,192,77615,1,0,0:0:0:0:
320,192,77615,1,0,0:0:0:0:
448,192,77615,1,0,0:0:0:0:
320,192,77685,1,0,0:0:0:0:
448,192,77685,1,0,0:0:0:0:
64,192,77755,1,0,0:0:0:0:
192,192,77755,1,0,0:0:0:0:
320,192,77755,1,0,0:0:0:0:
448,192,77755,1,0,0:0:0:0:
64,192,77826,1,0,0:0:0:0:
192,192,77826,1,0,0:0:0:0:
64,192,77896,1,0,0:0:0:0:
192,192,77896,1,0,0:0:0:0:
320,192,77896,1,0,0:0:0:0:
448,192,77896,1,0,0:0:0:0:
64,192,77967,1,0,0:0:0:0:
192,192,77967,1,0,0:0:0:0:
64,192,78037,1,0,0:0:0:0:
192,192,78037,1,0,0:0:0:0:
320,192,78037,1,0,0:0:0:0:
448,192,78037,1,0,0:0:0:0:
64,192,78108,1,0,0:0:0:0:
192,192,78108,1,0,0:0:0:0:
64,192,78178,1,0,0:0:0:0:
192,192,78178,1,0,0:0:0:0:
320,192,78178,1,0,0:0:0:0:
448,192,78178,1,0,0:0:0:0:
320,192,78249,1,0,0:0:0:0:
448,192,78249,1,0,0:0:0:0:
64,192,78318,1,0,0:0:0:0:
192,192,78318,1,0,0:0:0:0:
320,192,78318,1,0,0:0:0:0:
448,192,78318,1,0,0:0:0:0:
192,192,78389,1,0,0:0:0:0:
320,192,78389,1,0,0:0:0:0:
64,192,78459,1,0,0:0:0:0:
192,192,78459,1,0,0:0:0:0:
320,192,78459,1,0,0:0:0:0:
448,192,78459,1,0,0:0:0:0:
64,192,78530,1,0,0:0:0:0:
192,192,78530,1,0,0:0:0:0:
64,192,78600,1,0,0:0:0:0:
192,192,78600,1,0,0:0:0:0:
320,192,78600,1,0,0:0:0:0:
448,192,78600,1,0,0:0:0:0:
320,192,78670,1,0,0:0:0:0:
448,192,78670,1,0,0:0:0:0:
64,192,78741,1,0,0:0:0:0:
192,192,78741,1,0,0:0:0:0:
320,192,78741,1,0,0:0:0:0:
448,192,78741,1,0,0:0:0:0:
64,192,78811,1,0,0:0:0:0:
192,192,78811,1,0,0:0:0:0:
64,192,78882,1,0,0:0:0:0:
192,192,78882,1,0,0:0:0:0:
320,192,78882,1,0,0:0:0:0:
448,192,78882,1,0,0:0:0:0:
320,192,78952,1,0,0:0:0:0:
448,192,78952,1,0,0:0:0:0:
64,192,79022,1,0,0:0:0:0:
192,192,79022,1,0,0:0:0:0:
320,192,79022,1,0,0:0:0:0:
448,192,79022,1,0,0:0:0:0:
320,192,79092,1,0,0:0:0:0:
448,192,79092,1,0,0:0:0:0:
64,192,79163,1,0,0:0:0:0:
192,192,79163,1,0,0:0:0:0:
320,192,79163,1,0,0:0:0:0:
448,192,79163,1,0,0:0:0:0:
320,192,79233,1,0,0:0:0:0:
448,192,79233,1,0,0:0:0:0:
64,192,79304,1,0,0:0:0:0:
192,192,79304,1,0,0:0:0:0:
320,192,79304,1,0,0:0:0:0:
448,192,79304,1,0,0:0:0:0:
320,192,79374,1,0,0:0:0:0:
448,192,79374,1,0,0:0:0:0:
64,192,79445,1,0,0:0:0:0:
192,192,79445,1,0,0:0:0:0:
320,192,79445,1,0,0:0:0:0:
448,192,79445,1,0,0:0:0:0:
64,192,79515,1,0,0:0:0:0:
192,192,79515,1,0,0:0:0:0:
64,192,79586,1,0,0:0:0:0:
192,192,79586,1,0,0:0:0:0:
320,192,79586,1,0,0:0:0:0:
448,192,79586,1,0,0:0:0:0:
192,192,79655,1,0,0:0:0:0:
320,192,79655,1,0,0:0:0:0:
64,192,79726,1,0,0:0:0:0:
192,192,79726,1,0,0:0:0:0:
320,192,79726,1,0,0:0:0:0:
448,192,79726,1,0,0:0:0:0:
320,192,79796,1,0,0:0:0:0:
448,192,79796,1,0,0:0:0:0:
64,192,79867,1,0,0:0:0:0:
192,192,79867,1,0,0:0:0:0:
320,192,79867,1,0,0:0:0:0:
448,192,79867,1,0,0:0:0:0:
64,192,79937,1,0,0:0:0:0:
192,192,79937,1,0,0:0:0:0:
64,192,80008,1,0,0:0:0:0:
192,192,80008,1,0,0:0:0:0:
320,192,80008,1,0,0:0:0:0:
448,192,80008,1,0,0:0:0:0:
192,192,80078,1,0,0:0:0:0:
320,192,80078,1,0,0:0:0:0:
64,192,80149,1,0,0:0:0:0:
192,192,80149,1,0,0:0:0:0:
320,192,80149,1,0,0:0:0:0:
448,192,80149,1,0,0:0:0:0:
320,192,80219,1,0,0:0:0:0:
448,192,80219,1,0,0:0:0:0:
64,192,80289,1,0,0:0:0:0:
192,192,80289,1,0,0:0:0:0:
320,192,80289,1,0,0:0:0:0:
448,192,80289,1,0,0:0:0:0:
64,192,80359,1,0,0:0:0:0:
448,192,80359,1,0,0:0:0:0:
64,192,80430,1,0,0:0:0:0:
192,192,80430,1,0,0:0:0:0:
320,192,80430,1,0,0:0:0:0:
448,192,80430,1,0,0:0:0:0:
192,192,80500,1,0,0:0:0:0:
320,192,80500,1,0,0:0:0:0:
64,192,80570,1,0,0:0:0:0:
192,192,80570,1,0,0:0:0:0:
320,192,80570,1,0,0:0:0:0:
448,192,80570,1,0,0:0:0:0:
64,192,80641,1,0,0:0:0:0:
192,192,80641,1,0,0:0:0:0:
64,192,80711,1,0,0:0:0:0:
192,192,80711,1,0,0:0:0:0:
320,192,80711,1,0,0:0:0:0:
448,192,80711,1,0,0:0:0:0:
320,192,80782,1,0,0:0:0:0:
448,192,80782,1,0,0:0:0:0:
64,192,80852,1,0,0:0:0:0:
192,192,80852,1,0,0:0:0:0:
320,192,80852,1,0,0:0:0:0:
448,192,80852,1,0,0:0:0:0:
192,192,80922,1,0,0:0:0:0:
320,192,80922,1,0,0:0:0:0:
64,192,80992,1,0,0:0:0:0:
192,192,80992,1,0,0:0:0:0:
320,192,80992,1,0,0:0:0:0:
448,192,80992,1,0,0:0:0:0:
64,192,81063,1,0,0:0:0:0:
192,192,81063,1,0,0:0:0:0:
64,192,81133,1,0,0:0:0:0:
192,192,81133,1,0,0:0:0:0:
320,192,81133,1,0,0:0:0:0:
448,192,81133,1,0,0:0:0:0:
64,192,81204,1,0,0:0:0:0:
448,192,81204,1,0,0:0:0:0:
64,192,81274,1,0,0:0:0:0:
192,192,81274,1,0,0:0:0:0:
320,192,81274,1,0,0:0:0:0:
448,192,81274,1,0,0:0:0:0:
192,192,81345,1,0,0:0:0:0:
320,192,81345,1,0,0:0:0:0:
64,192,81415,1,0,0:0:0:0:
192,192,81415,1,0,0:0:0:0:
320,192,81415,1,0,0:0:0:0:
448,192,81415,1,0,0:0:0:0:
320,192,81486,1,0,0:0:0:0:
448,192,81486,1,0,0:0:0:0:
64,192,81556,1,0,0:0:0:0:
192,192,81556,1,0,0:0:0:0:
320,192,81556,1,0,0:0:0:0:
448,192,81556,1,0,0:0:0:0:
192,192,81626,1,0,0:0:0:0:
320,192,81626,1,0,0:0:0:0:
64,192,81696,1,0,0:0:0:0:
192,192,81696,1,0,0:0:0:0:
320,192,81696,1,0,0:0:0:0:
448,192,81696,1,0,0:0:0:0:
64,192,81767,1,0,0:0:0:0:
192,192,81767,1,0,0:0:0:0:
64,192,81837,1,0,0:0:0:0:
192,192,81837,1,0,0:0:0:0:
320,192,81837,1,0,0:0:0:0:
448,192,81837,1,0,0:0:0:0:
320,192,81908,1,0,0:0:0:0:
448,192,81908,1,0,0:0:0:0:
64,192,81978,1,0,0:0:0:0:
192,192,81978,1,0,0:0:0:0:
320,192,81978,1,0,0:0:0:0:
448,192,81978,1,0,0:0:0:0:
64,192,82049,1,0,0:0:0:0:
448,192,82049,1,0,0:0:0:0:
64,192,82119,1,0,0:0:0:0:
192,192,82119,1,0,0:0:0:0:
320,192,82119,1,0,0:0:0:0:
448,192,82119,1,0,0:0:0:0:
192,192,82190,1,0,0:0:0:0:
320,192,82190,1,0,0:0:0:0:
64,192,82259,1,0,0:0:0:0:
192,192,82259,1,0,0:0:0:0:
320,192,82259,1,0,0:0:0:0:
448,192,82259,1,0,0:0:0:0:
320,192,82330,1,0,0:0:0:0:
448,192,82330,1,0,0:0:0:0:
64,192,82400,1,0,0:0:0:0:
192,192,82400,1,0,0:0:0:0:
320,192,82400,1,0,0:0:0:0:
448,192,82400,1,0,0:0:0:0:
64,192,82470,1,0,0:0:0:0:
192,192,82470,1,0,0:0:0:0:
64,192,82541,1,0,0:0:0:0:
192,192,82541,1,0,0:0:0:0:
320,192,82541,1,0,0:0:0:0:
448,192,82541,1,0,0:0:0:0:
64,192,82611,1,0,0:0:0:0:
448,192,82611,1,0,0:0:0:0:
64,192,82682,1,0,0:0:0:0:
192,192,82682,1,0,0:0:0:0:
320,192,82682,1,0,0:0:0:0:
448,192,82682,1,0,0:0:0:0:
192,192,82752,1,0,0:0:0:0:
320,192,82752,1,0,0:0:0:0:
64,192,82823,1,0,0:0:0:0:
192,192,82823,1,0,0:0:0:0:
448,192,82823,1,0,0:0:0:0:
64,192,82892,1,0,0:0:0:0:
320,192,82892,1,0,0:0:0:0:
64,192,82963,1,0,0:0:0:0:
192,192,82963,1,0,0:0:0:0:
320,192,82963,1,0,0:0:0:0:
448,192,82963,1,0,0:0:0:0:
320,192,83033,1,0,0:0:0:0:
448,192,83033,1,0,0:0:0:0:
64,192,83104,1,0,0:0:0:0:
192,192,83104,1,0,0:0:0:0:
320,192,83104,1,0,0:0:0:0:
448,192,83104,1,0,0:0:0:0:
64,192,83174,1,0,0:0:0:0:
448,192,83174,1,0,0:0:0:0:
64,192,83245,1,0,0:0:0:0:
192,192,83245,1,0,0:0:0:0:
320,192,83245,1,0,0:0:0:0:
448,192,83245,1,0,0:0:0:0:
64,192,83315,1,0,0:0:0:0:
192,192,83315,1,0,0:0:0:0:
192,192,83386,1,0,0:0:0:0:
320,192,83386,1,0,0:0:0:0:
448,192,83386,1,0,0:0:0:0:
64,192,83456,1,0,0:0:0:0:
448,192,83456,1,0,0:0:0:0:
64,192,83526,1,0,0:0:0:0:
192,192,83526,1,0,0:0:0:0:
320,192,83526,1,0,0:0:0:0:
448,192,83526,1,0,0:0:0:0:
192,192,83596,1,0,0:0:0:0:
320,192,83596,1,0,0:0:0:0:
64,192,83667,1,0,0:0:0:0:
192,192,83667,1,0,0:0:0:0:
320,192,83667,1,0,0:0:0:0:
448,192,83667,1,0,0:0:0:0:
64,192,83737,1,0,0:0:0:0:
192,192,83737,1,0,0:0:0:0:
64,192,83808,1,0,0:0:0:0:
192,192,83808,1,0,0:0:0:0:
320,192,83808,1,0,0:0:0:0:
448,192,83808,1,0,0:0:0:0:
320,192,83878,1,0,0:0:0:0:
448,192,83878,1,0,0:0:0:0:
64,192,83949,1,0,0:0:0:0:
192,192,83949,1,0,0:0:0:0:
448,192,83949,1,0,0:0:0:0:
64,192,84019,1,0,0:0:0:0:
320,192,84019,1,0,0:0:0:0:
64,192,84090,1,0,0:0:0:0:
192,192,84090,1,0,0:0:0:0:
320,192,84090,1,0,0:0:0:0:
448,192,84090,1,0,0:0:0:0:
192,192,84159,1,0,0:0:0:0:
448,192,84159,1,0,0:0:0:0:
64,192,84230,1,0,0:0:0:0:
192,192,84230,1,0,0:0:0:0:
320,192,84230,1,0,0:0:0:0:
448,192,84230,1,0,0:0:0:0:
320,192,84300,1,0,0:0:0:0:
448,192,84300,1,0,0:0:0:0:
64,192,84370,1,0,0:0:0:0:
192,192,84370,1,0,0:0:0:0:
320,192,84370,1,0,0:0:0:0:
448,192,84370,1,0,0:0:0:0:
64,192,84441,1,0,0:0:0:0:
192,192,84441,1,0,0:0:0:0:
64,192,84511,1,0,0:0:0:0:
320,192,84511,1,0,0:0:0:0:
448,192,84511,1,0,0:0:0:0:
192,192,84582,1,0,0:0:0:0:
320,192,84582,1,0,0:0:0:0:
64,192,84652,1,0,0:0:0:0:
192,192,84652,1,0,0:0:0:0:
320,192,84652,1,0,0:0:0:0:
448,192,84652,1,0,0:0:0:0:
64,192,84723,1,0,0:0:0:0:
448,192,84723,1,0,0:0:0:0:
64,192,84793,1,0,0:0:0:0:
192,192,84793,1,0,0:0:0:0:
320,192,84793,1,0,0:0:0:0:
448,192,84793,1,0,0:0:0:0:
320,192,84863,1,0,0:0:0:0:
448,192,84863,1,0,0:0:0:0:
64,192,84933,1,0,0:0:0:0:
192,192,84933,1,0,0:0:0:0:
320,192,84933,1,0,0:0:0:0:
448,192,84933,1,0,0:0:0:0:
64,192,85004,1,0,0:0:0:0:
192,192,85004,1,0,0:0:0:0:
192,192,85074,1,0,0:0:0:0:
320,192,85074,1,0,0:0:0:0:
448,192,85074,1,0,0:0:0:0:
64,192,85145,1,0,0:0:0:0:
320,192,85145,1,0,0:0:0:0:
64,192,85215,1,0,0:0:0:0:
192,192,85215,1,0,0:0:0:0:
320,192,85215,1,0,0:0:0:0:
448,192,85215,1,0,0:0:0:0:
192,192,85286,1,0,0:0:0:0:
448,192,85286,1,0,0:0:0:0:
64,192,85356,1,0,0:0:0:0:
192,192,85356,1,0,0:0:0:0:
320,192,85356,1,0,0:0:0:0:
448,192,85356,1,0,0:0:0:0:
320,192,85427,1,0,0:0:0:0:
448,192,85427,1,0,0:0:0:0:
64,192,85496,1,0,0:0:0:0:
192,192,85496,1,0,0:0:0:0:
320,192,85496,1,0,0:0:0:0:
448,192,85496,1,0,0:0:0:0:
64,192,85567,1,0,0:0:0:0:
320,192,85567,1,0,0:0:0:0:
192,192,85637,1,0,0:0:0:0:
320,192,85637,1,0,0:0:0:0:
448,192,85637,1,0,0:0:0:0:
64,192,85708,1,0,0:0:0:0:
448,192,85708,1,0,0:0:0:0:
64,192,85778,1,0,0:0:0:0:
192,192,85778,1,0,0:0:0:0:
320,192,85778,1,0,0:0:0:0:
448,192,85778,1,0,0:0:0:0:
192,192,85849,1,0,0:0:0:0:
320,192,85849,1,0,0:0:0:0:
64,192,85919,1,0,0:0:0:0:
192,192,85919,1,0,0:0:0:0:
320,192,85919,1,0,0:0:0:0:
448,192,85919,1,0,0:0:0:0:
64,192,85990,1,0,0:0:0:0:
192,192,85990,1,0,0:0:0:0:
64,192,86060,1,0,0:0:0:0:
192,192,86060,1,0,0:0:0:0:
320,192,86060,1,0,0:0:0:0:
448,192,86060,1,0,0:0:0:0:
64,192,86130,1,0,0:0:0:0:
448,192,86130,1,0,0:0:0:0:
64,192,86200,1,0,0:0:0:0:
192,192,86200,1,0,0:0:0:0:
320,192,86200,1,0,0:0:0:0:
320,192,86270,1,0,0:0:0:0:
448,192,86270,1,0,0:0:0:0:
64,192,86341,1,0,0:0:0:0:
192,192,86341,1,0,0:0:0:0:
320,192,86341,1,0,0:0:0:0:
448,192,86341,1,0,0:0:0:0:
64,192,86411,1,0,0:0:0:0:
192,192,86411,1,0,0:0:0:0:
64,192,86482,1,0,0:0:0:0:
192,192,86482,1,0,0:0:0:0:
320,192,86482,1,0,0:0:0:0:
448,192,86482,1,0,0:0:0:0:
320,192,86552,1,0,0:0:0:0:
448,192,86552,1,0,0:0:0:0:
64,192,86623,1,0,0:0:0:0:
192,192,86623,1,0,0:0:0:0:
320,192,86623,1,0,0:0:0:0:
448,192,86623,1,0,0:0:0:0:
192,192,86693,1,0,0:0:0:0:
448,192,86693,1,0,0:0:0:0:
64,192,86763,1,0,0:0:0:0:
320,192,86763,1,0,0:0:0:0:
448,192,86763,1,0,0:0:0:0:
64,192,86833,1,0,0:0:0:0:
192,192,86833,1,0,0:0:0:0:
64,192,86904,1,0,0:0:0:0:
192,192,86904,1,0,0:0:0:0:
320,192,86904,1,0,0:0:0:0:
448,192,86904,1,0,0:0:0:0:
64,192,86974,1,0,0:0:0:0:
448,192,86974,1,0,0:0:0:0:
64,192,87045,1,0,0:0:0:0:
192,192,87045,1,0,0:0:0:0:
320,192,87045,1,0,0:0:0:0:
448,192,87045,1,0,0:0:0:0:
192,192,87115,1,0,0:0:0:0:
448,192,87115,1,0,0:0:0:0:
64,192,87186,1,0,0:0:0:0:
192,192,87186,1,0,0:0:0:0:
320,192,87186,1,0,0:0:0:0:
448,192,87186,1,0,0:0:0:0:
64,192,87256,1,0,0:0:0:0:
192,192,87256,1,0,0:0:0:0:
192,192,87327,1,0,0:0:0:0:
320,192,87327,1,0,0:0:0:0:
448,192,87327,1,0,0:0:0:0:
64,192,87397,1,0,0:0:0:0:
448,192,87397,1,0,0:0:0:0:
64,192,87467,1,0,0:0:0:0:
192,192,87467,1,0,0:0:0:0:
320,192,87467,1,0,0:0:0:0:
448,192,87467,1,0,0:0:0:0:
192,192,87537,1,0,0:0:0:0:
320,192,87537,1,0,0:0:0:0:
64,192,87608,1,0,0:0:0:0:
192,192,87608,1,0,0:0:0:0:
320,192,87608,1,0,0:0:0:0:
448,192,87608,1,0,0:0:0:0:
64,192,87678,1,0,0:0:0:0:
192,192,87678,1,0,0:0:0:0:
64,192,87749,1,0,0:0:0:0:
192,192,87749,1,0,0:0:0:0:
320,192,87749,1,0,0:0:0:0:
448,192,87749,1,0,0:0:0:0:
320,192,87819,1,0,0:0:0:0:
448,192,87819,1,0,0:0:0:0:
64,192,87890,1,0,0:0:0:0:
192,192,87890,1,0,0:0:0:0:
320,192,87890,1,0,0:0:0:0:
192,192,87960,1,0,0:0:0:0:
448,192,87960,1,0,0:0:0:0:
64,192,88030,1,0,0:0:0:0:
192,192,88030,1,0,0:0:0:0:
320,192,88030,1,0,0:0:0:0:
448,192,88030,1,0,0:0:0:0:
64,192,88100,1,0,0:0:0:0:
320,192,88100,1,0,0:0:0:0:
64,192,88170,1,0,0:0:0:0:
192,192,88170,1,0,0:0:0:0:
320,192,88170,1,0,0:0:0:0:
448,192,88170,1,0,0:0:0:0:
64,192,88241,1,0,0:0:0:0:
192,192,88241,1,0,0:0:0:0:
64,192,88311,1,0,0:0:0:0:
192,192,88311,1,0,0:0:0:0:
320,192,88311,1,0,0:0:0:0:
448,192,88311,1,0,0:0:0:0:
192,192,88382,1,0,0:0:0:0:
448,192,88382,1,0,0:0:0:0:
64,192,88452,1,0,0:0:0:0:
192,192,88452,1,0,0:0:0:0:
320,192,88452,1,0,0:0:0:0:
64,192,88523,1,0,0:0:0:0:
448,192,88523,1,0,0:0:0:0:
64,192,88593,1,0,0:0:0:0:
192,192,88593,1,0,0:0:0:0:
320,192,88593,1,0,0:0:0:0:
448,192,88593,1,0,0:0:0:0:
192,192,88664,1,0,0:0:0:0:
320,192,88664,1,0,0:0:0:0:
64,192,88733,1,0,0:0:0:0:
192,192,88733,1,0,0:0:0:0:
320,192,88733,1,0,0:0:0:0:
448,192,88733,1,0,0:0:0:0:
64,192,88804,1,0,0:0:0:0:
192,192,88804,1,0,0:0:0:0:
64,192,88874,1,0,0:0:0:0:
192,192,88874,1,0,0:0:0:0:
320,192,88874,1,0,0:0:0:0:
448,192,88874,1,0,0:0:0:0:
320,192,88945,1,0,0:0:0:0:
448,192,88945,1,0,0:0:0:0:
64,192,89015,1,0,0:0:0:0:
192,192,89015,1,0,0:0:0:0:
320,192,89015,1,0,0:0:0:0:
448,192,89015,1,0,0:0:0:0:
64,192,89086,1,0,0:0:0:0:
192,192,89086,1,0,0:0:0:0:
320,192,89086,1,0,0:0:0:0:
64,192,89156,1,0,0:0:0:0:
320,192,89156,1,0,0:0:0:0:
448,192,89156,1,0,0:0:0:0:
64,192,89227,1,0,0:0:0:0:
192,192,89227,1,0,0:0:0:0:
448,192,89227,1,0,0:0:0:0:
64,192,89297,1,0,0:0:0:0:
192,192,89297,1,0,0:0:0:0:
320,192,89297,1,0,0:0:0:0:
448,192,89297,1,0,0:0:0:0:
192,192,89367,1,0,0:0:0:0:
320,192,89367,1,0,0:0:0:0:
448,192,89367,1,0,0:0:0:0:
64,192,89437,1,0,0:0:0:0:
192,192,89437,1,0,0:0:0:0:
320,192,89437,1,0,0:0:0:0:
64,192,89508,1,0,0:0:0:0:
192,192,89508,1,0,0:0:0:0:
448,192,89508,1,0,0:0:0:0:
64,192,89578,1,0,0:0:0:0:
192,192,89578,1,0,0:0:0:0:
320,192,89578,1,0,0:0:0:0:
448,192,89578,1,0,0:0:0:0:
64,192,89649,1,0,0:0:0:0:
320,192,89649,1,0,0:0:0:0:
448,192,89649,1,0,0:0:0:0:
192,192,89719,1,0,0:0:0:0:
320,192,89719,1,0,0:0:0:0:
448,192,89719,1,0,0:0:0:0:
64,192,89790,1,0,0:0:0:0:
192,192,89790,1,0,0:0:0:0:
448,192,89790,1,0,0:0:0:0:
64,192,89860,1,0,0:0:0:0:
192,192,89860,1,0,0:0:0:0:
320,192,89860,1,0,0:0:0:0:
448,192,89860,1,0,0:0:0:0:
64,192,89930,1,0,0:0:0:0:
192,192,89930,1,0,0:0:0:0:
320,192,89930,1,0,0:0:0:0:
64,192,90000,1,0,0:0:0:0:
320,192,90000,1,0,0:0:0:0:
448,192,90000,1,0,0:0:0:0:
192,192,90070,1,0,0:0:0:0:
320,192,90070,1,0,0:0:0:0:
448,192,90070,1,0,0:0:0:0:
64,192,90141,1,0,0:0:0:0:
192,192,90141,1,0,0:0:0:0:
320,192,90141,1,0,0:0:0:0:
448,192,90141,1,0,0:0:0:0:
64,192,90211,1,0,0:0:0:0:
192,192,90211,1,0,0:0:0:0:
320,192,90211,1,0,0:0:0:0:
64,192,90282,1,0,0:0:0:0:
192,192,90282,1,0,0:0:0:0:
448,192,90282,1,0,0:0:0:0:
192,192,90352,1,0,0:0:0:0:
320,192,90352,1,0,0:0:0:0:
448,192,90352,1,0,0:0:0:0:
64,192,90423,1,0,0:0:0:0:
192,192,90423,1,0,0:0:0:0:
320,192,90423,1,0,0:0:0:0:
448,192,90423,1,0,0:0:0:0:
64,192,90493,1,0,0:0:0:0:
320,192,90493,1,0,0:0:0:0:
448,192,90493,1,0,0:0:0:0:
64,192,90564,1,0,0:0:0:0:
192,192,90564,1,0,0:0:0:0:
320,192,90564,1,0,0:0:0:0:
64,192,90634,1,0,0:0:0:0:
192,192,90634,1,0,0:0:0:0:
448,192,90634,1,0,0:0:0:0:
64,192,90704,1,0,0:0:0:0:
192,192,90704,1,0,0:0:0:0:
320,192,90704,1,0,0:0:0:0:
448,192,90704,1,0,0:0:0:0:
64,192,90774,1,0,0:0:0:0:
192,192,90774,1,0,0:0:0:0:
320,192,90774,1,0,0:0:0:0:
448,192,90774,1,0,0:0:0:0:
64,192,90845,1,0,0:0:0:0:
192,192,90845,1,0,0:0:0:0:
320,192,90845,1,0,0:0:0:0:
448,192,90845,1,0,0:0:0:0:
64,192,90915,1,0,0:0:0:0:
192,192,90915,1,0,0:0:0:0:
320,192,90915,1,0,0:0:0:0:
448,192,90915,1,0,0:0:0:0:
64,192,90986,1,0,0:0:0:0:
192,192,90986,1,0,0:0:0:0:
320,192,90986,1,0,0:0:0:0:
448,192,90986,1,0,0:0:0:0:
64,192,91056,1,0,0:0:0:0:
192,192,91056,1,0,0:0:0:0:
320,192,91056,1,0,0:0:0:0:
448,192,91056,1,0,0:0:0:0:
64,192,91127,1,0,0:0:0:0:
192,192,91127,1,0,0:0:0:0:
320,192,91127,1,0,0:0:0:0:
448,192,91127,1,0,0:0:0:0:
64,192,91197,1,0,0:0:0:0:
192,192,91197,1,0,0:0:0:0:
320,192,91197,1,0,0:0:0:0:
448,192,91197,1,0,0:0:0:0:
64,192,91268,1,0,0:0:0:0:
192,192,91268,1,0,0:0:0:0:
320,192,91268,1,0,0:0:0:0:
448,192,91268,1,0,0:0:0:0:
320,192,91408,1,0,0:0:0:0:
192,192,91549,1,0,0:0:0:0:
320,192,91549,1,0,0:0:0:0:
64,192,91690,128,0,91970:0:0:0:0:
448,192,91970,1,0,0:0:0:0:
320,192,92111,1,0,0:0:0:0:
64,192,92252,128,0,92674:0:0:0:0:
192,192,92393,1,0,0:0:0:0:
320,192,92393,1,0,0:0:0:0:
448,192,92393,1,0,0:0:0:0:
320,192,92674,128,0,92956:0:0:0:0:
192,192,92956,128,0,93238:0:0:0:0:
448,192,93238,128,0,93519:0:0:0:0:
64,192,93519,1,0,0:0:0:0:
192,192,93519,1,0,0:0:0:0:
320,192,93519,1,0,0:0:0:0:
448,192,93801,1,0,0:0:0:0:
192,192,93941,128,0,95208:0:0:0:0:
320,192,93941,1,0,0:0:0:0:
320,192,94082,1,0,0:0:0:0:
320,192,94223,1,0,0:0:0:0:
320,192,94364,1,0,0:0:0:0:
320,192,94505,1,0,0:0:0:0:
64,192,94645,1,0,0:0:0:0:
320,192,94645,1,0,0:0:0:0:
448,192,94645,1,0,0:0:0:0:
320,192,94786,1,0,0:0:0:0:
320,192,94927,1,0,0:0:0:0:
320,192,95068,1,0,0:0:0:0:
320,192,95208,1,0,0:0:0:0:
64,192,95349,1,0,0:0:0:0:
320,192,95490,1,0,0:0:0:0:
448,192,95490,1,0,0:0:0:0:
64,192,95771,1,0,0:0:0:0:
192,192,95771,1,0,0:0:0:0:
320,192,95771,1,0,0:0:0:0:
448,192,95771,128,0,96052:0:0:0:0:
192,192,96052,1,0,0:0:0:0:
320,192,96193,128,0,96475:0:0:0:0:
64,192,96615,128,0,97178:0:0:0:0:
192,192,96897,1,0,0:0:0:0:
320,192,96897,1,0,0:0:0:0:
448,192,96897,1,0,0:0:0:0:
448,192,97178,1,0,0:0:0:0:
192,192,97460,1,0,0:0:0:0:
320,192,97742,1,0,0:0:0:0:
64,192,98023,1,0,0:0:0:0:
192,192,98023,1,0,0:0:0:0:
320,192,98023,1,0,0:0:0:0:
448,192,98023,1,0,0:0:0:0:
192,192,98305,1,0,0:0:0:0:
320,192,98445,1,0,0:0:0:0:
64,192,98586,1,0,0:0:0:0:
192,192,98586,1,0,0:0:0:0:
320,192,98586,1,0,0:0:0:0:
448,192,98586,1,0,0:0:0:0:
192,192,98868,1,0,0:0:0:0:
64,192,99149,1,0,0:0:0:0:
192,192,99149,1,0,0:0:0:0:
320,192,99149,1,0,0:0:0:0:
448,192,99149,1,0,0:0:0:0:
320,192,99219,1,0,0:0:0:0:
448,192,99219,1,0,0:0:0:0:
64,192,99290,1,0,0:0:0:0:
192,192,99290,1,0,0:0:0:0:
320,192,99290,1,0,0:0:0:0:
448,192,99290,1,0,0:0:0:0:
64,192,99360,1,0,0:0:0:0:
192,192,99360,1,0,0:0:0:0:
64,192,99430,1,0,0:0:0:0:
192,192,99430,1,0,0:0:0:0:
320,192,99430,1,0,0:0:0:0:
448,192,99430,1,0,0:0:0:0:
64,192,99501,1,0,0:0:0:0:
448,192,99501,1,0,0:0:0:0:
64,192,99571,1,0,0:0:0:0:
192,192,99571,1,0,0:0:0:0:
320,192,99571,1,0,0:0:0:0:
448,192,99571,1,0,0:0:0:0:
192,192,99642,1,0,0:0:0:0:
320,192,99642,1,0,0:0:0:0:
64,192,99712,1,0,0:0:0:0:
192,192,99712,1,0,0:0:0:0:
320,192,99712,1,0,0:0:0:0:
448,192,99712,1,0,0:0:0:0:
64,192,99782,1,0,0:0:0:0:
192,192,99782,1,0,0:0:0:0:
320,192,99782,1,0,0:0:0:0:
448,192,99782,1,0,0:0:0:0:
64,192,99852,1,0,0:0:0:0:
192,192,99852,1,0,0:0:0:0:
320,192,99852,1,0,0:0:0:0:
448,192,99852,1,0,0:0:0:0:
64,192,99923,1,0,0:0:0:0:
192,192,99923,1,0,0:0:0:0:
320,192,99923,1,0,0:0:0:0:
448,192,99923,1,0,0:0:0:0:
64,192,99993,1,0,0:0:0:0:
192,192,99993,1,0,0:0:0:0:
320,192,99993,1,0,0:0:0:0:
448,192,99993,1,0,0:0:0:0:
64,192,100064,1,0,0:0:0:0:
192,192,100064,1,0,0:0:0:0:
320,192,100064,1,0,0:0:0:0:
448,192,100064,1,0,0:0:0:0:
64,192,100134,1,0,0:0:0:0:
192,192,100134,1,0,0:0:0:0:
320,192,100134,1,0,0:0:0:0:
448,192,100134,1,0,0:0:0:0:
64,192,100205,1,0,0:0:0:0:
192,192,100205,1,0,0:0:0:0:
320,192,100205,1,0,0:0:0:0:
448,192,100205,1,0,0:0:0:0:
64,192,100275,1,0,0:0:0:0:
192,192,100275,1,0,0:0:0:0:
320,192,100275,1,0,0:0:0:0:
448,192,100275,1,0,0:0:0:0:
320,192,100346,1,0,0:0:0:0:
448,192,100346,1,0,0:0:0:0:
64,192,100415,1,0,0:0:0:0:
192,192,100415,1,0,0:0:0:0:
320,192,100415,1,0,0:0:0:0:
448,192,100415,1,0,0:0:0:0:
64,192,100486,1,0,0:0:0:0:
192,192,100486,1,0,0:0:0:0:
64,192,100556,1,0,0:0:0:0:
192,192,100556,1,0,0:0:0:0:
320,192,100556,1,0,0:0:0:0:
448,192,100556,1,0,0:0:0:0:
64,192,100627,1,0,0:0:0:0:
448,192,100627,1,0,0:0:0:0:
64,192,100697,1,0,0:0:0:0:
192,192,100697,1,0,0:0:0:0:
320,192,100697,1,0,0:0:0:0:
448,192,100697,1,0,0:0:0:0:
192,192,100768,1,0,0:0:0:0:
320,192,100768,1,0,0:0:0:0:
64,192,100838,1,0,0:0:0:0:
192,192,100838,1,0,0:0:0:0:
448,192,100838,1,0,0:0:0:0:
64,192,100909,1,0,0:0:0:0:
320,192,100909,1,0,0:0:0:0:
64,192,100979,1,0,0:0:0:0:
192,192,100979,1,0,0:0:0:0:
320,192,100979,1,0,0:0:0:0:
448,192,100979,1,0,0:0:0:0:
320,192,101049,1,0,0:0:0:0:
448,192,101049,1,0,0:0:0:0:
64,192,101119,1,0,0:0:0:0:
192,192,101119,1,0,0:0:0:0:
320,192,101119,1,0,0:0:0:0:
448,192,101119,1,0,0:0:0:0:
64,192,101190,1,0,0:0:0:0:
448,192,101190,1,0,0:0:0:0:
64,192,101260,1,0,0:0:0:0:
192,192,101260,1,0,0:0:0:0:
320,192,101260,1,0,0:0:0:0:
448,192,101260,1,0,0:0:0:0:
64,192,101330,1,0,0:0:0:0:
192,192,101330,1,0,0:0:0:0:
192,192,101401,1,0,0:0:0:0:
320,192,101401,1,0,0:0:0:0:
448,192,101401,1,0,0:0:0:0:
64,192,101471,1,0,0:0:0:0:
448,192,101471,1,0,0:0:0:0:
64,192,101542,1,0,0:0:0:0:
192,192,101542,1,0,0:0:0:0:
320,192,101542,1,0,0:0:0:0:
448,192,101542,1,0,0:0:0:0:
192,192,101612,1,0,0:0:0:0:
320,192,101612,1,0,0:0:0:0:
64,192,101683,1,0,0:0:0:0:
192,192,101683,1,0,0:0:0:0:
320,192,101683,1,0,0:0:0:0:
448,192,101683,1,0,0:0:0:0:
64,192,101752,1,0,0:0:0:0:
192,192,101752,1,0,0:0:0:0:
64,192,101823,1,0,0:0:0:0:
192,192,101823,1,0,0:0:0:0:
320,192,101823,1,0,0:0:0:0:
448,192,101823,1,0,0:0:0:0:
320,192,101893,1,0,0:0:0:0:
448,192,101893,1,0,0:0:0:0:
64,192,101964,1,0,0:0:0:0:
192,192,101964,1,0,0:0:0:0:
448,192,101964,1,0,0:0:0:0:
64,192,102034,1,0,0:0:0:0:
320,192,102034,1,0,0:0:0:0:
64,192,102105,1,0,0:0:0:0:
192,192,102105,1,0,0:0:0:0:
320,192,102105,1,0,0:0:0:0:
448,192,102105,1,0,0:0:0:0:
192,192,102175,1,0,0:0:0:0:
448,192,102175,1,0,0:0:0:0:
64,192,102246,1,0,0:0:0:0:
192,192,102246,1,0,0:0:0:0:
320,192,102246,1,0,0:0:0:0:
448,192,102246,1,0,0:0:0:0:
320,192,102316,1,0,0:0:0:0:
448,192,102316,1,0,0:0:0:0:
64,192,102386,1,0,0:0:0:0:
192,192,102386,1,0,0:0:0:0:
320,192,102386,1,0,0:0:0:0:
448,192,102386,1,0,0:0:0:0:
64,192,102456,1,0,0:0:0:0:
192,192,102456,1,0,0:0:0:0:
64,192,102527,1,0,0:0:0:0:
320,192,102527,1,0,0:0:0:0:
448,192,102527,1,0,0:0:0:0:
192,192,102597,1,0,0:0:0:0:
320,192,102597,1,0,0:0:0:0:
64,192,102668,1,0,0:0:0:0:
192,192,102668,1,0,0:0:0:0:
320,192,102668,1,0,0:0:0:0:
448,192,102668,1,0,0:0:0:0:
64,192,102738,1,0,0:0:0:0:
448,192,102738,1,0,0:0:0:0:
64,192,102809,1,0,0:0:0:0:
192,192,102809,1,0,0:0:0:0:
320,192,102809,1,0,0:0:0:0:
448,192,102809,1,0,0:0:0:0:
320,192,102879,1,0,0:0:0:0:
448,192,102879,1,0,0:0:0:0:
64,192,102950,1,0,0:0:0:0:
192,192,102950,1,0,0:0:0:0:
320,192,102950,1,0,0:0:0:0:
448,192,102950,1,0,0:0:0:0:
64,192,103019,1,0,0:0:0:0:
192,192,103019,1,0,0:0:0:0:
192,192,103090,1,0,0:0:0:0:
320,192,103090,1,0,0:0:0:0:
448,192,103090,1,0,0:0:0:0:
64,192,103160,1,0,0:0:0:0:
320,192,103160,1,0,0:0:0:0:
64,192,103230,1,0,0:0:0:0:
192,192,103230,1,0,0:0:0:0:
320,192,103230,1,0,0:0:0:0:
448,192,103230,1,0,0:0:0:0:
192,192,103301,1,0,0:0:0:0:
448,192,103301,1,0,0:0:0:0:
64,192,103371,1,0,0:0:0:0:
192,192,103371,1,0,0:0:0:0:
320,192,103371,1,0,0:0:0:0:
448,192,103371,1,0,0:0:0:0:
320,192,103442,1,0,0:0:0:0:
448,192,103442,1,0,0:0:0:0:
64,192,103512,1,0,0:0:0:0:
192,192,103512,1,0,0:0:0:0:
320,192,103512,1,0,0:0:0:0:
448,192,103512,1,0,0:0:0:0:
64,192,103583,1,0,0:0:0:0:
320,192,103583,1,0,0:0:0:0:
192,192,103652,1,0,0:0:0:0:
320,192,103652,1,0,0:0:0:0:
448,192,103652,1,0,0:0:0:0:
64,192,103723,1,0,0:0:0:0:
448,192,103723,1,0,0:0:0:0:
64,192,103793,1,0,0:0:0:0:
192,192,103793,1,0,0:0:0:0:
320,192,103793,1,0,0:0:0:0:
448,192,103793,1,0,0:0:0:0:
192,192,103864,1,0,0:0:0:0:
320,192,103864,1,0,0:0:0:0:
64,192,103934,1,0,0:0:0:0:
192,192,103934,1,0,0:0:0:0:
320,192,103934,1,0,0:0:0:0:
448,192,103934,1,0,0:0:0:0:
64,192,104005,1,0,0:0:0:0:
192,192,104005,1,0,0:0:0:0:
64,192,104075,1,0,0:0:0:0:
192,192,104075,1,0,0:0:0:0:
320,192,104075,1,0,0:0:0:0:
448,192,104075,1,0,0:0:0:0:
64,192,104146,1,0,0:0:0:0:
448,192,104146,1,0,0:0:0:0:
64,192,104216,1,0,0:0:0:0:
192,192,104216,1,0,0:0:0:0:
320,192,104216,1,0,0:0:0:0:
320,192,104286,1,0,0:0:0:0:
448,192,104286,1,0,0:0:0:0:
64,192,104356,1,0,0:0:0:0:
192,192,104356,1,0,0:0:0:0:
320,192,104356,1,0,0:0:0:0:
448,192,104356,1,0,0:0:0:0:
64,192,104427,1,0,0:0:0:0:
192,192,104427,1,0,0:0:0:0:
64,192,104497,1,0,0:0:0:0:
192,192,104497,1,0,0:0:0:0:
320,192,104497,1,0,0:0:0:0:
448,192,104497,1,0,0:0:0:0:
64,192,104568,1,0,0:0:0:0:
448,192,104568,1,0,0:0:0:0:
64,192,104638,1,0,0:0:0:0:
192,192,104638,1,0,0:0:0:0:
320,192,104638,1,0,0:0:0:0:
448,192,104638,1,0,0:0:0:0:
192,192,104709,1,0,0:0:0:0:
320,192,104709,1,0,0:0:0:0:
448,192,104709,1,0,0:0:0:0:
64,192,104779,1,0,0:0:0:0:
320,192,104779,1,0,0:0:0:0:
448,192,104779,1,0,0:0:0:0:
64,192,104850,1,0,0:0:0:0:
192,192,104850,1,0,0:0:0:0:
320,192,104850,1,0,0:0:0:0:
64,192,104920,1,0,0:0:0:0:
192,192,104920,1,0,0:0:0:0:
320,192,104920,1,0,0:0:0:0:
448,192,104920,1,0,0:0:0:0:
64,192,104990,1,0,0:0:0:0:
448,192,104990,1,0,0:0:0:0:
64,192,105060,1,0,0:0:0:0:
192,192,105060,1,0,0:0:0:0:
320,192,105060,1,0,0:0:0:0:
448,192,105060,1,0,0:0:0:0:
192,192,105130,1,0,0:0:0:0:
320,192,105130,1,0,0:0:0:0:
64,192,105201,1,0,0:0:0:0:
192,192,105201,1,0,0:0:0:0:
320,192,105201,1,0,0:0:0:0:
448,192,105201,1,0,0:0:0:0:
64,192,105271,1,0,0:0:0:0:
192,192,105271,1,0,0:0:0:0:
192,192,105342,1,0,0:0:0:0:
320,192,105342,1,0,0:0:0:0:
448,192,105342,1,0,0:0:0:0:
64,192,105412,1,0,0:0:0:0:
448,192,105412,1,0,0:0:0:0:
64,192,105483,1,0,0:0:0:0:
192,192,105483,1,0,0:0:0:0:
320,192,105483,1,0,0:0:0:0:
448,192,105483,1,0,0:0:0:0:
320,192,105553,1,0,0:0:0:0:
448,192,105553,1,0,0:0:0:0:
64,192,105623,1,0,0:0:0:0:
192,192,105623,1,0,0:0:0:0:
320,192,105623,1,0,0:0:0:0:
448,192,105623,1,0,0:0:0:0:
64,192,105693,1,0,0:0:0:0:
192,192,105693,1,0,0:0:0:0:
64,192,105764,1,0,0:0:0:0:
192,192,105764,1,0,0:0:0:0:
320,192,105764,1,0,0:0:0:0:
448,192,105764,1,0,0:0:0:0:
192,192,105834,1,0,0:0:0:0:
448,192,105834,1,0,0:0:0:0:
64,192,105905,1,0,0:0:0:0:
320,192,105905,1,0,0:0:0:0:
448,192,105905,1,0,0:0:0:0:
192,192,105975,1,0,0:0:0:0:
320,192,105975,1,0,0:0:0:0:
64,192,106046,1,0,0:0:0:0:
192,192,106046,1,0,0:0:0:0:
320,192,106046,1,0,0:0:0:0:
448,192,106046,1,0,0:0:0:0:
320,192,106116,1,0,0:0:0:0:
448,192,106116,1,0,0:0:0:0:
64,192,106187,1,0,0:0:0:0:
192,192,106187,1,0,0:0:0:0:
320,192,106187,1,0,0:0:0:0:
448,192,106187,1,0,0:0:0:0:
64,192,106256,1,0,0:0:0:0:
192,192,106256,1,0,0:0:0:0:
64,192,106327,1,0,0:0:0:0:
192,192,106327,1,0,0:0:0:0:
320,192,106327,1,0,0:0:0:0:
448,192,106327,1,0,0:0:0:0:
64,192,106397,1,0,0:0:0:0:
320,192,106397,1,0,0:0:0:0:
64,192,106468,1,0,0:0:0:0:
192,192,106468,1,0,0:0:0:0:
448,192,106468,1,0,0:0:0:0:
320,192,106538,1,0,0:0:0:0:
448,192,106538,1,0,0:0:0:0:
64,192,106609,1,0,0:0:0:0:
192,192,106609,1,0,0:0:0:0:
320,192,106609,1,0,0:0:0:0:
448,192,106609,1,0,0:0:0:0:
64,192,106679,1,0,0:0:0:0:
448,192,106679,1,0,0:0:0:0:
64,192,106750,1,0,0:0:0:0:
192,192,106750,1,0,0:0:0:0:
320,192,106750,1,0,0:0:0:0:
448,192,106750,1,0,0:0:0:0:
64,192,106820,1,0,0:0:0:0:
320,192,106820,1,0,0:0:0:0:
64,192,106890,1,0,0:0:0:0:
192,192,106890,1,0,0:0:0:0:
320,192,106890,1,0,0:0:0:0:
448,192,106890,1,0,0:0:0:0:
320,192,106960,1,0,0:0:0:0:
448,192,106960,1,0,0:0:0:0:
64,192,107030,1,0,0:0:0:0:
192,192,107030,1,0,0:0:0:0:
320,192,107030,1,0,0:0:0:0:
64,192,107101,1,0,0:0:0:0:
448,192,107101,1,0,0:0:0:0:
64,192,107171,1,0,0:0:0:0:
192,192,107171,1,0,0:0:0:0:
320,192,107171,1,0,0:0:0:0:
448,192,107171,1,0,0:0:0:0:
192,192,107242,1,0,0:0:0:0:
320,192,107242,1,0,0:0:0:0:
64,192,107312,1,0,0:0:0:0:
192,192,107312,1,0,0:0:0:0:
320,192,107312,1,0,0:0:0:0:
448,192,107312,1,0,0:0:0:0:
320,192,107383,1,0,0:0:0:0:
448,192,107383,1,0,0:0:0:0:
64,192,107453,1,0,0:0:0:0:
192,192,107453,1,0,0:0:0:0:
320,192,107453,1,0,0:0:0:0:
448,192,107453,1,0,0:0:0:0:
64,192,107524,1,0,0:0:0:0:
192,192,107524,1,0,0:0:0:0:
64,192,107593,1,0,0:0:0:0:
320,192,107593,1,0,0:0:0:0:
448,192,107593,1,0,0:0:0:0:
192,192,107664,1,0,0:0:0:0:
448,192,107664,1,0,0:0:0:0:
64,192,107734,1,0,0:0:0:0:
192,192,107734,1,0,0:0:0:0:
320,192,107734,1,0,0:0:0:0:
448,192,107734,1,0,0:0:0:0:
64,192,107805,1,0,0:0:0:0:
320,192,107805,1,0,0:0:0:0:
64,192,107875,1,0,0:0:0:0:
192,192,107875,1,0,0:0:0:0:
320,192,107875,1,0,0:0:0:0:
448,192,107875,1,0,0:0:0:0:
64,192,107946,1,0,0:0:0:0:
192,192,107946,1,0,0:0:0:0:
64,192,108016,1,0,0:0:0:0:
192,192,108016,1,0,0:0:0:0:
320,192,108016,1,0,0:0:0:0:
448,192,108016,1,0,0:0:0:0:
320,192,108087,1,0,0:0:0:0:
448,192,108087,1,0,0:0:0:0:
64,192,108157,1,0,0:0:0:0:
192,192,108157,1,0,0:0:0:0:
448,192,108157,1,0,0:0:0:0:
64,192,108227,1,0,0:0:0:0:
320,192,108227,1,0,0:0:0:0:
64,192,108297,1,0,0:0:0:0:
192,192,108297,1,0,0:0:0:0:
320,192,108297,1,0,0:0:0:0:
448,192,108297,1,0,0:0:0:0:
192,192,108368,1,0,0:0:0:0:
448,192,108368,1,0,0:0:0:0:
64,192,108438,1,0,0:0:0:0:
192,192,108438,1,0,0:0:0:0:
320,192,108438,1,0,0:0:0:0:
448,192,108438,1,0,0:0:0:0:
64,192,108509,1,0,0:0:0:0:
320,192,108509,1,0,0:0:0:0:
64,192,108579,1,0,0:0:0:0:
192,192,108579,1,0,0:0:0:0:
320,192,108579,1,0,0:0:0:0:
448,192,108579,1,0,0:0:0:0:
192,192,108650,1,0,0:0:0:0:
448,192,108650,1,0,0:0:0:0:
64,192,108720,1,0,0:0:0:0:
320,192,108720,1,0,0:0:0:0:
448,192,108720,1,0,0:0:0:0:
64,192,108790,1,0,0:0:0:0:
192,192,108790,1,0,0:0:0:0:
64,192,108860,1,0,0:0:0:0:
192,192,108860,1,0,0:0:0:0:
320,192,108860,1,0,0:0:0:0:
448,192,108860,1,0,0:0:0:0:
320,192,108930,1,0,0:0:0:0:
448,192,108930,1,0,0:0:0:0:
64,192,109001,1,0,0:0:0:0:
192,192,109001,1,0,0:0:0:0:
320,192,109001,1,0,0:0:0:0:
448,192,109001,1,0,0:0:0:0:
192,192,109071,1,0,0:0:0:0:
320,192,109071,1,0,0:0:0:0:
64,192,109142,1,0,0:0:0:0:
192,192,109142,1,0,0:0:0:0:
320,192,109142,1,0,0:0:0:0:
448,192,109142,1,0,0:0:0:0:
64,192,109212,1,0,0:0:0:0:
448,192,109212,1,0,0:0:0:0:
64,192,109283,1,0,0:0:0:0:
320,192,109283,1,0,0:0:0:0:
448,192,109283,1,0,0:0:0:0:
192,192,109353,1,0,0:0:0:0:
320,192,109353,1,0,0:0:0:0:
64,192,109424,1,0,0:0:0:0:
192,192,109424,1,0,0:0:0:0:
320,192,109424,1,0,0:0:0:0:
448,192,109424,1,0,0:0:0:0:
64,192,109493,1,0,0:0:0:0:
448,192,109493,1,0,0:0:0:0:
64,192,109564,1,0,0:0:0:0:
192,192,109564,1,0,0:0:0:0:
320,192,109564,1,0,0:0:0:0:
448,192,109564,1,0,0:0:0:0:
320,192,109634,1,0,0:0:0:0:
448,192,109634,1,0,0:0:0:0:
64,192,109705,1,0,0:0:0:0:
192,192,109705,1,0,0:0:0:0:
320,192,109705,1,0,0:0:0:0:
448,192,109705,1,0,0:0:0:0:
64,192,109775,1,0,0:0:0:0:
192,192,109775,1,0,0:0:0:0:
64,192,109846,1,0,0:0:0:0:
320,192,109846,1,0,0:0:0:0:
448,192,109846,1,0,0:0:0:0:
192,192,109916,1,0,0:0:0:0:
448,192,109916,1,0,0:0:0:0:
64,192,109987,1,0,0:0:0:0:
192,192,109987,1,0,0:0:0:0:
320,192,109987,1,0,0:0:0:0:
448,192,109987,1,0,0:0:0:0:
64,192,110057,1,0,0:0:0:0:
320,192,110057,1,0,0:0:0:0:
64,192,110128,1,0,0:0:0:0:
192,192,110128,1,0,0:0:0:0:
320,192,110128,1,0,0:0:0:0:
448,192,110128,1,0,0:0:0:0:
64,192,110197,1,0,0:0:0:0:
192,192,110197,1,0,0:0:0:0:
64,192,110268,1,0,0:0:0:0:
192,192,110268,1,0,0:0:0:0:
320,192,110268,1,0,0:0:0:0:
448,192,110268,1,0,0:0:0:0:
320,192,110338,1,0,0:0:0:0:
448,192,110338,1,0,0:0:0:0:
64,192,110409,1,0,0:0:0:0:
192,192,110409,1,0,0:0:0:0:
320,192,110409,1,0,0:0:0:0:
64,192,110479,1,0,0:0:0:0:
448,192,110479,1,0,0:0:0:0:
64,192,110550,1,0,0:0:0:0:
192,192,110550,1,0,0:0:0:0:
320,192,110550,1,0,0:0:0:0:
448,192,110550,1,0,0:0:0:0:
192,192,110620,1,0,0:0:0:0:
320,192,110620,1,0,0:0:0:0:
64,192,110690,1,0,0:0:0:0:
192,192,110690,1,0,0:0:0:0:
320,192,110690,1,0,0:0:0:0:
448,192,110690,1,0,0:0:0:0:
64,192,110761,1,0,0:0:0:0:
192,192,110761,1,0,0:0:0:0:
64,192,110830,1,0,0:0:0:0:
192,192,110830,1,0,0:0:0:0:
320,192,110830,1,0,0:0:0:0:
448,192,110830,1,0,0:0:0:0:
320,192,110901,1,0,0:0:0:0:
448,192,110901,1,0,0:0:0:0:
64,192,110971,1,0,0:0:0:0:
192,192,110971,1,0,0:0:0:0:
448,192,110971,1,0,0:0:0:0:
64,192,111042,1,0,0:0:0:0:
320,192,111042,1,0,0:0:0:0:
64,192,111112,1,0,0:0:0:0:
192,192,111112,1,0,0:0:0:0:
320,192,111112,1,0,0:0:0:0:
448,192,111112,1,0,0:0:0:0:
64,192,111183,1,0,0:0:0:0:
192,192,111183,1,0,0:0:0:0:
64,192,111253,1,0,0:0:0:0:
192,192,111253,1,0,0:0:0:0:
320,192,111253,1,0,0:0:0:0:
448,192,111253,1,0,0:0:0:0:
320,192,111324,1,0,0:0:0:0:
448,192,111324,1,0,0:0:0:0:
64,192,111394,1,0,0:0:0:0:
192,192,111394,1,0,0:0:0:0:
320,192,111394,1,0,0:0:0:0:
448,192,111394,1,0,0:0:0:0:
192,192,111464,1,0,0:0:0:0:
448,192,111464,1,0,0:0:0:0:
64,192,111534,1,0,0:0:0:0:
320,192,111534,1,0,0:0:0:0:
448,192,111534,1,0,0:0:0:0:
192,192,111605,1,0,0:0:0:0:
320,192,111605,1,0,0:0:0:0:
64,192,111675,1,0,0:0:0:0:
192,192,111675,1,0,0:0:0:0:
320,192,111675,1,0,0:0:0:0:
448,192,111675,1,0,0:0:0:0:
64,192,111746,1,0,0:0:0:0:
448,192,111746,1,0,0:0:0:0:
64,192,111816,1,0,0:0:0:0:
192,192,111816,1,0,0:0:0:0:
320,192,111816,1,0,0:0:0:0:
448,192,111816,1,0,0:0:0:0:
64,192,111887,1,0,0:0:0:0:
192,192,111887,1,0,0:0:0:0:
64,192,111957,1,0,0:0:0:0:
192,192,111957,1,0,0:0:0:0:
320,192,111957,1,0,0:0:0:0:
448,192,111957,1,0,0:0:0:0:
320,192,112028,1,0,0:0:0:0:
448,192,112028,1,0,0:0:0:0:
64,192,112097,1,0,0:0:0:0:
192,192,112097,1,0,0:0:0:0:
448,192,112097,1,0,0:0:0:0:
64,192,112168,1,0,0:0:0:0:
320,192,112168,1,0,0:0:0:0:
64,192,112238,1,0,0:0:0:0:
192,192,112238,1,0,0:0:0:0:
320,192,112238,1,0,0:0:0:0:
448,192,112238,1,0,0:0:0:0:
192,192,112309,1,0,0:0:0:0:
448,192,112309,1,0,0:0:0:0:
64,192,112379,1,0,0:0:0:0:
192,192,112379,1,0,0:0:0:0:
320,192,112379,1,0,0:0:0:0:
448,192,112379,1,0,0:0:0:0:
320,192,112450,1,0,0:0:0:0:
448,192,112450,1,0,0:0:0:0:
64,192,112520,1,0,0:0:0:0:
192,192,112520,1,0,0:0:0:0:
320,192,112520,1,0,0:0:0:0:
448,192,112520,1,0,0:0:0:0:
64,192,112590,1,0,0:0:0:0:
192,192,112590,1,0,0:0:0:0:
192,192,112661,1,0,0:0:0:0:
320,192,112661,1,0,0:0:0:0:
448,192,112661,1,0,0:0:0:0:
64,192,112730,1,0,0:0:0:0:
448,192,112730,1,0,0:0:0:0:
64,192,112801,1,0,0:0:0:0:
192,192,112801,1,0,0:0:0:0:
320,192,112801,1,0,0:0:0:0:
448,192,112801,1,0,0:0:0:0:
192,192,112871,1,0,0:0:0:0:
320,192,112871,1,0,0:0:0:0:
64,192,112942,1,0,0:0:0:0:
192,192,112942,1,0,0:0:0:0:
320,192,112942,1,0,0:0:0:0:
448,192,112942,1,0,0:0:0:0:
64,192,113012,1,0,0:0:0:0:
448,192,113012,1,0,0:0:0:0:
64,192,113083,1,0,0:0:0:0:
192,192,113083,1,0,0:0:0:0:
320,192,113083,1,0,0:0:0:0:
448,192,113083,1,0,0:0:0:0:
192,192,113153,1,0,0:0:0:0:
320,192,113153,1,0,0:0:0:0:
64,192,113224,1,0,0:0:0:0:
192,192,113224,1,0,0:0:0:0:
320,192,113224,1,0,0:0:0:0:
448,192,113224,1,0,0:0:0:0:
64,192,113294,1,0,0:0:0:0:
448,192,113294,1,0,0:0:0:0:
64,192,113365,1,0,0:0:0:0:
192,192,113365,1,0,0:0:0:0:
320,192,113365,1,0,0:0:0:0:
448,192,113365,1,0,0:0:0:0:
320,192,113434,1,0,0:0:0:0:
448,192,113434,1,0,0:0:0:0:
64,192,113505,1,0,0:0:0:0:
192,192,113505,1,0,0:0:0:0:
320,192,113505,1,0,0:0:0:0:
448,192,113505,1,0,0:0:0:0:
64,192,113575,1,0,0:0:0:0:
192,192,113575,1,0,0:0:0:0:
64,192,113646,1,0,0:0:0:0:
192,192,113646,1,0,0:0:0:0:
320,192,113646,1,0,0:0:0:0:
448,192,113646,1,0,0:0:0:0:
320,192,113716,1,0,0:0:0:0:
448,192,113716,1,0,0:0:0:0:
64,192,113787,1,0,0:0:0:0:
192,192,113787,1,0,0:0:0:0:
320,192,113787,1,0,0:0:0:0:
448,192,113787,1,0,0:0:0:0:
64,192,113857,1,0,0:0:0:0:
192,192,113857,1,0,0:0:0:0:
448,192,113857,1,0,0:0:0:0:
192,192,113928,1,0,0:0:0:0:
320,192,113928,1,0,0:0:0:0:
448,192,113928,1,0,0:0:0:0:
64,192,113998,1,0,0:0:0:0:
320,192,113998,1,0,0:0:0:0:
448,192,113998,1,0,0:0:0:0:
64,192,114068,1,0,0:0:0:0:
192,192,114068,1,0,0:0:0:0:
320,192,114068,1,0,0:0:0:0:
448,192,114068,1,0,0:0:0:0:
64,192,114138,1,0,0:0:0:0:
192,192,114138,1,0,0:0:0:0:
320,192,114138,1,0,0:0:0:0:
64,192,114209,1,0,0:0:0:0:
320,192,114209,1,0,0:0:0:0:
448,192,114209,1,0,0:0:0:0:
64,192,114279,1,0,0:0:0:0:
192,192,114279,1,0,0:0:0:0:
320,192,114279,1,0,0:0:0:0:
64,192,114350,1,0,0:0:0:0:
192,192,114350,1,0,0:0:0:0:
320,192,114350,1,0,0:0:0:0:
448,192,114350,1,0,0:0:0:0:
192,192,114420,1,0,0:0:0:0:
320,192,114420,1,0,0:0:0:0:
448,192,114420,1,0,0:0:0:0:
64,192,114490,1,0,0:0:0:0:
192,192,114490,1,0,0:0:0:0:
448,192,114490,1,0,0:0:0:0:
64,192,114561,1,0,0:0:0:0:
192,192,114561,1,0,0:0:0:0:
320,192,114561,1,0,0:0:0:0:
64,192,114631,1,0,0:0:0:0:
192,192,114631,1,0,0:0:0:0:
320,192,114631,1,0,0:0:0:0:
448,192,114631,1,0,0:0:0:0:
64,192,114701,1,0,0:0:0:0:
320,192,114701,1,0,0:0:0:0:
448,192,114701,1,0,0:0:0:0:
192,192,114771,1,0,0:0:0:0:
320,192,114771,1,0,0:0:0:0:
448,192,114771,1,0,0:0:0:0:
64,192,114842,1,0,0:0:0:0:
192,192,114842,1,0,0:0:0:0:
448,192,114842,1,0,0:0:0:0:
64,192,114912,1,0,0:0:0:0:
192,192,114912,1,0,0:0:0:0:
320,192,114912,1,0,0:0:0:0:
448,192,114912,1,0,0:0:0:0:
64,192,114983,1,0,0:0:0:0:
192,192,114983,1,0,0:0:0:0:
320,192,114983,1,0,0:0:0:0:
64,192,115053,1,0,0:0:0:0:
320,192,115053,1,0,0:0:0:0:
448,192,115053,1,0,0:0:0:0:
192,192,115124,1,0,0:0:0:0:
320,192,115124,1,0,0:0:0:0:
448,192,115124,1,0,0:0:0:0:
64,192,115194,1,0,0:0:0:0:
192,192,115194,1,0,0:0:0:0:
320,192,115194,1,0,0:0:0:0:
448,192,115194,1,0,0:0:0:0:
64,192,115265,1,0,0:0:0:0:
192,192,115265,1,0,0:0:0:0:
320,192,115265,1,0,0:0:0:0:
64,192,115334,1,0,0:0:0:0:
192,192,115334,1,0,0:0:0:0:
448,192,115334,1,0,0:0:0:0:
64,192,115405,1,0,0:0:0:0:
320,192,115405,1,0,0:0:0:0:
448,192,115405,1,0,0:0:0:0:
64,192,115475,1,0,0:0:0:0:
192,192,115475,1,0,0:0:0:0:
320,192,115475,1,0,0:0:0:0:
448,192,115475,1,0,0:0:0:0:
192,192,115546,1,0,0:0:0:0:
320,192,115546,1,0,0:0:0:0:
448,192,115546,1,0,0:0:0:0:
64,192,115616,1,0,0:0:0:0:
192,192,115616,1,0,0:0:0:0:
320,192,115616,1,0,0:0:0:0:
64,192,115687,1,0,0:0:0:0:
192,192,115687,1,0,0:0:0:0:
448,192,115687,1,0,0:0:0:0:
64,192,115757,1,0,0:0:0:0:
192,192,115757,1,0,0:0:0:0:
320,192,115757,1,0,0:0:0:0:
448,192,115757,1,0,0:0:0:0:
64,192,115828,1,0,0:0:0:0:
320,192,115828,1,0,0:0:0:0:
448,192,115828,1,0,0:0:0:0:
192,192,115898,1,0,0:0:0:0:
320,192,115898,1,0,0:0:0:0:
448,192,115898,1,0,0:0:0:0:
64,192,115969,1,0,0:0:0:0:
192,192,115969,1,0,0:0:0:0:
320,192,115969,1,0,0:0:0:0:
64,192,116038,1,0,0:0:0:0:
192,192,116038,1,0,0:0:0:0:
320,192,116038,1,0,0:0:0:0:
448,192,116038,1,0,0:0:0:0:
64,192,116109,1,0,0:0:0:0:
192,192,116109,1,0,0:0:0:0:
448,192,116109,1,0,0:0:0:0:
64,192,116179,1,0,0:0:0:0:
192,192,116179,1,0,0:0:0:0:
320,192,116179,1,0,0:0:0:0:
448,192,116179,1,0,0:0:0:0:
192,192,116250,1,0,0:0:0:0:
320,192,116250,1,0,0:0:0:0:
448,192,116250,1,0,0:0:0:0:
64,192,116320,1,0,0:0:0:0:
192,192,116320,1,0,0:0:0:0:
320,192,116320,1,0,0:0:0:0:
448,192,116320,1,0,0:0:0:0:
64,192,116390,1,0,0:0:0:0:
320,192,116390,1,0,0:0:0:0:
448,192,116390,1,0,0:0:0:0:
64,192,116461,1,0,0:0:0:0:
192,192,116461,1,0,0:0:0:0:
320,192,116461,1,0,0:0:0:0:
448,192,116461,1,0,0:0:0:0:
64,192,116531,1,0,0:0:0:0:
192,192,116531,1,0,0:0:0:0:
320,192,116531,1,0,0:0:0:0:
64,192,116602,1,0,0:0:0:0:
192,192,116602,1,0,0:0:0:0:
320,192,116602,1,0,0:0:0:0:
448,192,116602,1,0,0:0:0:0:
64,192,116671,1,0,0:0:0:0:
192,192,116671,1,0,0:0:0:0:
448,192,116671,1,0,0:0:0:0:
64,192,116742,1,0,0:0:0:0:
192,192,116742,1,0,0:0:0:0:
320,192,116742,1,0,0:0:0:0:
448,192,116742,1,0,0:0:0:0:
64,192,116812,1,0,0:0:0:0:
320,192,116812,1,0,0:0:0:0:
448,192,116812,1,0,0:0:0:0:
64,192,116883,1,0,0:0:0:0:
192,192,116883,1,0,0:0:0:0:
320,192,116883,1,0,0:0:0:0:
448,192,116883,1,0,0:0:0:0:
64,192,116953,1,0,0:0:0:0:
192,192,116953,1,0,0:0:0:0:
320,192,116953,1,0,0:0:0:0:
64,192,117024,1,0,0:0:0:0:
192,192,117024,1,0,0:0:0:0:
320,192,117024,1,0,0:0:0:0:
448,192,117024,1,0,0:0:0:0:
64,192,117094,1,0,0:0:0:0:
320,192,117094,1,0,0:0:0:0:
448,192,117094,1,0,0:0:0:0:
64,192,117165,1,0,0:0:0:0:
192,192,117165,1,0,0:0:0:0:
320,192,117165,1,0,0:0:0:0:
448,192,117165,1,0,0:0:0:0:
64,192,117235,1,0,0:0:0:0:
192,192,117235,1,0,0:0:0:0:
448,192,117235,1,0,0:0:0:0:
64,192,117305,1,0,0:0:0:0:
192,192,117305,1,0,0:0:0:0:
320,192,117305,1,0,0:0:0:0:
448,192,117305,1,0,0:0:0:0:
192,192,117375,1,0,0:0:0:0:
320,192,117375,1,0,0:0:0:0:
448,192,117375,1,0,0:0:0:0:
64,192,117446,1,0,0:0:0:0:
192,192,117446,1,0,0:0:0:0:
320,192,117446,1,0,0:0:0:0:
448,192,117446,1,0,0:0:0:0:
64,192,117516,1,0,0:0:0:0:
320,192,117516,1,0,0:0:0:0:
448,192,117516,1,0,0:0:0:0:
64,192,117587,1,0,0:0:0:0:
192,192,117587,1,0,0:0:0:0:
320,192,117587,1,0,0:0:0:0:
448,192,117587,1,0,0:0:0:0:
64,192,117657,1,0,0:0:0:0:
192,192,117657,1,0,0:0:0:0:
448,192,117657,1,0,0:0:0:0:
64,192,117728,1,0,0:0:0:0:
192,192,117728,1,0,0:0:0:0:
320,192,117728,1,0,0:0:0:0:
448,192,117728,1,0,0:0:0:0:
64,192,117798,1,0,0:0:0:0:
192,192,117798,1,0,0:0:0:0:
320,192,117798,1,0,0:0:0:0:
448,192,117798,1,0,0:0:0:0:
64,192,117869,1,0,0:0:0:0:
192,192,117869,1,0,0:0:0:0:
320,192,117869,1,0,0:0:0:0:
448,192,117869,1,0,0:0:0:0:
64,192,117938,1,0,0:0:0:0:
192,192,117938,1,0,0:0:0:0:
320,192,117938,1,0,0:0:0:0:
448,192,117938,1,0,0:0:0:0:
64,192,118009,1,0,0:0:0:0:
192,192,118009,1,0,0:0:0:0:
320,192,118009,1,0,0:0:0:0:
448,192,118009,1,0,0:0:0:0:
64,192,118079,1,0,0:0:0:0:
192,192,118079,1,0,0:0:0:0:
320,192,118079,1,0,0:0:0:0:
448,192,118079,1,0,0:0:0:0:
64,192,118150,1,0,0:0:0:0:
192,192,118150,1,0,0:0:0:0:
320,192,118150,1,0,0:0:0:0:
448,192,118150,1,0,0:0:0:0:
64,192,118220,1,0,0:0:0:0:
192,192,118220,1,0,0:0:0:0:
320,192,118220,1,0,0:0:0:0:
448,192,118220,1,0,0:0:0:0:
64,192,118290,1,0,0:0:0:0:
192,192,118290,1,0,0:0:0:0:
320,192,118290,1,0,0:0:0:0:
448,192,118290,1,0,0:0:0:0:
