osu file format v14

[General]
AudioFilename: 790.mp3
AudioLeadIn: 0
PreviewTime: -1
Countdown: 0
SampleSet: None
StackLeniency: 0.7
Mode: 3
LetterboxInBreaks: 0
SpecialStyle: 0
WidescreenStoryboard: 0

[Editor]
DistanceSpacing: 0.8
BeatDivisor: 16
GridSize: 32
TimelineZoom: 1

[Metadata]
Title:Hachidaijigoku Jakontensei Kyousou Sanbika
TitleUnicode:Hachidaijigoku Jakontensei Kyousou Sanbika
Artist:Sakamirito
ArtistUnicode:Sakamirito
Creator:MowseChow
Version:4k [0.9x Rate]
Source:tekno's blooming hibiscus garden
Tags:tekno
BeatmapID:4556670
BeatmapSetID:2160801

[Difficulty]
HPDrainRate:8
CircleSize:4
OverallDifficulty:9
ApproachRate:5
SliderMultiplier:1.4
SliderTickRate:1

[Events]
//Background and Video events
0,0,"7.jpg",0,0
//Break Periods
//Storyboard Layer 0 (Background)
//Storyboard Layer 1 (Fail)
//Storyboard Layer 2 (Pass)
//Storyboard Layer 3 (Foreground)
//Storyboard Layer 4 (Overlay)
//Storyboard Sound Samples

[TimingPoints]
129,328.407224444444,4,1,0,100,1,0

[HitObjects]
192,192,68,5,0,0:0:0:0:
320,192,68,1,0,0:0:0:0:
448,192,68,1,0,0:0:0:0:
64,192,178,1,0,0:0:0:0:
192,192,178,1,0,0:0:0:0:
320,192,178,1,0,0:0:0:0:
64,192,287,1,0,0:0:0:0:
320,192,287,1,0,0:0:0:0:
448,192,287,1,0,0:0:0:0:
64,192,397,1,0,0:0:0:0:
192,192,397,1,0,0:0:0:0:
320,192,397,1,0,0:0:0:0:
448,192,397,1,0,0:0:0:0:
192,192,506,1,0,0:0:0:0:
320,192,506,1,0,0:0:0:0:
448,192,506,1,0,0:0:0:0:
64,192,616,1,0,0:0:0:0:
192,192,616,1,0,0:0:0:0:
448,192,616,1,0,0:0:0:0:
320,192,724,128,0,1053:0:0:0:0:
448,192,724,128,0,1053:0:0:0:0:
64,192,1053,1,0,0:0:0:0:
192,192,1053,1,0,0:0:0:0:
64,192,1162,1,0,0:0:0:0:
192,192,1162,1,0,0:0:0:0:
320,192,1162,1,0,0:0:0:0:
192,192,1272,1,0,0:0:0:0:
320,192,1272,1,0,0:0:0:0:
448,192,1272,1,0,0:0:0:0:
64,192,1381,1,0,0:0:0:0:
192,192,1381,1,0,0:0:0:0:
320,192,1381,1,0,0:0:0:0:
448,192,1381,1,0,0:0:0:0:
64,192,1491,1,0,0:0:0:0:
320,192,1491,1,0,0:0:0:0:
448,192,1491,1,0,0:0:0:0:
64,192,1600,1,0,0:0:0:0:
192,192,1600,1,0,0:0:0:0:
448,192,1600,1,0,0:0:0:0:
64,192,1710,128,0,2038:0:0:0:0:
192,192,1710,128,0,2038:0:0:0:0:
320,192,2038,1,0,0:0:0:0:
448,192,2038,1,0,0:0:0:0:
64,192,2367,1,0,0:0:0:0:
192,192,2367,1,0,0:0:0:0:
320,192,2367,1,0,0:0:0:0:
448,192,2367,1,0,0:0:0:0:
64,192,2696,1,0,0:0:0:0:
192,192,2696,1,0,0:0:0:0:
320,192,2696,1,0,0:0:0:0:
448,192,2696,1,0,0:0:0:0:
64,192,2804,1,0,0:0:0:0:
192,192,2804,1,0,0:0:0:0:
320,192,2804,1,0,0:0:0:0:
64,192,2914,1,0,0:0:0:0:
320,192,2914,1,0,0:0:0:0:
448,192,2914,1,0,0:0:0:0:
64,192,3023,1,0,0:0:0:0:
192,192,3023,1,0,0:0:0:0:
320,192,3023,1,0,0:0:0:0:
448,192,3023,1,0,0:0:0:0:
192,192,3133,1,0,0:0:0:0:
320,192,3133,1,0,0:0:0:0:
448,192,3133,1,0,0:0:0:0:
64,192,3242,1,0,0:0:0:0:
192,192,3242,1,0,0:0:0:0:
448,192,3242,1,0,0:0:0:0:
64,192,3352,128,0,3680:0:0:0:0:
192,192,3352,128,0,3680:0:0:0:0:
320,192,3680,1,0,0:0:0:0:
448,192,3680,1,0,0:0:0:0:
64,192,3790,1,0,0:0:0:0:
192,192,3790,1,0,0:0:0:0:
448,192,3790,1,0,0:0:0:0:
192,192,3899,1,0,0:0:0:0:
320,192,3899,1,0,0:0:0:0:
448,192,3899,1,0,0:0:0:0:
64,192,4009,1,0,0:0:0:0:
192,192,4009,1,0,0:0:0:0:
320,192,4009,1,0,0:0:0:0:
448,192,4009,1,0,0:0:0:0:
64,192,4118,1,0,0:0:0:0:
192,192,4118,1,0,0:0:0:0:
320,192,4118,1,0,0:0:0:0:
64,192,4228,1,0,0:0:0:0:
320,192,4228,1,0,0:0:0:0:
448,192,4228,1,0,0:0:0:0:
320,192,4337,128,0,4666:0:0:0:0:
448,192,4337,128,0,4666:0:0:0:0:
64,192,4666,1,0,0:0:0:0:
192,192,4666,1,0,0:0:0:0:
64,192,4993,1,0,0:0:0:0:
192,192,4993,1,0,0:0:0:0:
320,192,4993,1,0,0:0:0:0:
448,192,4993,1,0,0:0:0:0:
64,192,5322,1,0,0:0:0:0:
192,192,5322,1,0,0:0:0:0:
320,192,5322,1,0,0:0:0:0:
448,192,5322,1,0,0:0:0:0:
64,192,5432,1,0,0:0:0:0:
192,192,5432,1,0,0:0:0:0:
320,192,5432,1,0,0:0:0:0:
192,192,5541,1,0,0:0:0:0:
320,192,5541,1,0,0:0:0:0:
448,192,5541,1,0,0:0:0:0:
64,192,5651,1,0,0:0:0:0:
192,192,5651,1,0,0:0:0:0:
320,192,5651,1,0,0:0:0:0:
448,192,5651,1,0,0:0:0:0:
64,192,5760,1,0,0:0:0:0:
192,192,5760,1,0,0:0:0:0:
448,192,5760,1,0,0:0:0:0:
64,192,5870,1,0,0:0:0:0:
320,192,5870,1,0,0:0:0:0:
448,192,5870,1,0,0:0:0:0:
64,192,5979,128,0,6308:0:0:0:0:
192,192,5979,128,0,6308:0:0:0:0:
320,192,6308,1,0,0:0:0:0:
448,192,6308,1,0,0:0:0:0:
64,192,6417,1,0,0:0:0:0:
192,192,6417,1,0,0:0:0:0:
320,192,6417,1,0,0:0:0:0:
64,192,6527,1,0,0:0:0:0:
320,192,6527,1,0,0:0:0:0:
448,192,6527,1,0,0:0:0:0:
64,192,6636,1,0,0:0:0:0:
192,192,6636,1,0,0:0:0:0:
320,192,6636,1,0,0:0:0:0:
448,192,6636,1,0,0:0:0:0:
64,192,6746,1,0,0:0:0:0:
192,192,6746,1,0,0:0:0:0:
448,192,6746,1,0,0:0:0:0:
192,192,6854,1,0,0:0:0:0:
320,192,6854,1,0,0:0:0:0:
448,192,6854,1,0,0:0:0:0:
320,192,6964,128,0,7292:0:0:0:0:
448,192,6964,128,0,7292:0:0:0:0:
64,192,7292,1,0,0:0:0:0:
192,192,7292,1,0,0:0:0:0:
64,192,7621,1,0,0:0:0:0:
192,192,7621,1,0,0:0:0:0:
320,192,7621,1,0,0:0:0:0:
448,192,7621,1,0,0:0:0:0:
64,192,7950,1,0,0:0:0:0:
192,192,7950,1,0,0:0:0:0:
320,192,7950,1,0,0:0:0:0:
448,192,7950,1,0,0:0:0:0:
320,192,8031,1,0,0:0:0:0:
448,192,8031,1,0,0:0:0:0:
64,192,8113,1,0,0:0:0:0:
192,192,8113,1,0,0:0:0:0:
320,192,8113,1,0,0:0:0:0:
448,192,8113,1,0,0:0:0:0:
64,192,8196,1,0,0:0:0:0:
192,192,8196,1,0,0:0:0:0:
64,192,8278,1,0,0:0:0:0:
192,192,8278,1,0,0:0:0:0:
320,192,8278,1,0,0:0:0:0:
448,192,8278,1,0,0:0:0:0:
192,192,8360,1,0,0:0:0:0:
320,192,8360,1,0,0:0:0:0:
64,192,8442,1,0,0:0:0:0:
192,192,8442,1,0,0:0:0:0:
320,192,8442,1,0,0:0:0:0:
448,192,8442,1,0,0:0:0:0:
64,192,8524,1,0,0:0:0:0:
448,192,8524,1,0,0:0:0:0:
64,192,8607,1,0,0:0:0:0:
192,192,8607,1,0,0:0:0:0:
320,192,8607,1,0,0:0:0:0:
448,192,8607,1,0,0:0:0:0:
320,192,8689,1,0,0:0:0:0:
448,192,8689,1,0,0:0:0:0:
64,192,8771,1,0,0:0:0:0:
192,192,8771,1,0,0:0:0:0:
320,192,8771,1,0,0:0:0:0:
448,192,8771,1,0,0:0:0:0:
64,192,8852,1,0,0:0:0:0:
320,192,8852,1,0,0:0:0:0:
64,192,8934,1,0,0:0:0:0:
192,192,8934,1,0,0:0:0:0:
320,192,8934,1,0,0:0:0:0:
448,192,8934,1,0,0:0:0:0:
64,192,9017,1,0,0:0:0:0:
192,192,9017,1,0,0:0:0:0:
64,192,9099,1,0,0:0:0:0:
192,192,9099,1,0,0:0:0:0:
320,192,9099,1,0,0:0:0:0:
448,192,9099,1,0,0:0:0:0:
192,192,9181,1,0,0:0:0:0:
320,192,9181,1,0,0:0:0:0:
64,192,9263,1,0,0:0:0:0:
192,192,9263,1,0,0:0:0:0:
320,192,9263,1,0,0:0:0:0:
448,192,9263,1,0,0:0:0:0:
64,192,9346,1,0,0:0:0:0:
192,192,9346,1,0,0:0:0:0:
448,192,9346,1,0,0:0:0:0:
64,192,9428,1,0,0:0:0:0:
192,192,9428,1,0,0:0:0:0:
320,192,9428,1,0,0:0:0:0:
448,192,9428,1,0,0:0:0:0:
64,192,9510,1,0,0:0:0:0:
320,192,9510,1,0,0:0:0:0:
448,192,9510,1,0,0:0:0:0:
64,192,9591,1,0,0:0:0:0:
192,192,9591,1,0,0:0:0:0:
320,192,9591,1,0,0:0:0:0:
448,192,9591,1,0,0:0:0:0:
64,192,9673,1,0,0:0:0:0:
192,192,9673,1,0,0:0:0:0:
320,192,9673,1,0,0:0:0:0:
64,192,9756,1,0,0:0:0:0:
192,192,9756,1,0,0:0:0:0:
320,192,9756,1,0,0:0:0:0:
448,192,9756,1,0,0:0:0:0:
192,192,9838,1,0,0:0:0:0:
320,192,9838,1,0,0:0:0:0:
448,192,9838,1,0,0:0:0:0:
64,192,9920,1,0,0:0:0:0:
192,192,9920,1,0,0:0:0:0:
320,192,9920,1,0,0:0:0:0:
448,192,9920,1,0,0:0:0:0:
64,192,10002,1,0,0:0:0:0:
192,192,10002,1,0,0:0:0:0:
320,192,10002,1,0,0:0:0:0:
448,192,10002,1,0,0:0:0:0:
64,192,10084,1,0,0:0:0:0:
192,192,10084,1,0,0:0:0:0:
320,192,10084,1,0,0:0:0:0:
448,192,10084,1,0,0:0:0:0:
64,192,10167,1,0,0:0:0:0:
192,192,10167,1,0,0:0:0:0:
320,192,10167,1,0,0:0:0:0:
448,192,10167,1,0,0:0:0:0:
64,192,10249,1,0,0:0:0:0:
192,192,10249,1,0,0:0:0:0:
320,192,10249,1,0,0:0:0:0:
448,192,10249,1,0,0:0:0:0:
64,192,10330,1,0,0:0:0:0:
192,192,10330,1,0,0:0:0:0:
320,192,10330,1,0,0:0:0:0:
448,192,10330,1,0,0:0:0:0:
64,192,10412,1,0,0:0:0:0:
192,192,10412,1,0,0:0:0:0:
320,192,10412,1,0,0:0:0:0:
448,192,10412,1,0,0:0:0:0:
64,192,10494,1,0,0:0:0:0:
192,192,10494,1,0,0:0:0:0:
320,192,10494,1,0,0:0:0:0:
448,192,10494,1,0,0:0:0:0:
64,192,10577,1,0,0:0:0:0:
192,192,10577,1,0,0:0:0:0:
320,192,10577,1,0,0:0:0:0:
448,192,10577,1,0,0:0:0:0:
64,192,10659,1,0,0:0:0:0:
192,192,10659,1,0,0:0:0:0:
64,192,10741,1,0,0:0:0:0:
192,192,10741,1,0,0:0:0:0:
320,192,10741,1,0,0:0:0:0:
448,192,10741,1,0,0:0:0:0:
320,192,10823,1,0,0:0:0:0:
448,192,10823,1,0,0:0:0:0:
64,192,10906,1,0,0:0:0:0:
192,192,10906,1,0,0:0:0:0:
320,192,10906,1,0,0:0:0:0:
448,192,10906,1,0,0:0:0:0:
64,192,10988,1,0,0:0:0:0:
192,192,10988,1,0,0:0:0:0:
448,192,10988,1,0,0:0:0:0:
64,192,11069,1,0,0:0:0:0:
192,192,11069,1,0,0:0:0:0:
320,192,11069,1,0,0:0:0:0:
448,192,11069,1,0,0:0:0:0:
192,192,11151,1,0,0:0:0:0:
320,192,11151,1,0,0:0:0:0:
64,192,11233,1,0,0:0:0:0:
320,192,11233,1,0,0:0:0:0:
448,192,11233,1,0,0:0:0:0:
192,192,11316,1,0,0:0:0:0:
448,192,11316,1,0,0:0:0:0:
64,192,11398,1,0,0:0:0:0:
192,192,11398,1,0,0:0:0:0:
320,192,11398,1,0,0:0:0:0:
448,192,11398,1,0,0:0:0:0:
64,192,11480,1,0,0:0:0:0:
320,192,11480,1,0,0:0:0:0:
64,192,11562,1,0,0:0:0:0:
192,192,11562,1,0,0:0:0:0:
320,192,11562,1,0,0:0:0:0:
448,192,11562,1,0,0:0:0:0:
64,192,11644,1,0,0:0:0:0:
192,192,11644,1,0,0:0:0:0:
448,192,11644,1,0,0:0:0:0:
64,192,11727,1,0,0:0:0:0:
192,192,11727,1,0,0:0:0:0:
320,192,11727,1,0,0:0:0:0:
448,192,11727,1,0,0:0:0:0:
320,192,11809,1,0,0:0:0:0:
448,192,11809,1,0,0:0:0:0:
64,192,11890,1,0,0:0:0:0:
192,192,11890,1,0,0:0:0:0:
320,192,11890,1,0,0:0:0:0:
64,192,11972,1,0,0:0:0:0:
448,192,11972,1,0,0:0:0:0:
64,192,12054,1,0,0:0:0:0:
192,192,12054,1,0,0:0:0:0:
320,192,12054,1,0,0:0:0:0:
448,192,12054,1,0,0:0:0:0:
192,192,12137,1,0,0:0:0:0:
320,192,12137,1,0,0:0:0:0:
64,192,12219,1,0,0:0:0:0:
192,192,12219,1,0,0:0:0:0:
320,192,12219,1,0,0:0:0:0:
448,192,12219,1,0,0:0:0:0:
64,192,12301,1,0,0:0:0:0:
320,192,12301,1,0,0:0:0:0:
448,192,12301,1,0,0:0:0:0:
64,192,12383,1,0,0:0:0:0:
192,192,12383,1,0,0:0:0:0:
320,192,12383,1,0,0:0:0:0:
448,192,12383,1,0,0:0:0:0:
64,192,12466,1,0,0:0:0:0:
192,192,12466,1,0,0:0:0:0:
64,192,12548,1,0,0:0:0:0:
320,192,12548,1,0,0:0:0:0:
448,192,12548,1,0,0:0:0:0:
192,192,12629,1,0,0:0:0:0:
448,192,12629,1,0,0:0:0:0:
64,192,12711,1,0,0:0:0:0:
192,192,12711,1,0,0:0:0:0:
320,192,12711,1,0,0:0:0:0:
448,192,12711,1,0,0:0:0:0:
320,192,12793,1,0,0:0:0:0:
448,192,12793,1,0,0:0:0:0:
64,192,12876,1,0,0:0:0:0:
192,192,12876,1,0,0:0:0:0:
320,192,12876,1,0,0:0:0:0:
448,192,12876,1,0,0:0:0:0:
64,192,12958,1,0,0:0:0:0:
192,192,12958,1,0,0:0:0:0:
320,192,12958,1,0,0:0:0:0:
64,192,13040,1,0,0:0:0:0:
192,192,13040,1,0,0:0:0:0:
320,192,13040,1,0,0:0:0:0:
448,192,13040,1,0,0:0:0:0:
64,192,13122,1,0,0:0:0:0:
448,192,13122,1,0,0:0:0:0:
64,192,13204,1,0,0:0:0:0:
320,192,13204,1,0,0:0:0:0:
448,192,13204,1,0,0:0:0:0:
192,192,13287,1,0,0:0:0:0:
320,192,13287,1,0,0:0:0:0:
64,192,13368,1,0,0:0:0:0:
192,192,13368,1,0,0:0:0:0:
320,192,13368,1,0,0:0:0:0:
448,192,13368,1,0,0:0:0:0:
320,192,13450,1,0,0:0:0:0:
448,192,13450,1,0,0:0:0:0:
64,192,13532,1,0,0:0:0:0:
192,192,13532,1,0,0:0:0:0:
320,192,13532,1,0,0:0:0:0:
448,192,13532,1,0,0:0:0:0:
64,192,13614,1,0,0:0:0:0:
192,192,13614,1,0,0:0:0:0:
448,192,13614,1,0,0:0:0:0:
64,192,13697,1,0,0:0:0:0:
192,192,13697,1,0,0:0:0:0:
320,192,13697,1,0,0:0:0:0:
448,192,13697,1,0,0:0:0:0:
64,192,13779,1,0,0:0:0:0:
320,192,13779,1,0,0:0:0:0:
64,192,13861,1,0,0:0:0:0:
192,192,13861,1,0,0:0:0:0:
448,192,13861,1,0,0:0:0:0:
192,192,13943,1,0,0:0:0:0:
320,192,13943,1,0,0:0:0:0:
64,192,14026,1,0,0:0:0:0:
192,192,14026,1,0,0:0:0:0:
320,192,14026,1,0,0:0:0:0:
448,192,14026,1,0,0:0:0:0:
64,192,14107,1,0,0:0:0:0:
448,192,14107,1,0,0:0:0:0:
64,192,14189,1,0,0:0:0:0:
192,192,14189,1,0,0:0:0:0:
320,192,14189,1,0,0:0:0:0:
448,192,14189,1,0,0:0:0:0:
64,192,14271,1,0,0:0:0:0:
192,192,14271,1,0,0:0:0:0:
320,192,14271,1,0,0:0:0:0:
64,192,14353,1,0,0:0:0:0:
192,192,14353,1,0,0:0:0:0:
320,192,14353,1,0,0:0:0:0:
448,192,14353,1,0,0:0:0:0:
192,192,14436,1,0,0:0:0:0:
448,192,14436,1,0,0:0:0:0:
64,192,14518,1,0,0:0:0:0:
320,192,14518,1,0,0:0:0:0:
448,192,14518,1,0,0:0:0:0:
64,192,14600,1,0,0:0:0:0:
192,192,14600,1,0,0:0:0:0:
64,192,14682,1,0,0:0:0:0:
192,192,14682,1,0,0:0:0:0:
320,192,14682,1,0,0:0:0:0:
448,192,14682,1,0,0:0:0:0:
320,192,14764,1,0,0:0:0:0:
448,192,14764,1,0,0:0:0:0:
64,192,14846,1,0,0:0:0:0:
192,192,14846,1,0,0:0:0:0:
320,192,14846,1,0,0:0:0:0:
448,192,14846,1,0,0:0:0:0:
64,192,14928,1,0,0:0:0:0:
192,192,14928,1,0,0:0:0:0:
448,192,14928,1,0,0:0:0:0:
64,192,15010,1,0,0:0:0:0:
192,192,15010,1,0,0:0:0:0:
320,192,15010,1,0,0:0:0:0:
448,192,15010,1,0,0:0:0:0:
64,192,15092,1,0,0:0:0:0:
320,192,15092,1,0,0:0:0:0:
64,192,15174,1,0,0:0:0:0:
192,192,15174,1,0,0:0:0:0:
448,192,15174,1,0,0:0:0:0:
320,192,15257,1,0,0:0:0:0:
448,192,15257,1,0,0:0:0:0:
64,192,15339,1,0,0:0:0:0:
192,192,15339,1,0,0:0:0:0:
320,192,15339,1,0,0:0:0:0:
448,192,15339,1,0,0:0:0:0:
64,192,15421,1,0,0:0:0:0:
192,192,15421,1,0,0:0:0:0:
64,192,15503,1,0,0:0:0:0:
192,192,15503,1,0,0:0:0:0:
320,192,15503,1,0,0:0:0:0:
448,192,15503,1,0,0:0:0:0:
192,192,15586,1,0,0:0:0:0:
320,192,15586,1,0,0:0:0:0:
448,192,15586,1,0,0:0:0:0:
64,192,15667,1,0,0:0:0:0:
192,192,15667,1,0,0:0:0:0:
320,192,15667,1,0,0:0:0:0:
448,192,15667,1,0,0:0:0:0:
64,192,15749,1,0,0:0:0:0:
320,192,15749,1,0,0:0:0:0:
448,192,15749,1,0,0:0:0:0:
64,192,15831,1,0,0:0:0:0:
192,192,15831,1,0,0:0:0:0:
448,192,15831,1,0,0:0:0:0:
192,192,15913,1,0,0:0:0:0:
320,192,15913,1,0,0:0:0:0:
64,192,15996,1,0,0:0:0:0:
192,192,15996,1,0,0:0:0:0:
320,192,15996,1,0,0:0:0:0:
448,192,15996,1,0,0:0:0:0:
320,192,16078,1,0,0:0:0:0:
448,192,16078,1,0,0:0:0:0:
64,192,16160,1,0,0:0:0:0:
192,192,16160,1,0,0:0:0:0:
320,192,16160,1,0,0:0:0:0:
448,192,16160,1,0,0:0:0:0:
64,192,16242,1,0,0:0:0:0:
192,192,16242,1,0,0:0:0:0:
448,192,16242,1,0,0:0:0:0:
64,192,16324,1,0,0:0:0:0:
192,192,16324,1,0,0:0:0:0:
320,192,16324,1,0,0:0:0:0:
448,192,16324,1,0,0:0:0:0:
192,192,16406,1,0,0:0:0:0:
320,192,16406,1,0,0:0:0:0:
64,192,16488,1,0,0:0:0:0:
320,192,16488,1,0,0:0:0:0:
448,192,16488,1,0,0:0:0:0:
64,192,16570,1,0,0:0:0:0:
192,192,16570,1,0,0:0:0:0:
64,192,16652,1,0,0:0:0:0:
192,192,16652,1,0,0:0:0:0:
320,192,16652,1,0,0:0:0:0:
448,192,16652,1,0,0:0:0:0:
320,192,16734,1,0,0:0:0:0:
448,192,16734,1,0,0:0:0:0:
64,192,16817,1,0,0:0:0:0:
192,192,16817,1,0,0:0:0:0:
320,192,16817,1,0,0:0:0:0:
448,192,16817,1,0,0:0:0:0:
64,192,16899,1,0,0:0:0:0:
192,192,16899,1,0,0:0:0:0:
320,192,16899,1,0,0:0:0:0:
64,192,16981,1,0,0:0:0:0:
192,192,16981,1,0,0:0:0:0:
320,192,16981,1,0,0:0:0:0:
448,192,16981,1,0,0:0:0:0:
64,192,17063,1,0,0:0:0:0:
448,192,17063,1,0,0:0:0:0:
64,192,17144,1,0,0:0:0:0:
192,192,17144,1,0,0:0:0:0:
320,192,17144,1,0,0:0:0:0:
192,192,17227,1,0,0:0:0:0:
448,192,17227,1,0,0:0:0:0:
64,192,17309,1,0,0:0:0:0:
192,192,17309,1,0,0:0:0:0:
320,192,17309,1,0,0:0:0:0:
448,192,17309,1,0,0:0:0:0:
64,192,17391,1,0,0:0:0:0:
320,192,17391,1,0,0:0:0:0:
64,192,17473,1,0,0:0:0:0:
192,192,17473,1,0,0:0:0:0:
320,192,17473,1,0,0:0:0:0:
448,192,17473,1,0,0:0:0:0:
192,192,17556,1,0,0:0:0:0:
320,192,17556,1,0,0:0:0:0:
448,192,17556,1,0,0:0:0:0:
64,192,17638,1,0,0:0:0:0:
192,192,17638,1,0,0:0:0:0:
320,192,17638,1,0,0:0:0:0:
448,192,17638,1,0,0:0:0:0:
64,192,17720,1,0,0:0:0:0:
192,192,17720,1,0,0:0:0:0:
64,192,17802,1,0,0:0:0:0:
320,192,17802,1,0,0:0:0:0:
448,192,17802,1,0,0:0:0:0:
192,192,17883,1,0,0:0:0:0:
448,192,17883,1,0,0:0:0:0:
64,192,17966,1,0,0:0:0:0:
192,192,17966,1,0,0:0:0:0:
320,192,17966,1,0,0:0:0:0:
448,192,17966,1,0,0:0:0:0:
320,192,18048,1,0,0:0:0:0:
448,192,18048,1,0,0:0:0:0:
64,192,18130,1,0,0:0:0:0:
192,192,18130,1,0,0:0:0:0:
320,192,18130,1,0,0:0:0:0:
448,192,18130,1,0,0:0:0:0:
64,192,18212,1,0,0:0:0:0:
192,192,18212,1,0,0:0:0:0:
320,192,18212,1,0,0:0:0:0:
64,192,18294,1,0,0:0:0:0:
192,192,18294,1,0,0:0:0:0:
320,192,18294,1,0,0:0:0:0:
448,192,18294,1,0,0:0:0:0:
64,192,18377,1,0,0:0:0:0:
448,192,18377,1,0,0:0:0:0:
192,192,18459,1,0,0:0:0:0:
320,192,18459,1,0,0:0:0:0:
448,192,18459,1,0,0:0:0:0:
64,192,18541,1,0,0:0:0:0:
320,192,18541,1,0,0:0:0:0:
64,192,18623,1,0,0:0:0:0:
192,192,18623,1,0,0:0:0:0:
320,192,18623,1,0,0:0:0:0:
448,192,18623,1,0,0:0:0:0:
192,192,18704,1,0,0:0:0:0:
320,192,18704,1,0,0:0:0:0:
64,192,18787,1,0,0:0:0:0:
192,192,18787,1,0,0:0:0:0:
320,192,18787,1,0,0:0:0:0:
448,192,18787,1,0,0:0:0:0:
64,192,18869,1,0,0:0:0:0:
192,192,18869,1,0,0:0:0:0:
448,192,18869,1,0,0:0:0:0:
64,192,18951,1,0,0:0:0:0:
192,192,18951,1,0,0:0:0:0:
320,192,18951,1,0,0:0:0:0:
448,192,18951,1,0,0:0:0:0:
320,192,19033,1,0,0:0:0:0:
448,192,19033,1,0,0:0:0:0:
64,192,19116,1,0,0:0:0:0:
192,192,19116,1,0,0:0:0:0:
448,192,19116,1,0,0:0:0:0:
192,192,19198,1,0,0:0:0:0:
320,192,19198,1,0,0:0:0:0:
64,192,19280,1,0,0:0:0:0:
192,192,19280,1,0,0:0:0:0:
320,192,19280,1,0,0:0:0:0:
448,192,19280,1,0,0:0:0:0:
64,192,19362,1,0,0:0:0:0:
448,192,19362,1,0,0:0:0:0:
64,192,19443,1,0,0:0:0:0:
192,192,19443,1,0,0:0:0:0:
320,192,19443,1,0,0:0:0:0:
448,192,19443,1,0,0:0:0:0:
64,192,19526,1,0,0:0:0:0:
192,192,19526,1,0,0:0:0:0:
320,192,19526,1,0,0:0:0:0:
64,192,19608,1,0,0:0:0:0:
192,192,19608,1,0,0:0:0:0:
320,192,19608,1,0,0:0:0:0:
448,192,19608,1,0,0:0:0:0:
192,192,19690,1,0,0:0:0:0:
448,192,19690,1,0,0:0:0:0:
64,192,19772,1,0,0:0:0:0:
192,192,19772,1,0,0:0:0:0:
320,192,19772,1,0,0:0:0:0:
448,192,19772,1,0,0:0:0:0:
64,192,19854,1,0,0:0:0:0:
192,192,19854,1,0,0:0:0:0:
320,192,19854,1,0,0:0:0:0:
64,192,19937,1,0,0:0:0:0:
320,192,19937,1,0,0:0:0:0:
448,192,19937,1,0,0:0:0:0:
64,192,20019,1,0,0:0:0:0:
192,192,20019,1,0,0:0:0:0:
448,192,20019,1,0,0:0:0:0:
64,192,20101,1,0,0:0:0:0:
192,192,20101,1,0,0:0:0:0:
320,192,20101,1,0,0:0:0:0:
448,192,20101,1,0,0:0:0:0:
192,192,20182,1,0,0:0:0:0:
320,192,20182,1,0,0:0:0:0:
448,192,20182,1,0,0:0:0:0:
64,192,20264,1,0,0:0:0:0:
320,192,20264,1,0,0:0:0:0:
448,192,20264,1,0,0:0:0:0:
64,192,20347,1,0,0:0:0:0:
192,192,20347,1,0,0:0:0:0:
320,192,20347,1,0,0:0:0:0:
64,192,20429,1,0,0:0:0:0:
192,192,20429,1,0,0:0:0:0:
320,192,20429,1,0,0:0:0:0:
448,192,20429,1,0,0:0:0:0:
64,192,20511,1,0,0:0:0:0:
192,192,20511,1,0,0:0:0:0:
320,192,20511,1,0,0:0:0:0:
448,192,20511,1,0,0:0:0:0:
64,192,20593,1,0,0:0:0:0:
192,192,20593,1,0,0:0:0:0:
320,192,20593,1,0,0:0:0:0:
448,192,20593,1,0,0:0:0:0:
64,192,20676,1,0,0:0:0:0:
192,192,20676,1,0,0:0:0:0:
320,192,20676,1,0,0:0:0:0:
448,192,20676,1,0,0:0:0:0:
64,192,20758,1,0,0:0:0:0:
192,192,20758,1,0,0:0:0:0:
320,192,20758,1,0,0:0:0:0:
448,192,20758,1,0,0:0:0:0:
64,192,20840,1,0,0:0:0:0:
192,192,20840,1,0,0:0:0:0:
320,192,20840,1,0,0:0:0:0:
448,192,20840,1,0,0:0:0:0:
64,192,20921,1,0,0:0:0:0:
192,192,20921,1,0,0:0:0:0:
320,192,20921,1,0,0:0:0:0:
448,192,20921,1,0,0:0:0:0:
64,192,21003,1,0,0:0:0:0:
192,192,21003,1,0,0:0:0:0:
320,192,21003,1,0,0:0:0:0:
448,192,21003,1,0,0:0:0:0:
64,192,21086,1,0,0:0:0:0:
192,192,21086,1,0,0:0:0:0:
320,192,21086,1,0,0:0:0:0:
448,192,21086,1,0,0:0:0:0:
64,192,21414,1,0,0:0:0:0:
192,192,21414,1,0,0:0:0:0:
320,192,21742,1,0,0:0:0:0:
192,192,22071,1,0,0:0:0:0:
320,192,22071,1,0,0:0:0:0:
320,192,22236,128,0,22563:0:0:0:0:
448,192,22236,1,0,0:0:0:0:
64,192,22728,1,0,0:0:0:0:
192,192,22728,1,0,0:0:0:0:
320,192,23057,1,0,0:0:0:0:
192,192,23384,1,0,0:0:0:0:
448,192,23384,1,0,0:0:0:0:
64,192,23713,128,0,24041:0:0:0:0:
192,192,24041,1,0,0:0:0:0:
64,192,24206,1,0,0:0:0:0:
320,192,24206,128,0,25683:0:0:0:0:
64,192,24370,1,0,0:0:0:0:
64,192,24534,1,0,0:0:0:0:
64,192,24698,1,0,0:0:0:0:
64,192,24862,1,0,0:0:0:0:
64,192,25027,1,0,0:0:0:0:
64,192,25191,1,0,0:0:0:0:
64,192,25356,1,0,0:0:0:0:
64,192,25519,1,0,0:0:0:0:
64,192,25683,1,0,0:0:0:0:
320,192,26012,1,0,0:0:0:0:
192,192,26340,1,0,0:0:0:0:
448,192,26340,1,0,0:0:0:0:
320,192,26669,1,0,0:0:0:0:
192,192,26833,1,0,0:0:0:0:
448,192,27161,128,0,27490:0:0:0:0:
64,192,27490,1,0,0:0:0:0:
192,192,27818,1,0,0:0:0:0:
448,192,27982,1,0,0:0:0:0:
192,192,28311,1,0,0:0:0:0:
320,192,28311,1,0,0:0:0:0:
64,192,28639,1,0,0:0:0:0:
448,192,28639,1,0,0:0:0:0:
192,192,28968,1,0,0:0:0:0:
320,192,29296,1,0,0:0:0:0:
64,192,29460,1,0,0:0:0:0:
192,192,29460,128,0,30856:0:0:0:0:
448,192,29624,1,0,0:0:0:0:
448,192,29789,1,0,0:0:0:0:
448,192,29953,1,0,0:0:0:0:
448,192,30117,1,0,0:0:0:0:
448,192,30281,1,0,0:0:0:0:
448,192,30446,1,0,0:0:0:0:
448,192,30610,1,0,0:0:0:0:
448,192,30773,1,0,0:0:0:0:
64,192,30938,1,0,0:0:0:0:
192,192,30938,1,0,0:0:0:0:
320,192,30938,1,0,0:0:0:0:
448,192,30938,1,0,0:0:0:0:
320,192,31102,1,0,0:0:0:0:
448,192,31102,1,0,0:0:0:0:
64,192,31184,1,0,0:0:0:0:
192,192,31184,1,0,0:0:0:0:
64,192,31267,1,0,0:0:0:0:
192,192,31267,1,0,0:0:0:0:
320,192,31267,1,0,0:0:0:0:
448,192,31267,1,0,0:0:0:0:
64,192,31349,1,0,0:0:0:0:
320,192,31349,1,0,0:0:0:0:
448,192,31349,1,0,0:0:0:0:
64,192,31431,1,0,0:0:0:0:
192,192,31431,1,0,0:0:0:0:
320,192,31431,1,0,0:0:0:0:
448,192,31431,1,0,0:0:0:0:
192,192,31512,1,0,0:0:0:0:
320,192,31512,1,0,0:0:0:0:
448,192,31512,1,0,0:0:0:0:
64,192,31594,1,0,0:0:0:0:
192,192,31594,1,0,0:0:0:0:
320,192,31594,1,0,0:0:0:0:
448,192,31594,1,0,0:0:0:0:
64,192,31677,1,0,0:0:0:0:
192,192,31677,1,0,0:0:0:0:
64,192,31759,1,0,0:0:0:0:
192,192,31759,1,0,0:0:0:0:
320,192,31759,1,0,0:0:0:0:
448,192,31759,1,0,0:0:0:0:
320,192,31841,1,0,0:0:0:0:
448,192,31841,1,0,0:0:0:0:
64,192,31923,1,0,0:0:0:0:
192,192,31923,1,0,0:0:0:0:
320,192,31923,1,0,0:0:0:0:
448,192,31923,1,0,0:0:0:0:
64,192,32006,1,0,0:0:0:0:
448,192,32006,1,0,0:0:0:0:
64,192,32088,1,0,0:0:0:0:
192,192,32088,1,0,0:0:0:0:
320,192,32088,1,0,0:0:0:0:
448,192,32088,1,0,0:0:0:0:
192,192,32170,1,0,0:0:0:0:
320,192,32170,1,0,0:0:0:0:
64,192,32252,1,0,0:0:0:0:
320,192,32252,1,0,0:0:0:0:
448,192,32252,1,0,0:0:0:0:
192,192,32333,1,0,0:0:0:0:
448,192,32333,1,0,0:0:0:0:
64,192,32416,1,0,0:0:0:0:
192,192,32416,1,0,0:0:0:0:
320,192,32416,1,0,0:0:0:0:
448,192,32416,1,0,0:0:0:0:
64,192,32498,1,0,0:0:0:0:
192,192,32498,1,0,0:0:0:0:
64,192,32580,1,0,0:0:0:0:
192,192,32580,1,0,0:0:0:0:
320,192,32580,1,0,0:0:0:0:
448,192,32580,1,0,0:0:0:0:
64,192,32662,1,0,0:0:0:0:
448,192,32662,1,0,0:0:0:0:
64,192,32744,1,0,0:0:0:0:
192,192,32744,1,0,0:0:0:0:
320,192,32744,1,0,0:0:0:0:
448,192,32744,1,0,0:0:0:0:
320,192,32827,1,0,0:0:0:0:
448,192,32827,1,0,0:0:0:0:
64,192,32909,1,0,0:0:0:0:
192,192,32909,1,0,0:0:0:0:
320,192,32909,1,0,0:0:0:0:
64,192,32991,1,0,0:0:0:0:
448,192,32991,1,0,0:0:0:0:
64,192,33072,1,0,0:0:0:0:
192,192,33072,1,0,0:0:0:0:
320,192,33072,1,0,0:0:0:0:
448,192,33072,1,0,0:0:0:0:
192,192,33154,1,0,0:0:0:0:
320,192,33154,1,0,0:0:0:0:
64,192,33237,1,0,0:0:0:0:
192,192,33237,1,0,0:0:0:0:
320,192,33237,1,0,0:0:0:0:
448,192,33237,1,0,0:0:0:0:
320,192,33319,1,0,0:0:0:0:
448,192,33319,1,0,0:0:0:0:
64,192,33401,1,0,0:0:0:0:
192,192,33401,1,0,0:0:0:0:
320,192,33401,1,0,0:0:0:0:
448,192,33401,1,0,0:0:0:0:
64,192,33483,1,0,0:0:0:0:
192,192,33483,1,0,0:0:0:0:
64,192,33566,1,0,0:0:0:0:
320,192,33566,1,0,0:0:0:0:
448,192,33566,1,0,0:0:0:0:
192,192,33648,1,0,0:0:0:0:
448,192,33648,1,0,0:0:0:0:
64,192,33730,1,0,0:0:0:0:
192,192,33730,1,0,0:0:0:0:
320,192,33730,1,0,0:0:0:0:
448,192,33730,1,0,0:0:0:0:
64,192,33811,1,0,0:0:0:0:
320,192,33811,1,0,0:0:0:0:
64,192,33893,1,0,0:0:0:0:
192,192,33893,1,0,0:0:0:0:
320,192,33893,1,0,0:0:0:0:
448,192,33893,1,0,0:0:0:0:
64,192,33976,1,0,0:0:0:0:
192,192,33976,1,0,0:0:0:0:
64,192,34058,1,0,0:0:0:0:
192,192,34058,1,0,0:0:0:0:
320,192,34058,1,0,0:0:0:0:
448,192,34058,1,0,0:0:0:0:
320,192,34140,1,0,0:0:0:0:
448,192,34140,1,0,0:0:0:0:
64,192,34222,1,0,0:0:0:0:
192,192,34222,1,0,0:0:0:0:
448,192,34222,1,0,0:0:0:0:
192,192,34304,1,0,0:0:0:0:
320,192,34304,1,0,0:0:0:0:
64,192,34387,1,0,0:0:0:0:
192,192,34387,1,0,0:0:0:0:
320,192,34387,1,0,0:0:0:0:
448,192,34387,1,0,0:0:0:0:
64,192,34469,1,0,0:0:0:0:
448,192,34469,1,0,0:0:0:0:
64,192,34550,1,0,0:0:0:0:
192,192,34550,1,0,0:0:0:0:
320,192,34550,1,0,0:0:0:0:
448,192,34550,1,0,0:0:0:0:
64,192,34632,1,0,0:0:0:0:
192,192,34632,1,0,0:0:0:0:
64,192,34714,1,0,0:0:0:0:
192,192,34714,1,0,0:0:0:0:
320,192,34714,1,0,0:0:0:0:
448,192,34714,1,0,0:0:0:0:
320,192,34797,1,0,0:0:0:0:
448,192,34797,1,0,0:0:0:0:
64,192,34879,1,0,0:0:0:0:
192,192,34879,1,0,0:0:0:0:
320,192,34879,1,0,0:0:0:0:
192,192,34961,1,0,0:0:0:0:
448,192,34961,1,0,0:0:0:0:
64,192,35043,1,0,0:0:0:0:
192,192,35043,1,0,0:0:0:0:
320,192,35043,1,0,0:0:0:0:
448,192,35043,1,0,0:0:0:0:
64,192,35126,1,0,0:0:0:0:
320,192,35126,1,0,0:0:0:0:
64,192,35208,1,0,0:0:0:0:
192,192,35208,1,0,0:0:0:0:
320,192,35208,1,0,0:0:0:0:
448,192,35208,1,0,0:0:0:0:
64,192,35290,1,0,0:0:0:0:
192,192,35290,1,0,0:0:0:0:
64,192,35371,1,0,0:0:0:0:
192,192,35371,1,0,0:0:0:0:
320,192,35371,1,0,0:0:0:0:
448,192,35371,1,0,0:0:0:0:
192,192,35453,1,0,0:0:0:0:
448,192,35453,1,0,0:0:0:0:
64,192,35536,1,0,0:0:0:0:
192,192,35536,1,0,0:0:0:0:
320,192,35536,1,0,0:0:0:0:
64,192,35618,1,0,0:0:0:0:
448,192,35618,1,0,0:0:0:0:
64,192,35700,1,0,0:0:0:0:
192,192,35700,1,0,0:0:0:0:
320,192,35700,1,0,0:0:0:0:
448,192,35700,1,0,0:0:0:0:
192,192,35782,1,0,0:0:0:0:
320,192,35782,1,0,0:0:0:0:
64,192,35864,1,0,0:0:0:0:
192,192,35864,1,0,0:0:0:0:
320,192,35864,1,0,0:0:0:0:
448,192,35864,1,0,0:0:0:0:
320,192,35947,1,0,0:0:0:0:
448,192,35947,1,0,0:0:0:0:
64,192,36029,1,0,0:0:0:0:
192,192,36029,1,0,0:0:0:0:
320,192,36029,1,0,0:0:0:0:
448,192,36029,1,0,0:0:0:0:
64,192,36110,1,0,0:0:0:0:
448,192,36110,1,0,0:0:0:0:
192,192,36192,1,0,0:0:0:0:
320,192,36192,1,0,0:0:0:0:
448,192,36192,1,0,0:0:0:0:
64,192,36274,1,0,0:0:0:0:
192,192,36274,1,0,0:0:0:0:
64,192,36357,1,0,0:0:0:0:
192,192,36357,1,0,0:0:0:0:
320,192,36357,1,0,0:0:0:0:
448,192,36357,1,0,0:0:0:0:
320,192,36439,1,0,0:0:0:0:
448,192,36439,1,0,0:0:0:0:
64,192,36521,1,0,0:0:0:0:
192,192,36521,1,0,0:0:0:0:
320,192,36521,1,0,0:0:0:0:
448,192,36521,1,0,0:0:0:0:
64,192,36603,1,0,0:0:0:0:
448,192,36603,1,0,0:0:0:0:
64,192,36686,1,0,0:0:0:0:
192,192,36686,1,0,0:0:0:0:
320,192,36686,1,0,0:0:0:0:
448,192,36686,1,0,0:0:0:0:
64,192,36768,1,0,0:0:0:0:
192,192,36768,1,0,0:0:0:0:
320,192,36768,1,0,0:0:0:0:
64,192,36849,1,0,0:0:0:0:
192,192,36849,1,0,0:0:0:0:
448,192,36849,1,0,0:0:0:0:
192,192,36931,1,0,0:0:0:0:
320,192,36931,1,0,0:0:0:0:
448,192,36931,1,0,0:0:0:0:
64,192,37013,1,0,0:0:0:0:
192,192,37013,1,0,0:0:0:0:
320,192,37013,1,0,0:0:0:0:
448,192,37013,1,0,0:0:0:0:
64,192,37096,1,0,0:0:0:0:
448,192,37096,1,0,0:0:0:0:
64,192,37178,1,0,0:0:0:0:
192,192,37178,1,0,0:0:0:0:
320,192,37178,1,0,0:0:0:0:
448,192,37178,1,0,0:0:0:0:
192,192,37260,1,0,0:0:0:0:
320,192,37260,1,0,0:0:0:0:
64,192,37342,1,0,0:0:0:0:
192,192,37342,1,0,0:0:0:0:
320,192,37342,1,0,0:0:0:0:
448,192,37342,1,0,0:0:0:0:
320,192,37424,1,0,0:0:0:0:
448,192,37424,1,0,0:0:0:0:
64,192,37507,1,0,0:0:0:0:
192,192,37507,1,0,0:0:0:0:
320,192,37507,1,0,0:0:0:0:
64,192,37588,1,0,0:0:0:0:
448,192,37588,1,0,0:0:0:0:
64,192,37670,1,0,0:0:0:0:
192,192,37670,1,0,0:0:0:0:
320,192,37670,1,0,0:0:0:0:
448,192,37670,1,0,0:0:0:0:
64,192,37752,1,0,0:0:0:0:
192,192,37752,1,0,0:0:0:0:
64,192,37834,1,0,0:0:0:0:
192,192,37834,1,0,0:0:0:0:
320,192,37834,1,0,0:0:0:0:
448,192,37834,1,0,0:0:0:0:
320,192,37917,1,0,0:0:0:0:
448,192,37917,1,0,0:0:0:0:
64,192,37999,1,0,0:0:0:0:
192,192,37999,1,0,0:0:0:0:
320,192,37999,1,0,0:0:0:0:
448,192,37999,1,0,0:0:0:0:
64,192,38081,1,0,0:0:0:0:
320,192,38081,1,0,0:0:0:0:
64,192,38163,1,0,0:0:0:0:
192,192,38163,1,0,0:0:0:0:
448,192,38163,1,0,0:0:0:0:
192,192,38246,1,0,0:0:0:0:
320,192,38246,1,0,0:0:0:0:
64,192,38327,1,0,0:0:0:0:
192,192,38327,1,0,0:0:0:0:
320,192,38327,1,0,0:0:0:0:
448,192,38327,1,0,0:0:0:0:
64,192,38409,1,0,0:0:0:0:
192,192,38409,1,0,0:0:0:0:
64,192,38491,1,0,0:0:0:0:
192,192,38491,1,0,0:0:0:0:
320,192,38491,1,0,0:0:0:0:
448,192,38491,1,0,0:0:0:0:
320,192,38573,1,0,0:0:0:0:
448,192,38573,1,0,0:0:0:0:
64,192,38656,1,0,0:0:0:0:
192,192,38656,1,0,0:0:0:0:
320,192,38656,1,0,0:0:0:0:
448,192,38656,1,0,0:0:0:0:
192,192,38738,1,0,0:0:0:0:
448,192,38738,1,0,0:0:0:0:
64,192,38820,1,0,0:0:0:0:
320,192,38820,1,0,0:0:0:0:
448,192,38820,1,0,0:0:0:0:
64,192,38902,1,0,0:0:0:0:
192,192,38902,1,0,0:0:0:0:
64,192,38984,1,0,0:0:0:0:
192,192,38984,1,0,0:0:0:0:
320,192,38984,1,0,0:0:0:0:
448,192,38984,1,0,0:0:0:0:
64,192,39067,1,0,0:0:0:0:
448,192,39067,1,0,0:0:0:0:
64,192,39148,1,0,0:0:0:0:
192,192,39148,1,0,0:0:0:0:
320,192,39148,1,0,0:0:0:0:
448,192,39148,1,0,0:0:0:0:
192,192,39230,1,0,0:0:0:0:
448,192,39230,1,0,0:0:0:0:
64,192,39312,1,0,0:0:0:0:
192,192,39312,1,0,0:0:0:0:
320,192,39312,1,0,0:0:0:0:
448,192,39312,1,0,0:0:0:0:
64,192,39394,1,0,0:0:0:0:
192,192,39394,1,0,0:0:0:0:
192,192,39477,1,0,0:0:0:0:
320,192,39477,1,0,0:0:0:0:
448,192,39477,1,0,0:0:0:0:
64,192,39559,1,0,0:0:0:0:
448,192,39559,1,0,0:0:0:0:
64,192,39641,1,0,0:0:0:0:
192,192,39641,1,0,0:0:0:0:
320,192,39641,1,0,0:0:0:0:
448,192,39641,1,0,0:0:0:0:
192,192,39723,1,0,0:0:0:0:
320,192,39723,1,0,0:0:0:0:
64,192,39806,1,0,0:0:0:0:
192,192,39806,1,0,0:0:0:0:
320,192,39806,1,0,0:0:0:0:
448,192,39806,1,0,0:0:0:0:
64,192,39887,1,0,0:0:0:0:
192,192,39887,1,0,0:0:0:0:
64,192,39969,1,0,0:0:0:0:
192,192,39969,1,0,0:0:0:0:
320,192,39969,1,0,0:0:0:0:
448,192,39969,1,0,0:0:0:0:
320,192,40051,1,0,0:0:0:0:
448,192,40051,1,0,0:0:0:0:
64,192,40133,1,0,0:0:0:0:
192,192,40133,1,0,0:0:0:0:
448,192,40133,1,0,0:0:0:0:
64,192,40216,1,0,0:0:0:0:
320,192,40216,1,0,0:0:0:0:
64,192,40298,1,0,0:0:0:0:
192,192,40298,1,0,0:0:0:0:
320,192,40298,1,0,0:0:0:0:
448,192,40298,1,0,0:0:0:0:
192,192,40380,1,0,0:0:0:0:
448,192,40380,1,0,0:0:0:0:
64,192,40462,1,0,0:0:0:0:
192,192,40462,1,0,0:0:0:0:
320,192,40462,1,0,0:0:0:0:
448,192,40462,1,0,0:0:0:0:
320,192,40544,1,0,0:0:0:0:
448,192,40544,1,0,0:0:0:0:
64,192,40626,1,0,0:0:0:0:
192,192,40626,1,0,0:0:0:0:
320,192,40626,1,0,0:0:0:0:
448,192,40626,1,0,0:0:0:0:
64,192,40708,1,0,0:0:0:0:
192,192,40708,1,0,0:0:0:0:
64,192,40790,1,0,0:0:0:0:
320,192,40790,1,0,0:0:0:0:
448,192,40790,1,0,0:0:0:0:
192,192,40872,1,0,0:0:0:0:
448,192,40872,1,0,0:0:0:0:
64,192,40954,1,0,0:0:0:0:
192,192,40954,1,0,0:0:0:0:
320,192,40954,1,0,0:0:0:0:
448,192,40954,1,0,0:0:0:0:
64,192,41037,1,0,0:0:0:0:
320,192,41037,1,0,0:0:0:0:
64,192,41119,1,0,0:0:0:0:
192,192,41119,1,0,0:0:0:0:
320,192,41119,1,0,0:0:0:0:
448,192,41119,1,0,0:0:0:0:
192,192,41201,1,0,0:0:0:0:
448,192,41201,1,0,0:0:0:0:
64,192,41283,1,0,0:0:0:0:
192,192,41283,1,0,0:0:0:0:
320,192,41283,1,0,0:0:0:0:
448,192,41283,1,0,0:0:0:0:
64,192,41364,1,0,0:0:0:0:
320,192,41364,1,0,0:0:0:0:
64,192,41447,1,0,0:0:0:0:
192,192,41447,1,0,0:0:0:0:
448,192,41447,1,0,0:0:0:0:
320,192,41529,1,0,0:0:0:0:
448,192,41529,1,0,0:0:0:0:
64,192,41611,1,0,0:0:0:0:
192,192,41611,1,0,0:0:0:0:
320,192,41611,1,0,0:0:0:0:
448,192,41611,1,0,0:0:0:0:
64,192,41693,1,0,0:0:0:0:
192,192,41693,1,0,0:0:0:0:
64,192,41776,1,0,0:0:0:0:
192,192,41776,1,0,0:0:0:0:
320,192,41776,1,0,0:0:0:0:
448,192,41776,1,0,0:0:0:0:
64,192,41858,1,0,0:0:0:0:
192,192,41858,1,0,0:0:0:0:
320,192,41858,1,0,0:0:0:0:
448,192,41858,1,0,0:0:0:0:
64,192,41940,1,0,0:0:0:0:
192,192,41940,1,0,0:0:0:0:
320,192,41940,1,0,0:0:0:0:
448,192,41940,1,0,0:0:0:0:
64,192,42022,1,0,0:0:0:0:
192,192,42022,1,0,0:0:0:0:
320,192,42022,1,0,0:0:0:0:
448,192,42022,1,0,0:0:0:0:
64,192,42104,1,0,0:0:0:0:
192,192,42104,1,0,0:0:0:0:
320,192,42104,1,0,0:0:0:0:
448,192,42104,1,0,0:0:0:0:
192,192,42268,1,0,0:0:0:0:
64,192,42432,1,0,0:0:0:0:
192,192,42432,1,0,0:0:0:0:
320,192,42432,1,0,0:0:0:0:
448,192,42432,1,0,0:0:0:0:
64,192,42514,1,0,0:0:0:0:
192,192,42514,1,0,0:0:0:0:
64,192,42597,1,0,0:0:0:0:
192,192,42597,1,0,0:0:0:0:
320,192,42597,1,0,0:0:0:0:
448,192,42597,1,0,0:0:0:0:
64,192,42679,1,0,0:0:0:0:
192,192,42679,1,0,0:0:0:0:
64,192,42761,1,0,0:0:0:0:
192,192,42761,1,0,0:0:0:0:
320,192,42761,1,0,0:0:0:0:
448,192,42761,1,0,0:0:0:0:
320,192,42843,1,0,0:0:0:0:
448,192,42843,1,0,0:0:0:0:
64,192,42924,1,0,0:0:0:0:
192,192,42924,1,0,0:0:0:0:
320,192,42924,1,0,0:0:0:0:
448,192,42924,1,0,0:0:0:0:
320,192,43007,1,0,0:0:0:0:
448,192,43007,1,0,0:0:0:0:
64,192,43089,1,0,0:0:0:0:
192,192,43089,1,0,0:0:0:0:
320,192,43089,1,0,0:0:0:0:
448,192,43089,1,0,0:0:0:0:
64,192,43253,1,0,0:0:0:0:
448,192,43253,1,0,0:0:0:0:
64,192,43418,1,0,0:0:0:0:
192,192,43418,1,0,0:0:0:0:
320,192,43418,1,0,0:0:0:0:
448,192,43418,1,0,0:0:0:0:
192,192,43582,1,0,0:0:0:0:
320,192,43582,1,0,0:0:0:0:
64,192,43746,1,0,0:0:0:0:
192,192,43746,1,0,0:0:0:0:
320,192,43746,1,0,0:0:0:0:
448,192,43746,1,0,0:0:0:0:
320,192,43828,1,0,0:0:0:0:
448,192,43828,1,0,0:0:0:0:
64,192,43910,1,0,0:0:0:0:
192,192,43910,1,0,0:0:0:0:
320,192,43910,1,0,0:0:0:0:
448,192,43910,1,0,0:0:0:0:
320,192,43992,1,0,0:0:0:0:
448,192,43992,1,0,0:0:0:0:
64,192,44074,1,0,0:0:0:0:
192,192,44074,1,0,0:0:0:0:
320,192,44074,1,0,0:0:0:0:
448,192,44074,1,0,0:0:0:0:
64,192,44157,1,0,0:0:0:0:
192,192,44157,1,0,0:0:0:0:
64,192,44239,1,0,0:0:0:0:
192,192,44239,1,0,0:0:0:0:
320,192,44239,1,0,0:0:0:0:
448,192,44239,1,0,0:0:0:0:
64,192,44321,1,0,0:0:0:0:
192,192,44321,1,0,0:0:0:0:
64,192,44402,1,0,0:0:0:0:
192,192,44402,1,0,0:0:0:0:
320,192,44402,1,0,0:0:0:0:
448,192,44402,1,0,0:0:0:0:
192,192,44567,1,0,0:0:0:0:
320,192,44567,1,0,0:0:0:0:
64,192,44731,1,0,0:0:0:0:
192,192,44731,1,0,0:0:0:0:
320,192,44731,1,0,0:0:0:0:
448,192,44731,1,0,0:0:0:0:
64,192,44813,1,0,0:0:0:0:
192,192,44813,1,0,0:0:0:0:
64,192,44896,1,0,0:0:0:0:
192,192,44896,1,0,0:0:0:0:
320,192,44896,1,0,0:0:0:0:
448,192,44896,1,0,0:0:0:0:
64,192,44978,1,0,0:0:0:0:
448,192,44978,1,0,0:0:0:0:
64,192,45060,1,0,0:0:0:0:
192,192,45060,1,0,0:0:0:0:
320,192,45060,1,0,0:0:0:0:
448,192,45060,1,0,0:0:0:0:
320,192,45142,1,0,0:0:0:0:
448,192,45142,1,0,0:0:0:0:
64,192,45223,1,0,0:0:0:0:
192,192,45223,1,0,0:0:0:0:
320,192,45223,1,0,0:0:0:0:
448,192,45223,1,0,0:0:0:0:
64,192,45306,1,0,0:0:0:0:
192,192,45306,1,0,0:0:0:0:
64,192,45388,1,0,0:0:0:0:
320,192,45388,1,0,0:0:0:0:
448,192,45388,1,0,0:0:0:0:
192,192,45470,1,0,0:0:0:0:
448,192,45470,1,0,0:0:0:0:
64,192,45552,1,0,0:0:0:0:
192,192,45552,1,0,0:0:0:0:
320,192,45552,1,0,0:0:0:0:
448,192,45552,1,0,0:0:0:0:
64,192,45634,1,0,0:0:0:0:
320,192,45634,1,0,0:0:0:0:
64,192,45717,1,0,0:0:0:0:
192,192,45717,1,0,0:0:0:0:
320,192,45717,1,0,0:0:0:0:
448,192,45717,1,0,0:0:0:0:
64,192,45799,1,0,0:0:0:0:
192,192,45799,1,0,0:0:0:0:
64,192,45881,1,0,0:0:0:0:
192,192,45881,1,0,0:0:0:0:
320,192,45881,1,0,0:0:0:0:
448,192,45881,1,0,0:0:0:0:
320,192,45962,1,0,0:0:0:0:
448,192,45962,1,0,0:0:0:0:
64,192,46044,1,0,0:0:0:0:
192,192,46044,1,0,0:0:0:0:
320,192,46044,1,0,0:0:0:0:
64,192,46127,1,0,0:0:0:0:
448,192,46127,1,0,0:0:0:0:
64,192,46209,1,0,0:0:0:0:
192,192,46209,1,0,0:0:0:0:
320,192,46209,1,0,0:0:0:0:
448,192,46209,1,0,0:0:0:0:
192,192,46291,1,0,0:0:0:0:
320,192,46291,1,0,0:0:0:0:
64,192,46373,1,0,0:0:0:0:
192,192,46373,1,0,0:0:0:0:
320,192,46373,1,0,0:0:0:0:
448,192,46373,1,0,0:0:0:0:
64,192,46456,1,0,0:0:0:0:
192,192,46456,1,0,0:0:0:0:
64,192,46538,1,0,0:0:0:0:
192,192,46538,1,0,0:0:0:0:
320,192,46538,1,0,0:0:0:0:
448,192,46538,1,0,0:0:0:0:
320,192,46620,1,0,0:0:0:0:
448,192,46620,1,0,0:0:0:0:
64,192,46701,1,0,0:0:0:0:
192,192,46701,1,0,0:0:0:0:
448,192,46701,1,0,0:0:0:0:
64,192,46783,1,0,0:0:0:0:
320,192,46783,1,0,0:0:0:0:
64,192,46866,1,0,0:0:0:0:
192,192,46866,1,0,0:0:0:0:
320,192,46866,1,0,0:0:0:0:
448,192,46866,1,0,0:0:0:0:
64,192,46948,1,0,0:0:0:0:
192,192,46948,1,0,0:0:0:0:
320,192,46948,1,0,0:0:0:0:
64,192,47030,1,0,0:0:0:0:
192,192,47030,1,0,0:0:0:0:
320,192,47030,1,0,0:0:0:0:
448,192,47030,1,0,0:0:0:0:
192,192,47112,1,0,0:0:0:0:
320,192,47112,1,0,0:0:0:0:
448,192,47112,1,0,0:0:0:0:
64,192,47194,1,0,0:0:0:0:
192,192,47194,1,0,0:0:0:0:
320,192,47194,1,0,0:0:0:0:
448,192,47194,1,0,0:0:0:0:
64,192,47277,1,0,0:0:0:0:
448,192,47277,1,0,0:0:0:0:
64,192,47359,1,0,0:0:0:0:
192,192,47359,1,0,0:0:0:0:
320,192,47359,1,0,0:0:0:0:
448,192,47359,1,0,0:0:0:0:
192,192,47522,1,0,0:0:0:0:
448,192,47522,1,0,0:0:0:0:
64,192,47687,1,0,0:0:0:0:
192,192,47687,1,0,0:0:0:0:
320,192,47687,1,0,0:0:0:0:
448,192,47687,1,0,0:0:0:0:
320,192,47769,1,0,0:0:0:0:
448,192,47769,1,0,0:0:0:0:
64,192,47851,1,0,0:0:0:0:
192,192,47851,1,0,0:0:0:0:
320,192,47851,1,0,0:0:0:0:
448,192,47851,1,0,0:0:0:0:
320,192,47933,1,0,0:0:0:0:
448,192,47933,1,0,0:0:0:0:
64,192,48016,1,0,0:0:0:0:
192,192,48016,1,0,0:0:0:0:
320,192,48016,1,0,0:0:0:0:
448,192,48016,1,0,0:0:0:0:
64,192,48098,1,0,0:0:0:0:
192,192,48098,1,0,0:0:0:0:
64,192,48179,1,0,0:0:0:0:
192,192,48179,1,0,0:0:0:0:
320,192,48179,1,0,0:0:0:0:
448,192,48179,1,0,0:0:0:0:
64,192,48261,1,0,0:0:0:0:
192,192,48261,1,0,0:0:0:0:
64,192,48343,1,0,0:0:0:0:
192,192,48343,1,0,0:0:0:0:
320,192,48343,1,0,0:0:0:0:
448,192,48343,1,0,0:0:0:0:
64,192,48508,1,0,0:0:0:0:
448,192,48508,1,0,0:0:0:0:
64,192,48672,1,0,0:0:0:0:
192,192,48672,1,0,0:0:0:0:
320,192,48672,1,0,0:0:0:0:
448,192,48672,1,0,0:0:0:0:
192,192,48837,1,0,0:0:0:0:
320,192,48837,1,0,0:0:0:0:
64,192,49000,1,0,0:0:0:0:
192,192,49000,1,0,0:0:0:0:
320,192,49000,1,0,0:0:0:0:
448,192,49000,1,0,0:0:0:0:
320,192,49082,1,0,0:0:0:0:
448,192,49082,1,0,0:0:0:0:
64,192,49164,1,0,0:0:0:0:
192,192,49164,1,0,0:0:0:0:
320,192,49164,1,0,0:0:0:0:
448,192,49164,1,0,0:0:0:0:
320,192,49247,1,0,0:0:0:0:
448,192,49247,1,0,0:0:0:0:
64,192,49329,1,0,0:0:0:0:
192,192,49329,1,0,0:0:0:0:
320,192,49329,1,0,0:0:0:0:
448,192,49329,1,0,0:0:0:0:
64,192,49411,1,0,0:0:0:0:
192,192,49411,1,0,0:0:0:0:
64,192,49493,1,0,0:0:0:0:
192,192,49493,1,0,0:0:0:0:
320,192,49493,1,0,0:0:0:0:
448,192,49493,1,0,0:0:0:0:
64,192,49576,1,0,0:0:0:0:
192,192,49576,1,0,0:0:0:0:
64,192,49658,1,0,0:0:0:0:
192,192,49658,1,0,0:0:0:0:
320,192,49658,1,0,0:0:0:0:
448,192,49658,1,0,0:0:0:0:
192,192,49821,1,0,0:0:0:0:
320,192,49821,1,0,0:0:0:0:
64,192,49986,1,0,0:0:0:0:
192,192,49986,1,0,0:0:0:0:
320,192,49986,1,0,0:0:0:0:
448,192,49986,1,0,0:0:0:0:
64,192,50068,1,0,0:0:0:0:
192,192,50068,1,0,0:0:0:0:
64,192,50150,1,0,0:0:0:0:
192,192,50150,1,0,0:0:0:0:
320,192,50150,1,0,0:0:0:0:
448,192,50150,1,0,0:0:0:0:
64,192,50232,1,0,0:0:0:0:
448,192,50232,1,0,0:0:0:0:
64,192,50314,1,0,0:0:0:0:
192,192,50314,1,0,0:0:0:0:
320,192,50314,1,0,0:0:0:0:
448,192,50314,1,0,0:0:0:0:
192,192,50397,1,0,0:0:0:0:
320,192,50397,1,0,0:0:0:0:
64,192,50478,1,0,0:0:0:0:
192,192,50478,1,0,0:0:0:0:
320,192,50478,1,0,0:0:0:0:
448,192,50478,1,0,0:0:0:0:
320,192,50560,1,0,0:0:0:0:
448,192,50560,1,0,0:0:0:0:
64,192,50642,1,0,0:0:0:0:
192,192,50642,1,0,0:0:0:0:
448,192,50642,1,0,0:0:0:0:
64,192,50724,1,0,0:0:0:0:
320,192,50724,1,0,0:0:0:0:
64,192,50807,1,0,0:0:0:0:
192,192,50807,1,0,0:0:0:0:
320,192,50807,1,0,0:0:0:0:
448,192,50807,1,0,0:0:0:0:
64,192,50889,1,0,0:0:0:0:
192,192,50889,1,0,0:0:0:0:
64,192,50971,1,0,0:0:0:0:
192,192,50971,1,0,0:0:0:0:
320,192,50971,1,0,0:0:0:0:
448,192,50971,1,0,0:0:0:0:
192,192,51053,1,0,0:0:0:0:
448,192,51053,1,0,0:0:0:0:
64,192,51136,1,0,0:0:0:0:
192,192,51136,1,0,0:0:0:0:
320,192,51136,1,0,0:0:0:0:
448,192,51136,1,0,0:0:0:0:
64,192,51217,1,0,0:0:0:0:
320,192,51217,1,0,0:0:0:0:
448,192,51217,1,0,0:0:0:0:
64,192,51299,1,0,0:0:0:0:
192,192,51299,1,0,0:0:0:0:
320,192,51299,1,0,0:0:0:0:
192,192,51381,1,0,0:0:0:0:
320,192,51381,1,0,0:0:0:0:
448,192,51381,1,0,0:0:0:0:
64,192,51463,1,0,0:0:0:0:
320,192,51463,1,0,0:0:0:0:
448,192,51463,1,0,0:0:0:0:
64,192,51546,1,0,0:0:0:0:
192,192,51546,1,0,0:0:0:0:
448,192,51546,1,0,0:0:0:0:
64,192,51628,1,0,0:0:0:0:
192,192,51628,1,0,0:0:0:0:
320,192,51628,1,0,0:0:0:0:
448,192,51628,1,0,0:0:0:0:
192,192,51710,1,0,0:0:0:0:
320,192,51710,1,0,0:0:0:0:
448,192,51710,1,0,0:0:0:0:
64,192,51792,1,0,0:0:0:0:
192,192,51792,1,0,0:0:0:0:
448,192,51792,1,0,0:0:0:0:
64,192,51874,1,0,0:0:0:0:
192,192,51874,1,0,0:0:0:0:
320,192,51874,1,0,0:0:0:0:
64,192,51957,1,0,0:0:0:0:
192,192,51957,1,0,0:0:0:0:
320,192,51957,1,0,0:0:0:0:
448,192,51957,1,0,0:0:0:0:
64,192,52038,1,0,0:0:0:0:
320,192,52038,1,0,0:0:0:0:
448,192,52038,1,0,0:0:0:0:
64,192,52120,1,0,0:0:0:0:
192,192,52120,1,0,0:0:0:0:
320,192,52120,1,0,0:0:0:0:
448,192,52120,1,0,0:0:0:0:
64,192,52202,1,0,0:0:0:0:
192,192,52202,1,0,0:0:0:0:
320,192,52202,1,0,0:0:0:0:
448,192,52202,1,0,0:0:0:0:
64,192,52284,1,0,0:0:0:0:
192,192,52284,1,0,0:0:0:0:
320,192,52284,1,0,0:0:0:0:
448,192,52284,1,0,0:0:0:0:
320,192,52367,1,0,0:0:0:0:
448,192,52367,1,0,0:0:0:0:
64,192,52449,1,0,0:0:0:0:
192,192,52449,1,0,0:0:0:0:
320,192,52449,1,0,0:0:0:0:
448,192,52449,1,0,0:0:0:0:
64,192,52531,1,0,0:0:0:0:
192,192,52531,1,0,0:0:0:0:
320,192,52531,1,0,0:0:0:0:
448,192,52531,1,0,0:0:0:0:
64,192,52613,1,0,0:0:0:0:
192,192,52613,1,0,0:0:0:0:
320,192,52613,1,0,0:0:0:0:
448,192,52613,1,0,0:0:0:0:
64,192,52859,1,0,0:0:0:0:
192,192,52859,1,0,0:0:0:0:
320,192,52859,1,0,0:0:0:0:
192,192,53106,1,0,0:0:0:0:
320,192,53106,1,0,0:0:0:0:
448,192,53106,1,0,0:0:0:0:
64,192,53270,1,0,0:0:0:0:
192,192,53270,1,0,0:0:0:0:
320,192,53270,1,0,0:0:0:0:
448,192,53270,1,0,0:0:0:0:
320,192,53352,1,0,0:0:0:0:
448,192,53352,1,0,0:0:0:0:
64,192,53434,1,0,0:0:0:0:
192,192,53434,1,0,0:0:0:0:
320,192,53434,1,0,0:0:0:0:
448,192,53434,1,0,0:0:0:0:
64,192,53516,1,0,0:0:0:0:
192,192,53516,1,0,0:0:0:0:
64,192,53598,1,0,0:0:0:0:
192,192,53598,1,0,0:0:0:0:
320,192,53598,1,0,0:0:0:0:
448,192,53598,1,0,0:0:0:0:
64,192,53680,1,0,0:0:0:0:
192,192,53680,1,0,0:0:0:0:
320,192,53680,1,0,0:0:0:0:
448,192,53680,1,0,0:0:0:0:
64,192,53762,1,0,0:0:0:0:
192,192,53762,1,0,0:0:0:0:
320,192,53762,1,0,0:0:0:0:
448,192,53762,1,0,0:0:0:0:
64,192,53844,1,0,0:0:0:0:
192,192,53844,1,0,0:0:0:0:
320,192,53844,1,0,0:0:0:0:
448,192,53844,1,0,0:0:0:0:
64,192,53927,1,0,0:0:0:0:
192,192,53927,1,0,0:0:0:0:
320,192,53927,1,0,0:0:0:0:
448,192,53927,1,0,0:0:0:0:
320,192,54009,1,0,0:0:0:0:
448,192,54009,1,0,0:0:0:0:
64,192,54091,1,0,0:0:0:0:
192,192,54091,1,0,0:0:0:0:
320,192,54091,1,0,0:0:0:0:
448,192,54091,1,0,0:0:0:0:
64,192,54173,1,0,0:0:0:0:
192,192,54173,1,0,0:0:0:0:
64,192,54254,1,0,0:0:0:0:
192,192,54254,1,0,0:0:0:0:
320,192,54254,1,0,0:0:0:0:
448,192,54254,1,0,0:0:0:0:
64,192,54337,1,0,0:0:0:0:
448,192,54337,1,0,0:0:0:0:
64,192,54419,1,0,0:0:0:0:
192,192,54419,1,0,0:0:0:0:
320,192,54419,1,0,0:0:0:0:
448,192,54419,1,0,0:0:0:0:
192,192,54501,1,0,0:0:0:0:
320,192,54501,1,0,0:0:0:0:
64,192,54583,1,0,0:0:0:0:
192,192,54583,1,0,0:0:0:0:
448,192,54583,1,0,0:0:0:0:
64,192,54666,1,0,0:0:0:0:
320,192,54666,1,0,0:0:0:0:
64,192,54748,1,0,0:0:0:0:
192,192,54748,1,0,0:0:0:0:
320,192,54748,1,0,0:0:0:0:
448,192,54748,1,0,0:0:0:0:
320,192,54830,1,0,0:0:0:0:
448,192,54830,1,0,0:0:0:0:
64,192,54912,1,0,0:0:0:0:
192,192,54912,1,0,0:0:0:0:
320,192,54912,1,0,0:0:0:0:
448,192,54912,1,0,0:0:0:0:
64,192,54993,1,0,0:0:0:0:
448,192,54993,1,0,0:0:0:0:
64,192,55076,1,0,0:0:0:0:
192,192,55076,1,0,0:0:0:0:
320,192,55076,1,0,0:0:0:0:
448,192,55076,1,0,0:0:0:0:
64,192,55158,1,0,0:0:0:0:
192,192,55158,1,0,0:0:0:0:
192,192,55240,1,0,0:0:0:0:
320,192,55240,1,0,0:0:0:0:
448,192,55240,1,0,0:0:0:0:
64,192,55322,1,0,0:0:0:0:
448,192,55322,1,0,0:0:0:0:
64,192,55404,1,0,0:0:0:0:
192,192,55404,1,0,0:0:0:0:
320,192,55404,1,0,0:0:0:0:
448,192,55404,1,0,0:0:0:0:
192,192,55487,1,0,0:0:0:0:
320,192,55487,1,0,0:0:0:0:
64,192,55569,1,0,0:0:0:0:
192,192,55569,1,0,0:0:0:0:
320,192,55569,1,0,0:0:0:0:
448,192,55569,1,0,0:0:0:0:
64,192,55651,1,0,0:0:0:0:
192,192,55651,1,0,0:0:0:0:
64,192,55733,1,0,0:0:0:0:
192,192,55733,1,0,0:0:0:0:
320,192,55733,1,0,0:0:0:0:
448,192,55733,1,0,0:0:0:0:
320,192,55814,1,0,0:0:0:0:
448,192,55814,1,0,0:0:0:0:
64,192,55897,1,0,0:0:0:0:
192,192,55897,1,0,0:0:0:0:
448,192,55897,1,0,0:0:0:0:
64,192,55979,1,0,0:0:0:0:
320,192,55979,1,0,0:0:0:0:
64,192,56061,1,0,0:0:0:0:
192,192,56061,1,0,0:0:0:0:
320,192,56061,1,0,0:0:0:0:
448,192,56061,1,0,0:0:0:0:
192,192,56143,1,0,0:0:0:0:
448,192,56143,1,0,0:0:0:0:
64,192,56226,1,0,0:0:0:0:
192,192,56226,1,0,0:0:0:0:
320,192,56226,1,0,0:0:0:0:
448,192,56226,1,0,0:0:0:0:
320,192,56308,1,0,0:0:0:0:
448,192,56308,1,0,0:0:0:0:
64,192,56390,1,0,0:0:0:0:
192,192,56390,1,0,0:0:0:0:
320,192,56390,1,0,0:0:0:0:
448,192,56390,1,0,0:0:0:0:
64,192,56472,1,0,0:0:0:0:
192,192,56472,1,0,0:0:0:0:
64,192,56553,1,0,0:0:0:0:
320,192,56553,1,0,0:0:0:0:
448,192,56553,1,0,0:0:0:0:
192,192,56636,1,0,0:0:0:0:
320,192,56636,1,0,0:0:0:0:
64,192,56718,1,0,0:0:0:0:
192,192,56718,1,0,0:0:0:0:
320,192,56718,1,0,0:0:0:0:
448,192,56718,1,0,0:0:0:0:
64,192,56800,1,0,0:0:0:0:
448,192,56800,1,0,0:0:0:0:
64,192,56882,1,0,0:0:0:0:
192,192,56882,1,0,0:0:0:0:
320,192,56882,1,0,0:0:0:0:
448,192,56882,1,0,0:0:0:0:
320,192,56964,1,0,0:0:0:0:
448,192,56964,1,0,0:0:0:0:
64,192,57047,1,0,0:0:0:0:
192,192,57047,1,0,0:0:0:0:
320,192,57047,1,0,0:0:0:0:
448,192,57047,1,0,0:0:0:0:
64,192,57129,1,0,0:0:0:0:
192,192,57129,1,0,0:0:0:0:
448,192,57129,1,0,0:0:0:0:
192,192,57211,1,0,0:0:0:0:
320,192,57211,1,0,0:0:0:0:
448,192,57211,1,0,0:0:0:0:
64,192,57292,1,0,0:0:0:0:
192,192,57292,1,0,0:0:0:0:
320,192,57292,1,0,0:0:0:0:
64,192,57374,1,0,0:0:0:0:
192,192,57374,1,0,0:0:0:0:
448,192,57374,1,0,0:0:0:0:
64,192,57457,1,0,0:0:0:0:
320,192,57457,1,0,0:0:0:0:
448,192,57457,1,0,0:0:0:0:
64,192,57539,1,0,0:0:0:0:
192,192,57539,1,0,0:0:0:0:
320,192,57539,1,0,0:0:0:0:
448,192,57539,1,0,0:0:0:0:
192,192,57621,1,0,0:0:0:0:
320,192,57621,1,0,0:0:0:0:
448,192,57621,1,0,0:0:0:0:
64,192,57703,1,0,0:0:0:0:
192,192,57703,1,0,0:0:0:0:
448,192,57703,1,0,0:0:0:0:
64,192,57786,1,0,0:0:0:0:
192,192,57786,1,0,0:0:0:0:
320,192,57786,1,0,0:0:0:0:
192,192,57868,1,0,0:0:0:0:
320,192,57868,1,0,0:0:0:0:
448,192,57868,1,0,0:0:0:0:
64,192,57950,1,0,0:0:0:0:
320,192,57950,1,0,0:0:0:0:
448,192,57950,1,0,0:0:0:0:
64,192,58031,1,0,0:0:0:0:
192,192,58031,1,0,0:0:0:0:
448,192,58031,1,0,0:0:0:0:
192,192,58113,1,0,0:0:0:0:
320,192,58113,1,0,0:0:0:0:
448,192,58113,1,0,0:0:0:0:
64,192,58196,1,0,0:0:0:0:
192,192,58196,1,0,0:0:0:0:
320,192,58196,1,0,0:0:0:0:
448,192,58196,1,0,0:0:0:0:
64,192,58278,1,0,0:0:0:0:
320,192,58278,1,0,0:0:0:0:
448,192,58278,1,0,0:0:0:0:
64,192,58360,1,0,0:0:0:0:
192,192,58360,1,0,0:0:0:0:
320,192,58360,1,0,0:0:0:0:
64,192,58442,1,0,0:0:0:0:
192,192,58442,1,0,0:0:0:0:
448,192,58442,1,0,0:0:0:0:
192,192,58524,1,0,0:0:0:0:
320,192,58524,1,0,0:0:0:0:
448,192,58524,1,0,0:0:0:0:
320,192,58607,1,0,0:0:0:0:
448,192,58607,1,0,0:0:0:0:
64,192,58689,1,0,0:0:0:0:
192,192,58689,1,0,0:0:0:0:
320,192,58689,1,0,0:0:0:0:
448,192,58689,1,0,0:0:0:0:
64,192,58771,1,0,0:0:0:0:
192,192,58771,1,0,0:0:0:0:
64,192,58852,1,0,0:0:0:0:
192,192,58852,1,0,0:0:0:0:
320,192,58852,1,0,0:0:0:0:
448,192,58852,1,0,0:0:0:0:
64,192,58934,1,0,0:0:0:0:
448,192,58934,1,0,0:0:0:0:
64,192,59017,1,0,0:0:0:0:
192,192,59017,1,0,0:0:0:0:
320,192,59017,1,0,0:0:0:0:
448,192,59017,1,0,0:0:0:0:
192,192,59099,1,0,0:0:0:0:
320,192,59099,1,0,0:0:0:0:
448,192,59099,1,0,0:0:0:0:
64,192,59181,1,0,0:0:0:0:
320,192,59181,1,0,0:0:0:0:
448,192,59181,1,0,0:0:0:0:
64,192,59263,1,0,0:0:0:0:
192,192,59263,1,0,0:0:0:0:
320,192,59263,1,0,0:0:0:0:
64,192,59346,1,0,0:0:0:0:
192,192,59346,1,0,0:0:0:0:
320,192,59346,1,0,0:0:0:0:
448,192,59346,1,0,0:0:0:0:
64,192,59428,1,0,0:0:0:0:
448,192,59428,1,0,0:0:0:0:
64,192,59510,1,0,0:0:0:0:
192,192,59510,1,0,0:0:0:0:
320,192,59510,1,0,0:0:0:0:
448,192,59510,1,0,0:0:0:0:
192,192,59591,1,0,0:0:0:0:
320,192,59591,1,0,0:0:0:0:
64,192,59673,1,0,0:0:0:0:
192,192,59673,1,0,0:0:0:0:
320,192,59673,1,0,0:0:0:0:
448,192,59673,1,0,0:0:0:0:
64,192,59756,1,0,0:0:0:0:
192,192,59756,1,0,0:0:0:0:
192,192,59838,1,0,0:0:0:0:
320,192,59838,1,0,0:0:0:0:
448,192,59838,1,0,0:0:0:0:
64,192,59920,1,0,0:0:0:0:
448,192,59920,1,0,0:0:0:0:
64,192,60002,1,0,0:0:0:0:
192,192,60002,1,0,0:0:0:0:
320,192,60002,1,0,0:0:0:0:
448,192,60002,1,0,0:0:0:0:
320,192,60084,1,0,0:0:0:0:
448,192,60084,1,0,0:0:0:0:
64,192,60167,1,0,0:0:0:0:
192,192,60167,1,0,0:0:0:0:
320,192,60167,1,0,0:0:0:0:
448,192,60167,1,0,0:0:0:0:
64,192,60249,1,0,0:0:0:0:
192,192,60249,1,0,0:0:0:0:
64,192,60330,1,0,0:0:0:0:
192,192,60330,1,0,0:0:0:0:
320,192,60330,1,0,0:0:0:0:
448,192,60330,1,0,0:0:0:0:
192,192,60412,1,0,0:0:0:0:
448,192,60412,1,0,0:0:0:0:
64,192,60494,1,0,0:0:0:0:
320,192,60494,1,0,0:0:0:0:
448,192,60494,1,0,0:0:0:0:
192,192,60577,1,0,0:0:0:0:
320,192,60577,1,0,0:0:0:0:
64,192,60659,1,0,0:0:0:0:
192,192,60659,1,0,0:0:0:0:
320,192,60659,1,0,0:0:0:0:
448,192,60659,1,0,0:0:0:0:
320,192,60741,1,0,0:0:0:0:
448,192,60741,1,0,0:0:0:0:
64,192,60823,1,0,0:0:0:0:
192,192,60823,1,0,0:0:0:0:
320,192,60823,1,0,0:0:0:0:
448,192,60823,1,0,0:0:0:0:
64,192,60906,1,0,0:0:0:0:
192,192,60906,1,0,0:0:0:0:
64,192,60988,1,0,0:0:0:0:
192,192,60988,1,0,0:0:0:0:
320,192,60988,1,0,0:0:0:0:
448,192,60988,1,0,0:0:0:0:
64,192,61069,1,0,0:0:0:0:
320,192,61069,1,0,0:0:0:0:
64,192,61151,1,0,0:0:0:0:
192,192,61151,1,0,0:0:0:0:
448,192,61151,1,0,0:0:0:0:
320,192,61233,1,0,0:0:0:0:
448,192,61233,1,0,0:0:0:0:
64,192,61316,1,0,0:0:0:0:
192,192,61316,1,0,0:0:0:0:
320,192,61316,1,0,0:0:0:0:
448,192,61316,1,0,0:0:0:0:
64,192,61398,1,0,0:0:0:0:
448,192,61398,1,0,0:0:0:0:
64,192,61480,1,0,0:0:0:0:
192,192,61480,1,0,0:0:0:0:
320,192,61480,1,0,0:0:0:0:
448,192,61480,1,0,0:0:0:0:
64,192,61562,1,0,0:0:0:0:
320,192,61562,1,0,0:0:0:0:
64,192,61644,1,0,0:0:0:0:
192,192,61644,1,0,0:0:0:0:
320,192,61644,1,0,0:0:0:0:
448,192,61644,1,0,0:0:0:0:
320,192,61727,1,0,0:0:0:0:
448,192,61727,1,0,0:0:0:0:
64,192,61809,1,0,0:0:0:0:
192,192,61809,1,0,0:0:0:0:
320,192,61809,1,0,0:0:0:0:
64,192,61890,1,0,0:0:0:0:
448,192,61890,1,0,0:0:0:0:
64,192,61972,1,0,0:0:0:0:
192,192,61972,1,0,0:0:0:0:
320,192,61972,1,0,0:0:0:0:
448,192,61972,1,0,0:0:0:0:
192,192,62054,1,0,0:0:0:0:
320,192,62054,1,0,0:0:0:0:
64,192,62137,1,0,0:0:0:0:
192,192,62137,1,0,0:0:0:0:
320,192,62137,1,0,0:0:0:0:
448,192,62137,1,0,0:0:0:0:
320,192,62219,1,0,0:0:0:0:
448,192,62219,1,0,0:0:0:0:
64,192,62301,1,0,0:0:0:0:
192,192,62301,1,0,0:0:0:0:
320,192,62301,1,0,0:0:0:0:
448,192,62301,1,0,0:0:0:0:
64,192,62383,1,0,0:0:0:0:
192,192,62383,1,0,0:0:0:0:
64,192,62466,1,0,0:0:0:0:
320,192,62466,1,0,0:0:0:0:
448,192,62466,1,0,0:0:0:0:
192,192,62548,1,0,0:0:0:0:
448,192,62548,1,0,0:0:0:0:
64,192,62629,1,0,0:0:0:0:
192,192,62629,1,0,0:0:0:0:
320,192,62629,1,0,0:0:0:0:
448,192,62629,1,0,0:0:0:0:
64,192,62711,1,0,0:0:0:0:
320,192,62711,1,0,0:0:0:0:
64,192,62793,1,0,0:0:0:0:
192,192,62793,1,0,0:0:0:0:
320,192,62793,1,0,0:0:0:0:
448,192,62793,1,0,0:0:0:0:
64,192,62876,1,0,0:0:0:0:
192,192,62876,1,0,0:0:0:0:
64,192,62958,1,0,0:0:0:0:
192,192,62958,1,0,0:0:0:0:
320,192,62958,1,0,0:0:0:0:
448,192,62958,1,0,0:0:0:0:
320,192,63040,1,0,0:0:0:0:
448,192,63040,1,0,0:0:0:0:
64,192,63122,1,0,0:0:0:0:
192,192,63122,1,0,0:0:0:0:
448,192,63122,1,0,0:0:0:0:
64,192,63204,1,0,0:0:0:0:
320,192,63204,1,0,0:0:0:0:
64,192,63287,1,0,0:0:0:0:
192,192,63287,1,0,0:0:0:0:
320,192,63287,1,0,0:0:0:0:
448,192,63287,1,0,0:0:0:0:
192,192,63368,1,0,0:0:0:0:
320,192,63368,1,0,0:0:0:0:
448,192,63368,1,0,0:0:0:0:
64,192,63450,1,0,0:0:0:0:
192,192,63450,1,0,0:0:0:0:
320,192,63450,1,0,0:0:0:0:
448,192,63450,1,0,0:0:0:0:
64,192,63532,1,0,0:0:0:0:
192,192,63532,1,0,0:0:0:0:
320,192,63532,1,0,0:0:0:0:
64,192,63614,1,0,0:0:0:0:
320,192,63614,1,0,0:0:0:0:
448,192,63614,1,0,0:0:0:0:
64,192,63697,1,0,0:0:0:0:
192,192,63697,1,0,0:0:0:0:
448,192,63697,1,0,0:0:0:0:
64,192,63779,1,0,0:0:0:0:
192,192,63779,1,0,0:0:0:0:
320,192,63779,1,0,0:0:0:0:
448,192,63779,1,0,0:0:0:0:
320,192,63861,1,0,0:0:0:0:
448,192,63861,1,0,0:0:0:0:
64,192,63943,1,0,0:0:0:0:
192,192,63943,1,0,0:0:0:0:
320,192,63943,1,0,0:0:0:0:
448,192,63943,1,0,0:0:0:0:
64,192,64026,1,0,0:0:0:0:
192,192,64026,1,0,0:0:0:0:
64,192,64107,1,0,0:0:0:0:
192,192,64107,1,0,0:0:0:0:
320,192,64107,1,0,0:0:0:0:
448,192,64107,1,0,0:0:0:0:
64,192,64189,1,0,0:0:0:0:
192,192,64189,1,0,0:0:0:0:
320,192,64189,1,0,0:0:0:0:
448,192,64189,1,0,0:0:0:0:
64,192,64271,1,0,0:0:0:0:
192,192,64271,1,0,0:0:0:0:
320,192,64271,1,0,0:0:0:0:
448,192,64271,1,0,0:0:0:0:
64,192,64353,1,0,0:0:0:0:
192,192,64353,1,0,0:0:0:0:
320,192,64353,1,0,0:0:0:0:
448,192,64353,1,0,0:0:0:0:
64,192,64436,1,0,0:0:0:0:
192,192,64436,1,0,0:0:0:0:
320,192,64436,1,0,0:0:0:0:
448,192,64436,1,0,0:0:0:0:
320,192,64518,1,0,0:0:0:0:
448,192,64518,1,0,0:0:0:0:
64,192,64600,1,0,0:0:0:0:
192,192,64600,1,0,0:0:0:0:
320,192,64600,1,0,0:0:0:0:
448,192,64600,1,0,0:0:0:0:
64,192,64682,1,0,0:0:0:0:
448,192,64682,1,0,0:0:0:0:
64,192,64764,1,0,0:0:0:0:
192,192,64764,1,0,0:0:0:0:
320,192,64764,1,0,0:0:0:0:
448,192,64764,1,0,0:0:0:0:
64,192,64846,1,0,0:0:0:0:
192,192,64846,1,0,0:0:0:0:
64,192,64928,1,0,0:0:0:0:
192,192,64928,1,0,0:0:0:0:
320,192,64928,1,0,0:0:0:0:
448,192,64928,1,0,0:0:0:0:
320,192,65010,1,0,0:0:0:0:
448,192,65010,1,0,0:0:0:0:
64,192,65092,1,0,0:0:0:0:
192,192,65092,1,0,0:0:0:0:
448,192,65092,1,0,0:0:0:0:
64,192,65174,1,0,0:0:0:0:
320,192,65174,1,0,0:0:0:0:
64,192,65257,1,0,0:0:0:0:
192,192,65257,1,0,0:0:0:0:
320,192,65257,1,0,0:0:0:0:
448,192,65257,1,0,0:0:0:0:
192,192,65339,1,0,0:0:0:0:
448,192,65339,1,0,0:0:0:0:
64,192,65421,1,0,0:0:0:0:
192,192,65421,1,0,0:0:0:0:
320,192,65421,1,0,0:0:0:0:
448,192,65421,1,0,0:0:0:0:
320,192,65503,1,0,0:0:0:0:
448,192,65503,1,0,0:0:0:0:
64,192,65586,1,0,0:0:0:0:
192,192,65586,1,0,0:0:0:0:
320,192,65586,1,0,0:0:0:0:
448,192,65586,1,0,0:0:0:0:
64,192,65667,1,0,0:0:0:0:
192,192,65667,1,0,0:0:0:0:
192,192,65749,1,0,0:0:0:0:
320,192,65749,1,0,0:0:0:0:
448,192,65749,1,0,0:0:0:0:
64,192,65831,1,0,0:0:0:0:
448,192,65831,1,0,0:0:0:0:
64,192,65913,1,0,0:0:0:0:
192,192,65913,1,0,0:0:0:0:
320,192,65913,1,0,0:0:0:0:
448,192,65913,1,0,0:0:0:0:
192,192,65996,1,0,0:0:0:0:
320,192,65996,1,0,0:0:0:0:
64,192,66078,1,0,0:0:0:0:
192,192,66078,1,0,0:0:0:0:
320,192,66078,1,0,0:0:0:0:
448,192,66078,1,0,0:0:0:0:
320,192,66160,1,0,0:0:0:0:
448,192,66160,1,0,0:0:0:0:
64,192,66242,1,0,0:0:0:0:
192,192,66242,1,0,0:0:0:0:
320,192,66242,1,0,0:0:0:0:
448,192,66242,1,0,0:0:0:0:
64,192,66324,1,0,0:0:0:0:
192,192,66324,1,0,0:0:0:0:
64,192,66406,1,0,0:0:0:0:
320,192,66406,1,0,0:0:0:0:
448,192,66406,1,0,0:0:0:0:
192,192,66488,1,0,0:0:0:0:
448,192,66488,1,0,0:0:0:0:
64,192,66570,1,0,0:0:0:0:
192,192,66570,1,0,0:0:0:0:
320,192,66570,1,0,0:0:0:0:
448,192,66570,1,0,0:0:0:0:
320,192,66652,1,0,0:0:0:0:
448,192,66652,1,0,0:0:0:0:
64,192,66734,1,0,0:0:0:0:
192,192,66734,1,0,0:0:0:0:
320,192,66734,1,0,0:0:0:0:
448,192,66734,1,0,0:0:0:0:
64,192,66817,1,0,0:0:0:0:
192,192,66817,1,0,0:0:0:0:
64,192,66899,1,0,0:0:0:0:
192,192,66899,1,0,0:0:0:0:
320,192,66899,1,0,0:0:0:0:
448,192,66899,1,0,0:0:0:0:
64,192,66981,1,0,0:0:0:0:
448,192,66981,1,0,0:0:0:0:
64,192,67063,1,0,0:0:0:0:
192,192,67063,1,0,0:0:0:0:
448,192,67063,1,0,0:0:0:0:
192,192,67144,1,0,0:0:0:0:
320,192,67144,1,0,0:0:0:0:
64,192,67227,1,0,0:0:0:0:
192,192,67227,1,0,0:0:0:0:
320,192,67227,1,0,0:0:0:0:
448,192,67227,1,0,0:0:0:0:
64,192,67309,1,0,0:0:0:0:
448,192,67309,1,0,0:0:0:0:
64,192,67391,1,0,0:0:0:0:
192,192,67391,1,0,0:0:0:0:
320,192,67391,1,0,0:0:0:0:
448,192,67391,1,0,0:0:0:0:
320,192,67473,1,0,0:0:0:0:
448,192,67473,1,0,0:0:0:0:
64,192,67556,1,0,0:0:0:0:
192,192,67556,1,0,0:0:0:0:
320,192,67556,1,0,0:0:0:0:
448,192,67556,1,0,0:0:0:0:
64,192,67638,1,0,0:0:0:0:
192,192,67638,1,0,0:0:0:0:
64,192,67720,1,0,0:0:0:0:
320,192,67720,1,0,0:0:0:0:
448,192,67720,1,0,0:0:0:0:
192,192,67802,1,0,0:0:0:0:
448,192,67802,1,0,0:0:0:0:
64,192,67883,1,0,0:0:0:0:
192,192,67883,1,0,0:0:0:0:
320,192,67883,1,0,0:0:0:0:
448,192,67883,1,0,0:0:0:0:
64,192,67966,1,0,0:0:0:0:
320,192,67966,1,0,0:0:0:0:
64,192,68048,1,0,0:0:0:0:
192,192,68048,1,0,0:0:0:0:
320,192,68048,1,0,0:0:0:0:
448,192,68048,1,0,0:0:0:0:
64,192,68130,1,0,0:0:0:0:
192,192,68130,1,0,0:0:0:0:
64,192,68212,1,0,0:0:0:0:
192,192,68212,1,0,0:0:0:0:
320,192,68212,1,0,0:0:0:0:
448,192,68212,1,0,0:0:0:0:
320,192,68294,1,0,0:0:0:0:
448,192,68294,1,0,0:0:0:0:
64,192,68377,1,0,0:0:0:0:
192,192,68377,1,0,0:0:0:0:
320,192,68377,1,0,0:0:0:0:
64,192,68459,1,0,0:0:0:0:
448,192,68459,1,0,0:0:0:0:
64,192,68541,1,0,0:0:0:0:
192,192,68541,1,0,0:0:0:0:
320,192,68541,1,0,0:0:0:0:
448,192,68541,1,0,0:0:0:0:
192,192,68623,1,0,0:0:0:0:
320,192,68623,1,0,0:0:0:0:
64,192,68704,1,0,0:0:0:0:
192,192,68704,1,0,0:0:0:0:
320,192,68704,1,0,0:0:0:0:
448,192,68704,1,0,0:0:0:0:
64,192,68787,1,0,0:0:0:0:
192,192,68787,1,0,0:0:0:0:
64,192,68869,1,0,0:0:0:0:
192,192,68869,1,0,0:0:0:0:
320,192,68869,1,0,0:0:0:0:
448,192,68869,1,0,0:0:0:0:
320,192,68951,1,0,0:0:0:0:
448,192,68951,1,0,0:0:0:0:
64,192,69033,1,0,0:0:0:0:
192,192,69033,1,0,0:0:0:0:
448,192,69033,1,0,0:0:0:0:
64,192,69116,1,0,0:0:0:0:
320,192,69116,1,0,0:0:0:0:
64,192,69198,1,0,0:0:0:0:
192,192,69198,1,0,0:0:0:0:
320,192,69198,1,0,0:0:0:0:
448,192,69198,1,0,0:0:0:0:
64,192,69280,1,0,0:0:0:0:
192,192,69280,1,0,0:0:0:0:
64,192,69362,1,0,0:0:0:0:
192,192,69362,1,0,0:0:0:0:
320,192,69362,1,0,0:0:0:0:
448,192,69362,1,0,0:0:0:0:
192,192,69443,1,0,0:0:0:0:
320,192,69443,1,0,0:0:0:0:
448,192,69443,1,0,0:0:0:0:
64,192,69526,1,0,0:0:0:0:
192,192,69526,1,0,0:0:0:0:
320,192,69526,1,0,0:0:0:0:
448,192,69526,1,0,0:0:0:0:
64,192,69608,1,0,0:0:0:0:
320,192,69608,1,0,0:0:0:0:
448,192,69608,1,0,0:0:0:0:
64,192,69690,1,0,0:0:0:0:
192,192,69690,1,0,0:0:0:0:
320,192,69690,1,0,0:0:0:0:
448,192,69690,1,0,0:0:0:0:
64,192,69772,1,0,0:0:0:0:
192,192,69772,1,0,0:0:0:0:
64,192,69854,1,0,0:0:0:0:
192,192,69854,1,0,0:0:0:0:
320,192,69854,1,0,0:0:0:0:
448,192,69854,1,0,0:0:0:0:
192,192,69937,1,0,0:0:0:0:
320,192,69937,1,0,0:0:0:0:
64,192,70019,1,0,0:0:0:0:
192,192,70019,1,0,0:0:0:0:
320,192,70019,1,0,0:0:0:0:
448,192,70019,1,0,0:0:0:0:
64,192,70101,1,0,0:0:0:0:
448,192,70101,1,0,0:0:0:0:
64,192,70182,1,0,0:0:0:0:
192,192,70182,1,0,0:0:0:0:
320,192,70182,1,0,0:0:0:0:
448,192,70182,1,0,0:0:0:0:
320,192,70264,1,0,0:0:0:0:
448,192,70264,1,0,0:0:0:0:
64,192,70347,1,0,0:0:0:0:
192,192,70347,1,0,0:0:0:0:
448,192,70347,1,0,0:0:0:0:
64,192,70429,1,0,0:0:0:0:
320,192,70429,1,0,0:0:0:0:
64,192,70511,1,0,0:0:0:0:
192,192,70511,1,0,0:0:0:0:
320,192,70511,1,0,0:0:0:0:
448,192,70511,1,0,0:0:0:0:
64,192,70593,1,0,0:0:0:0:
192,192,70593,1,0,0:0:0:0:
64,192,70676,1,0,0:0:0:0:
192,192,70676,1,0,0:0:0:0:
320,192,70676,1,0,0:0:0:0:
448,192,70676,1,0,0:0:0:0:
192,192,70758,1,0,0:0:0:0:
448,192,70758,1,0,0:0:0:0:
64,192,70840,1,0,0:0:0:0:
192,192,70840,1,0,0:0:0:0:
320,192,70840,1,0,0:0:0:0:
448,192,70840,1,0,0:0:0:0:
64,192,70921,1,0,0:0:0:0:
320,192,70921,1,0,0:0:0:0:
192,192,71003,1,0,0:0:0:0:
320,192,71003,1,0,0:0:0:0:
448,192,71003,1,0,0:0:0:0:
192,192,71086,1,0,0:0:0:0:
320,192,71086,1,0,0:0:0:0:
64,192,71168,1,0,0:0:0:0:
192,192,71168,1,0,0:0:0:0:
320,192,71168,1,0,0:0:0:0:
448,192,71168,1,0,0:0:0:0:
64,192,71250,1,0,0:0:0:0:
192,192,71250,1,0,0:0:0:0:
64,192,71332,1,0,0:0:0:0:
192,192,71332,1,0,0:0:0:0:
320,192,71332,1,0,0:0:0:0:
448,192,71332,1,0,0:0:0:0:
320,192,71414,1,0,0:0:0:0:
448,192,71414,1,0,0:0:0:0:
64,192,71497,1,0,0:0:0:0:
192,192,71497,1,0,0:0:0:0:
320,192,71497,1,0,0:0:0:0:
448,192,71497,1,0,0:0:0:0:
64,192,71579,1,0,0:0:0:0:
320,192,71579,1,0,0:0:0:0:
192,192,71660,1,0,0:0:0:0:
320,192,71660,1,0,0:0:0:0:
448,192,71660,1,0,0:0:0:0:
64,192,71742,1,0,0:0:0:0:
192,192,71742,1,0,0:0:0:0:
64,192,71824,1,0,0:0:0:0:
192,192,71824,1,0,0:0:0:0:
320,192,71824,1,0,0:0:0:0:
448,192,71824,1,0,0:0:0:0:
192,192,71907,1,0,0:0:0:0:
448,192,71907,1,0,0:0:0:0:
64,192,71989,1,0,0:0:0:0:
192,192,71989,1,0,0:0:0:0:
320,192,71989,1,0,0:0:0:0:
448,192,71989,1,0,0:0:0:0:
320,192,72071,1,0,0:0:0:0:
448,192,72071,1,0,0:0:0:0:
64,192,72153,1,0,0:0:0:0:
192,192,72153,1,0,0:0:0:0:
320,192,72153,1,0,0:0:0:0:
448,192,72153,1,0,0:0:0:0:
64,192,72236,1,0,0:0:0:0:
192,192,72236,1,0,0:0:0:0:
64,192,72318,1,0,0:0:0:0:
320,192,72318,1,0,0:0:0:0:
448,192,72318,1,0,0:0:0:0:
192,192,72400,1,0,0:0:0:0:
320,192,72400,1,0,0:0:0:0:
64,192,72481,1,0,0:0:0:0:
192,192,72481,1,0,0:0:0:0:
320,192,72481,1,0,0:0:0:0:
448,192,72481,1,0,0:0:0:0:
64,192,72563,1,0,0:0:0:0:
448,192,72563,1,0,0:0:0:0:
64,192,72646,1,0,0:0:0:0:
192,192,72646,1,0,0:0:0:0:
320,192,72646,1,0,0:0:0:0:
448,192,72646,1,0,0:0:0:0:
320,192,72728,1,0,0:0:0:0:
448,192,72728,1,0,0:0:0:0:
64,192,72810,1,0,0:0:0:0:
192,192,72810,1,0,0:0:0:0:
320,192,72810,1,0,0:0:0:0:
448,192,72810,1,0,0:0:0:0:
64,192,72892,1,0,0:0:0:0:
192,192,72892,1,0,0:0:0:0:
64,192,72974,1,0,0:0:0:0:
320,192,72974,1,0,0:0:0:0:
448,192,72974,1,0,0:0:0:0:
192,192,73057,1,0,0:0:0:0:
448,192,73057,1,0,0:0:0:0:
64,192,73139,1,0,0:0:0:0:
192,192,73139,1,0,0:0:0:0:
320,192,73139,1,0,0:0:0:0:
448,192,73139,1,0,0:0:0:0:
320,192,73220,1,0,0:0:0:0:
448,192,73220,1,0,0:0:0:0:
64,192,73302,1,0,0:0:0:0:
192,192,73302,1,0,0:0:0:0:
320,192,73302,1,0,0:0:0:0:
448,192,73302,1,0,0:0:0:0:
64,192,73384,1,0,0:0:0:0:
192,192,73384,1,0,0:0:0:0:
64,192,73467,1,0,0:0:0:0:
192,192,73467,1,0,0:0:0:0:
320,192,73467,1,0,0:0:0:0:
448,192,73467,1,0,0:0:0:0:
320,192,73549,1,0,0:0:0:0:
448,192,73549,1,0,0:0:0:0:
64,192,73631,1,0,0:0:0:0:
192,192,73631,1,0,0:0:0:0:
320,192,73631,1,0,0:0:0:0:
448,192,73631,1,0,0:0:0:0:
64,192,73713,1,0,0:0:0:0:
192,192,73713,1,0,0:0:0:0:
64,192,73796,1,0,0:0:0:0:
192,192,73796,1,0,0:0:0:0:
320,192,73796,1,0,0:0:0:0:
448,192,73796,1,0,0:0:0:0:
320,192,73878,1,0,0:0:0:0:
448,192,73878,1,0,0:0:0:0:
64,192,73959,1,0,0:0:0:0:
192,192,73959,1,0,0:0:0:0:
320,192,73959,1,0,0:0:0:0:
448,192,73959,1,0,0:0:0:0:
64,192,74041,1,0,0:0:0:0:
192,192,74041,1,0,0:0:0:0:
64,192,74123,1,0,0:0:0:0:
192,192,74123,1,0,0:0:0:0:
320,192,74123,1,0,0:0:0:0:
448,192,74123,1,0,0:0:0:0:
320,192,74206,1,0,0:0:0:0:
448,192,74206,1,0,0:0:0:0:
64,192,74288,1,0,0:0:0:0:
192,192,74288,1,0,0:0:0:0:
320,192,74288,1,0,0:0:0:0:
448,192,74288,1,0,0:0:0:0:
64,192,74370,1,0,0:0:0:0:
192,192,74370,1,0,0:0:0:0:
64,192,74452,1,0,0:0:0:0:
192,192,74452,1,0,0:0:0:0:
320,192,74452,1,0,0:0:0:0:
448,192,74452,1,0,0:0:0:0:
64,192,74534,1,0,0:0:0:0:
192,192,74534,1,0,0:0:0:0:
320,192,74534,1,0,0:0:0:0:
448,192,74534,1,0,0:0:0:0:
64,192,74617,1,0,0:0:0:0:
192,192,74617,1,0,0:0:0:0:
320,192,74617,1,0,0:0:0:0:
448,192,74617,1,0,0:0:0:0:
64,192,74698,1,0,0:0:0:0:
192,192,74698,1,0,0:0:0:0:
320,192,74698,1,0,0:0:0:0:
448,192,74698,1,0,0:0:0:0:
64,192,74780,1,0,0:0:0:0:
192,192,74780,1,0,0:0:0:0:
320,192,74780,1,0,0:0:0:0:
448,192,74780,1,0,0:0:0:0:
64,192,74862,1,0,0:0:0:0:
192,192,74862,1,0,0:0:0:0:
320,192,74862,1,0,0:0:0:0:
448,192,74862,1,0,0:0:0:0:
64,192,74944,1,0,0:0:0:0:
192,192,74944,1,0,0:0:0:0:
320,192,74944,1,0,0:0:0:0:
448,192,74944,1,0,0:0:0:0:
192,192,75054,1,0,0:0:0:0:
320,192,75054,1,0,0:0:0:0:
448,192,75054,1,0,0:0:0:0:
64,192,75163,1,0,0:0:0:0:
192,192,75163,1,0,0:0:0:0:
448,192,75163,1,0,0:0:0:0:
64,192,75273,1,0,0:0:0:0:
192,192,75273,1,0,0:0:0:0:
320,192,75273,1,0,0:0:0:0:
448,192,75273,1,0,0:0:0:0:
64,192,75382,1,0,0:0:0:0:
192,192,75382,1,0,0:0:0:0:
320,192,75382,1,0,0:0:0:0:
64,192,75492,1,0,0:0:0:0:
320,192,75492,1,0,0:0:0:0:
448,192,75492,1,0,0:0:0:0:
64,192,75601,128,0,75930:0:0:0:0:
192,192,75601,128,0,75930:0:0:0:0:
320,192,75930,1,0,0:0:0:0:
448,192,75930,1,0,0:0:0:0:
192,192,76039,1,0,0:0:0:0:
320,192,76039,1,0,0:0:0:0:
448,192,76039,1,0,0:0:0:0:
64,192,76149,1,0,0:0:0:0:
192,192,76149,1,0,0:0:0:0:
320,192,76149,1,0,0:0:0:0:
64,192,76258,1,0,0:0:0:0:
192,192,76258,1,0,0:0:0:0:
320,192,76258,1,0,0:0:0:0:
448,192,76258,1,0,0:0:0:0:
64,192,76368,1,0,0:0:0:0:
192,192,76368,1,0,0:0:0:0:
448,192,76368,1,0,0:0:0:0:
64,192,76477,1,0,0:0:0:0:
320,192,76477,1,0,0:0:0:0:
448,192,76477,1,0,0:0:0:0:
320,192,76587,128,0,76916:0:0:0:0:
448,192,76587,128,0,76916:0:0:0:0:
64,192,76916,1,0,0:0:0:0:
192,192,76916,1,0,0:0:0:0:
64,192,77243,1,0,0:0:0:0:
192,192,77243,1,0,0:0:0:0:
320,192,77243,1,0,0:0:0:0:
448,192,77243,1,0,0:0:0:0:
64,192,77572,1,0,0:0:0:0:
192,192,77572,1,0,0:0:0:0:
320,192,77572,1,0,0:0:0:0:
448,192,77572,1,0,0:0:0:0:
192,192,77681,1,0,0:0:0:0:
320,192,77681,1,0,0:0:0:0:
448,192,77681,1,0,0:0:0:0:
64,192,77791,1,0,0:0:0:0:
192,192,77791,1,0,0:0:0:0:
448,192,77791,1,0,0:0:0:0:
64,192,77900,1,0,0:0:0:0:
192,192,77900,1,0,0:0:0:0:
320,192,77900,1,0,0:0:0:0:
448,192,77900,1,0,0:0:0:0:
64,192,78010,1,0,0:0:0:0:
192,192,78010,1,0,0:0:0:0:
320,192,78010,1,0,0:0:0:0:
64,192,78119,1,0,0:0:0:0:
320,192,78119,1,0,0:0:0:0:
448,192,78119,1,0,0:0:0:0:
320,192,78229,128,0,78557:0:0:0:0:
448,192,78229,128,0,78557:0:0:0:0:
64,192,78557,1,0,0:0:0:0:
192,192,78557,1,0,0:0:0:0:
64,192,78667,1,0,0:0:0:0:
320,192,78667,1,0,0:0:0:0:
448,192,78667,1,0,0:0:0:0:
64,192,78776,1,0,0:0:0:0:
192,192,78776,1,0,0:0:0:0:
320,192,78776,1,0,0:0:0:0:
64,192,78886,1,0,0:0:0:0:
192,192,78886,1,0,0:0:0:0:
320,192,78886,1,0,0:0:0:0:
448,192,78886,1,0,0:0:0:0:
192,192,78994,1,0,0:0:0:0:
320,192,78994,1,0,0:0:0:0:
448,192,78994,1,0,0:0:0:0:
64,192,79104,1,0,0:0:0:0:
192,192,79104,1,0,0:0:0:0:
448,192,79104,1,0,0:0:0:0:
64,192,79214,128,0,79542:0:0:0:0:
192,192,79214,128,0,79542:0:0:0:0:
320,192,79542,1,0,0:0:0:0:
448,192,79542,1,0,0:0:0:0:
64,192,79871,1,0,0:0:0:0:
192,192,79871,1,0,0:0:0:0:
320,192,79871,1,0,0:0:0:0:
448,192,79871,1,0,0:0:0:0:
64,192,80199,1,0,0:0:0:0:
192,192,80199,1,0,0:0:0:0:
320,192,80199,1,0,0:0:0:0:
448,192,80199,1,0,0:0:0:0:
192,192,80309,1,0,0:0:0:0:
320,192,80309,1,0,0:0:0:0:
448,192,80309,1,0,0:0:0:0:
64,192,80418,1,0,0:0:0:0:
192,192,80418,1,0,0:0:0:0:
320,192,80418,1,0,0:0:0:0:
64,192,80528,1,0,0:0:0:0:
192,192,80528,1,0,0:0:0:0:
320,192,80528,1,0,0:0:0:0:
448,192,80528,1,0,0:0:0:0:
64,192,80637,1,0,0:0:0:0:
320,192,80637,1,0,0:0:0:0:
448,192,80637,1,0,0:0:0:0:
64,192,80747,1,0,0:0:0:0:
192,192,80747,1,0,0:0:0:0:
448,192,80747,1,0,0:0:0:0:
320,192,80856,128,0,81184:0:0:0:0:
448,192,80856,128,0,81184:0:0:0:0:
64,192,81184,1,0,0:0:0:0:
192,192,81184,1,0,0:0:0:0:
192,192,81293,1,0,0:0:0:0:
320,192,81293,1,0,0:0:0:0:
448,192,81293,1,0,0:0:0:0:
64,192,81403,1,0,0:0:0:0:
192,192,81403,1,0,0:0:0:0:
448,192,81403,1,0,0:0:0:0:
64,192,81512,1,0,0:0:0:0:
192,192,81512,1,0,0:0:0:0:
320,192,81512,1,0,0:0:0:0:
448,192,81512,1,0,0:0:0:0:
64,192,81622,1,0,0:0:0:0:
320,192,81622,1,0,0:0:0:0:
448,192,81622,1,0,0:0:0:0:
64,192,81732,1,0,0:0:0:0:
192,192,81732,1,0,0:0:0:0:
320,192,81732,1,0,0:0:0:0:
64,192,81841,128,0,82170:0:0:0:0:
192,192,81841,128,0,82170:0:0:0:0:
320,192,82170,1,0,0:0:0:0:
448,192,82170,1,0,0:0:0:0:
64,192,82498,1,0,0:0:0:0:
192,192,82498,1,0,0:0:0:0:
320,192,82498,1,0,0:0:0:0:
448,192,82498,1,0,0:0:0:0:
64,192,82827,1,0,0:0:0:0:
192,192,82827,1,0,0:0:0:0:
320,192,82827,1,0,0:0:0:0:
448,192,82827,1,0,0:0:0:0:
320,192,82909,1,0,0:0:0:0:
448,192,82909,1,0,0:0:0:0:
64,192,82991,1,0,0:0:0:0:
192,192,82991,1,0,0:0:0:0:
320,192,82991,1,0,0:0:0:0:
448,192,82991,1,0,0:0:0:0:
192,192,83072,1,0,0:0:0:0:
320,192,83072,1,0,0:0:0:0:
64,192,83154,1,0,0:0:0:0:
192,192,83154,1,0,0:0:0:0:
320,192,83154,1,0,0:0:0:0:
448,192,83154,1,0,0:0:0:0:
64,192,83237,1,0,0:0:0:0:
192,192,83237,1,0,0:0:0:0:
64,192,83319,1,0,0:0:0:0:
192,192,83319,1,0,0:0:0:0:
320,192,83319,1,0,0:0:0:0:
448,192,83319,1,0,0:0:0:0:
64,192,83401,1,0,0:0:0:0:
448,192,83401,1,0,0:0:0:0:
64,192,83483,1,0,0:0:0:0:
192,192,83483,1,0,0:0:0:0:
320,192,83483,1,0,0:0:0:0:
448,192,83483,1,0,0:0:0:0:
192,192,83566,1,0,0:0:0:0:
320,192,83566,1,0,0:0:0:0:
64,192,83648,1,0,0:0:0:0:
192,192,83648,1,0,0:0:0:0:
320,192,83648,1,0,0:0:0:0:
448,192,83648,1,0,0:0:0:0:
320,192,83730,1,0,0:0:0:0:
448,192,83730,1,0,0:0:0:0:
64,192,83811,1,0,0:0:0:0:
192,192,83811,1,0,0:0:0:0:
320,192,83811,1,0,0:0:0:0:
448,192,83811,1,0,0:0:0:0:
64,192,83893,1,0,0:0:0:0:
192,192,83893,1,0,0:0:0:0:
64,192,83976,1,0,0:0:0:0:
192,192,83976,1,0,0:0:0:0:
320,192,83976,1,0,0:0:0:0:
448,192,83976,1,0,0:0:0:0:
64,192,84058,1,0,0:0:0:0:
448,192,84058,1,0,0:0:0:0:
64,192,84140,1,0,0:0:0:0:
192,192,84140,1,0,0:0:0:0:
320,192,84140,1,0,0:0:0:0:
448,192,84140,1,0,0:0:0:0:
192,192,84222,1,0,0:0:0:0:
320,192,84222,1,0,0:0:0:0:
448,192,84222,1,0,0:0:0:0:
64,192,84304,1,0,0:0:0:0:
192,192,84304,1,0,0:0:0:0:
320,192,84304,1,0,0:0:0:0:
448,192,84304,1,0,0:0:0:0:
64,192,84387,1,0,0:0:0:0:
192,192,84387,1,0,0:0:0:0:
448,192,84387,1,0,0:0:0:0:
64,192,84469,1,0,0:0:0:0:
192,192,84469,1,0,0:0:0:0:
320,192,84469,1,0,0:0:0:0:
448,192,84469,1,0,0:0:0:0:
64,192,84550,1,0,0:0:0:0:
192,192,84550,1,0,0:0:0:0:
320,192,84550,1,0,0:0:0:0:
64,192,84632,1,0,0:0:0:0:
192,192,84632,1,0,0:0:0:0:
320,192,84632,1,0,0:0:0:0:
448,192,84632,1,0,0:0:0:0:
64,192,84714,1,0,0:0:0:0:
320,192,84714,1,0,0:0:0:0:
448,192,84714,1,0,0:0:0:0:
64,192,84797,1,0,0:0:0:0:
192,192,84797,1,0,0:0:0:0:
320,192,84797,1,0,0:0:0:0:
448,192,84797,1,0,0:0:0:0:
64,192,84879,1,0,0:0:0:0:
192,192,84879,1,0,0:0:0:0:
320,192,84879,1,0,0:0:0:0:
448,192,84879,1,0,0:0:0:0:
64,192,84961,1,0,0:0:0:0:
192,192,84961,1,0,0:0:0:0:
320,192,84961,1,0,0:0:0:0:
448,192,84961,1,0,0:0:0:0:
64,192,85043,1,0,0:0:0:0:
192,192,85043,1,0,0:0:0:0:
320,192,85043,1,0,0:0:0:0:
448,192,85043,1,0,0:0:0:0:
64,192,85126,1,0,0:0:0:0:
192,192,85126,1,0,0:0:0:0:
320,192,85126,1,0,0:0:0:0:
448,192,85126,1,0,0:0:0:0:
64,192,85208,1,0,0:0:0:0:
192,192,85208,1,0,0:0:0:0:
320,192,85208,1,0,0:0:0:0:
448,192,85208,1,0,0:0:0:0:
64,192,85290,1,0,0:0:0:0:
192,192,85290,1,0,0:0:0:0:
320,192,85290,1,0,0:0:0:0:
448,192,85290,1,0,0:0:0:0:
64,192,85371,1,0,0:0:0:0:
192,192,85371,1,0,0:0:0:0:
320,192,85371,1,0,0:0:0:0:
448,192,85371,1,0,0:0:0:0:
64,192,85453,1,0,0:0:0:0:
192,192,85453,1,0,0:0:0:0:
320,192,85453,1,0,0:0:0:0:
448,192,85453,1,0,0:0:0:0:
64,192,85536,1,0,0:0:0:0:
192,192,85536,1,0,0:0:0:0:
64,192,85618,1,0,0:0:0:0:
192,192,85618,1,0,0:0:0:0:
320,192,85618,1,0,0:0:0:0:
448,192,85618,1,0,0:0:0:0:
192,192,85700,1,0,0:0:0:0:
320,192,85700,1,0,0:0:0:0:
64,192,85782,1,0,0:0:0:0:
192,192,85782,1,0,0:0:0:0:
320,192,85782,1,0,0:0:0:0:
448,192,85782,1,0,0:0:0:0:
320,192,85864,1,0,0:0:0:0:
448,192,85864,1,0,0:0:0:0:
64,192,85947,1,0,0:0:0:0:
192,192,85947,1,0,0:0:0:0:
320,192,85947,1,0,0:0:0:0:
448,192,85947,1,0,0:0:0:0:
64,192,86029,1,0,0:0:0:0:
192,192,86029,1,0,0:0:0:0:
448,192,86029,1,0,0:0:0:0:
192,192,86110,1,0,0:0:0:0:
320,192,86110,1,0,0:0:0:0:
448,192,86110,1,0,0:0:0:0:
64,192,86192,1,0,0:0:0:0:
320,192,86192,1,0,0:0:0:0:
448,192,86192,1,0,0:0:0:0:
64,192,86274,1,0,0:0:0:0:
192,192,86274,1,0,0:0:0:0:
320,192,86274,1,0,0:0:0:0:
448,192,86274,1,0,0:0:0:0:
64,192,86357,1,0,0:0:0:0:
192,192,86357,1,0,0:0:0:0:
320,192,86357,1,0,0:0:0:0:
64,192,86439,1,0,0:0:0:0:
192,192,86439,1,0,0:0:0:0:
320,192,86439,1,0,0:0:0:0:
448,192,86439,1,0,0:0:0:0:
192,192,86521,1,0,0:0:0:0:
320,192,86521,1,0,0:0:0:0:
448,192,86521,1,0,0:0:0:0:
64,192,86603,1,0,0:0:0:0:
192,192,86603,1,0,0:0:0:0:
320,192,86603,1,0,0:0:0:0:
448,192,86603,1,0,0:0:0:0:
64,192,86686,1,0,0:0:0:0:
192,192,86686,1,0,0:0:0:0:
64,192,86768,1,0,0:0:0:0:
320,192,86768,1,0,0:0:0:0:
448,192,86768,1,0,0:0:0:0:
192,192,86849,1,0,0:0:0:0:
320,192,86849,1,0,0:0:0:0:
64,192,86931,1,0,0:0:0:0:
192,192,86931,1,0,0:0:0:0:
320,192,86931,1,0,0:0:0:0:
448,192,86931,1,0,0:0:0:0:
320,192,87013,1,0,0:0:0:0:
448,192,87013,1,0,0:0:0:0:
64,192,87096,1,0,0:0:0:0:
192,192,87096,1,0,0:0:0:0:
320,192,87096,1,0,0:0:0:0:
448,192,87096,1,0,0:0:0:0:
64,192,87178,1,0,0:0:0:0:
192,192,87178,1,0,0:0:0:0:
64,192,87260,1,0,0:0:0:0:
192,192,87260,1,0,0:0:0:0:
320,192,87260,1,0,0:0:0:0:
448,192,87260,1,0,0:0:0:0:
192,192,87342,1,0,0:0:0:0:
320,192,87342,1,0,0:0:0:0:
64,192,87424,1,0,0:0:0:0:
192,192,87424,1,0,0:0:0:0:
448,192,87424,1,0,0:0:0:0:
320,192,87507,1,0,0:0:0:0:
448,192,87507,1,0,0:0:0:0:
64,192,87588,1,0,0:0:0:0:
192,192,87588,1,0,0:0:0:0:
320,192,87588,1,0,0:0:0:0:
448,192,87588,1,0,0:0:0:0:
64,192,87670,1,0,0:0:0:0:
448,192,87670,1,0,0:0:0:0:
64,192,87752,1,0,0:0:0:0:
192,192,87752,1,0,0:0:0:0:
320,192,87752,1,0,0:0:0:0:
448,192,87752,1,0,0:0:0:0:
192,192,87834,1,0,0:0:0:0:
320,192,87834,1,0,0:0:0:0:
64,192,87917,1,0,0:0:0:0:
192,192,87917,1,0,0:0:0:0:
320,192,87917,1,0,0:0:0:0:
448,192,87917,1,0,0:0:0:0:
64,192,87999,1,0,0:0:0:0:
192,192,87999,1,0,0:0:0:0:
64,192,88081,1,0,0:0:0:0:
320,192,88081,1,0,0:0:0:0:
448,192,88081,1,0,0:0:0:0:
64,192,88163,1,0,0:0:0:0:
448,192,88163,1,0,0:0:0:0:
64,192,88246,1,0,0:0:0:0:
192,192,88246,1,0,0:0:0:0:
320,192,88246,1,0,0:0:0:0:
448,192,88246,1,0,0:0:0:0:
320,192,88327,1,0,0:0:0:0:
448,192,88327,1,0,0:0:0:0:
64,192,88409,1,0,0:0:0:0:
192,192,88409,1,0,0:0:0:0:
320,192,88409,1,0,0:0:0:0:
448,192,88409,1,0,0:0:0:0:
192,192,88491,1,0,0:0:0:0:
320,192,88491,1,0,0:0:0:0:
64,192,88573,1,0,0:0:0:0:
192,192,88573,1,0,0:0:0:0:
320,192,88573,1,0,0:0:0:0:
448,192,88573,1,0,0:0:0:0:
64,192,88656,1,0,0:0:0:0:
448,192,88656,1,0,0:0:0:0:
192,192,88738,1,0,0:0:0:0:
320,192,88738,1,0,0:0:0:0:
448,192,88738,1,0,0:0:0:0:
64,192,88820,1,0,0:0:0:0:
320,192,88820,1,0,0:0:0:0:
64,192,88902,1,0,0:0:0:0:
192,192,88902,1,0,0:0:0:0:
320,192,88902,1,0,0:0:0:0:
448,192,88902,1,0,0:0:0:0:
192,192,88984,1,0,0:0:0:0:
448,192,88984,1,0,0:0:0:0:
64,192,89067,1,0,0:0:0:0:
192,192,89067,1,0,0:0:0:0:
320,192,89067,1,0,0:0:0:0:
448,192,89067,1,0,0:0:0:0:
320,192,89148,1,0,0:0:0:0:
448,192,89148,1,0,0:0:0:0:
64,192,89230,1,0,0:0:0:0:
192,192,89230,1,0,0:0:0:0:
320,192,89230,1,0,0:0:0:0:
448,192,89230,1,0,0:0:0:0:
64,192,89312,1,0,0:0:0:0:
192,192,89312,1,0,0:0:0:0:
192,192,89394,1,0,0:0:0:0:
320,192,89394,1,0,0:0:0:0:
448,192,89394,1,0,0:0:0:0:
64,192,89477,1,0,0:0:0:0:
448,192,89477,1,0,0:0:0:0:
64,192,89559,1,0,0:0:0:0:
192,192,89559,1,0,0:0:0:0:
320,192,89559,1,0,0:0:0:0:
448,192,89559,1,0,0:0:0:0:
192,192,89641,1,0,0:0:0:0:
320,192,89641,1,0,0:0:0:0:
64,192,89723,1,0,0:0:0:0:
192,192,89723,1,0,0:0:0:0:
320,192,89723,1,0,0:0:0:0:
448,192,89723,1,0,0:0:0:0:
320,192,89806,1,0,0:0:0:0:
448,192,89806,1,0,0:0:0:0:
64,192,89887,1,0,0:0:0:0:
192,192,89887,1,0,0:0:0:0:
320,192,89887,1,0,0:0:0:0:
448,192,89887,1,0,0:0:0:0:
64,192,89969,1,0,0:0:0:0:
320,192,89969,1,0,0:0:0:0:
192,192,90051,1,0,0:0:0:0:
320,192,90051,1,0,0:0:0:0:
448,192,90051,1,0,0:0:0:0:
64,192,90133,1,0,0:0:0:0:
192,192,90133,1,0,0:0:0:0:
64,192,90216,1,0,0:0:0:0:
192,192,90216,1,0,0:0:0:0:
320,192,90216,1,0,0:0:0:0:
448,192,90216,1,0,0:0:0:0:
192,192,90298,1,0,0:0:0:0:
448,192,90298,1,0,0:0:0:0:
64,192,90380,1,0,0:0:0:0:
192,192,90380,1,0,0:0:0:0:
320,192,90380,1,0,0:0:0:0:
448,192,90380,1,0,0:0:0:0:
64,192,90462,1,0,0:0:0:0:
448,192,90462,1,0,0:0:0:0:
64,192,90544,1,0,0:0:0:0:
192,192,90544,1,0,0:0:0:0:
320,192,90544,1,0,0:0:0:0:
448,192,90544,1,0,0:0:0:0:
320,192,90626,1,0,0:0:0:0:
448,192,90626,1,0,0:0:0:0:
64,192,90708,1,0,0:0:0:0:
192,192,90708,1,0,0:0:0:0:
320,192,90708,1,0,0:0:0:0:
448,192,90708,1,0,0:0:0:0:
64,192,90790,1,0,0:0:0:0:
192,192,90790,1,0,0:0:0:0:
64,192,90872,1,0,0:0:0:0:
192,192,90872,1,0,0:0:0:0:
320,192,90872,1,0,0:0:0:0:
448,192,90872,1,0,0:0:0:0:
64,192,90954,1,0,0:0:0:0:
192,192,90954,1,0,0:0:0:0:
64,192,91037,1,0,0:0:0:0:
192,192,91037,1,0,0:0:0:0:
320,192,91037,1,0,0:0:0:0:
448,192,91037,1,0,0:0:0:0:
64,192,91119,1,0,0:0:0:0:
192,192,91119,1,0,0:0:0:0:
64,192,91201,1,0,0:0:0:0:
192,192,91201,1,0,0:0:0:0:
320,192,91201,1,0,0:0:0:0:
448,192,91201,1,0,0:0:0:0:
320,192,91283,1,0,0:0:0:0:
448,192,91283,1,0,0:0:0:0:
64,192,91364,1,0,0:0:0:0:
192,192,91364,1,0,0:0:0:0:
320,192,91364,1,0,0:0:0:0:
448,192,91364,1,0,0:0:0:0:
192,192,91447,1,0,0:0:0:0:
320,192,91447,1,0,0:0:0:0:
64,192,91529,1,0,0:0:0:0:
192,192,91529,1,0,0:0:0:0:
320,192,91529,1,0,0:0:0:0:
448,192,91529,1,0,0:0:0:0:
64,192,91611,1,0,0:0:0:0:
192,192,91611,1,0,0:0:0:0:
64,192,91693,1,0,0:0:0:0:
192,192,91693,1,0,0:0:0:0:
320,192,91693,1,0,0:0:0:0:
448,192,91693,1,0,0:0:0:0:
320,192,91776,1,0,0:0:0:0:
448,192,91776,1,0,0:0:0:0:
64,192,91858,1,0,0:0:0:0:
192,192,91858,1,0,0:0:0:0:
320,192,91858,1,0,0:0:0:0:
448,192,91858,1,0,0:0:0:0:
64,192,91940,1,0,0:0:0:0:
192,192,91940,1,0,0:0:0:0:
64,192,92022,1,0,0:0:0:0:
192,192,92022,1,0,0:0:0:0:
320,192,92022,1,0,0:0:0:0:
448,192,92022,1,0,0:0:0:0:
320,192,92104,1,0,0:0:0:0:
448,192,92104,1,0,0:0:0:0:
64,192,92186,1,0,0:0:0:0:
192,192,92186,1,0,0:0:0:0:
320,192,92186,1,0,0:0:0:0:
448,192,92186,1,0,0:0:0:0:
320,192,92268,1,0,0:0:0:0:
448,192,92268,1,0,0:0:0:0:
64,192,92350,1,0,0:0:0:0:
192,192,92350,1,0,0:0:0:0:
320,192,92350,1,0,0:0:0:0:
448,192,92350,1,0,0:0:0:0:
320,192,92432,1,0,0:0:0:0:
448,192,92432,1,0,0:0:0:0:
64,192,92514,1,0,0:0:0:0:
192,192,92514,1,0,0:0:0:0:
320,192,92514,1,0,0:0:0:0:
448,192,92514,1,0,0:0:0:0:
320,192,92597,1,0,0:0:0:0:
448,192,92597,1,0,0:0:0:0:
64,192,92679,1,0,0:0:0:0:
192,192,92679,1,0,0:0:0:0:
320,192,92679,1,0,0:0:0:0:
448,192,92679,1,0,0:0:0:0:
64,192,92761,1,0,0:0:0:0:
192,192,92761,1,0,0:0:0:0:
64,192,92843,1,0,0:0:0:0:
192,192,92843,1,0,0:0:0:0:
320,192,92843,1,0,0:0:0:0:
448,192,92843,1,0,0:0:0:0:
192,192,92924,1,0,0:0:0:0:
320,192,92924,1,0,0:0:0:0:
64,192,93007,1,0,0:0:0:0:
192,192,93007,1,0,0:0:0:0:
320,192,93007,1,0,0:0:0:0:
448,192,93007,1,0,0:0:0:0:
320,192,93089,1,0,0:0:0:0:
448,192,93089,1,0,0:0:0:0:
64,192,93171,1,0,0:0:0:0:
192,192,93171,1,0,0:0:0:0:
320,192,93171,1,0,0:0:0:0:
448,192,93171,1,0,0:0:0:0:
64,192,93253,1,0,0:0:0:0:
192,192,93253,1,0,0:0:0:0:
64,192,93336,1,0,0:0:0:0:
192,192,93336,1,0,0:0:0:0:
320,192,93336,1,0,0:0:0:0:
448,192,93336,1,0,0:0:0:0:
192,192,93418,1,0,0:0:0:0:
320,192,93418,1,0,0:0:0:0:
64,192,93500,1,0,0:0:0:0:
192,192,93500,1,0,0:0:0:0:
320,192,93500,1,0,0:0:0:0:
448,192,93500,1,0,0:0:0:0:
320,192,93582,1,0,0:0:0:0:
448,192,93582,1,0,0:0:0:0:
64,192,93663,1,0,0:0:0:0:
192,192,93663,1,0,0:0:0:0:
320,192,93663,1,0,0:0:0:0:
448,192,93663,1,0,0:0:0:0:
64,192,93746,1,0,0:0:0:0:
448,192,93746,1,0,0:0:0:0:
64,192,93828,1,0,0:0:0:0:
192,192,93828,1,0,0:0:0:0:
320,192,93828,1,0,0:0:0:0:
448,192,93828,1,0,0:0:0:0:
192,192,93910,1,0,0:0:0:0:
320,192,93910,1,0,0:0:0:0:
64,192,93992,1,0,0:0:0:0:
192,192,93992,1,0,0:0:0:0:
320,192,93992,1,0,0:0:0:0:
448,192,93992,1,0,0:0:0:0:
64,192,94074,1,0,0:0:0:0:
192,192,94074,1,0,0:0:0:0:
64,192,94157,1,0,0:0:0:0:
192,192,94157,1,0,0:0:0:0:
320,192,94157,1,0,0:0:0:0:
448,192,94157,1,0,0:0:0:0:
320,192,94239,1,0,0:0:0:0:
448,192,94239,1,0,0:0:0:0:
64,192,94321,1,0,0:0:0:0:
192,192,94321,1,0,0:0:0:0:
320,192,94321,1,0,0:0:0:0:
448,192,94321,1,0,0:0:0:0:
192,192,94402,1,0,0:0:0:0:
320,192,94402,1,0,0:0:0:0:
64,192,94484,1,0,0:0:0:0:
192,192,94484,1,0,0:0:0:0:
320,192,94484,1,0,0:0:0:0:
448,192,94484,1,0,0:0:0:0:
64,192,94567,1,0,0:0:0:0:
192,192,94567,1,0,0:0:0:0:
64,192,94649,1,0,0:0:0:0:
192,192,94649,1,0,0:0:0:0:
320,192,94649,1,0,0:0:0:0:
448,192,94649,1,0,0:0:0:0:
64,192,94731,1,0,0:0:0:0:
448,192,94731,1,0,0:0:0:0:
64,192,94813,1,0,0:0:0:0:
192,192,94813,1,0,0:0:0:0:
320,192,94813,1,0,0:0:0:0:
448,192,94813,1,0,0:0:0:0:
192,192,94896,1,0,0:0:0:0:
320,192,94896,1,0,0:0:0:0:
64,192,94978,1,0,0:0:0:0:
192,192,94978,1,0,0:0:0:0:
320,192,94978,1,0,0:0:0:0:
448,192,94978,1,0,0:0:0:0:
320,192,95060,1,0,0:0:0:0:
448,192,95060,1,0,0:0:0:0:
64,192,95142,1,0,0:0:0:0:
192,192,95142,1,0,0:0:0:0:
320,192,95142,1,0,0:0:0:0:
448,192,95142,1,0,0:0:0:0:
192,192,95223,1,0,0:0:0:0:
320,192,95223,1,0,0:0:0:0:
64,192,95306,1,0,0:0:0:0:
192,192,95306,1,0,0:0:0:0:
320,192,95306,1,0,0:0:0:0:
448,192,95306,1,0,0:0:0:0:
64,192,95388,1,0,0:0:0:0:
192,192,95388,1,0,0:0:0:0:
64,192,95470,1,0,0:0:0:0:
192,192,95470,1,0,0:0:0:0:
320,192,95470,1,0,0:0:0:0:
448,192,95470,1,0,0:0:0:0:
320,192,95552,1,0,0:0:0:0:
448,192,95552,1,0,0:0:0:0:
64,192,95634,1,0,0:0:0:0:
192,192,95634,1,0,0:0:0:0:
320,192,95634,1,0,0:0:0:0:
448,192,95634,1,0,0:0:0:0:
64,192,95717,1,0,0:0:0:0:
448,192,95717,1,0,0:0:0:0:
64,192,95799,1,0,0:0:0:0:
192,192,95799,1,0,0:0:0:0:
320,192,95799,1,0,0:0:0:0:
448,192,95799,1,0,0:0:0:0:
192,192,95881,1,0,0:0:0:0:
320,192,95881,1,0,0:0:0:0:
64,192,95962,1,0,0:0:0:0:
192,192,95962,1,0,0:0:0:0:
320,192,95962,1,0,0:0:0:0:
448,192,95962,1,0,0:0:0:0:
320,192,96044,1,0,0:0:0:0:
448,192,96044,1,0,0:0:0:0:
64,192,96127,1,0,0:0:0:0:
192,192,96127,1,0,0:0:0:0:
320,192,96127,1,0,0:0:0:0:
448,192,96127,1,0,0:0:0:0:
64,192,96209,1,0,0:0:0:0:
192,192,96209,1,0,0:0:0:0:
64,192,96291,1,0,0:0:0:0:
192,192,96291,1,0,0:0:0:0:
320,192,96291,1,0,0:0:0:0:
448,192,96291,1,0,0:0:0:0:
64,192,96373,1,0,0:0:0:0:
448,192,96373,1,0,0:0:0:0:
64,192,96456,1,0,0:0:0:0:
192,192,96456,1,0,0:0:0:0:
320,192,96456,1,0,0:0:0:0:
448,192,96456,1,0,0:0:0:0:
192,192,96538,1,0,0:0:0:0:
320,192,96538,1,0,0:0:0:0:
64,192,96620,1,0,0:0:0:0:
192,192,96620,1,0,0:0:0:0:
448,192,96620,1,0,0:0:0:0:
64,192,96701,1,0,0:0:0:0:
320,192,96701,1,0,0:0:0:0:
64,192,96783,1,0,0:0:0:0:
192,192,96783,1,0,0:0:0:0:
320,192,96783,1,0,0:0:0:0:
448,192,96783,1,0,0:0:0:0:
320,192,96866,1,0,0:0:0:0:
448,192,96866,1,0,0:0:0:0:
64,192,96948,1,0,0:0:0:0:
192,192,96948,1,0,0:0:0:0:
320,192,96948,1,0,0:0:0:0:
448,192,96948,1,0,0:0:0:0:
64,192,97030,1,0,0:0:0:0:
448,192,97030,1,0,0:0:0:0:
64,192,97112,1,0,0:0:0:0:
192,192,97112,1,0,0:0:0:0:
320,192,97112,1,0,0:0:0:0:
448,192,97112,1,0,0:0:0:0:
64,192,97194,1,0,0:0:0:0:
192,192,97194,1,0,0:0:0:0:
192,192,97277,1,0,0:0:0:0:
320,192,97277,1,0,0:0:0:0:
448,192,97277,1,0,0:0:0:0:
64,192,97359,1,0,0:0:0:0:
448,192,97359,1,0,0:0:0:0:
64,192,97440,1,0,0:0:0:0:
192,192,97440,1,0,0:0:0:0:
320,192,97440,1,0,0:0:0:0:
448,192,97440,1,0,0:0:0:0:
192,192,97522,1,0,0:0:0:0:
320,192,97522,1,0,0:0:0:0:
64,192,97604,1,0,0:0:0:0:
192,192,97604,1,0,0:0:0:0:
320,192,97604,1,0,0:0:0:0:
448,192,97604,1,0,0:0:0:0:
64,192,97687,1,0,0:0:0:0:
192,192,97687,1,0,0:0:0:0:
64,192,97769,1,0,0:0:0:0:
192,192,97769,1,0,0:0:0:0:
320,192,97769,1,0,0:0:0:0:
448,192,97769,1,0,0:0:0:0:
320,192,97851,1,0,0:0:0:0:
448,192,97851,1,0,0:0:0:0:
64,192,97933,1,0,0:0:0:0:
192,192,97933,1,0,0:0:0:0:
448,192,97933,1,0,0:0:0:0:
64,192,98016,1,0,0:0:0:0:
320,192,98016,1,0,0:0:0:0:
64,192,98098,1,0,0:0:0:0:
192,192,98098,1,0,0:0:0:0:
320,192,98098,1,0,0:0:0:0:
448,192,98098,1,0,0:0:0:0:
192,192,98179,1,0,0:0:0:0:
448,192,98179,1,0,0:0:0:0:
64,192,98261,1,0,0:0:0:0:
192,192,98261,1,0,0:0:0:0:
320,192,98261,1,0,0:0:0:0:
448,192,98261,1,0,0:0:0:0:
320,192,98343,1,0,0:0:0:0:
448,192,98343,1,0,0:0:0:0:
64,192,98426,1,0,0:0:0:0:
192,192,98426,1,0,0:0:0:0:
320,192,98426,1,0,0:0:0:0:
448,192,98426,1,0,0:0:0:0:
64,192,98508,1,0,0:0:0:0:
192,192,98508,1,0,0:0:0:0:
64,192,98590,1,0,0:0:0:0:
320,192,98590,1,0,0:0:0:0:
448,192,98590,1,0,0:0:0:0:
192,192,98672,1,0,0:0:0:0:
320,192,98672,1,0,0:0:0:0:
64,192,98754,1,0,0:0:0:0:
192,192,98754,1,0,0:0:0:0:
320,192,98754,1,0,0:0:0:0:
448,192,98754,1,0,0:0:0:0:
64,192,98837,1,0,0:0:0:0:
448,192,98837,1,0,0:0:0:0:
64,192,98919,1,0,0:0:0:0:
192,192,98919,1,0,0:0:0:0:
320,192,98919,1,0,0:0:0:0:
448,192,98919,1,0,0:0:0:0:
320,192,99000,1,0,0:0:0:0:
448,192,99000,1,0,0:0:0:0:
64,192,99082,1,0,0:0:0:0:
192,192,99082,1,0,0:0:0:0:
320,192,99082,1,0,0:0:0:0:
448,192,99082,1,0,0:0:0:0:
64,192,99164,1,0,0:0:0:0:
192,192,99164,1,0,0:0:0:0:
192,192,99247,1,0,0:0:0:0:
320,192,99247,1,0,0:0:0:0:
448,192,99247,1,0,0:0:0:0:
64,192,99329,1,0,0:0:0:0:
320,192,99329,1,0,0:0:0:0:
64,192,99411,1,0,0:0:0:0:
192,192,99411,1,0,0:0:0:0:
320,192,99411,1,0,0:0:0:0:
448,192,99411,1,0,0:0:0:0:
192,192,99493,1,0,0:0:0:0:
448,192,99493,1,0,0:0:0:0:
64,192,99576,1,0,0:0:0:0:
192,192,99576,1,0,0:0:0:0:
320,192,99576,1,0,0:0:0:0:
448,192,99576,1,0,0:0:0:0:
320,192,99658,1,0,0:0:0:0:
448,192,99658,1,0,0:0:0:0:
64,192,99739,1,0,0:0:0:0:
192,192,99739,1,0,0:0:0:0:
320,192,99739,1,0,0:0:0:0:
448,192,99739,1,0,0:0:0:0:
64,192,99821,1,0,0:0:0:0:
320,192,99821,1,0,0:0:0:0:
192,192,99903,1,0,0:0:0:0:
320,192,99903,1,0,0:0:0:0:
448,192,99903,1,0,0:0:0:0:
64,192,99986,1,0,0:0:0:0:
448,192,99986,1,0,0:0:0:0:
64,192,100068,1,0,0:0:0:0:
192,192,100068,1,0,0:0:0:0:
320,192,100068,1,0,0:0:0:0:
448,192,100068,1,0,0:0:0:0:
192,192,100150,1,0,0:0:0:0:
320,192,100150,1,0,0:0:0:0:
64,192,100232,1,0,0:0:0:0:
192,192,100232,1,0,0:0:0:0:
320,192,100232,1,0,0:0:0:0:
448,192,100232,1,0,0:0:0:0:
64,192,100314,1,0,0:0:0:0:
192,192,100314,1,0,0:0:0:0:
64,192,100397,1,0,0:0:0:0:
192,192,100397,1,0,0:0:0:0:
320,192,100397,1,0,0:0:0:0:
448,192,100397,1,0,0:0:0:0:
64,192,100478,1,0,0:0:0:0:
448,192,100478,1,0,0:0:0:0:
64,192,100560,1,0,0:0:0:0:
192,192,100560,1,0,0:0:0:0:
320,192,100560,1,0,0:0:0:0:
320,192,100642,1,0,0:0:0:0:
448,192,100642,1,0,0:0:0:0:
64,192,100724,1,0,0:0:0:0:
192,192,100724,1,0,0:0:0:0:
320,192,100724,1,0,0:0:0:0:
448,192,100724,1,0,0:0:0:0:
64,192,100807,1,0,0:0:0:0:
192,192,100807,1,0,0:0:0:0:
64,192,100889,1,0,0:0:0:0:
192,192,100889,1,0,0:0:0:0:
320,192,100889,1,0,0:0:0:0:
448,192,100889,1,0,0:0:0:0:
320,192,100971,1,0,0:0:0:0:
448,192,100971,1,0,0:0:0:0:
64,192,101053,1,0,0:0:0:0:
192,192,101053,1,0,0:0:0:0:
320,192,101053,1,0,0:0:0:0:
448,192,101053,1,0,0:0:0:0:
192,192,101136,1,0,0:0:0:0:
448,192,101136,1,0,0:0:0:0:
64,192,101217,1,0,0:0:0:0:
320,192,101217,1,0,0:0:0:0:
448,192,101217,1,0,0:0:0:0:
64,192,101299,1,0,0:0:0:0:
192,192,101299,1,0,0:0:0:0:
64,192,101381,1,0,0:0:0:0:
192,192,101381,1,0,0:0:0:0:
320,192,101381,1,0,0:0:0:0:
448,192,101381,1,0,0:0:0:0:
64,192,101463,1,0,0:0:0:0:
448,192,101463,1,0,0:0:0:0:
64,192,101546,1,0,0:0:0:0:
192,192,101546,1,0,0:0:0:0:
320,192,101546,1,0,0:0:0:0:
448,192,101546,1,0,0:0:0:0:
192,192,101628,1,0,0:0:0:0:
448,192,101628,1,0,0:0:0:0:
64,192,101710,1,0,0:0:0:0:
192,192,101710,1,0,0:0:0:0:
320,192,101710,1,0,0:0:0:0:
448,192,101710,1,0,0:0:0:0:
64,192,101792,1,0,0:0:0:0:
192,192,101792,1,0,0:0:0:0:
192,192,101874,1,0,0:0:0:0:
320,192,101874,1,0,0:0:0:0:
448,192,101874,1,0,0:0:0:0:
64,192,101957,1,0,0:0:0:0:
448,192,101957,1,0,0:0:0:0:
64,192,102038,1,0,0:0:0:0:
192,192,102038,1,0,0:0:0:0:
320,192,102038,1,0,0:0:0:0:
448,192,102038,1,0,0:0:0:0:
192,192,102120,1,0,0:0:0:0:
320,192,102120,1,0,0:0:0:0:
64,192,102202,1,0,0:0:0:0:
192,192,102202,1,0,0:0:0:0:
320,192,102202,1,0,0:0:0:0:
448,192,102202,1,0,0:0:0:0:
64,192,102284,1,0,0:0:0:0:
192,192,102284,1,0,0:0:0:0:
64,192,102367,1,0,0:0:0:0:
192,192,102367,1,0,0:0:0:0:
320,192,102367,1,0,0:0:0:0:
448,192,102367,1,0,0:0:0:0:
320,192,102449,1,0,0:0:0:0:
448,192,102449,1,0,0:0:0:0:
64,192,102531,1,0,0:0:0:0:
192,192,102531,1,0,0:0:0:0:
320,192,102531,1,0,0:0:0:0:
192,192,102613,1,0,0:0:0:0:
448,192,102613,1,0,0:0:0:0:
64,192,102696,1,0,0:0:0:0:
192,192,102696,1,0,0:0:0:0:
320,192,102696,1,0,0:0:0:0:
448,192,102696,1,0,0:0:0:0:
64,192,102777,1,0,0:0:0:0:
320,192,102777,1,0,0:0:0:0:
64,192,102859,1,0,0:0:0:0:
192,192,102859,1,0,0:0:0:0:
320,192,102859,1,0,0:0:0:0:
448,192,102859,1,0,0:0:0:0:
64,192,102941,1,0,0:0:0:0:
192,192,102941,1,0,0:0:0:0:
64,192,103023,1,0,0:0:0:0:
192,192,103023,1,0,0:0:0:0:
320,192,103023,1,0,0:0:0:0:
448,192,103023,1,0,0:0:0:0:
192,192,103106,1,0,0:0:0:0:
448,192,103106,1,0,0:0:0:0:
64,192,103188,1,0,0:0:0:0:
192,192,103188,1,0,0:0:0:0:
320,192,103188,1,0,0:0:0:0:
64,192,103270,1,0,0:0:0:0:
448,192,103270,1,0,0:0:0:0:
64,192,103352,1,0,0:0:0:0:
192,192,103352,1,0,0:0:0:0:
320,192,103352,1,0,0:0:0:0:
448,192,103352,1,0,0:0:0:0:
192,192,103434,1,0,0:0:0:0:
320,192,103434,1,0,0:0:0:0:
64,192,103516,1,0,0:0:0:0:
192,192,103516,1,0,0:0:0:0:
320,192,103516,1,0,0:0:0:0:
448,192,103516,1,0,0:0:0:0:
64,192,103598,1,0,0:0:0:0:
192,192,103598,1,0,0:0:0:0:
64,192,103680,1,0,0:0:0:0:
192,192,103680,1,0,0:0:0:0:
320,192,103680,1,0,0:0:0:0:
448,192,103680,1,0,0:0:0:0:
320,192,103762,1,0,0:0:0:0:
448,192,103762,1,0,0:0:0:0:
64,192,103844,1,0,0:0:0:0:
192,192,103844,1,0,0:0:0:0:
320,192,103844,1,0,0:0:0:0:
448,192,103844,1,0,0:0:0:0:
64,192,103927,1,0,0:0:0:0:
192,192,103927,1,0,0:0:0:0:
320,192,103927,1,0,0:0:0:0:
64,192,104009,1,0,0:0:0:0:
320,192,104009,1,0,0:0:0:0:
448,192,104009,1,0,0:0:0:0:
64,192,104091,1,0,0:0:0:0:
192,192,104091,1,0,0:0:0:0:
448,192,104091,1,0,0:0:0:0:
64,192,104173,1,0,0:0:0:0:
192,192,104173,1,0,0:0:0:0:
320,192,104173,1,0,0:0:0:0:
448,192,104173,1,0,0:0:0:0:
192,192,104254,1,0,0:0:0:0:
320,192,104254,1,0,0:0:0:0:
448,192,104254,1,0,0:0:0:0:
64,192,104337,1,0,0:0:0:0:
192,192,104337,1,0,0:0:0:0:
320,192,104337,1,0,0:0:0:0:
64,192,104419,1,0,0:0:0:0:
192,192,104419,1,0,0:0:0:0:
448,192,104419,1,0,0:0:0:0:
64,192,104501,1,0,0:0:0:0:
192,192,104501,1,0,0:0:0:0:
320,192,104501,1,0,0:0:0:0:
448,192,104501,1,0,0:0:0:0:
64,192,104583,1,0,0:0:0:0:
320,192,104583,1,0,0:0:0:0:
448,192,104583,1,0,0:0:0:0:
192,192,104666,1,0,0:0:0:0:
320,192,104666,1,0,0:0:0:0:
448,192,104666,1,0,0:0:0:0:
64,192,104748,1,0,0:0:0:0:
192,192,104748,1,0,0:0:0:0:
448,192,104748,1,0,0:0:0:0:
64,192,104830,1,0,0:0:0:0:
192,192,104830,1,0,0:0:0:0:
320,192,104830,1,0,0:0:0:0:
448,192,104830,1,0,0:0:0:0:
64,192,104912,1,0,0:0:0:0:
192,192,104912,1,0,0:0:0:0:
320,192,104912,1,0,0:0:0:0:
64,192,104993,1,0,0:0:0:0:
320,192,104993,1,0,0:0:0:0:
448,192,104993,1,0,0:0:0:0:
192,192,105076,1,0,0:0:0:0:
320,192,105076,1,0,0:0:0:0:
448,192,105076,1,0,0:0:0:0:
64,192,105158,1,0,0:0:0:0:
192,192,105158,1,0,0:0:0:0:
320,192,105158,1,0,0:0:0:0:
448,192,105158,1,0,0:0:0:0:
64,192,105240,1,0,0:0:0:0:
192,192,105240,1,0,0:0:0:0:
320,192,105240,1,0,0:0:0:0:
64,192,105322,1,0,0:0:0:0:
192,192,105322,1,0,0:0:0:0:
448,192,105322,1,0,0:0:0:0:
192,192,105404,1,0,0:0:0:0:
320,192,105404,1,0,0:0:0:0:
448,192,105404,1,0,0:0:0:0:
64,192,105487,1,0,0:0:0:0:
192,192,105487,1,0,0:0:0:0:
320,192,105487,1,0,0:0:0:0:
448,192,105487,1,0,0:0:0:0:
64,192,105569,1,0,0:0:0:0:
320,192,105569,1,0,0:0:0:0:
448,192,105569,1,0,0:0:0:0:
64,192,105651,1,0,0:0:0:0:
192,192,105651,1,0,0:0:0:0:
320,192,105651,1,0,0:0:0:0:
64,192,105733,1,0,0:0:0:0:
192,192,105733,1,0,0:0:0:0:
448,192,105733,1,0,0:0:0:0:
64,192,105814,1,0,0:0:0:0:
192,192,105814,1,0,0:0:0:0:
320,192,105814,1,0,0:0:0:0:
448,192,105814,1,0,0:0:0:0:
64,192,105897,1,0,0:0:0:0:
192,192,105897,1,0,0:0:0:0:
320,192,105897,1,0,0:0:0:0:
448,192,105897,1,0,0:0:0:0:
64,192,105979,1,0,0:0:0:0:
192,192,105979,1,0,0:0:0:0:
320,192,105979,1,0,0:0:0:0:
448,192,105979,1,0,0:0:0:0:
64,192,106061,1,0,0:0:0:0:
192,192,106061,1,0,0:0:0:0:
320,192,106061,1,0,0:0:0:0:
448,192,106061,1,0,0:0:0:0:
64,192,106143,1,0,0:0:0:0:
192,192,106143,1,0,0:0:0:0:
320,192,106143,1,0,0:0:0:0:
448,192,106143,1,0,0:0:0:0:
64,192,106226,1,0,0:0:0:0:
192,192,106226,1,0,0:0:0:0:
320,192,106226,1,0,0:0:0:0:
448,192,106226,1,0,0:0:0:0:
64,192,106308,1,0,0:0:0:0:
192,192,106308,1,0,0:0:0:0:
320,192,106308,1,0,0:0:0:0:
448,192,106308,1,0,0:0:0:0:
64,192,106390,1,0,0:0:0:0:
192,192,106390,1,0,0:0:0:0:
320,192,106390,1,0,0:0:0:0:
448,192,106390,1,0,0:0:0:0:
64,192,106472,1,0,0:0:0:0:
192,192,106472,1,0,0:0:0:0:
320,192,106472,1,0,0:0:0:0:
448,192,106472,1,0,0:0:0:0:
320,192,106636,1,0,0:0:0:0:
192,192,106800,1,0,0:0:0:0:
320,192,106800,1,0,0:0:0:0:
64,192,106964,128,0,107292:0:0:0:0:
448,192,107292,1,0,0:0:0:0:
320,192,107457,1,0,0:0:0:0:
64,192,107621,128,0,108113:0:0:0:0:
192,192,107786,1,0,0:0:0:0:
320,192,107786,1,0,0:0:0:0:
448,192,107786,1,0,0:0:0:0:
320,192,108113,128,0,108442:0:0:0:0:
192,192,108442,128,0,108771:0:0:0:0:
448,192,108771,128,0,109099:0:0:0:0:
64,192,109099,1,0,0:0:0:0:
192,192,109099,1,0,0:0:0:0:
320,192,109099,1,0,0:0:0:0:
448,192,109428,1,0,0:0:0:0:
192,192,109591,128,0,111069:0:0:0:0:
320,192,109591,1,0,0:0:0:0:
320,192,109756,1,0,0:0:0:0:
320,192,109920,1,0,0:0:0:0:
320,192,110084,1,0,0:0:0:0:
320,192,110249,1,0,0:0:0:0:
64,192,110412,1,0,0:0:0:0:
320,192,110412,1,0,0:0:0:0:
448,192,110412,1,0,0:0:0:0:
320,192,110577,1,0,0:0:0:0:
320,192,110741,1,0,0:0:0:0:
320,192,110906,1,0,0:0:0:0:
320,192,111069,1,0,0:0:0:0:
64,192,111233,1,0,0:0:0:0:
320,192,111398,1,0,0:0:0:0:
448,192,111398,1,0,0:0:0:0:
64,192,111727,1,0,0:0:0:0:
192,192,111727,1,0,0:0:0:0:
320,192,111727,1,0,0:0:0:0:
448,192,111727,128,0,112054:0:0:0:0:
192,192,112054,1,0,0:0:0:0:
320,192,112219,128,0,112548:0:0:0:0:
64,192,112711,128,0,113368:0:0:0:0:
192,192,113040,1,0,0:0:0:0:
320,192,113040,1,0,0:0:0:0:
448,192,113040,1,0,0:0:0:0:
448,192,113368,1,0,0:0:0:0:
192,192,113697,1,0,0:0:0:0:
320,192,114026,1,0,0:0:0:0:
64,192,114353,1,0,0:0:0:0:
192,192,114353,1,0,0:0:0:0:
320,192,114353,1,0,0:0:0:0:
448,192,114353,1,0,0:0:0:0:
192,192,114682,1,0,0:0:0:0:
320,192,114846,1,0,0:0:0:0:
64,192,115010,1,0,0:0:0:0:
192,192,115010,1,0,0:0:0:0:
320,192,115010,1,0,0:0:0:0:
448,192,115010,1,0,0:0:0:0:
192,192,115339,1,0,0:0:0:0:
64,192,115667,1,0,0:0:0:0:
192,192,115667,1,0,0:0:0:0:
320,192,115667,1,0,0:0:0:0:
448,192,115667,1,0,0:0:0:0:
320,192,115749,1,0,0:0:0:0:
448,192,115749,1,0,0:0:0:0:
64,192,115831,1,0,0:0:0:0:
192,192,115831,1,0,0:0:0:0:
320,192,115831,1,0,0:0:0:0:
448,192,115831,1,0,0:0:0:0:
64,192,115913,1,0,0:0:0:0:
192,192,115913,1,0,0:0:0:0:
64,192,115996,1,0,0:0:0:0:
192,192,115996,1,0,0:0:0:0:
320,192,115996,1,0,0:0:0:0:
448,192,115996,1,0,0:0:0:0:
64,192,116078,1,0,0:0:0:0:
448,192,116078,1,0,0:0:0:0:
64,192,116160,1,0,0:0:0:0:
192,192,116160,1,0,0:0:0:0:
320,192,116160,1,0,0:0:0:0:
448,192,116160,1,0,0:0:0:0:
192,192,116242,1,0,0:0:0:0:
320,192,116242,1,0,0:0:0:0:
64,192,116324,1,0,0:0:0:0:
192,192,116324,1,0,0:0:0:0:
320,192,116324,1,0,0:0:0:0:
448,192,116324,1,0,0:0:0:0:
64,192,116406,1,0,0:0:0:0:
192,192,116406,1,0,0:0:0:0:
320,192,116406,1,0,0:0:0:0:
448,192,116406,1,0,0:0:0:0:
64,192,116488,1,0,0:0:0:0:
192,192,116488,1,0,0:0:0:0:
320,192,116488,1,0,0:0:0:0:
448,192,116488,1,0,0:0:0:0:
64,192,116570,1,0,0:0:0:0:
192,192,116570,1,0,0:0:0:0:
320,192,116570,1,0,0:0:0:0:
448,192,116570,1,0,0:0:0:0:
64,192,116652,1,0,0:0:0:0:
192,192,116652,1,0,0:0:0:0:
320,192,116652,1,0,0:0:0:0:
448,192,116652,1,0,0:0:0:0:
64,192,116734,1,0,0:0:0:0:
192,192,116734,1,0,0:0:0:0:
320,192,116734,1,0,0:0:0:0:
448,192,116734,1,0,0:0:0:0:
64,192,116817,1,0,0:0:0:0:
192,192,116817,1,0,0:0:0:0:
320,192,116817,1,0,0:0:0:0:
448,192,116817,1,0,0:0:0:0:
64,192,116899,1,0,0:0:0:0:
192,192,116899,1,0,0:0:0:0:
320,192,116899,1,0,0:0:0:0:
448,192,116899,1,0,0:0:0:0:
64,192,116981,1,0,0:0:0:0:
192,192,116981,1,0,0:0:0:0:
320,192,116981,1,0,0:0:0:0:
448,192,116981,1,0,0:0:0:0:
320,192,117063,1,0,0:0:0:0:
448,192,117063,1,0,0:0:0:0:
64,192,117144,1,0,0:0:0:0:
192,192,117144,1,0,0:0:0:0:
320,192,117144,1,0,0:0:0:0:
448,192,117144,1,0,0:0:0:0:
64,192,117227,1,0,0:0:0:0:
192,192,117227,1,0,0:0:0:0:
64,192,117309,1,0,0:0:0:0:
192,192,117309,1,0,0:0:0:0:
320,192,117309,1,0,0:0:0:0:
448,192,117309,1,0,0:0:0:0:
64,192,117391,1,0,0:0:0:0:
448,192,117391,1,0,0:0:0:0:
64,192,117473,1,0,0:0:0:0:
192,192,117473,1,0,0:0:0:0:
320,192,117473,1,0,0:0:0:0:
448,192,117473,1,0,0:0:0:0:
192,192,117556,1,0,0:0:0:0:
320,192,117556,1,0,0:0:0:0:
64,192,117638,1,0,0:0:0:0:
192,192,117638,1,0,0:0:0:0:
448,192,117638,1,0,0:0:0:0:
64,192,117720,1,0,0:0:0:0:
320,192,117720,1,0,0:0:0:0:
64,192,117802,1,0,0:0:0:0:
192,192,117802,1,0,0:0:0:0:
320,192,117802,1,0,0:0:0:0:
448,192,117802,1,0,0:0:0:0:
320,192,117883,1,0,0:0:0:0:
448,192,117883,1,0,0:0:0:0:
64,192,117966,1,0,0:0:0:0:
192,192,117966,1,0,0:0:0:0:
320,192,117966,1,0,0:0:0:0:
448,192,117966,1,0,0:0:0:0:
64,192,118048,1,0,0:0:0:0:
448,192,118048,1,0,0:0:0:0:
64,192,118130,1,0,0:0:0:0:
192,192,118130,1,0,0:0:0:0:
320,192,118130,1,0,0:0:0:0:
448,192,118130,1,0,0:0:0:0:
64,192,118212,1,0,0:0:0:0:
192,192,118212,1,0,0:0:0:0:
192,192,118294,1,0,0:0:0:0:
320,192,118294,1,0,0:0:0:0:
448,192,118294,1,0,0:0:0:0:
64,192,118377,1,0,0:0:0:0:
448,192,118377,1,0,0:0:0:0:
64,192,118459,1,0,0:0:0:0:
192,192,118459,1,0,0:0:0:0:
320,192,118459,1,0,0:0:0:0:
448,192,118459,1,0,0:0:0:0:
192,192,118541,1,0,0:0:0:0:
320,192,118541,1,0,0:0:0:0:
64,192,118623,1,0,0:0:0:0:
192,192,118623,1,0,0:0:0:0:
320,192,118623,1,0,0:0:0:0:
448,192,118623,1,0,0:0:0:0:
64,192,118704,1,0,0:0:0:0:
192,192,118704,1,0,0:0:0:0:
64,192,118787,1,0,0:0:0:0:
192,192,118787,1,0,0:0:0:0:
320,192,118787,1,0,0:0:0:0:
448,192,118787,1,0,0:0:0:0:
320,192,118869,1,0,0:0:0:0:
448,192,118869,1,0,0:0:0:0:
64,192,118951,1,0,0:0:0:0:
192,192,118951,1,0,0:0:0:0:
448,192,118951,1,0,0:0:0:0:
64,192,119033,1,0,0:0:0:0:
320,192,119033,1,0,0:0:0:0:
64,192,119116,1,0,0:0:0:0:
192,192,119116,1,0,0:0:0:0:
320,192,119116,1,0,0:0:0:0:
448,192,119116,1,0,0:0:0:0:
192,192,119198,1,0,0:0:0:0:
448,192,119198,1,0,0:0:0:0:
64,192,119280,1,0,0:0:0:0:
192,192,119280,1,0,0:0:0:0:
320,192,119280,1,0,0:0:0:0:
448,192,119280,1,0,0:0:0:0:
320,192,119362,1,0,0:0:0:0:
448,192,119362,1,0,0:0:0:0:
64,192,119443,1,0,0:0:0:0:
192,192,119443,1,0,0:0:0:0:
320,192,119443,1,0,0:0:0:0:
448,192,119443,1,0,0:0:0:0:
64,192,119526,1,0,0:0:0:0:
192,192,119526,1,0,0:0:0:0:
64,192,119608,1,0,0:0:0:0:
320,192,119608,1,0,0:0:0:0:
448,192,119608,1,0,0:0:0:0:
192,192,119690,1,0,0:0:0:0:
320,192,119690,1,0,0:0:0:0:
64,192,119772,1,0,0:0:0:0:
192,192,119772,1,0,0:0:0:0:
320,192,119772,1,0,0:0:0:0:
448,192,119772,1,0,0:0:0:0:
64,192,119854,1,0,0:0:0:0:
448,192,119854,1,0,0:0:0:0:
64,192,119937,1,0,0:0:0:0:
192,192,119937,1,0,0:0:0:0:
320,192,119937,1,0,0:0:0:0:
448,192,119937,1,0,0:0:0:0:
320,192,120019,1,0,0:0:0:0:
448,192,120019,1,0,0:0:0:0:
64,192,120101,1,0,0:0:0:0:
192,192,120101,1,0,0:0:0:0:
320,192,120101,1,0,0:0:0:0:
448,192,120101,1,0,0:0:0:0:
64,192,120182,1,0,0:0:0:0:
192,192,120182,1,0,0:0:0:0:
192,192,120264,1,0,0:0:0:0:
320,192,120264,1,0,0:0:0:0:
448,192,120264,1,0,0:0:0:0:
64,192,120347,1,0,0:0:0:0:
320,192,120347,1,0,0:0:0:0:
64,192,120429,1,0,0:0:0:0:
192,192,120429,1,0,0:0:0:0:
320,192,120429,1,0,0:0:0:0:
448,192,120429,1,0,0:0:0:0:
192,192,120511,1,0,0:0:0:0:
448,192,120511,1,0,0:0:0:0:
64,192,120593,1,0,0:0:0:0:
192,192,120593,1,0,0:0:0:0:
320,192,120593,1,0,0:0:0:0:
448,192,120593,1,0,0:0:0:0:
320,192,120676,1,0,0:0:0:0:
448,192,120676,1,0,0:0:0:0:
64,192,120758,1,0,0:0:0:0:
192,192,120758,1,0,0:0:0:0:
320,192,120758,1,0,0:0:0:0:
448,192,120758,1,0,0:0:0:0:
64,192,120840,1,0,0:0:0:0:
320,192,120840,1,0,0:0:0:0:
192,192,120921,1,0,0:0:0:0:
320,192,120921,1,0,0:0:0:0:
448,192,120921,1,0,0:0:0:0:
64,192,121003,1,0,0:0:0:0:
448,192,121003,1,0,0:0:0:0:
64,192,121086,1,0,0:0:0:0:
192,192,121086,1,0,0:0:0:0:
320,192,121086,1,0,0:0:0:0:
448,192,121086,1,0,0:0:0:0:
192,192,121168,1,0,0:0:0:0:
320,192,121168,1,0,0:0:0:0:
64,192,121250,1,0,0:0:0:0:
192,192,121250,1,0,0:0:0:0:
320,192,121250,1,0,0:0:0:0:
448,192,121250,1,0,0:0:0:0:
64,192,121332,1,0,0:0:0:0:
192,192,121332,1,0,0:0:0:0:
64,192,121414,1,0,0:0:0:0:
192,192,121414,1,0,0:0:0:0:
320,192,121414,1,0,0:0:0:0:
448,192,121414,1,0,0:0:0:0:
64,192,121497,1,0,0:0:0:0:
448,192,121497,1,0,0:0:0:0:
64,192,121579,1,0,0:0:0:0:
192,192,121579,1,0,0:0:0:0:
320,192,121579,1,0,0:0:0:0:
320,192,121660,1,0,0:0:0:0:
448,192,121660,1,0,0:0:0:0:
64,192,121742,1,0,0:0:0:0:
192,192,121742,1,0,0:0:0:0:
320,192,121742,1,0,0:0:0:0:
448,192,121742,1,0,0:0:0:0:
64,192,121824,1,0,0:0:0:0:
192,192,121824,1,0,0:0:0:0:
64,192,121907,1,0,0:0:0:0:
192,192,121907,1,0,0:0:0:0:
320,192,121907,1,0,0:0:0:0:
448,192,121907,1,0,0:0:0:0:
64,192,121989,1,0,0:0:0:0:
448,192,121989,1,0,0:0:0:0:
64,192,122071,1,0,0:0:0:0:
192,192,122071,1,0,0:0:0:0:
320,192,122071,1,0,0:0:0:0:
448,192,122071,1,0,0:0:0:0:
192,192,122153,1,0,0:0:0:0:
320,192,122153,1,0,0:0:0:0:
448,192,122153,1,0,0:0:0:0:
64,192,122236,1,0,0:0:0:0:
320,192,122236,1,0,0:0:0:0:
448,192,122236,1,0,0:0:0:0:
64,192,122318,1,0,0:0:0:0:
192,192,122318,1,0,0:0:0:0:
320,192,122318,1,0,0:0:0:0:
64,192,122400,1,0,0:0:0:0:
192,192,122400,1,0,0:0:0:0:
320,192,122400,1,0,0:0:0:0:
448,192,122400,1,0,0:0:0:0:
64,192,122481,1,0,0:0:0:0:
448,192,122481,1,0,0:0:0:0:
64,192,122563,1,0,0:0:0:0:
192,192,122563,1,0,0:0:0:0:
320,192,122563,1,0,0:0:0:0:
448,192,122563,1,0,0:0:0:0:
192,192,122646,1,0,0:0:0:0:
320,192,122646,1,0,0:0:0:0:
64,192,122728,1,0,0:0:0:0:
192,192,122728,1,0,0:0:0:0:
320,192,122728,1,0,0:0:0:0:
448,192,122728,1,0,0:0:0:0:
64,192,122810,1,0,0:0:0:0:
192,192,122810,1,0,0:0:0:0:
192,192,122892,1,0,0:0:0:0:
320,192,122892,1,0,0:0:0:0:
448,192,122892,1,0,0:0:0:0:
64,192,122974,1,0,0:0:0:0:
448,192,122974,1,0,0:0:0:0:
64,192,123057,1,0,0:0:0:0:
192,192,123057,1,0,0:0:0:0:
320,192,123057,1,0,0:0:0:0:
448,192,123057,1,0,0:0:0:0:
320,192,123139,1,0,0:0:0:0:
448,192,123139,1,0,0:0:0:0:
64,192,123220,1,0,0:0:0:0:
192,192,123220,1,0,0:0:0:0:
320,192,123220,1,0,0:0:0:0:
448,192,123220,1,0,0:0:0:0:
64,192,123302,1,0,0:0:0:0:
192,192,123302,1,0,0:0:0:0:
64,192,123384,1,0,0:0:0:0:
192,192,123384,1,0,0:0:0:0:
320,192,123384,1,0,0:0:0:0:
448,192,123384,1,0,0:0:0:0:
192,192,123467,1,0,0:0:0:0:
448,192,123467,1,0,0:0:0:0:
64,192,123549,1,0,0:0:0:0:
320,192,123549,1,0,0:0:0:0:
448,192,123549,1,0,0:0:0:0:
192,192,123631,1,0,0:0:0:0:
320,192,123631,1,0,0:0:0:0:
64,192,123713,1,0,0:0:0:0:
192,192,123713,1,0,0:0:0:0:
320,192,123713,1,0,0:0:0:0:
448,192,123713,1,0,0:0:0:0:
320,192,123796,1,0,0:0:0:0:
448,192,123796,1,0,0:0:0:0:
64,192,123878,1,0,0:0:0:0:
192,192,123878,1,0,0:0:0:0:
320,192,123878,1,0,0:0:0:0:
448,192,123878,1,0,0:0:0:0:
64,192,123959,1,0,0:0:0:0:
192,192,123959,1,0,0:0:0:0:
64,192,124041,1,0,0:0:0:0:
192,192,124041,1,0,0:0:0:0:
320,192,124041,1,0,0:0:0:0:
448,192,124041,1,0,0:0:0:0:
64,192,124123,1,0,0:0:0:0:
320,192,124123,1,0,0:0:0:0:
64,192,124206,1,0,0:0:0:0:
192,192,124206,1,0,0:0:0:0:
448,192,124206,1,0,0:0:0:0:
320,192,124288,1,0,0:0:0:0:
448,192,124288,1,0,0:0:0:0:
64,192,124370,1,0,0:0:0:0:
192,192,124370,1,0,0:0:0:0:
320,192,124370,1,0,0:0:0:0:
448,192,124370,1,0,0:0:0:0:
64,192,124452,1,0,0:0:0:0:
448,192,124452,1,0,0:0:0:0:
64,192,124534,1,0,0:0:0:0:
192,192,124534,1,0,0:0:0:0:
320,192,124534,1,0,0:0:0:0:
448,192,124534,1,0,0:0:0:0:
64,192,124617,1,0,0:0:0:0:
320,192,124617,1,0,0:0:0:0:
64,192,124698,1,0,0:0:0:0:
192,192,124698,1,0,0:0:0:0:
320,192,124698,1,0,0:0:0:0:
448,192,124698,1,0,0:0:0:0:
320,192,124780,1,0,0:0:0:0:
448,192,124780,1,0,0:0:0:0:
64,192,124862,1,0,0:0:0:0:
192,192,124862,1,0,0:0:0:0:
320,192,124862,1,0,0:0:0:0:
64,192,124944,1,0,0:0:0:0:
448,192,124944,1,0,0:0:0:0:
64,192,125027,1,0,0:0:0:0:
192,192,125027,1,0,0:0:0:0:
320,192,125027,1,0,0:0:0:0:
448,192,125027,1,0,0:0:0:0:
192,192,125109,1,0,0:0:0:0:
320,192,125109,1,0,0:0:0:0:
64,192,125191,1,0,0:0:0:0:
192,192,125191,1,0,0:0:0:0:
320,192,125191,1,0,0:0:0:0:
448,192,125191,1,0,0:0:0:0:
320,192,125273,1,0,0:0:0:0:
448,192,125273,1,0,0:0:0:0:
64,192,125356,1,0,0:0:0:0:
192,192,125356,1,0,0:0:0:0:
320,192,125356,1,0,0:0:0:0:
448,192,125356,1,0,0:0:0:0:
64,192,125438,1,0,0:0:0:0:
192,192,125438,1,0,0:0:0:0:
64,192,125519,1,0,0:0:0:0:
320,192,125519,1,0,0:0:0:0:
448,192,125519,1,0,0:0:0:0:
192,192,125601,1,0,0:0:0:0:
448,192,125601,1,0,0:0:0:0:
64,192,125683,1,0,0:0:0:0:
192,192,125683,1,0,0:0:0:0:
320,192,125683,1,0,0:0:0:0:
448,192,125683,1,0,0:0:0:0:
64,192,125766,1,0,0:0:0:0:
320,192,125766,1,0,0:0:0:0:
64,192,125848,1,0,0:0:0:0:
192,192,125848,1,0,0:0:0:0:
320,192,125848,1,0,0:0:0:0:
448,192,125848,1,0,0:0:0:0:
64,192,125930,1,0,0:0:0:0:
192,192,125930,1,0,0:0:0:0:
64,192,126012,1,0,0:0:0:0:
192,192,126012,1,0,0:0:0:0:
320,192,126012,1,0,0:0:0:0:
448,192,126012,1,0,0:0:0:0:
320,192,126094,1,0,0:0:0:0:
448,192,126094,1,0,0:0:0:0:
64,192,126177,1,0,0:0:0:0:
192,192,126177,1,0,0:0:0:0:
448,192,126177,1,0,0:0:0:0:
64,192,126258,1,0,0:0:0:0:
320,192,126258,1,0,0:0:0:0:
64,192,126340,1,0,0:0:0:0:
192,192,126340,1,0,0:0:0:0:
320,192,126340,1,0,0:0:0:0:
448,192,126340,1,0,0:0:0:0:
192,192,126422,1,0,0:0:0:0:
448,192,126422,1,0,0:0:0:0:
64,192,126504,1,0,0:0:0:0:
192,192,126504,1,0,0:0:0:0:
320,192,126504,1,0,0:0:0:0:
448,192,126504,1,0,0:0:0:0:
64,192,126587,1,0,0:0:0:0:
320,192,126587,1,0,0:0:0:0:
64,192,126669,1,0,0:0:0:0:
192,192,126669,1,0,0:0:0:0:
320,192,126669,1,0,0:0:0:0:
448,192,126669,1,0,0:0:0:0:
192,192,126751,1,0,0:0:0:0:
448,192,126751,1,0,0:0:0:0:
64,192,126833,1,0,0:0:0:0:
320,192,126833,1,0,0:0:0:0:
448,192,126833,1,0,0:0:0:0:
64,192,126916,1,0,0:0:0:0:
192,192,126916,1,0,0:0:0:0:
64,192,126997,1,0,0:0:0:0:
192,192,126997,1,0,0:0:0:0:
320,192,126997,1,0,0:0:0:0:
448,192,126997,1,0,0:0:0:0:
320,192,127079,1,0,0:0:0:0:
448,192,127079,1,0,0:0:0:0:
64,192,127161,1,0,0:0:0:0:
192,192,127161,1,0,0:0:0:0:
320,192,127161,1,0,0:0:0:0:
448,192,127161,1,0,0:0:0:0:
192,192,127243,1,0,0:0:0:0:
320,192,127243,1,0,0:0:0:0:
64,192,127326,1,0,0:0:0:0:
192,192,127326,1,0,0:0:0:0:
320,192,127326,1,0,0:0:0:0:
448,192,127326,1,0,0:0:0:0:
64,192,127408,1,0,0:0:0:0:
448,192,127408,1,0,0:0:0:0:
64,192,127490,1,0,0:0:0:0:
320,192,127490,1,0,0:0:0:0:
448,192,127490,1,0,0:0:0:0:
192,192,127572,1,0,0:0:0:0:
320,192,127572,1,0,0:0:0:0:
64,192,127654,1,0,0:0:0:0:
192,192,127654,1,0,0:0:0:0:
320,192,127654,1,0,0:0:0:0:
448,192,127654,1,0,0:0:0:0:
64,192,127736,1,0,0:0:0:0:
448,192,127736,1,0,0:0:0:0:
64,192,127818,1,0,0:0:0:0:
192,192,127818,1,0,0:0:0:0:
320,192,127818,1,0,0:0:0:0:
448,192,127818,1,0,0:0:0:0:
320,192,127900,1,0,0:0:0:0:
448,192,127900,1,0,0:0:0:0:
64,192,127982,1,0,0:0:0:0:
192,192,127982,1,0,0:0:0:0:
320,192,127982,1,0,0:0:0:0:
448,192,127982,1,0,0:0:0:0:
64,192,128064,1,0,0:0:0:0:
192,192,128064,1,0,0:0:0:0:
64,192,128147,1,0,0:0:0:0:
320,192,128147,1,0,0:0:0:0:
448,192,128147,1,0,0:0:0:0:
192,192,128229,1,0,0:0:0:0:
448,192,128229,1,0,0:0:0:0:
64,192,128311,1,0,0:0:0:0:
192,192,128311,1,0,0:0:0:0:
320,192,128311,1,0,0:0:0:0:
448,192,128311,1,0,0:0:0:0:
64,192,128393,1,0,0:0:0:0:
320,192,128393,1,0,0:0:0:0:
64,192,128476,1,0,0:0:0:0:
192,192,128476,1,0,0:0:0:0:
320,192,128476,1,0,0:0:0:0:
448,192,128476,1,0,0:0:0:0:
64,192,128557,1,0,0:0:0:0:
192,192,128557,1,0,0:0:0:0:
64,192,128639,1,0,0:0:0:0:
192,192,128639,1,0,0:0:0:0:
320,192,128639,1,0,0:0:0:0:
448,192,128639,1,0,0:0:0:0:
320,192,128721,1,0,0:0:0:0:
448,192,128721,1,0,0:0:0:0:
64,192,128803,1,0,0:0:0:0:
192,192,128803,1,0,0:0:0:0:
320,192,128803,1,0,0:0:0:0:
64,192,128886,1,0,0:0:0:0:
448,192,128886,1,0,0:0:0:0:
64,192,128968,1,0,0:0:0:0:
192,192,128968,1,0,0:0:0:0:
320,192,128968,1,0,0:0:0:0:
448,192,128968,1,0,0:0:0:0:
192,192,129050,1,0,0:0:0:0:
320,192,129050,1,0,0:0:0:0:
64,192,129132,1,0,0:0:0:0:
192,192,129132,1,0,0:0:0:0:
320,192,129132,1,0,0:0:0:0:
448,192,129132,1,0,0:0:0:0:
64,192,129214,1,0,0:0:0:0:
192,192,129214,1,0,0:0:0:0:
64,192,129296,1,0,0:0:0:0:
192,192,129296,1,0,0:0:0:0:
320,192,129296,1,0,0:0:0:0:
448,192,129296,1,0,0:0:0:0:
320,192,129378,1,0,0:0:0:0:
448,192,129378,1,0,0:0:0:0:
64,192,129460,1,0,0:0:0:0:
192,192,129460,1,0,0:0:0:0:
448,192,129460,1,0,0:0:0:0:
64,192,129542,1,0,0:0:0:0:
320,192,129542,1,0,0:0:0:0:
64,192,129624,1,0,0:0:0:0:
192,192,129624,1,0,0:0:0:0:
320,192,129624,1,0,0:0:0:0:
448,192,129624,1,0,0:0:0:0:
64,192,129707,1,0,0:0:0:0:
192,192,129707,1,0,0:0:0:0:
64,192,129789,1,0,0:0:0:0:
192,192,129789,1,0,0:0:0:0:
320,192,129789,1,0,0:0:0:0:
448,192,129789,1,0,0:0:0:0:
320,192,129871,1,0,0:0:0:0:
448,192,129871,1,0,0:0:0:0:
64,192,129953,1,0,0:0:0:0:
192,192,129953,1,0,0:0:0:0:
320,192,129953,1,0,0:0:0:0:
448,192,129953,1,0,0:0:0:0:
192,192,130034,1,0,0:0:0:0:
448,192,130034,1,0,0:0:0:0:
64,192,130117,1,0,0:0:0:0:
320,192,130117,1,0,0:0:0:0:
448,192,130117,1,0,0:0:0:0:
192,192,130199,1,0,0:0:0:0:
320,192,130199,1,0,0:0:0:0:
64,192,130281,1,0,0:0:0:0:
192,192,130281,1,0,0:0:0:0:
320,192,130281,1,0,0:0:0:0:
448,192,130281,1,0,0:0:0:0:
64,192,130363,1,0,0:0:0:0:
448,192,130363,1,0,0:0:0:0:
64,192,130446,1,0,0:0:0:0:
192,192,130446,1,0,0:0:0:0:
320,192,130446,1,0,0:0:0:0:
448,192,130446,1,0,0:0:0:0:
64,192,130528,1,0,0:0:0:0:
192,192,130528,1,0,0:0:0:0:
64,192,130610,1,0,0:0:0:0:
192,192,130610,1,0,0:0:0:0:
320,192,130610,1,0,0:0:0:0:
448,192,130610,1,0,0:0:0:0:
320,192,130692,1,0,0:0:0:0:
448,192,130692,1,0,0:0:0:0:
64,192,130773,1,0,0:0:0:0:
192,192,130773,1,0,0:0:0:0:
448,192,130773,1,0,0:0:0:0:
64,192,130856,1,0,0:0:0:0:
320,192,130856,1,0,0:0:0:0:
64,192,130938,1,0,0:0:0:0:
192,192,130938,1,0,0:0:0:0:
320,192,130938,1,0,0:0:0:0:
448,192,130938,1,0,0:0:0:0:
192,192,131020,1,0,0:0:0:0:
448,192,131020,1,0,0:0:0:0:
64,192,131102,1,0,0:0:0:0:
192,192,131102,1,0,0:0:0:0:
320,192,131102,1,0,0:0:0:0:
448,192,131102,1,0,0:0:0:0:
320,192,131184,1,0,0:0:0:0:
448,192,131184,1,0,0:0:0:0:
64,192,131267,1,0,0:0:0:0:
192,192,131267,1,0,0:0:0:0:
320,192,131267,1,0,0:0:0:0:
448,192,131267,1,0,0:0:0:0:
64,192,131349,1,0,0:0:0:0:
192,192,131349,1,0,0:0:0:0:
192,192,131431,1,0,0:0:0:0:
320,192,131431,1,0,0:0:0:0:
448,192,131431,1,0,0:0:0:0:
64,192,131512,1,0,0:0:0:0:
448,192,131512,1,0,0:0:0:0:
64,192,131594,1,0,0:0:0:0:
192,192,131594,1,0,0:0:0:0:
320,192,131594,1,0,0:0:0:0:
448,192,131594,1,0,0:0:0:0:
192,192,131677,1,0,0:0:0:0:
320,192,131677,1,0,0:0:0:0:
64,192,131759,1,0,0:0:0:0:
192,192,131759,1,0,0:0:0:0:
320,192,131759,1,0,0:0:0:0:
448,192,131759,1,0,0:0:0:0:
64,192,131841,1,0,0:0:0:0:
448,192,131841,1,0,0:0:0:0:
64,192,131923,1,0,0:0:0:0:
192,192,131923,1,0,0:0:0:0:
320,192,131923,1,0,0:0:0:0:
448,192,131923,1,0,0:0:0:0:
192,192,132006,1,0,0:0:0:0:
320,192,132006,1,0,0:0:0:0:
64,192,132088,1,0,0:0:0:0:
192,192,132088,1,0,0:0:0:0:
320,192,132088,1,0,0:0:0:0:
448,192,132088,1,0,0:0:0:0:
64,192,132170,1,0,0:0:0:0:
448,192,132170,1,0,0:0:0:0:
64,192,132252,1,0,0:0:0:0:
192,192,132252,1,0,0:0:0:0:
320,192,132252,1,0,0:0:0:0:
448,192,132252,1,0,0:0:0:0:
320,192,132333,1,0,0:0:0:0:
448,192,132333,1,0,0:0:0:0:
64,192,132416,1,0,0:0:0:0:
192,192,132416,1,0,0:0:0:0:
320,192,132416,1,0,0:0:0:0:
448,192,132416,1,0,0:0:0:0:
64,192,132498,1,0,0:0:0:0:
192,192,132498,1,0,0:0:0:0:
64,192,132580,1,0,0:0:0:0:
192,192,132580,1,0,0:0:0:0:
320,192,132580,1,0,0:0:0:0:
448,192,132580,1,0,0:0:0:0:
320,192,132662,1,0,0:0:0:0:
448,192,132662,1,0,0:0:0:0:
64,192,132744,1,0,0:0:0:0:
192,192,132744,1,0,0:0:0:0:
320,192,132744,1,0,0:0:0:0:
448,192,132744,1,0,0:0:0:0:
64,192,132827,1,0,0:0:0:0:
192,192,132827,1,0,0:0:0:0:
448,192,132827,1,0,0:0:0:0:
192,192,132909,1,0,0:0:0:0:
320,192,132909,1,0,0:0:0:0:
448,192,132909,1,0,0:0:0:0:
64,192,132991,1,0,0:0:0:0:
320,192,132991,1,0,0:0:0:0:
448,192,132991,1,0,0:0:0:0:
64,192,133072,1,0,0:0:0:0:
192,192,133072,1,0,0:0:0:0:
320,192,133072,1,0,0:0:0:0:
448,192,133072,1,0,0:0:0:0:
64,192,133154,1,0,0:0:0:0:
192,192,133154,1,0,0:0:0:0:
320,192,133154,1,0,0:0:0:0:
64,192,133237,1,0,0:0:0:0:
320,192,133237,1,0,0:0:0:0:
448,192,133237,1,0,0:0:0:0:
64,192,133319,1,0,0:0:0:0:
192,192,133319,1,0,0:0:0:0:
320,192,133319,1,0,0:0:0:0:
64,192,133401,1,0,0:0:0:0:
192,192,133401,1,0,0:0:0:0:
320,192,133401,1,0,0:0:0:0:
448,192,133401,1,0,0:0:0:0:
192,192,133483,1,0,0:0:0:0:
320,192,133483,1,0,0:0:0:0:
448,192,133483,1,0,0:0:0:0:
64,192,133566,1,0,0:0:0:0:
192,192,133566,1,0,0:0:0:0:
448,192,133566,1,0,0:0:0:0:
64,192,133648,1,0,0:0:0:0:
192,192,133648,1,0,0:0:0:0:
320,192,133648,1,0,0:0:0:0:
64,192,133730,1,0,0:0:0:0:
192,192,133730,1,0,0:0:0:0:
320,192,133730,1,0,0:0:0:0:
448,192,133730,1,0,0:0:0:0:
64,192,133811,1,0,0:0:0:0:
320,192,133811,1,0,0:0:0:0:
448,192,133811,1,0,0:0:0:0:
192,192,133893,1,0,0:0:0:0:
320,192,133893,1,0,0:0:0:0:
448,192,133893,1,0,0:0:0:0:
64,192,133976,1,0,0:0:0:0:
192,192,133976,1,0,0:0:0:0:
448,192,133976,1,0,0:0:0:0:
64,192,134058,1,0,0:0:0:0:
192,192,134058,1,0,0:0:0:0:
320,192,134058,1,0,0:0:0:0:
448,192,134058,1,0,0:0:0:0:
64,192,134140,1,0,0:0:0:0:
192,192,134140,1,0,0:0:0:0:
320,192,134140,1,0,0:0:0:0:
64,192,134222,1,0,0:0:0:0:
320,192,134222,1,0,0:0:0:0:
448,192,134222,1,0,0:0:0:0:
192,192,134304,1,0,0:0:0:0:
320,192,134304,1,0,0:0:0:0:
448,192,134304,1,0,0:0:0:0:
64,192,134387,1,0,0:0:0:0:
192,192,134387,1,0,0:0:0:0:
320,192,134387,1,0,0:0:0:0:
448,192,134387,1,0,0:0:0:0:
64,192,134469,1,0,0:0:0:0:
192,192,134469,1,0,0:0:0:0:
320,192,134469,1,0,0:0:0:0:
64,192,134550,1,0,0:0:0:0:
192,192,134550,1,0,0:0:0:0:
448,192,134550,1,0,0:0:0:0:
64,192,134632,1,0,0:0:0:0:
320,192,134632,1,0,0:0:0:0:
448,192,134632,1,0,0:0:0:0:
64,192,134714,1,0,0:0:0:0:
192,192,134714,1,0,0:0:0:0:
320,192,134714,1,0,0:0:0:0:
448,192,134714,1,0,0:0:0:0:
192,192,134797,1,0,0:0:0:0:
320,192,134797,1,0,0:0:0:0:
448,192,134797,1,0,0:0:0:0:
64,192,134879,1,0,0:0:0:0:
192,192,134879,1,0,0:0:0:0:
320,192,134879,1,0,0:0:0:0:
64,192,134961,1,0,0:0:0:0:
192,192,134961,1,0,0:0:0:0:
448,192,134961,1,0,0:0:0:0:
64,192,135043,1,0,0:0:0:0:
192,192,135043,1,0,0:0:0:0:
320,192,135043,1,0,0:0:0:0:
448,192,135043,1,0,0:0:0:0:
64,192,135126,1,0,0:0:0:0:
320,192,135126,1,0,0:0:0:0:
448,192,135126,1,0,0:0:0:0:
192,192,135208,1,0,0:0:0:0:
320,192,135208,1,0,0:0:0:0:
448,192,135208,1,0,0:0:0:0:
64,192,135290,1,0,0:0:0:0:
192,192,135290,1,0,0:0:0:0:
320,192,135290,1,0,0:0:0:0:
64,192,135371,1,0,0:0:0:0:
192,192,135371,1,0,0:0:0:0:
320,192,135371,1,0,0:0:0:0:
448,192,135371,1,0,0:0:0:0:
64,192,135453,1,0,0:0:0:0:
192,192,135453,1,0,0:0:0:0:
448,192,135453,1,0,0:0:0:0:
64,192,135536,1,0,0:0:0:0:
192,192,135536,1,0,0:0:0:0:
320,192,135536,1,0,0:0:0:0:
448,192,135536,1,0,0:0:0:0:
192,192,135618,1,0,0:0:0:0:
320,192,135618,1,0,0:0:0:0:
448,192,135618,1,0,0:0:0:0:
64,192,135700,1,0,0:0:0:0:
192,192,135700,1,0,0:0:0:0:
320,192,135700,1,0,0:0:0:0:
448,192,135700,1,0,0:0:0:0:
64,192,135782,1,0,0:0:0:0:
320,192,135782,1,0,0:0:0:0:
448,192,135782,1,0,0:0:0:0:
64,192,135864,1,0,0:0:0:0:
192,192,135864,1,0,0:0:0:0:
320,192,135864,1,0,0:0:0:0:
448,192,135864,1,0,0:0:0:0:
64,192,135947,1,0,0:0:0:0:
192,192,135947,1,0,0:0:0:0:
320,192,135947,1,0,0:0:0:0:
64,192,136029,1,0,0:0:0:0:
192,192,136029,1,0,0:0:0:0:
320,192,136029,1,0,0:0:0:0:
448,192,136029,1,0,0:0:0:0:
64,192,136110,1,0,0:0:0:0:
192,192,136110,1,0,0:0:0:0:
448,192,136110,1,0,0:0:0:0:
64,192,136192,1,0,0:0:0:0:
192,192,136192,1,0,0:0:0:0:
320,192,136192,1,0,0:0:0:0:
448,192,136192,1,0,0:0:0:0:
64,192,136274,1,0,0:0:0:0:
320,192,136274,1,0,0:0:0:0:
448,192,136274,1,0,0:0:0:0:
64,192,136357,1,0,0:0:0:0:
192,192,136357,1,0,0:0:0:0:
320,192,136357,1,0,0:0:0:0:
448,192,136357,1,0,0:0:0:0:
64,192,136439,1,0,0:0:0:0:
192,192,136439,1,0,0:0:0:0:
320,192,136439,1,0,0:0:0:0:
64,192,136521,1,0,0:0:0:0:
192,192,136521,1,0,0:0:0:0:
320,192,136521,1,0,0:0:0:0:
448,192,136521,1,0,0:0:0:0:
64,192,136603,1,0,0:0:0:0:
320,192,136603,1,0,0:0:0:0:
448,192,136603,1,0,0:0:0:0:
64,192,136686,1,0,0:0:0:0:
192,192,136686,1,0,0:0:0:0:
320,192,136686,1,0,0:0:0:0:
448,192,136686,1,0,0:0:0:0:
64,192,136768,1,0,0:0:0:0:
192,192,136768,1,0,0:0:0:0:
448,192,136768,1,0,0:0:0:0:
64,192,136849,1,0,0:0:0:0:
192,192,136849,1,0,0:0:0:0:
320,192,136849,1,0,0:0:0:0:
448,192,136849,1,0,0:0:0:0:
192,192,136931,1,0,0:0:0:0:
320,192,136931,1,0,0:0:0:0:
448,192,136931,1,0,0:0:0:0:
64,192,137013,1,0,0:0:0:0:
192,192,137013,1,0,0:0:0:0:
320,192,137013,1,0,0:0:0:0:
448,192,137013,1,0,0:0:0:0:
64,192,137096,1,0,0:0:0:0:
320,192,137096,1,0,0:0:0:0:
448,192,137096,1,0,0:0:0:0:
64,192,137178,1,0,0:0:0:0:
192,192,137178,1,0,0:0:0:0:
320,192,137178,1,0,0:0:0:0:
448,192,137178,1,0,0:0:0:0:
64,192,137260,1,0,0:0:0:0:
192,192,137260,1,0,0:0:0:0:
448,192,137260,1,0,0:0:0:0:
64,192,137342,1,0,0:0:0:0:
192,192,137342,1,0,0:0:0:0:
320,192,137342,1,0,0:0:0:0:
448,192,137342,1,0,0:0:0:0:
64,192,137424,1,0,0:0:0:0:
192,192,137424,1,0,0:0:0:0:
320,192,137424,1,0,0:0:0:0:
448,192,137424,1,0,0:0:0:0:
64,192,137507,1,0,0:0:0:0:
192,192,137507,1,0,0:0:0:0:
320,192,137507,1,0,0:0:0:0:
448,192,137507,1,0,0:0:0:0:
64,192,137588,1,0,0:0:0:0:
192,192,137588,1,0,0:0:0:0:
320,192,137588,1,0,0:0:0:0:
448,192,137588,1,0,0:0:0:0:
64,192,137670,1,0,0:0:0:0:
192,192,137670,1,0,0:0:0:0:
320,192,137670,1,0,0:0:0:0:
448,192,137670,1,0,0:0:0:0:
64,192,137752,1,0,0:0:0:0:
192,192,137752,1,0,0:0:0:0:
320,192,137752,1,0,0:0:0:0:
448,192,137752,1,0,0:0:0:0:
64,192,137834,1,0,0:0:0:0:
192,192,137834,1,0,0:0:0:0:
320,192,137834,1,0,0:0:0:0:
448,192,137834,1,0,0:0:0:0:
64,192,137917,1,0,0:0:0:0:
192,192,137917,1,0,0:0:0:0:
320,192,137917,1,0,0:0:0:0:
448,192,137917,1,0,0:0:0:0:
64,192,137999,1,0,0:0:0:0:
192,192,137999,1,0,0:0:0:0:
320,192,137999,1,0,0:0:0:0:
448,192,137999,1,0,0:0:0:0:
