osu file format v14

[General]
AudioFilename: audio.ogg
AudioLeadIn: 0
PreviewTime: 77083
Countdown: 0
SampleSet: Soft
StackLeniency: 0.7
Mode: 0
LetterboxInBreaks: 0
WidescreenStoryboard: 0

[Editor]
DistanceSpacing: 1
BeatDivisor: 4
GridSize: 32
TimelineZoom: 1.5

[Metadata]
Title:Yagate Kieru Maboroshi demo
TitleUnicode:やがて消える幻でも
Artist:Sakakibara Yui
ArtistUnicode:榊原ゆい
Creator:Garden
Version:Expert
Source:レミニセンス
Tags:nanoya kowari Reminiscence opening short version wight Barbarian On The Groove Tigre Soft japanese pop visual novel vn eroge video game
BeatmapID:4355473
BeatmapSetID:2079904

[Difficulty]
HPDrainRate:6
CircleSize:4
OverallDifficulty:9
ApproachRate:9.3
SliderMultiplier:2
SliderTickRate:1

[Events]
//Background and Video events
0,0,"ev_kizuna01.jpg",0,0
//Break Periods
//Storyboard Layer 0 (Background)
//Storyboard Layer 1 (Fail)
//Storyboard Layer 2 (Pass)
//Storyboard Layer 3 (Foreground)
//Storyboard Layer 4 (Overlay)
//Storyboard Sound Samples

[TimingPoints]
1670,413.793103448276,4,2,1,60,1,0
12635,-133.333333333333,4,2,1,50,0,0
13049,-250,4,2,1,55,0,0
13670,-250,4,2,1,75,0,0
14083,-250,4,2,1,90,0,0
14911,-62.5,4,2,1,75,0,0
21532,-55.5555555555556,4,2,1,75,0,0
22152,-50,4,2,1,75,0,0
22773,-71.4285714285714,4,2,1,75,0,0
23187,-55.5555555555556,4,2,1,75,0,0
23807,-50,4,2,1,75,0,0
25256,-111.111111111111,4,2,1,65,0,0
28152,-111.111111111111,4,2,1,55,0,0
30221,-83.3333333333333,4,2,1,55,0,0
30635,-111.111111111111,4,2,1,55,0,0
31049,-83.3333333333333,4,2,1,55,0,0
31463,-111.111111111111,4,2,1,55,0,0
35601,-71.4285714285714,4,2,1,65,0,0
36221,-100,4,2,1,65,0,0
36842,-66.6666666666667,4,2,1,65,0,0
37049,-80,4,2,1,65,0,0
37463,-66.6666666666667,4,2,1,65,0,0
48014,-55.5555555555556,4,2,1,65,0,0
48635,-50,4,2,1,65,0,0
49463,-83.3333333333333,4,2,1,65,0,0
49876,-55.5555555555556,4,2,1,65,0,0
51325,-111.111111111111,4,2,1,60,0,0
51738,-133.333333333333,4,2,1,60,0,0
56497,-80,4,2,1,60,0,0
57945,-111.111111111111,4,2,1,60,0,0
60014,-90.9090909090909,4,2,1,60,0,0
60428,-66.6666666666667,4,2,1,60,0,0
61049,-57.1428571428571,4,2,1,60,0,0
61256,-66.6666666666667,4,2,1,65,0,0
67876,-57.1428571428571,4,2,1,70,0,0
68290,-62.5,4,2,1,70,0,0
77187,-133.333333333333,4,2,1,60,0,0
77807,-62.5,4,2,1,80,0,1
82359,-55.5555555555556,4,2,1,80,0,1
82773,-62.5,4,2,1,80,0,1
87738,-55.5555555555556,4,2,1,80,0,1
89187,-50,4,2,1,80,0,1
89601,-55.5555555555556,4,2,1,80,0,1
91049,-62.5,4,2,1,80,0,1
94980,-52.6315789473684,4,2,1,80,0,1
95394,-62.5,4,2,1,80,0,1
102428,-55.5555555555556,4,2,1,80,0,1
102842,-62.5,4,2,1,80,0,1
104290,-55.5555555555556,4,2,1,80,0,1
104911,-50,4,2,1,80,0,1
105532,-71.4285714285714,4,2,1,80,0,1
105945,-55.5555555555556,4,2,1,80,0,1
106566,-50,4,2,1,80,0,1
107601,-62.5,4,2,1,75,0,0
117532,-55.5555555555556,4,2,1,75,0,0
117945,-62.5,4,2,1,75,0,0
118980,-50,4,2,1,75,0,0
120842,-62.5,4,2,1,75,0,0
127463,-55.5555555555556,4,2,1,75,0,0
128083,-50,4,2,1,75,0,0
128704,-71.4285714285714,4,2,1,75,0,0
129118,-55.5555555555556,4,2,1,75,0,0
129738,-50,4,2,1,75,0,0
131601,-90.9090909090909,4,2,1,60,0,0
132428,-90.9090909090909,4,2,1,50,0,0
133256,-90.9090909090909,4,2,1,35,0,0
134083,-90.9090909090909,4,2,1,20,0,0
134911,-90.9090909090909,4,2,1,5,0,0

[Colours]
Combo1 : 167,167,211
Combo2 : 255,128,128
Combo3 : 140,140,255
Combo4 : 255,169,128

[HitObjects]
189,227,12635,6,0,L|95:202,1,75.0000028610231,2|0,0:0|0:0,0:0:0:0:
256,288,13049,6,2,P|398:260|382:116,1,320,2|0,0:0|0:0,0:0:0:0:
310,158,14911,6,0,B|325:172|337:191|337:191|394:181|458:224,1,160,4|2,3:2|0:0,0:0:0:0:
306,76,15221,1,2,0:0:0:0:
287,79,15325,2,0,P|255:43|267:9,1,80,2|0,1:2|0:0,0:0:0:0:
448,217,15532,2,0,P|376:232|294:262,1,160,2|0,0:0|0:0,0:0:0:0:
174,319,15842,1,0,1:0:0:0:
168,302,15945,2,0,P|176:258|216:242,1,80,2|0,3:2|0:0,0:0:0:0:
89,44,16152,1,2,1:2:0:0:
43,107,16256,1,2,0:0:0:0:
83,174,16359,1,2,0:0:0:0:
162,174,16463,1,2,0:0:0:0:
204,242,16566,6,0,B|216:263|222:289|222:289|262:283|303:300|314:341,1,160,2|2,3:2|0:0,0:0:0:0:
294,108,16876,1,2,0:0:0:0:
300,124,16980,2,0,P|280:159|242:166,1,80,2|0,1:2|0:0,0:0:0:0:
375,269,17187,1,2,0:0:0:0:
311,334,17290,2,0,P|342:243|373:163,1,160,2|0,1:2|1:0,0:0:0:0:
449,309,17601,2,0,P|430:343|375:343,1,80,2|0,3:2|0:0,0:0:0:0:
326,31,17807,2,0,P|335:143|444:165,1,240,2|0,1:2|0:0,0:0:0:0:
353,106,18221,6,0,B|330:123|304:124|304:124|286:90|244:71|185:92,1,160,2|2,3:2|0:0,0:0:0:0:
409,33,18532,1,2,0:0:0:0:
417,49,18635,2,0,P|455:44|479:13,1,80,2|0,1:2|0:0,0:0:0:0:
230,168,18842,1,2,0:0:0:0:
238,184,18945,2,0,P|214:213|160:209,1,80,2|0,1:2|0:0,0:0:0:0:
10,43,19152,1,0,1:0:0:0:
87,51,19256,1,2,3:2:0:0:
123,120,19359,1,0,1:0:0:0:
89,192,19463,2,0,B|82:215|71:233|71:233|28:234|-7:273|0:317,1,160,2|2,1:2|0:0,0:0:0:0:
89,192,19773,1,0,1:0:0:0:
44,122,19876,6,0,P|66:185|106:275,1,160,2|0,3:2|0:0,0:0:0:0:
169,368,20187,2,0,P|194:339|187:301,1,80,2|0,0:0|1:0,0:0:0:0:
288,216,20394,1,0,1:0:0:0:
253,249,20497,1,2,3:2:0:0:
277,291,20601,2,0,P|315:301|353:313,1,80,0|0,1:0|0:0,0:0:0:0:
442,111,20807,1,0,1:0:0:0:
410,95,20911,2,0,P|366:116|375:163,1,80,2|0,3:2|0:0,0:0:0:0:
503,374,21118,2,0,P|378:315|391:221,1,240,2|0,1:2|0:0,0:0:0:0:
293,87,21532,6,0,B|307:111|307:111|378:137|471:174,1,179.999994506836,4|2,3:2|0:0,0:0:0:0:
294,0,21842,1,2,0:0:0:0:
215,43,21945,2,0,P|171:30|129:14,1,89.9999972534181,2|0,1:2|0:0,0:0:0:0:
449,165,22152,6,0,B|471:140|471:140|479:84|437:23|359:45,1,200,4|2,3:2|0:0,0:0:0:0:
384,230,22463,1,2,1:2:0:0:
470,247,22566,2,0,P|509:290|483:338,1,100,2|0,3:2|0:0,0:0:0:0:
208,357,22773,6,0,P|310:334|413:314,1,209.999993591309,2|0,1:2|0:0,0:0:0:0:
338,360,23187,6,0,B|319:361|305:370|305:370|241:362|221:292|273:246,1,179.999994506836,4|2,3:2|0:0,0:0:0:0:
136,137,23497,1,2,0:0:0:0:
116,218,23601,2,0,P|124:264|167:277,1,89.9999972534181,2|0,1:2|0:0,0:0:0:0:
306,42,23807,6,0,B|289:49|263:52|263:52|234:124|203:196,1,200,4|0,3:2|0:0,0:0:0:0:
203,195,24118,2,0,P|253:181|251:129,1,100,0|2,1:0|0:0,0:0:0:0:
77,71,24325,1,2,0:0:0:0:
83,84,24428,1,2,1:2:0:0:
26,139,24532,1,2,1:2:0:0:
23,218,24635,1,2,1:2:0:0:
80,276,24738,1,2,1:2:0:0:
160,277,24842,1,4,3:1:0:0:
490,335,25256,5,2,3:2:0:0:
475,326,25359,2,0,P|491:268|503:230,1,89.9999972534181,2|2,0:0|0:0,0:0:0:0:
488,225,25670,1,2,3:2:0:0:
412,197,25876,1,2,0:0:0:0:
335,219,26083,1,2,3:2:0:0:
285,280,26290,1,2,0:0:0:0:
281,360,26497,1,2,3:2:0:0:
100,293,26911,5,2,3:2:0:0:
114,304,27014,2,0,P|170:286|208:273,1,89.9999972534181,2|2,0:0|0:0,0:0:0:0:
207,260,27325,1,2,3:2:0:0:
285,280,27532,1,2,0:0:0:0:
84,169,27738,1,2,3:2:0:0:
162,189,27945,1,2,0:0:0:0:
36,104,28152,6,0,P|67:19|150:38,1,179.999994506836,2|0,3:2|3:0,0:0:0:0:
217,60,28773,1,2,0:0:0:0:
36,104,28980,2,0,P|145:50|306:27,1,269.999991760254,2|2,3:2|0:0,0:0:0:0:
364,60,29704,1,2,0:0:0:0:
357,75,29807,6,0,P|361:104|372:130,3,44.999998626709,0|2|2|2,3:2|0:0|0:0|0:0,0:0:0:0:
438,155,30221,2,0,P|458:188|496:202,3,59.9999981689454,0|2|2|2,3:2|0:0|0:0|0:0,0:0:0:0:
504,199,30635,6,0,P|489:222|457:226,3,44.999998626709,0|2|2|2,3:2|0:0|0:0|0:0,0:0:0:0:
409,280,31049,2,0,P|376:269|357:217,3,59.9999981689454,0|2|2|2,3:2|0:0|0:0|0:0,0:0:0:0:
429,359,31463,5,0,3:0:0:0:
83,359,31876,5,2,3:2:0:0:
103,280,32083,1,2,0:0:0:0:
181,298,32290,1,2,3:2:0:0:
2,238,32497,5,2,0:0:0:0:
106,267,32704,1,2,3:2:0:0:
138,163,32911,1,2,0:0:0:0:
6,61,33118,6,0,P|-18:118|31:155,1,134.999995880127,2|0,3:2|0:0,0:0:0:0:
49,159,33532,1,2,3:2:0:0:
128,0,33738,2,0,P|111:41|97:84,1,89.9999972534181,2|0,0:0|3:0,0:0:0:0:
97,84,34152,2,0,P|193:84|220:177,1,179.999994506836,2|0,0:0|0:0,0:0:0:0:
205,232,34773,1,0,3:0:0:0:
466,347,35187,5,2,3:2:0:0:
486,265,35394,1,2,0:0:0:0:
256,371,35601,6,0,P|320:344|385:318,1,139.999995727539,4|0,3:2|1:0,0:0:0:0:
398,304,35876,1,0,1:0:0:0:
401,285,35945,1,0,1:0:0:0:
390,269,36014,2,0,P|351:291|310:303,1,69.9999978637696,2|0,1:2|0:0,0:0:0:0:
207,116,36221,6,0,P|230:206|334:200,1,200,4|0,3:2|3:0,0:0:0:0:
322,128,36738,1,0,1:0:0:0:
303,127,36842,2,0,P|290:92|280:56,1,75.0000028610231,2|0,1:2|3:0,0:0:0:0:
117,11,37049,6,0,P|29:10|4:93,1,187.5,2|0,1:2|1:0,0:0:0:0:
95,94,37463,1,0,1:0:0:0:
144,109,37566,1,8,1:3:0:0:
170,154,37670,1,2,1:2:0:0:
164,205,37773,1,0,1:0:0:0:
126,241,37876,2,0,P|96:258|53:258,1,75.0000028610231,2|0,3:2|0:0,0:0:0:0:
5,181,38083,2,0,P|96:212|222:258,1,225.000008583069,4|0,3:2|0:0,0:0:0:0:
334,357,38497,5,2,1:2:0:0:
317,360,38601,2,0,P|282:356|273:322,1,75.0000028610231,2|0,0:0|0:0,0:0:0:0:
278,169,38807,2,0,P|289:200|302:244,1,75.0000028610231,2|0,1:2|0:0,0:0:0:0:
497,285,39014,1,0,1:0:0:0:
512,335,39118,1,2,3:2:0:0:
482,378,39221,1,2,0:0:0:0:
429,370,39325,2,0,P|408:306|380:211,1,150.000005722046,2|2,1:2|0:0,0:0:0:0:
496,145,39635,1,2,0:0:0:0:
502,160,39738,2,0,P|497:199|461:205,2,75.0000028610231,2|2|2,3:2|0:0|0:0,0:0:0:0:
232,0,40152,5,2,1:2:0:0:
225,13,40256,2,0,P|239:49|292:47,1,75.0000028610231,2|0,0:0|0:0,0:0:0:0:
384,226,40463,2,0,P|361:143|293:136,1,150.000005722046,2|0,1:2|1:0,0:0:0:0:
223,133,40773,2,0,P|211:169|197:216,1,75.0000028610231,2|0,3:2|0:0,0:0:0:0:
195,321,40980,1,2,1:2:0:0:
245,341,41083,1,2,0:0:0:0:
296,320,41187,1,2,0:0:0:0:
316,269,41290,1,2,0:0:0:0:
294,219,41394,6,0,P|196:241|59:275,1,225.000008583069,4|0,3:2|0:0,0:0:0:0:
87,257,41807,1,0,1:0:0:0:
0,15,42014,1,2,0:0:0:0:
15,23,42118,2,0,B|53:43|24:48|73:69,1,75.0000028610231,0|0,1:0|0:0,0:0:0:0:
151,120,42325,1,0,1:0:0:0:
138,128,42428,2,0,B|93:140|126:160|57:181,1,75.0000028610231,2|0,3:2|0:0,0:0:0:0:
98,341,42635,2,0,B|65:244|44:310|9:225,1,150.000005722046,2|0,1:2|3:0,0:0:0:0:
199,253,42945,1,0,1:0:0:0:
168,295,43049,1,2,3:2:0:0:
182,345,43152,1,2,0:0:0:0:
231,362,43256,2,0,P|272:346|316:345,1,75.0000028610231,2|0,3:2|0:0,0:0:0:0:
450,324,43463,1,2,1:2:0:0:
450,324,43670,5,2,0:0:0:0:
430,243,43773,2,0,P|407:312|380:384,1,150.000005722046,2|0,1:2|1:0,0:0:0:0:
304,212,44083,2,0,P|310:251|354:262,1,75.0000028610231,2|0,3:2|0:0,0:0:0:0:
494,186,44290,1,2,1:2:0:0:
512,134,44394,1,2,0:0:0:0:
496,81,44497,1,2,0:0:0:0:
452,48,44601,1,2,0:0:0:0:
396,49,44704,1,4,3:2:0:0:
396,49,45118,6,0,P|385:110|279:83,1,150.000005722046,2|2,1:2|0:0,0:0:0:0:
116,173,45428,2,0,P|127:137|142:103,1,75.0000028610231,0|2,1:0|0:0,0:0:0:0:
246,0,45635,1,0,1:0:0:0:
256,12,45738,2,0,P|241:45|227:89,1,75.0000028610231,2|2,3:2|0:0,0:0:0:0:
175,239,45945,2,0,P|159:278|146:332,1,75.0000028610231,2|0,1:2|0:0,0:0:0:0:
33,126,46152,1,2,0:0:0:0:
55,78,46256,1,2,0:0:0:0:
0,84,46359,6,0,P|109:130|221:166,1,225.000008583069,2|0,3:2|0:0,0:0:0:0:
86,247,46773,2,0,P|42:227|58:187,1,75.0000028610231,2|0,1:2|0:0,0:0:0:0:
158,294,46980,1,2,0:0:0:0:
77,340,47083,2,0,P|137:370|163:308,1,150.000005722046,0|0,1:0|1:0,0:0:0:0:
210,163,47394,2,0,P|170:192|179:228,1,75.0000028610231,2|0,3:2|0:0,0:0:0:0:
466,379,47601,5,2,1:2:0:0:
486,299,47704,1,2,1:2:0:0:
438,231,47807,1,2,1:2:0:0:
355,232,47911,1,2,1:2:0:0:
306,162,48014,6,0,B|289:141|282:115|282:115|326:91|347:42|311:0,1,179.999994506836,4|2,3:2|0:0,0:0:0:0:
210,163,48325,1,2,0:0:0:0:
201,194,48428,2,0,P|212:229|275:217,1,89.9999972534181,2|0,1:2|0:0,0:0:0:0:
384,125,48635,6,0,P|258:160|63:215,1,300,4|0,3:2|1:0,0:0:0:0:
8,0,49049,1,8,1:3:0:0:
45,27,49152,1,0,1:0:0:0:
21,66,49256,2,0,P|16:117|67:131,1,100,2|0,1:2|0:0,0:0:0:0:
74,328,49463,6,0,P|-1:301|32:204,1,179.999994506836,4|0,3:2|0:0,0:0:0:0:
219,307,49876,2,0,P|202:348|159:351,1,89.9999972534181,2|0,3:2|0:0,0:0:0:0:
194,83,50083,1,2,1:2:0:0:
138,270,50290,6,0,P|164:183|189:97,1,179.999994506836,4|0,3:2|1:0,0:0:0:0:
45,27,50601,1,0,1:0:0:0:
36,58,50704,2,0,B|98:80|39:94|119:122,1,89.9999972534181,8|0,3:0|3:0,0:0:0:0:
310,312,50911,1,8,3:0:0:0:
352,243,51014,1,8,3:0:0:0:
330,164,51118,1,4,3:0:0:0:
252,142,51221,1,4,3:0:0:0:
246,155,51325,6,0,P|164:181|69:216,1,179.999994506836,4|0,3:2|0:0,0:0:0:0:
301,88,51945,1,2,3:2:0:0:
129,32,52152,1,4,1:2:0:0:
315,96,52359,2,0,P|383:83|377:12,2,150.000005722046,2|2|0,3:2|3:2|1:0,0:0:0:0:
457,200,53601,6,0,L|441:244,1,37.5000014305115,2|2,0:3|0:3,0:0:0:0:
484,355,53807,2,0,P|409:330|410:284,2,112.500004291535,2|2|2,1:3|0:0|3:2,0:0:0:0:
455,241,54635,2,0,P|446:329|308:339,1,225.000008583069,2|0,0:0|3:0,0:0:0:0:
200,237,55463,1,2,1:2:0:0:
237,367,55670,2,0,P|246:330|258:295,1,75.0000028610231,0|0,3:0|0:0,0:0:0:0:
339,269,56083,1,0,3:0:0:0:
339,269,56497,6,0,P|409:251|474:233,1,125,2|2,1:2|0:3,0:0:0:0:
467,247,56807,1,2,0:3:0:0:
474,256,56911,2,0,P|464:285|455:315,1,62.5,2|0,3:0|0:0,0:0:0:0:
416,166,57118,2,0,P|433:98|456:38,1,125,2|2,1:2|0:0,0:0:0:0:
445,33,57428,1,2,0:0:0:0:
438,20,57532,1,2,0:0:0:0:
459,237,57738,1,2,3:2:0:0:
362,62,57945,6,0,P|271:50|239:144,1,179.999994506836,4|0,3:2|0:0,0:0:0:0:
235,202,58566,1,2,3:2:0:0:
77,84,58773,1,2,1:2:0:0:
248,213,58980,2,0,P|233:253|221:307,1,89.9999972534181,2|2,3:2|0:0,0:0:0:0:
64,352,59394,2,0,P|94:247|166:262,1,179.999994506836,2|0,3:2|1:0,0:0:0:0:
307,317,60014,6,0,P|225:312|151:347,1,165.000005035401,2|0,3:2|0:0,0:0:0:0:
247,283,60428,2,0,P|270:311|306:316,1,75.0000028610231,2|0,1:2|0:0,0:0:0:0:
438,373,60635,2,0,P|503:319|488:243,1,150.000005722046,2|0,1:2|0:0,0:0:0:0:
438,373,61049,2,0,P|394:351|404:302,1,87.500000834465,2|0,3:2|0:0,0:0:0:0:
499,146,61256,6,0,P|488:216|420:239,1,150.000005722046,4|0,3:2|0:0,0:0:0:0:
432,88,61566,1,2,0:0:0:0:
439,74,61670,2,0,P|484:68|528:54,1,75.0000028610231,2|0,1:2|0:0,0:0:0:0:
393,317,61876,2,0,P|271:284|300:173,1,225.000008583069,2|0,3:2|0:0,0:0:0:0:
368,119,62290,2,0,P|359:153|350:202,1,75.0000028610231,2|0,3:2|0:0,0:0:0:0:
340,38,62497,1,0,1:0:0:0:
180,177,62704,6,0,P|343:130|339:17,1,300.000011444092,4|0,3:2|1:0,0:0:0:0:
263,19,63187,1,0,1:0:0:0:
265,31,63256,1,0,1:0:0:0:
258,39,63325,2,0,P|216:37|172:18,1,75.0000028610231,2|0,1:2|0:0,0:0:0:0:
60,19,63532,6,0,P|62:70|150:95,1,150.000005722046,2|0,3:2|3:0,0:0:0:0:
224,204,63842,1,0,1:0:0:0:
204,195,63945,2,0,P|210:158|224:123,1,75.0000028610231,0|0,1:0|0:0,0:0:0:0:
0,174,64152,1,0,1:0:0:0:
18,254,64256,1,0,1:0:0:0:
87,298,64359,1,0,1:0:0:0:
165,271,64463,1,0,1:0:0:0:
234,312,64566,6,0,B|257:325|285:322|285:322|312:267|398:224|456:259,1,225.000008583069,4|0,3:2|0:0,0:0:0:0:
415,234,64980,1,2,1:2:0:0:
431,48,65187,1,2,0:0:0:0:
472,21,65290,2,0,P|459:57|448:102,1,75.0000028610231,2|0,3:2|0:0,0:0:0:0:
330,140,65497,1,0,1:0:0:0:
344,181,65601,2,0,P|356:138|370:99,1,75.0000028610231,2|0,3:2|0:0,0:0:0:0:
497,282,65807,2,0,P|485:351|415:360,1,150.000005722046,2|2,1:2|0:0,0:0:0:0:
294,250,66118,1,0,1:0:0:0:
359,299,66221,6,0,B|333:277|313:243|313:243|332:187|316:126|222:90,1,225.000008583069,2|0,3:2|0:0,0:0:0:0:
279,102,66635,1,2,1:2:0:0:
94,288,66842,1,2,0:0:0:0:
67,329,66945,2,0,P|103:316|148:305,1,75.0000028610231,2|0,3:2|0:0,0:0:0:0:
186,187,67152,1,0,1:0:0:0:
227,201,67256,2,0,P|184:213|145:227,1,75.0000028610231,2|0,3:2|0:0,0:0:0:0:
33,0,67463,2,0,P|45:68|115:77,1,150.000005722046,2|2,1:2|0:0,0:0:0:0:
105,65,67773,1,0,1:0:0:0:
28,149,67876,6,0,B|27:144|5:140|5:140|25:63|134:13|194:39,1,262.500002503395,4|0,3:2|0:0,0:0:0:0:
280,91,68290,2,0,P|377:84|395:18,1,160,2|0,1:2|0:0,0:0:0:0:
202,126,68601,1,0,1:0:0:0:
278,3,68704,2,0,P|241:148|214:263,1,240,2|0,3:2|0:0,0:0:0:0:
115,349,69118,2,0,P|125:304|137:247,1,80,2|0,1:2|0:0,0:0:0:0:
309,215,69325,1,2,0:0:0:0:
364,271,69428,1,2,0:0:0:0:
288,294,69532,6,0,P|176:266|53:242,1,240,2|0,3:2|0:0,0:0:0:0:
351,349,69945,2,0,P|498:291|470:187,1,240,2|0,1:2|3:0,0:0:0:0:
472,34,70359,1,2,1:2:0:0:
441,46,70463,2,0,P|427:87|405:138,1,80,2|0,1:2|0:0,0:0:0:0:
498,233,70670,1,0,3:0:0:0:
497,144,70773,2,0,B|456:162|427:177|427:177|407:125|338:83|248:120,1,240,2|0,1:2|0:0,0:0:0:0:
152,42,71187,6,0,P|148:145|281:172,1,240,4|0,3:2|0:0,0:0:0:0:
406,352,71601,2,0,B|394:330|367:323|367:323|357:267|344:214,1,160,2|0,1:2|0:0,0:0:0:0:
245,344,71911,2,0,P|258:373|302:377,1,80,0|0,1:0|0:0,0:0:0:0:
481,239,72118,1,0,1:0:0:0:
512,281,72221,2,0,P|473:268|430:252,1,80,2|0,3:2|0:0,0:0:0:0:
165,384,72428,1,2,1:2:0:0:
87,363,72532,1,0,1:0:0:0:
61,287,72635,1,0,1:0:0:0:
109,223,72738,1,0,1:0:0:0:
77,147,72842,6,0,B|84:115|104:82|104:82|163:104|234:53|217:0,1,240,2|0,3:2|0:0,0:0:0:0:
18,68,73256,2,0,P|121:113|253:150,1,240,2|0,1:2|1:0,0:0:0:0:
333,54,73670,1,2,3:2:0:0:
364,98,73773,2,0,P|324:90|287:75,1,80,2|0,1:2|0:0,0:0:0:0:
410,175,73980,1,2,3:2:0:0:
365,253,74083,2,0,P|475:239|484:128,1,240,2|0,1:2|0:0,0:0:0:0:
281,230,74497,5,4,3:2:0:0:
205,258,74601,1,0,1:0:0:0:
128,234,74704,1,0,1:0:0:0:
90,163,74807,1,0,1:0:0:0:
99,83,74911,2,0,B|148:74|114:56|168:46,1,80,2|0,1:2|0:0,0:0:0:0:
327,90,75118,5,2,3:2:0:0:
260,30,75221,2,0,P|249:64|230:114,1,80,2|0,1:2|0:0,0:0:0:0:
36,249,75428,1,0,1:2:0:0:
102,309,75532,2,0,P|111:272|127:234,1,80,2|0,3:2|0:0,0:0:0:0:
370,217,75738,5,2,1:2:0:0:
370,295,75842,1,2,1:2:0:0:
324,359,75945,1,2,1:2:0:0:
249,381,76049,1,2,1:2:0:0:
175,355,76152,1,4,3:1:0:0:
175,355,77187,6,0,B|160:326|197:277|236:279|236:279|223:314|264:318,1,150.000005722046,2|2,0:0|0:3,0:0:0:0:
260,317,77704,1,2,0:3:0:0:
338,280,77807,6,0,P|384:294|504:320,1,160,4|2,3:2|0:0,0:0:0:0:
469,221,78118,1,2,0:0:0:0:
472,234,78222,2,0,P|449:273|402:270,1,80,2|0,1:2|0:0,0:0:0:0:
384,100,78428,1,2,0:0:0:0:
397,187,78532,2,0,P|424:104|458:27,1,160,0|0,1:0|1:0,0:0:0:0:
299,93,78842,2,0,P|293:131|319:159,1,80,2|0,3:2|0:0,0:0:0:0:
370,358,79049,2,0,P|261:336|266:226,1,240,0|0,1:2|0:0,0:0:0:0:
360,342,79463,6,0,P|311:353|193:387,1,160,2|0,3:2|0:0,0:0:0:0:
45,348,79773,1,2,0:0:0:0:
54,362,79876,2,0,P|96:352|130:340,1,80,2|0,1:2|0:0,0:0:0:0:
266,226,80083,1,2,0:0:0:0:
199,284,80187,2,0,P|188:245|176:207,1,80,0|0,1:0|0:0,0:0:0:0:
7,168,80394,1,0,1:0:0:0:
74,110,80497,2,0,P|86:151|97:192,1,80,2|0,3:2|0:0,0:0:0:0:
288,0,80704,2,0,P|274:108|162:119,1,240,2|0,1:2|0:0,0:0:0:0:
276,12,81118,6,0,P|316:84|411:53,1,160,2|0,3:2|0:0,0:0:0:0:
504,74,81428,1,2,0:0:0:0:
510,88,81532,2,0,P|487:127|440:124,1,80,2|0,1:2|0:0,0:0:0:0:
373,251,81738,1,2,0:0:0:0:
434,315,81842,2,0,P|406:232|373:155,1,160,0|0,1:0|1:0,0:0:0:0:
297,292,82152,2,0,P|313:326|351:332,1,80,2|0,3:2|0:0,0:0:0:0:
455,131,82359,2,0,P|448:221|369:251,1,179.999994506836,0|0,1:2|0:0,0:0:0:0:
310,110,82670,1,0,1:0:0:0:
377,165,82773,6,0,B|363:168|343:178|343:178|313:120|221:73|148:120,1,240,4|2,3:2|0:0,0:0:0:0:
99,60,83187,1,0,1:0:0:0:
99,60,83394,2,0,P|57:105|93:147,1,80,2|0,0:0|0:0,0:0:0:0:
148,325,83601,1,2,3:2:0:0:
90,337,83704,1,0,1:0:0:0:
39,308,83807,1,2,3:2:0:0:
21,252,83911,1,2,3:2:0:0:
46,199,84014,2,0,P|78:227|129:210,1,80,2|0,1:2|0:0,0:0:0:0:
241,219,84221,1,2,0:0:0:0:
256,139,84325,1,2,0:0:0:0:
168,109,84428,6,0,P|197:209|234:348,1,240,4|0,3:2|0:0,0:0:0:0:
421,365,84842,2,0,P|385:297|309:290,1,160,2|0,1:2|0:0,0:0:0:0:
323,199,85152,2,0,P|369:188|401:172,1,80,0|0,1:0|0:0,0:0:0:0:
431,0,85359,1,0,1:0:0:0:
499,58,85463,2,0,P|458:77|417:90,1,80,2|0,3:2|0:0,0:0:0:0:
239,18,85670,2,0,P|313:30|334:103,1,160,2|0,1:2|0:0,0:0:0:0:
256,141,85980,1,2,0:0:0:0:
397,172,86083,6,0,P|287:134|168:103,1,240,2|0,3:2|0:0,0:0:0:0:
10,91,86497,2,0,P|36:25|131:36,1,160,2|0,1:2|0:0,0:0:0:0:
86,143,86807,1,0,1:0:0:0:
73,189,86911,1,2,3:2:0:0:
106,223,87014,2,0,P|91:277|53:307,1,80,0|0,1:0|0:0,0:0:0:0:
168,362,87221,1,0,1:0:0:0:
180,369,87325,1,2,1:2:0:0:
235,368,87428,1,0,1:0:0:0:
274,327,87532,1,0,3:0:0:0:
267,271,87635,1,0,3:0:0:0:
196,218,87738,6,0,B|226:226|241:245|241:245|293:238|331:197|337:133,1,179.999994506836,4|2,3:2|0:0,0:0:0:0:
235,18,88049,1,2,0:0:0:0:
328,0,88152,2,0,P|315:43|297:84,1,89.9999972534181,2|0,1:2|0:0,0:0:0:0:
343,307,88359,5,0,1:0:0:0:
423,295,88463,1,0,1:0:0:0:
471,230,88566,1,2,1:2:0:0:
458,149,88670,1,2,1:2:0:0:
395,97,88773,2,0,P|411:48|432:-1,1,89.9999972534181,8|0,1:3|0:0,0:0:0:0:
195,217,88980,2,0,P|216:255|259:262,1,89.9999972534181,2|0,1:2|0:0,0:0:0:0:
481,76,89187,6,0,P|331:62|273:206,1,300,4|0,3:2|0:0,0:0:0:0:
339,223,89601,2,0,P|374:196|360:189,1,89.9999972534181,2|0,3:2|0:0,0:0:0:0:
180,0,89807,5,0,1:0:0:0:
215,73,89911,1,0,1:0:0:0:
170,140,90014,1,0,1:0:0:0:
89,151,90118,1,0,1:0:0:0:
36,212,90221,2,0,B|12:264|54:251|17:301,1,89.9999972534181,2|0,3:2|1:0,0:0:0:0:
125,384,90428,5,2,3:2:0:0:
204,365,90532,1,0,1:0:0:0:
237,291,90635,1,0,1:0:0:0:
199,219,90738,1,0,1:0:0:0:
270,179,90842,5,0,1:0:0:0:
285,181,90911,5,0,1:0:0:0:
294,190,90980,5,0,1:0:0:0:
300,205,91049,6,0,P|332:129|371:40,1,160,4|2,3:2|0:0,0:0:0:0:
280,36,91359,1,2,0:0:0:0:
277,49,91463,2,0,P|279:91|330:103,1,80,2|0,1:2|0:0,0:0:0:0:
484,99,91670,1,2,0:0:0:0:
413,161,91773,2,0,P|441:86|471:12,1,160,0|0,1:0|1:0,0:0:0:0:
493,184,92083,2,0,P|521:210|512:247,1,80,2|0,3:2|0:0,0:0:0:0:
278,346,92290,2,0,P|388:354|421:248,1,240,0|0,1:2|0:0,0:0:0:0:
287,331,92704,6,0,P|207:305|132:290,1,160,2|0,3:2|0:0,0:0:0:0:
20,300,93014,1,2,0:0:0:0:
17,285,93118,2,0,P|41:237|84:250,1,80,2|0,1:2|0:0,0:0:0:0:
287,331,93325,1,2,0:0:0:0:
197,349,93428,2,0,P|209:311|220:273,1,80,0|0,1:0|0:0,0:0:0:0:
87,150,93635,1,0,1:0:0:0:
175,131,93738,2,0,P|165:169|154:207,1,80,2|0,3:2|0:0,0:0:0:0:
56,0,93945,2,0,P|70:108|183:115,1,240,2|0,1:2|0:0,0:0:0:0:
294,46,94359,6,0,P|220:33|188:101,1,160,2|0,3:2|0:0,0:0:0:0:
323,120,94670,1,2,0:0:0:0:
310,129,94773,2,0,P|287:160|243:159,1,80,2|0,1:2|0:0,0:0:0:0:
432,71,94980,1,2,0:0:0:0:
381,0,95083,2,0,B|373:34|373:34|399:91|433:129|433:129|415:171,1,189.999994926453,0|0,1:0|1:0,0:0:0:0:
362,279,95394,2,0,P|330:248|355:205,1,80,2|0,3:2|0:0,0:0:0:0:
512,295,95601,2,0,P|495:353|402:347,1,160,0|0,1:2|0:0,0:0:0:0:
510,151,95911,1,0,1:0:0:0:
469,224,96014,6,0,B|462:202|437:190|437:190|507:155|547:78|493:-11,1,240,4|2,3:2|0:0,0:0:0:0:
345,205,96428,2,0,P|246:193|209:112,1,160,2|2,1:2|0:0,0:0:0:0:
181,13,96738,2,0,P|217:27|227:64,1,80,0|0,1:0|0:0,0:0:0:0:
97,204,96945,1,0,1:0:0:0:
57,176,97049,1,0,3:0:0:0:
81,134,97152,1,0,3:0:0:0:
154,90,97256,2,0,P|186:232|212:349,1,240,2|0,1:2|0:0,0:0:0:0:
49,332,97670,6,0,P|86:264|163:254,1,160,4|0,3:2|0:0,0:0:0:0:
243,269,97980,2,0,P|240:308|206:324,1,80,2|0,0:0|1:0,0:0:0:0:
223,191,98187,1,2,0:0:0:0:
238,182,98290,2,0,P|253:136|267:93,1,80,2|0,0:0|1:0,0:0:0:0:
80,2,98497,6,0,P|98:72|194:79,1,160,2|0,3:2|0:0,0:0:0:0:
219,23,98807,2,0,P|184:38|181:77,1,80,2|0,0:0|1:0,0:0:0:0:
309,224,99014,1,2,0:0:0:0:
318,239,99118,2,0,P|364:254|407:268,1,80,2|0,0:0|1:0,0:0:0:0:
90,374,99325,6,0,P|124:267|236:266,1,240,4|0,3:2|0:0,0:0:0:0:
366,166,99738,2,0,P|335:240|310:316,1,160,2|0,1:2|0:0,0:0:0:0:
317,94,100049,2,0,P|331:56|344:18,1,80,0|0,1:0|0:0,0:0:0:0:
440,197,100256,1,0,1:0:0:0:
451,207,100359,2,0,P|506:186|513:146,1,80,2|0,3:2|0:0,0:0:0:0:
234,73,100566,2,0,P|157:77|126:147,1,160,2|2,1:2|1:2,0:0:0:0:
174,224,100876,1,0,1:0:0:0:
29,147,100980,6,0,P|153:184|279:229,1,240,4|0,3:2|0:0,0:0:0:0:
139,295,101394,2,0,P|100:285|103:236,1,80,2|0,1:2|0:0,0:0:0:0:
233,305,101601,1,2,3:2:0:0:
154,372,101704,2,0,P|242:357|247:288,1,160,0|0,1:0|1:0,0:0:0:0:
74,357,102014,6,0,P|37:371|0:384,1,80,2|0,3:2|0:0,0:0:0:0:
328,271,102221,2,0,P|365:256|403:243,1,80,2|0,1:2|0:0,0:0:0:0:
157,79,102428,6,0,B|146:99|120:106|120:106|101:186|179:258|257:219,1,269.999991760254,4|0,3:2|0:0,0:0:0:0:
358,100,102842,2,0,P|346:138|337:177,1,80,2|0,3:2|0:0,0:0:0:0:
453,325,103049,2,0,B|448:326|434:340|434:340|412:296|359:269|323:275,1,160,2|0,1:2|0:0,0:0:0:0:
243,308,103359,1,0,1:0:0:0:
203,335,103463,1,0,3:0:0:0:
156,328,103566,1,0,3:0:0:0:
127,287,103670,2,0,P|140:251|153:201,1,80,2|0,3:2|0:0,0:0:0:0:
20,0,103876,5,2,1:2:0:0:
0,77,103980,1,0,1:0:0:0:
58,131,104083,1,0,1:0:0:0:
133,102,104187,1,0,1:0:0:0:
208,140,104290,6,0,B|234:145|243:157|243:157|306:136|398:120,1,179.999994506836,4|2,3:2|0:0,0:0:0:0:
512,126,104601,1,2,0:0:0:0:
448,68,104704,2,0,P|441:25|485:0,1,89.9999972534181,2|0,1:2|0:0,0:0:0:0:
303,164,104911,6,0,P|304:256|395:272,1,200,4|2,3:2|0:0,0:0:0:0:
426,384,105221,1,0,1:0:0:0:
476,310,105325,2,0,P|509:275|494:230,1,100,2|0,3:2|0:0,0:0:0:0:
346,14,105532,6,0,B|336:37|336:37|389:70|389:70|414:132|422:193,1,209.999993591309,2|0,1:2|1:0,0:0:0:0:
421,188,105945,2,0,P|378:174|385:120,1,89.9999972534181,4|2,3:2|0:0,0:0:0:0:
248,0,106152,5,2,1:2:0:0:
167,14,106256,1,0,1:0:0:0:
118,78,106359,1,2,1:2:0:0:
135,157,106463,1,0,1:0:0:0:
203,209,106566,6,0,B|234:214|252:230|252:230|242:293|309:340|375:302,1,200,4|0,3:2|1:0,0:0:0:0:
432,337,106876,1,0,1:0:0:0:
343,296,106980,2,0,P|296:313|249:332,1,100,2|0,1:2|1:0,0:0:0:0:
27,384,107187,5,2,1:2:0:0:
106,380,107290,1,0,1:0:0:0:
155,316,107394,1,2,1:2:0:0:
125,242,107497,1,0,1:0:0:0:
203,209,107601,6,0,B|217:194|236:182|236:182|221:122|276:63,1,160,4|2,3:2|0:0,0:0:0:0:
158,0,107911,1,2,0:0:0:0:
144,5,108014,2,0,P|150:47|198:62,1,80,2|0,1:2|0:0,0:0:0:0:
320,144,108221,2,0,P|425:119|505:106,1,160,2|0,0:0|0:0,0:0:0:0:
430,44,108532,1,0,1:0:0:0:
416,38,108635,2,0,P|382:65|386:101,1,80,2|0,3:2|0:0,0:0:0:0:
467,339,108842,1,2,1:2:0:0:
512,273,108945,1,2,0:0:0:0:
475,201,109049,1,2,0:0:0:0:
395,202,109152,1,2,0:0:0:0:
344,264,109256,6,0,B|339:274|336:291|336:291|267:287|187:328,1,160,2|2,3:2|0:0,0:0:0:0:
98,324,109566,1,2,0:0:0:0:
92,340,109670,2,0,P|112:375|150:382,1,80,2|0,1:2|0:0,0:0:0:0:
205,198,109876,1,2,0:0:0:0:
141,263,109980,2,0,P|172:172|203:92,1,160,2|0,1:2|1:0,0:0:0:0:
136,52,110290,2,0,P|106:76|110:119,1,80,2|0,3:2|0:0,0:0:0:0:
208,317,110497,2,0,P|317:294|326:183,1,240,2|0,1:2|0:0,0:0:0:0:
448,119,110911,6,0,B|425:136|399:137|399:137|381:103|339:84|280:105,1,160,2|2,3:2|0:0,0:0:0:0:
415,24,111221,1,2,0:0:0:0:
423,40,111325,2,0,P|461:35|485:4,1,80,2|0,1:2|0:0,0:0:0:0:
371,242,111532,1,2,0:0:0:0:
356,246,111635,2,0,P|324:213|339:159,1,80,2|0,1:2|0:0,0:0:0:0:
512,252,111842,1,0,1:0:0:0:
504,329,111945,1,2,3:2:0:0:
435,365,112049,1,0,1:0:0:0:
363,331,112152,2,0,B|339:330|317:318|317:318|276:383|191:366,1,160,2|2,1:2|0:0,0:0:0:0:
118,295,112463,1,0,1:0:0:0:
128,384,112566,6,0,P|155:308|188:235,1,160,2|0,3:2|0:0,0:0:0:0:
89,142,112876,2,0,P|81:179|106:209,1,80,2|0,0:0|1:0,0:0:0:0:
278,89,113083,1,0,1:0:0:0:
248,51,113187,1,2,3:2:0:0:
204,71,113290,2,0,P|190:107|175:144,1,80,0|0,1:0|0:0,0:0:0:0:
47,366,113497,1,0,1:0:0:0:
31,334,113601,2,0,P|52:290|99:299,1,80,2|0,3:2|0:0,0:0:0:0:
283,315,113807,2,0,P|213:336|110:371,1,160,2|2,1:2|0:0,0:0:0:0:
307,235,114118,1,2,0:0:0:0:
222,243,114221,6,0,P|274:356|391:330,1,240,4|0,3:2|0:0,0:0:0:0:
502,232,114635,2,0,P|475:307|455:384,1,160,2|0,1:2|0:0,0:0:0:0:
444,167,114945,2,0,P|437:129|401:115,1,80,0|0,1:0|0:0,0:0:0:0:
405,245,115152,1,0,1:0:0:0:
418,277,115256,2,0,P|459:297|520:307,1,80,2|0,3:2|0:0,0:0:0:0:
312,384,115463,2,0,P|328:335|341:289,1,80,2|0,1:2|0:0,0:0:0:0:
192,150,115670,6,0,P|262:177|264:253,1,160,2|0,3:2|3:0,0:0:0:0:
226,339,115980,1,2,0:0:0:0:
179,329,116083,1,2,0:0:0:0:
159,284,116187,1,2,0:0:0:0:
182,236,116290,2,0,P|105:259|7:282,1,160,2|0,1:2|0:0,0:0:0:0:
37,183,116601,2,0,P|74:191|90:226,1,80,0|0,1:0|0:0,0:0:0:0:
169,152,116807,1,0,1:0:0:0:
142,128,116911,2,0,P|161:76|179:34,1,80,2|0,3:2|0:0,0:0:0:0:
418,86,117118,1,2,1:2:0:0:
396,162,117221,1,0,1:0:0:0:
327,204,117325,1,0,1:0:0:0:
249,185,117428,1,0,1:0:0:0:
180,235,117532,6,0,B|173:265|153:291|153:291|205:307|233:349|205:402,1,179.999994506836,4|2,3:2|0:0,0:0:0:0:
46,278,117842,1,2,0:0:0:0:
0,290,117945,2,0,P|41:306|102:318,1,80,2|0,1:2|1:0,0:0:0:0:
337,384,118152,5,2,3:2:0:0:
404,341,118256,1,0,3:0:0:0:
341,292,118359,2,0,P|299:280|256:264,1,80,2|0,1:2|1:0,0:0:0:0:
105,56,118566,5,2,3:2:0:0:
181,30,118670,1,0,1:0:0:0:
251,67,118773,1,2,1:2:0:0:
255,146,118876,1,0,1:0:0:0:
193,215,118980,6,0,B|235:221|235:221|272:246|272:246|317:209|322:215|322:215|372:179|372:179|380:195|380:195|403:234|468:226,1,300,4|0,3:2|0:0,0:0:0:0:
505,84,119394,2,0,P|480:142|433:135,1,100,2|0,3:2|0:0,0:0:0:0:
346,377,119601,5,2,1:2:0:0:
275,342,119704,1,2,1:2:0:0:
258,264,119807,1,8,3:0:0:0:
297,193,119911,1,4,3:0:0:0:
256,124,120014,5,0,1:0:0:0:
240,123,120083,5,0,1:0:0:0:
228,131,120152,5,0,1:0:0:0:
227,147,120221,6,0,P|202:188|130:172,1,100,2|0,1:2|1:0,0:0:0:0:
298,0,120428,5,2,1:2:0:0:
380,17,120532,1,0,1:0:0:0:
414,93,120635,1,0,1:0:0:0:
375,166,120738,1,0,1:0:0:0:
435,229,120842,6,0,B|464:223|480:204|480:204|470:175|483:123|519:114,1,160,4|2,3:2|0:0,0:0:0:0:
397,307,121152,1,2,0:0:0:0:
378,310,121256,2,0,P|346:274|358:240,1,80,2|0,1:2|0:0,0:0:0:0:
469,330,121463,2,0,P|390:346|315:374,1,160,2|0,0:0|0:0,0:0:0:0:
232,354,121773,1,0,1:0:0:0:
215,360,121876,2,0,P|171:352|155:312,1,80,2|0,3:2|0:0,0:0:0:0:
0,158,122083,1,2,1:2:0:0:
19,236,122187,1,2,0:0:0:0:
90,270,122290,1,2,0:0:0:0:
165,243,122394,1,2,0:0:0:0:
203,169,122497,6,0,B|224:157|250:151|250:151|244:111|261:70|302:59,1,160,2|2,3:2|0:0,0:0:0:0:
186,40,122807,1,2,0:0:0:0:
174,51,122911,2,0,P|194:86|232:93,1,80,2|0,1:2|0:0,0:0:0:0:
426,77,123118,1,2,0:0:0:0:
362,12,123221,2,0,P|393:103|424:183,1,160,2|0,1:2|1:0,0:0:0:0:
454,271,123532,2,0,P|487:244|485:206,1,80,2|0,3:2|0:0,0:0:0:0:
301,220,123738,2,0,P|310:332|419:354,1,240,2|0,1:2|0:0,0:0:0:0:
330,294,124152,6,0,B|307:311|281:312|281:312|263:278|221:259|162:280,1,160,2|2,3:2|0:0,0:0:0:0:
137,355,124463,1,2,0:0:0:0:
142,370,124566,2,0,P|186:373|210:349,1,80,2|0,1:2|0:0,0:0:0:0:
252,163,124773,1,2,0:0:0:0:
268,155,124876,2,0,P|297:179|293:233,1,80,2|0,1:2|0:0,0:0:0:0:
61,362,125083,1,0,1:0:0:0:
0,308,125187,1,2,3:2:0:0:
14,229,125290,1,0,1:0:0:0:
88,199,125394,2,0,B|95:176|106:158|106:158|149:157|184:118|177:74,1,160,2|2,1:2|0:0,0:0:0:0:
88,199,125704,1,0,1:0:0:0:
33,102,125807,6,0,P|138:142|199:166,1,160,2|0,3:2|0:0,0:0:0:0:
256,262,126118,2,0,P|217:265|189:238,1,80,2|0,0:0|1:0,0:0:0:0:
241,36,126325,1,0,1:0:0:0:
274,1,126428,1,2,3:2:0:0:
316,25,126532,2,0,P|326:63|338:101,1,80,0|0,1:0|0:0,0:0:0:0:
372,268,126738,1,0,1:0:0:0:
336,257,126842,2,0,P|324:228|307:179,1,80,2|0,3:2|0:0,0:0:0:0:
512,42,127049,2,0,P|502:154|387:159,1,240,2|0,1:2|0:0,0:0:0:0:
284,322,127463,6,0,B|300:299|300:299|373:279|468:250,1,179.999994506836,4|2,3:2|0:0,0:0:0:0:
220,384,127773,1,2,0:0:0:0:
139,352,127876,2,0,P|94:361|50:373,1,89.9999972534181,2|0,1:2|0:0,0:0:0:0:
0,173,128083,6,0,B|-19:240|33:282|97:274|97:274|112:258|127:250,1,200,4|2,3:2|0:0,0:0:0:0:
76,125,128394,1,2,1:2:0:0:
0,81,128497,2,0,P|-2:28|56:6,1,100,2|0,3:2|0:0,0:0:0:0:
313,0,128704,6,0,P|213:23|96:49,1,209.999993591309,2|0,1:2|0:0,0:0:0:0:
191,55,129118,6,0,B|210:54|224:45|224:45|288:53|308:123|256:169,1,179.999994506836,4|2,3:2|0:0,0:0:0:0:
394,276,129428,1,2,0:0:0:0:
413,193,129532,2,0,P|405:147|362:134,1,89.9999972534181,2|0,1:2|0:0,0:0:0:0:
229,373,129738,6,0,B|246:366|272:363|272:363|301:291|332:219,1,200,4|0,3:2|0:0,0:0:0:0:
331,219,130049,2,0,P|281:233|283:285,1,100,0|2,1:0|0:0,0:0:0:0:
133,368,130256,1,2,0:0:0:0:
124,384,130359,1,2,1:2:0:0:
63,325,130463,1,2,1:2:0:0:
60,241,130566,1,2,1:2:0:0:
119,182,130669,1,2,1:2:0:0:
202,173,130773,1,4,3:1:0:0:
256,192,130876,12,0,134911,0:0:0:0:
