osu file format v14

[General]
AudioFilename: audio.mp3
AudioLeadIn: 0
PreviewTime: 66440
Countdown: 0
SampleSet: Soft
StackLeniency: 0.3
Mode: 0
LetterboxInBreaks: 0
WidescreenStoryboard: 1

[Editor]
Bookmarks: 11026,21349,31672,41994,52317,62639,67801,78123,88446,98768
DistanceSpacing: 0.5
BeatDivisor: 4
GridSize: 32
TimelineZoom: 1.1

[Metadata]
Title:Vigrid
TitleUnicode:ヴィグリード
Artist:Sakakibara Yui
ArtistUnicode:榊原ゆい
Creator:Dored
Version:Silored's Domination
Source:BLADE×BULLET 金輪のソレイユ
Tags:Kinrin no Soleil BLADEXBULLET Japanese Pop Jpop J-pop Rock Jrock J-rock Eroge Galgame Visual Novel Video Game VN Opening op Short Ver Version SkyFish Manyo 真理絵 Marie Bellicose Yorita Yoshino -ClariS- Silky Kanau Mamayu fuyuyu- Shikibe Mayu Kazato Asa Shizuku- - Frontier - -_Frontier_- kanor SpokenAway
BeatmapID:2997810
BeatmapSetID:1458783

[Difficulty]
HPDrainRate:6
CircleSize:4
OverallDifficulty:9
ApproachRate:9.3
SliderMultiplier:1.7
SliderTickRate:1

[Events]
//Background and Video events
0,0,"Brynhildr.jpg",0,0
//Break Periods
//Storyboard Layer 0 (Background)
//Storyboard Layer 1 (Fail)
//Storyboard Layer 2 (Pass)
//Storyboard Layer 3 (Foreground)
//Storyboard Layer 4 (Overlay)
//Storyboard Sound Samples

[TimingPoints]
-586,322.58064516129,4,2,1,50,1,0
704,-125,4,2,1,50,0,0
5865,-111.111111111111,4,2,1,60,0,0
6107,-111.111111111111,4,2,1,5,0,0
6188,-111.111111111111,4,2,1,60,0,0
6752,-111.111111111111,4,2,1,5,0,0
6833,-111.111111111111,4,2,1,60,0,0
7397,-111.111111111111,4,2,1,5,0,0
7478,-111.111111111111,4,2,1,60,0,0
8043,-111.111111111111,4,2,1,5,0,0
8123,-111.111111111111,4,2,1,60,0,0
9736,-100,4,2,1,70,0,0
11026,-125,4,2,1,70,0,0
21349,-111.111111111111,4,2,1,60,0,0
26510,-99.9999999999999,4,2,1,70,0,0
29333,-99.9999999999999,4,2,1,5,0,0
29413,-99.9999999999999,4,2,1,70,0,0
30301,-99.9999999999999,4,2,1,5,0,0
30381,-99.9999999999999,4,2,1,70,0,0
31672,-125,4,2,1,50,0,0
41994,-111.111111111111,4,2,1,60,0,0
50946,-111.111111111111,4,2,1,5,0,0
51026,-111.111111111111,4,2,1,60,0,0
52317,-111.111111111111,4,2,1,70,0,0
57478,-111.111111111111,4,2,1,60,0,0
62317,-100,4,2,1,70,0,0
62639,-100,4,2,1,70,0,0
67801,-90.9090909090909,4,2,1,80,0,0
68043,-90.9090909090909,4,2,1,5,0,0
68123,-90.9090909090909,4,2,1,80,0,0
69333,-90.9090909090909,4,2,1,5,0,0
69413,-90.9090909090909,4,2,1,80,0,0
70623,-90.9090909090909,4,2,1,5,0,0
70704,-90.9090909090909,4,2,1,80,0,0
71026,-200,4,2,1,80,0,0
71268,-200,4,2,1,5,0,0
71349,-90.9090909090909,4,2,1,80,0,0
73204,-90.9090909090909,4,2,1,5,0,0
73284,-90.9090909090909,4,2,1,80,0,0
74333,-90.9090909090909,4,2,1,5,0,0
74413,-90.9090909090909,4,2,1,80,0,0
76349,-200,4,2,1,80,0,0
76591,-200,4,2,1,5,0,0
76672,-90.9090909090909,4,2,1,80,0,0
78365,-90.9090909090909,4,2,1,5,0,0
78446,-90.9090909090909,4,2,1,80,0,0
79655,-90.9090909090909,4,2,1,5,0,0
79736,-90.9090909090909,4,2,1,80,0,0
80946,-90.9090909090909,4,2,1,5,0,0
81026,-90.9090909090909,4,2,1,80,0,0
81349,-200,4,2,1,80,0,0
81591,-200,4,2,1,5,0,0
81672,-90.9090909090909,4,2,1,80,0,0
84655,-90.9090909090909,4,2,1,5,0,0
84736,-90.9090909090909,4,2,1,80,0,0
86591,-90.9090909090909,4,2,1,5,0,0
86672,-90.9090909090909,4,2,1,80,0,0
88688,-90.9090909090909,4,2,1,5,0,0
88768,-90.9090909090909,4,2,1,80,0,0
89978,-90.9090909090909,4,2,1,5,0,0
90059,-90.9090909090909,4,2,1,80,0,0
90704,-200,4,2,1,80,0,0
90946,-200,4,2,1,5,0,0
91026,-90.9090909090909,4,2,1,80,0,0
91268,-90.9090909090909,4,2,1,5,0,0
91349,-90.9090909090909,4,2,1,80,0,0
92881,-90.9090909090909,4,2,1,5,0,0
92962,-90.9090909090909,4,2,1,80,0,0
93607,-83.3333333333333,4,2,1,80,0,0
97075,-83.3333333333333,4,2,1,5,0,0
97155,-83.3333333333333,4,2,1,80,0,0
97801,-111.111111111111,4,2,1,80,0,0
98043,-100,4,2,1,5,0,0
98123,-83.3333333333333,4,2,1,80,0,0
98768,-111.111111111111,4,2,1,55,0,0
103930,324.324324324324,4,2,1,60,1,0
103930,-111.111111111111,4,2,1,60,0,0
104173,-111.111111111111,4,2,1,5,0,0
104254,-111.111111111111,4,2,1,60,0,0
104821,-111.111111111111,4,2,1,5,0,0
104902,-111.111111111111,4,2,1,60,0,0
105470,-111.111111111111,4,2,1,5,0,0
105551,-111.111111111111,4,2,1,60,0,0
106119,-111.111111111111,4,2,1,5,0,0
106200,-111.111111111111,4,2,1,60,0,0
106524,319.148936170213,4,2,1,60,1,0
106524,-111.111111111111,4,2,1,60,0,0
108524,355.029585798817,4,2,1,60,1,0
108760,-100,4,2,1,50,0,0
108997,-100,4,2,1,40,0,0
109549,359.281437125748,4,2,1,50,1,0

[Colours]
Combo1 : 210,238,202
Combo2 : 224,201,221
Combo3 : 255,175,155
Combo4 : 193,202,244

[HitObjects]
56,112,704,6,0,B|137:113|213:84|213:84|194:100|188:118,1,204,2|0,0:0|0:0,0:0:0:0:
273,157,1349,1,0,0:0:0:0:
307,72,1510,2,0,P|341:66|374:59,1,68,2|0,0:0|0:0,0:0:0:0:
335,265,1833,6,0,P|262:198|166:219,1,204,2|0,0:0|0:0,0:0:0:0:
39,343,2639,2,0,P|105:350|159:311,1,136,2|0,0:0|0:0,0:0:0:0:
58,125,3123,1,0,0:0:0:0:
58,125,3204,1,0,0:0:0:0:
58,125,3284,6,0,P|70:191|81:258,1,136,2|0,0:0|0:0,0:0:0:0:
166,219,3768,1,0,0:0:0:0:
244,272,3930,1,0,0:0:0:0:
296,188,4091,2,0,P|329:194|362:199,1,68,2|0,0:0|0:0,0:0:0:0:
409,369,4413,6,0,P|448:315|441:248,1,136,2|0,0:0|0:0,0:0:0:0:
366,105,4897,1,0,0:0:0:0:
445,155,5059,2,0,L|512:143,2,68
363,199,5543,2,0,L|296:187,1,68
276,149,5784,1,0,0:0:0:0:
276,149,5865,6,0,P|216:160|162:168,1,114.749996498108,6|0,0:0|0:0,0:0:0:0:
135,166,6188,1,2,3:2:0:0:
248,384,6510,2,0,P|237:324|229:270,1,114.749996498108,2|0,0:0|0:0,0:0:0:0:
231,243,6833,1,2,3:2:0:0:
13,356,7155,2,0,P|73:345|127:337,1,114.749996498108,2|0,0:0|0:0,0:0:0:0:
154,339,7478,1,2,3:2:0:0:
41,121,7801,2,0,P|52:181|60:235,1,114.749996498108,2|0,0:0|0:0,0:0:0:0:
58,262,8123,1,2,3:2:0:0:
159,47,8446,6,0,P|194:57|232:66,1,76.4999976654053,2|0,0:0|0:0,0:0:0:0:
276,149,8768,2,0,P|312:138|349:129,1,76.4999976654053,2|0,3:2|0:0,0:0:0:0:
225,227,9091,2,0,P|188:218|152:207,1,76.4999976654053,2|0,0:0|0:0,0:0:0:0:
342,290,9413,2,0,P|305:299|269:310,1,76.4999976654053,2|0,3:2|0:0,0:0:0:0:
198,372,9736,5,8,0:0:0:0:
413,228,9897,1,10,0:0:0:0:
276,149,10059,1,0,3:0:0:0:
505,209,10220,1,14,0:0:0:0:
363,372,10381,2,0,P|354:333|341:289,1,85,0|14,3:0|0:0,0:0:0:0:
183,237,10704,6,0,L|224:227,1,42.5,8|8,0:0|0:0,0:0:0:0:
317,160,10865,2,0,L|276:149,1,42.5,8|8,0:0|0:0,0:0:0:0:
211,64,11026,5,12,3:2:0:0:
332,259,11188,1,10,0:0:0:0:
126,149,11349,1,8,0:0:0:0:
56,353,11510,1,10,3:2:0:0:
56,353,11994,5,8,3:2:0:0:
275,148,12155,1,10,0:0:0:0:
56,241,12317,1,8,0:0:0:0:
336,382,12478,2,0,P|369:369|421:357,1,68,10|0,3:2|0:0,0:0:0:0:
388,200,12801,2,0,P|379:226|369:273,1,68
477,278,13123,5,10,0:0:0:0:
282,195,13284,1,8,3:2:0:0:
477,278,13446,1,10,0:0:0:0:
240,312,13607,5,8,3:2:0:0:
384,93,13768,1,10,0:0:0:0:
176,228,13930,1,8,0:0:0:0:
400,361,14091,1,10,3:2:0:0:
400,361,14575,5,8,3:2:0:0:
255,129,14736,1,10,0:0:0:0:
214,327,14897,1,8,0:0:0:0:
384,93,15059,2,0,P|376:54|366:16,1,68,10|0,3:2|0:0,0:0:0:0:
479,49,15381,1,0,0:0:0:0:
344,191,15543,5,8,3:2:0:0:
234,113,15704,1,10,0:3:0:0:
91,322,15865,1,8,0:0:0:0:
126,344,15946,1,8,0:0:0:0:
167,347,16026,1,10,0:0:0:0:
205,328,16107,1,8,0:0:0:0:
226,292,16188,5,12,3:2:0:0:
41,155,16349,1,10,0:0:0:0:
271,24,16510,1,8,0:0:0:0:
111,238,16672,1,10,3:2:0:0:
111,238,17155,5,8,3:2:0:0:
319,123,17317,1,10,0:0:0:0:
409,371,17478,1,8,0:0:0:0:
234,232,17639,2,0,P|226:197|209:150,1,68,10|0,3:2|0:0,0:0:0:0:
173,322,17962,2,0,P|201:330|246:350,1,68
129,232,18284,5,10,0:0:0:0:
314,156,18446,1,8,3:2:0:0:
129,232,18607,1,10,0:0:0:0:
330,326,18768,5,8,3:2:0:0:
198,136,18930,1,10,0:0:0:0:
417,275,19091,1,8,0:0:0:0:
458,20,19252,1,10,3:2:0:0:
458,20,19736,5,10,3:2:0:0:
253,228,19897,1,10,0:0:0:0:
351,0,20059,1,8,0:0:0:0:
511,246,20220,2,0,P|473:257|425:277,1,68,10|0,3:2|0:0,0:0:0:0:
454,153,20543,1,0,0:0:0:0:
302,336,20704,5,8,0:0:0:0:
333,361,20784,1,8,0:0:0:0:
373,355,20865,1,10,0:0:0:0:
184,164,21026,1,8,0:0:0:0:
146,144,21107,1,8,0:0:0:0:
104,145,21188,1,10,0:0:0:0:
68,167,21268,1,8,0:0:0:0:
48,203,21349,6,0,P|58:239|67:276,1,76.4999976654053,4|0,3:2|0:0,0:0:0:0:
252,117,21672,1,0,3:0:0:0:
186,292,21833,2,0,P|168:217|146:144,1,152.999995330811,2|0,3:2|0:0,0:0:0:0:
67,277,22317,1,0,3:0:0:0:
313,327,22478,6,0,P|258:277|186:292,1,152.999995330811,2|0,0:0|0:0,0:0:0:0:
64,154,22962,2,0,P|137:175|211:192,2,152.999995330811,2|2|2,3:2|0:0|3:2,0:0:0:0:
186,292,23768,1,0,0:0:0:0:
252,117,23930,6,0,P|289:108|326:98,1,76.4999976654053,10|0,3:2|0:0,0:0:0:0:
160,52,24252,1,0,3:0:0:0:
343,181,24413,2,0,P|365:107|382:33,1,152.999995330811,2|0,3:2|0:0,0:0:0:0:
252,117,24897,1,8,3:0:0:0:
476,98,25059,6,0,P|453:171|436:245,1,152.999995330811,2|0,3:2|0:0,0:0:0:0:
343,181,25543,1,2,3:2:0:0:
435,245,25704,1,0,3:0:0:0:
252,117,25865,5,2,3:2:0:0:
381,33,26026,1,0,3:0:0:0:
213,221,26188,1,2,3:2:0:0:
213,221,26510,5,4,3:2:0:0:
115,48,26672,1,0,0:0:0:0:
343,181,26833,1,10,0:0:0:0:
76,152,26994,5,10,0:0:0:0:
245,8,27155,1,0,3:0:0:0:
83,261,27317,1,8,3:0:0:0:
304,285,27478,5,10,0:0:0:0:
115,48,27639,1,8,3:0:0:0:
213,221,27801,1,0,3:0:0:0:
419,91,27962,6,0,P|377:81|336:69,1,85,8|8,3:0|3:0,0:0:0:0:
245,8,28284,1,8,3:0:0:0:
343,181,28446,5,0,3:0:0:0:
512,50,28607,1,0,3:0:0:0:
433,274,28768,2,0,P|421:314|411:356,1,85,0|0,3:0|0:0,0:0:0:0:
336,69,29091,6,0,P|274:86|212:101,1,127.5,4|0,3:2|0:0,0:0:0:0:
137,112,29413,1,10,0:0:0:0:
343,181,29575,1,10,0:0:0:0:
245,8,29736,1,0,3:0:0:0:
451,77,29897,1,10,0:0:0:0:
228,178,30059,2,0,P|244:239|259:301,1,127.5,10|0,0:0|0:0,0:0:0:0:
279,378,30381,5,4,3:2:0:0:
71,203,30543,1,2,0:0:0:0:
336,69,30704,5,0,0:0:0:0:
175,291,30865,1,2,0:0:0:0:
468,314,31026,5,0,3:0:0:0:
228,178,31188,1,10,0:0:0:0:
462,35,31349,6,0,P|456:55|450:76,1,42.5,8|8,0:0|0:0,0:0:0:0:
387,175,31510,2,0,P|394:200|398:216,1,42.5,8|8,0:0|0:0,0:0:0:0:
468,314,31672,1,4,3:2:0:0:
468,314,31994,5,0,0:0:0:0:
377,239,32155,1,2,0:0:0:0:
390,376,32317,2,0,P|339:354|259:331,1,136,2|0,0:0|3:0,0:0:0:0:
166,374,32801,1,2,3:2:0:0:
82,208,32962,5,2,0:0:0:0:
195,168,33123,2,0,P|189:205|175:247,1,68,2|0,0:0|0:0,0:0:0:0:
52,361,33446,2,0,P|104:321|167:338,1,136,2|0,3:2|3:0,0:0:0:0:
268,235,33930,2,0,P|254:187|243:121,1,102,2|0,0:0|0:0,0:0:0:0:
262,108,34252,1,4,3:2:0:0:
262,108,34575,5,2,0:0:0:0:
370,194,34736,1,2,0:0:0:0:
473,43,34897,2,0,P|429:30|358:85,1,136,2|0,0:0|3:0,0:0:0:0:
489,151,35381,1,2,3:2:0:0:
339,272,35543,5,0,0:0:0:0:
489,259,35704,2,0,P|461:250|416:230,1,68,2|0,0:0|0:0,0:0:0:0:
245,381,36026,2,0,P|276:367|308:356,1,68,2|0,3:2|0:0,0:0:0:0:
212,199,36349,1,2,3:2:0:0:
339,272,36510,1,2,0:0:0:0:
215,362,36672,5,2,0:0:0:0:
215,362,36752,1,2,0:0:0:0:
215,362,36833,2,0,P|144:369|104:318,1,136,6|0,3:2|0:0,0:0:0:0:
2,230,37317,2,0,P|46:182|111:191,1,136,2|0,3:2|0:0,0:0:0:0:
190,263,37801,1,2,0:0:0:0:
288,168,37962,6,0,P|255:158|223:145,1,68,2|0,3:2|0:0,0:0:0:0:
512,40,38284,2,0,P|479:49|447:62,1,68,2|0,0:0|0:0,0:0:0:0:
374,132,38607,2,0,P|353:67|337:-6,1,136,2|0,3:2|3:0,0:0:0:0:
273,119,39091,1,2,0:0:0:0:
433,30,39252,1,2,0:0:0:0:
321,214,39413,6,0,P|280:172|199:189,1,136,4|0,3:2|0:0,0:0:0:0:
109,328,39897,2,0,P|166:302|242:282,1,136,2|0,3:2|0:0,0:0:0:0:
396,380,40381,2,0,P|363:371|331:360,1,68,2|0,3:2|3:0,0:0:0:0:
374,248,40704,6,0,P|381:210|393:167,1,68,2|0,0:0|0:0,0:0:0:0:
488,333,41026,2,0,P|459:340|412:358,1,68,2|0,0:0|0:0,0:0:0:0:
281,208,41349,1,2,0:0:0:0:
401,265,41510,1,2,3:2:0:0:
213,363,41672,1,8,0:0:0:0:
343,144,41833,1,2,0:0:0:0:
343,144,41913,1,2,0:0:0:0:
343,144,41994,6,0,P|320:217|303:291,1,152.999995330811,4|0,3:2|3:0,0:0:0:0:
193,230,42478,1,2,0:0:0:0:
139,342,42639,2,0,P|176:351|212:362,1,76.4999976654053,0|0,3:0|0:0,0:0:0:0:
18,320,42962,1,0,3:0:0:0:
193,230,43123,1,2,0:0:0:0:
61,136,43284,5,0,3:0:0:0:
92,245,43446,2,0,P|82:207|71:171,1,76.4999976654053,2|0,0:0|3:0,0:0:0:0:
9,8,43768,2,0,P|82:31|157:49,1,152.999995330811,2|0,0:0|0:0,0:0:0:0:
61,136,44252,1,0,3:0:0:0:
242,4,44413,1,2,0:0:0:0:
242,4,44494,1,2,0:0:0:0:
242,4,44575,6,0,P|192:59|207:131,1,152.999995330811,4|0,3:2|3:0,0:0:0:0:
359,56,45059,1,2,0:0:0:0:
338,245,45220,2,0,P|330:218|317:172,1,76.4999976654053,0|0,3:0|0:0,0:0:0:0:
442,317,45543,1,0,3:0:0:0:
224,253,45704,1,2,0:0:0:0:
423,176,45865,5,0,3:0:0:0:
347,363,46026,2,0,P|310:351|273:342,1,76.4999976654053,2|0,0:0|3:0,0:0:0:0:
126,187,46349,2,0,P|200:169|273:146,1,152.999995330811,2|0,0:0|0:0,0:0:0:0:
359,56,46833,1,0,3:0:0:0:
224,253,46994,1,2,0:0:0:0:
224,253,47075,1,2,0:0:0:0:
224,253,47155,6,0,P|214:215|203:179,1,76.4999976654053,4|0,3:2|0:0,0:0:0:0:
118,305,47478,1,0,3:0:0:0:
273,145,47639,2,0,P|200:159|146:109,1,152.999995330811,2|0,0:0|0:0,0:0:0:0:
87,2,48123,1,0,3:0:0:0:
76,211,48284,6,0,P|150:229|223:252,1,152.999995330811,2|0,0:0|0:0,0:0:0:0:
420,103,48768,2,0,P|347:126|272:144,1,152.999995330811,2|0,3:2|3:0,0:0:0:0:
367,227,49252,1,2,0:0:0:0:
312,28,49413,1,2,3:2:0:0:
367,227,49575,1,2,0:0:0:0:
494,122,49736,6,0,P|453:112|420:102,1,76.4999976654053,2|0,3:2|0:0,0:0:0:0:
312,28,50059,1,0,3:0:0:0:
146,179,50220,2,0,P|200:129|272:143,1,152.999995330811,2|2,0:0|0:0,0:0:0:0:
367,227,50704,2,0,P|350:281|337:337,1,114.749996498108,2|0,3:2|0:0,0:0:0:0:
260,376,51026,6,0,P|223:364|186:355,1,76.4999976654053,4|0,3:2|0:0,0:0:0:0:
434,297,51349,2,0,P|471:287|507:276,1,76.4999976654053,4|0,3:2|0:0,0:0:0:0:
272,143,51672,1,8,0:0:0:0:
446,64,51833,1,8,0:0:0:0:
302,269,51994,2,0,P|265:257|228:248,1,76.4999976654053,8|8,0:3|0:3,0:0:0:0:
72,173,52317,5,8,3:2:0:0:
273,92,52478,1,10,0:0:0:0:
82,275,52639,1,8,0:0:0:0:
176,23,52801,1,10,3:2:0:0:
176,23,53284,5,8,3:2:0:0:
228,248,53446,1,10,0:0:0:0:
386,108,53607,1,8,0:0:0:0:
261,363,53768,2,0,P|223:349|182:336,1,76.4999976654053,10|0,3:2|0:0,0:0:0:0:
31,258,54091,1,2,0:0:0:0:
172,202,54252,1,2,0:0:0:0:
7,267,54413,5,10,0:0:0:0:
188,338,54575,1,8,3:2:0:0:
87,106,54736,1,10,0:0:0:0:
272,252,54897,5,8,3:2:0:0:
76,201,55059,1,10,0:0:0:0:
282,381,55220,1,8,0:0:0:0:
386,108,55381,1,10,3:2:0:0:
386,108,55865,5,8,3:2:0:0:
205,170,56026,1,10,0:0:0:0:
446,265,56188,1,8,0:0:0:0:
315,5,56349,2,0,P|308:29|297:93,1,76.4999976654053,10|0,3:2|0:0,0:0:0:0:
200,8,56672,1,0,0:0:0:0:
318,192,56833,2,0,P|359:178|403:170,1,76.4999976654053,8|10,3:2|0:0,0:0:0:0:
188,338,57155,5,8,0:0:0:0:
165,302,57236,1,8,0:0:0:0:
128,282,57317,1,10,0:0:0:0:
86,282,57397,1,8,0:0:0:0:
50,302,57478,1,4,3:2:0:0:
105,367,57801,5,0,3:0:0:0:
105,367,57962,1,2,0:0:0:0:
299,154,58446,5,8,3:0:0:0:
299,154,58607,1,2,0:0:0:0:
212,86,58768,6,0,P|200:122|188:181,1,76.4999976654053,0|2,0:0|0:0,0:0:0:0:
354,245,59091,1,0,3:0:0:0:
476,101,59252,2,0,P|467:63|455:27,1,76.4999976654053,2|0,0:0|3:0,0:0:0:0:
299,154,59575,1,2,3:2:0:0:
488,246,59736,1,2,3:2:0:0:
488,246,60059,6,0,P|410:263|338:288,1,152.999995330811,4|8,3:2|3:0,0:0:0:0:
204,189,60543,1,2,0:0:0:0:
247,360,60704,2,0,P|209:343|168:329,1,76.4999976654053,2|0,0:0|0:0,0:0:0:0:
40,230,61026,5,8,0:0:0:0:
274,102,61188,1,10,0:0:0:0:
71,357,61349,1,12,0:0:0:0:
71,357,62155,5,8,3:0:0:0:
196,148,62317,1,8,0:0:0:0:
204,189,62397,1,8,0:0:0:0:
212,230,62478,1,0,3:0:0:0:
321,295,62639,6,0,P|343:289|362:284,3,42.5,4|8|8|8,3:2|0:0|0:0|0:0,0:0:0:0:
459,208,62962,2,0,P|441:203|417:197,1,42.5,0|8,3:2|0:0,0:0:0:0:
328,126,63123,1,8,0:0:0:0:
326,91,63204,1,8,0:0:0:0:
338,58,63284,1,0,3:2:0:0:
363,33,63365,1,8,0:0:0:0:
396,21,63446,2,0,P|417:27|437:31,1,42.5,8|8,0:0|0:0,0:0:0:0:
507,148,63607,2,0,P|501:169|496:189,1,42.5,0|8,3:2|0:0,0:0:0:0:
362,284,63768,1,8,0:0:0:0:
362,284,63849,1,8,0:0:0:0:
362,284,63930,6,0,P|350:243|340:201,1,85,0|0,3:2|0:0,0:0:0:0:
328,126,64172,1,8,0:0:0:0:
328,126,64252,1,8,0:0:0:0:
177,222,64413,2,0,P|188:262|198:304,1,85,0|0,3:0|0:0,0:0:0:0:
211,380,64655,1,8,0:0:0:0:
211,380,64736,1,8,0:0:0:0:
340,201,64897,1,8,0:0:0:0:
331,165,64978,1,8,0:0:0:0:
308,135,65059,1,8,0:0:0:0:
275,117,65139,1,8,0:0:0:0:
237,116,65220,6,0,P|195:126|154:137,1,85,0|0,3:2|0:0,0:0:0:0:
83,166,65462,1,8,0:0:0:0:
83,166,65543,1,8,0:0:0:0:
186,0,65704,2,0,P|226:11|268:21,1,85,0|0,3:0|0:0,0:0:0:0:
355,81,65946,1,8,0:0:0:0:
355,81,66026,2,0,P|376:75|396:70,1,42.5,8|8,0:0|0:0,0:0:0:0:
512,26,66188,2,0,P|493:86|479:149,1,127.5,0|0,3:0|0:0,0:0:0:0:
457,223,66510,5,10,0:0:0:0:
154,137,66672,1,10,0:0:0:0:
154,137,67155,2,0,P|114:148|72:158,1,85,4|0,3:2|0:0,0:0:0:0:
242,65,67478,1,8,0:0:0:0:
267,99,67559,1,8,0:0:0:0:
265,141,67639,1,8,0:0:0:0:
75,321,67801,6,0,P|122:276|198:301,1,140.25000428009,4|0,3:2|0:0,0:0:0:0:
207,325,68123,2,0,P|252:339|302:358,1,93.5000028533936,8|2,0:0|0:0,0:0:0:0:
490,269,68446,1,0,3:0:0:0:
320,137,68607,1,0,0:0:0:0:
381,309,68768,2,0,P|393:261|411:206,1,93.5000028533936,8|2,0:0|0:0,0:0:0:0:
194,20,69091,6,0,P|208:73|230:170,1,140.25000428009,0|0,3:0|0:0,0:0:0:0:
205,181,69413,2,0,P|152:174|113:146,1,93.5000028533936,8|2,0:0|0:0,0:0:0:0:
423,25,69736,2,0,P|376:29|337:53,1,93.5000028533936,0|0,3:0|0:0,0:0:0:0:
488,155,70059,1,8,0:0:0:0:
337,53,70220,1,2,0:0:0:0:
499,297,70381,6,0,P|452:247|377:272,1,140.25000428009,0|0,3:0|0:0,0:0:0:0:
364,286,70704,2,0,P|315:279|269:245,1,93.5000028533936,8|2,0:0|0:0,0:0:0:0:
54,363,71026,6,0,P|72:349|117:338,1,63.75,0|0,3:0|0:0,0:0:0:0:
205,339,71349,6,0,B|159:319|103:300|103:300|82:259|127:228,1,187.000005706787,8|0,0:0|3:0,0:0:0:0:
305,137,71833,1,2,0:0:0:0:
148,5,71994,2,0,P|159:40|179:125,1,93.5000028533936,8|2,0:0|0:0,0:0:0:0:
278,4,72317,5,0,3:0:0:0:
52,117,72478,1,2,0:0:0:0:
235,235,72639,1,8,0:0:0:0:
281,237,72720,1,8,0:0:0:0:
313,203,72801,1,2,3:2:0:0:
487,363,72962,6,0,P|443:305|356:308,1,140.25000428009,4|0,3:2|0:0,0:0:0:0:
351,317,73284,1,8,0:0:0:0:
512,208,73446,1,2,0:0:0:0:
320,88,73607,1,0,3:0:0:0:
413,205,73768,2,0,P|426:156|438:103,1,93.5000028533936,2|8,0:0|0:0,0:0:0:0:
181,96,74091,6,0,P|223:50|304:71,1,140.25000428009,2|0,0:0|0:0,0:0:0:0:
320,88,74413,1,2,0:0:0:0:
56,187,74575,2,0,B|109:169|150:209|136:213|173:250|227:237,1,187.000005706787,8|0,3:2|3:0,0:0:0:0:
181,96,75059,1,2,0:0:0:0:
61,293,75220,1,8,0:0:0:0:
241,215,75381,1,2,0:0:0:0:
313,383,75543,5,4,3:2:0:0:
134,219,75704,1,2,0:0:0:0:
410,313,75865,1,8,0:0:0:0:
134,219,76026,5,10,0:0:0:0:
423,98,76188,1,8,0:0:0:0:
321,289,76349,2,0,P|309:256|306:218,1,63.75,10|0,0:0|0:0,0:0:0:0:
239,346,76672,6,0,B|272:301|326:317|326:317|344:361|405:373,1,187.000005706787,12|0,3:2|0:0,0:0:0:0:
503,183,77155,2,0,P|461:191|408:206,1,93.5000028533936,8|0,0:0|0:0,0:0:0:0:
295,65,77478,1,8,0:3:0:0:
255,40,77559,1,8,0:3:0:0:
209,42,77639,1,4,0:3:0:0:
172,69,77720,1,4,0:3:0:0:
156,112,77801,1,8,0:0:0:0:
139,155,77881,1,8,0:0:0:0:
102,182,77962,1,8,0:0:0:0:
56,184,78043,1,8,0:0:0:0:
17,160,78123,6,0,P|-12:82|37:16,1,140.25000428009,4|0,3:2|0:0,0:0:0:0:
38,9,78446,2,0,P|82:22|128:33,1,93.5000028533936,8|2,0:0|0:0,0:0:0:0:
311,0,78768,1,0,3:0:0:0:
139,155,78930,1,0,0:0:0:0:
373,133,79091,2,0,P|327:122|282:108,1,93.5000028533936,8|2,0:0|0:0,0:0:0:0:
80,301,79413,6,0,P|128:252|197:254,1,140.25000428009,0|0,3:0|0:0,0:0:0:0:
226,277,79736,2,0,P|239:321|250:367,1,93.5000028533936,8|2,0:0|0:0,0:0:0:0:
444,210,80059,1,0,3:0:0:0:
347,340,80220,1,0,0:0:0:0:
282,108,80381,2,0,P|327:122|373:133,1,93.5000028533936,8|2,0:0|0:0,0:0:0:0:
150,266,80704,6,0,P|217:245|285:229,1,140.25000428009,0|0,3:0|0:0,0:0:0:0:
306,198,81026,2,0,P|292:153|281:107,1,93.5000028533936,8|2,0:0|0:0,0:0:0:0:
429,316,81349,6,0,P|419:346|412:377,1,63.75,0|0,3:0|0:0,0:0:0:0:
494,260,81672,6,0,P|404:276|335:218,1,187.000005706787,8|0,0:0|3:0,0:0:0:0:
373,55,82155,1,2,0:0:0:0:
201,186,82317,2,0,P|214:230|225:276,1,93.5000028533936,8|2,0:0|0:0,0:0:0:0:
335,218,82639,5,0,3:0:0:0:
116,87,82801,1,2,0:0:0:0:
152,313,82962,1,8,0:0:0:0:
176,349,83043,1,8,0:0:0:0:
217,360,83123,1,2,3:2:0:0:
201,186,83284,5,4,3:2:0:0:
12,317,83446,1,2,0:0:0:0:
116,87,83607,2,0,P|161:76|206:62,1,93.5000028533936,8|2,0:0|0:0,0:0:0:0:
11,6,83930,1,0,3:0:0:0:
111,211,84091,2,0,P|155:197|201:186,1,93.5000028533936,2|8,0:0|0:0,0:0:0:0:
431,70,84413,6,0,P|383:22|315:23,1,140.25000428009,2|0,0:0|0:0,0:0:0:0:
281,43,84736,1,2,0:0:0:0:
303,270,84897,2,0,P|360:200|344:111,1,187.000005706787,8|0,0:0|3:0,0:0:0:0:
197,5,85381,1,2,0:2:0:0:
431,70,85543,1,8,0:0:0:0:
257,152,85704,1,2,0:2:0:0:
314,23,85865,5,4,3:2:0:0:
111,211,86026,1,2,0:2:0:0:
397,171,86188,1,8,0:0:0:0:
135,15,86349,6,0,P|155:82|171:150,1,140.25000428009,4|0,3:2|0:0,0:0:0:0:
111,211,86672,1,0,3:0:0:0:
314,23,86833,1,8,0:0:0:0:
231,320,86994,6,0,P|153:297|50:271,1,187.000005706787,4|0,3:2|0:0,0:0:0:0:
23,72,87478,2,0,P|67:85|113:97,1,93.5000028533936,8|0,0:0|0:0,0:0:0:0:
304,65,87801,1,0,3:0:0:0:
273,35,87881,1,0,3:0:0:0:
231,24,87962,1,0,3:0:0:0:
189,35,88043,1,0,3:0:0:0:
158,66,88123,1,8,0:0:0:0:
147,108,88204,1,8,0:0:0:0:
158,150,88284,1,8,0:0:0:0:
189,181,88365,1,8,0:0:0:0:
231,192,88446,6,0,P|292:176|377:158,1,140.25000428009,4|0,3:2|0:0,0:0:0:0:
399,174,88768,2,0,P|388:127|379:78,1,93.5000028533936,8|2,0:0|0:0,0:0:0:0:
485,364,89091,1,0,3:0:0:0:
307,268,89252,1,2,0:0:0:0:
512,148,89413,2,0,P|501:194|492:244,1,93.5000028533936,8|2,0:0|0:0,0:0:0:0:
344,361,89736,6,0,P|304:319|220:333,1,140.25000428009,0|0,3:0|0:0,0:0:0:0:
208,356,90059,2,0,P|157:366|112:378,1,93.5000028533936,8|2,0:0|0:0,0:0:0:0:
0,169,90381,1,0,3:0:0:0:
152,254,90543,1,2,0:0:0:0:
232,60,90704,6,0,P|260:46|292:46,1,63.75,8|0,0:0|0:0,0:0:0:0:
354,127,91026,6,0,P|405:180|471:166,1,140.25000428009,4|0,3:2|0:0,0:0:0:0:
487,151,91349,1,8,0:0:0:0:
270,228,91510,1,2,0:0:0:0:
443,58,91672,1,0,3:0:0:0:
496,288,91833,1,10,0:0:0:0:
344,97,91994,1,0,3:0:0:0:
192,321,92155,6,0,B|246:304|286:339|271:344|310:380|368:363,1,187.000005706787,6|0,3:2|0:0,0:0:0:0:
158,195,92639,2,0,P|98:175|39:221,1,140.25000428009,4|0,3:2|0:0,0:0:0:0:
32,243,92962,1,8,0:0:0:0:
325,158,93123,1,0,3:0:0:0:
364,134,93204,1,0,3:0:0:0:
384,92,93284,1,8,0:0:0:0:
378,47,93365,1,8,0:0:0:0:
347,12,93446,1,8,0:0:0:0:
303,0,93526,1,8,0:0:0:0:
259,15,93607,6,0,P|247:60|236:117,1,101.999996887207,4|0,3:2|0:0,0:0:0:0:
141,21,93930,5,10,0:0:0:0:
364,134,94091,1,0,3:0:0:0:
102,180,94252,5,10,0:0:0:0:
391,129,94413,1,0,3:0:0:0:
59,87,94575,5,10,0:0:0:0:
293,246,94736,1,0,3:0:0:0:
37,352,94897,6,0,P|85:338|149:324,1,101.999996887207,2|0,3:2|0:0,0:0:0:0:
383,382,95220,5,10,0:0:0:0:
191,207,95381,1,0,3:0:0:0:
424,124,95543,5,10,0:0:0:0:
234,332,95704,1,0,3:0:0:0:
336,56,95865,5,10,0:0:0:0:
512,241,96026,2,0,P|485:247|454:256,1,50.9999984436036,0|0,3:0|0:0,0:0:0:0:
265,314,96188,6,0,B|307:307|342:260|342:260|334:339|384:371,1,203.999993774414,4|8,3:2|0:0,0:0:0:0:
424,124,96672,1,4,3:2:0:0:
234,332,96833,2,0,P|186:281|102:298,1,152.999995330811,2|0,0:0|0:0,0:0:0:0:
87,310,97155,1,8,0:0:0:0:
0,138,97317,6,0,B|52:151|108:171|108:171|157:143|134:91,1,203.999993774414,4|0,3:2|0:0,0:0:0:0:
288,0,97801,6,0,P|275:52|262:124,1,114.749996498108,4|0,3:2|0:0,0:0:0:0:
274,138,98123,5,4,3:2:0:0:
508,292,98284,1,0,3:0:0:0:
512,241,98365,1,0,3:0:0:0:
488,201,98446,1,8,0:0:0:0:
453,182,98526,1,8,0:0:0:0:
417,182,98607,1,8,0:0:0:0:
387,192,98688,1,8,0:0:0:0:
367,207,98768,6,0,P|294:229|220:246,1,152.999995330811,4|2,3:2|0:0,0:0:0:0:
210,149,99252,1,2,0:0:0:0:
154,314,99413,2,0,P|81:328|27:278,1,152.999995330811,2|0,0:0|0:0,0:0:0:0:
103,173,99897,6,0,P|219:200|324:232,1,229.499992996216,2|0,0:0|0:0,0:0:0:0:
389,305,100543,1,2,0:0:0:0:
512,179,100704,2,0,B|466:136|407:121|344:142|344:142|368:149|386:164,1,229.499992996216,2|0,0:0|0:0,0:0:0:0:
446,23,101349,6,0,P|372:45|298:62,1,152.999995330811,2|0,0:0|0:0,0:0:0:0:
212,20,101833,1,0,0:0:0:0:
170,106,101994,1,2,0:0:0:0:
60,0,102155,2,0,P|70:35|79:73,1,76.4999976654053,2|0,0:0|0:0,0:0:0:0:
0,226,102478,6,0,P|54:177|126:191,1,152.999995330811,2|0,0:0|0:0,0:0:0:0:
261,138,102962,1,2,0:0:0:0:
218,223,103123,2,0,P|227:260|237:297,2,76.4999976654053,0|2|0,0:0|0:0|0:0,0:0:0:0:
261,138,103607,2,0,P|298:129|335:118,1,76.4999976654053,2|0,0:0|0:0,0:0:0:0:
470,244,103930,6,0,P|423:211|367:215,1,114.749996498108,6|0,0:0|0:0,0:0:0:0:
336,237,104254,1,2,3:2:0:0:
127,131,104578,2,0,P|173:163|229:159,1,114.749996498108,2|0,0:0|0:0,0:0:0:0:
261,138,104902,1,2,3:2:0:0:
275,373,105227,2,0,P|279:316|246:270,1,114.749996498108,2|0,0:0|0:0,0:0:0:0:
213,253,105551,1,2,3:2:0:0:
374,81,105875,2,0,P|341:127|345:183,1,114.749996498108,2|0,0:0|0:0,0:0:0:0:
367,215,106199,1,2,3:2:0:0:
202,339,106524,6,0,P|128:317|54:300,1,152.999995330811,2|2,0:0|3:2,0:0:0:0:
192,166,107002,1,0,0:0:0:0:
95,151,107162,2,0,P|104:187|114:225,1,76.4999976654053,2|0,0:0|0:0,0:0:0:0:
173,91,107481,2,0,P|182:128|192:165,1,76.4999976654053,2|0,3:2|0:0,0:0:0:0:
265,243,107800,6,0,P|337:258|392:208,1,152.999995330811,2|2,0:0|3:2,0:0:0:0:
434,20,108518,5,8,3:0:0:0:
355,109,108760,5,0,3:0:0:0:
415,178,108997,5,0,3:0:0:0:
392,208,109549,5,4,3:2:0:0:
