osu file format v14

[General]
AudioFilename: audio.ogg
AudioLeadIn: 0
PreviewTime: 72989
Countdown: 0
SampleSet: Soft
StackLeniency: 0.7
Mode: 0
LetterboxInBreaks: 0
WidescreenStoryboard: 0

[Editor]
DistanceSpacing: 0.8
BeatDivisor: 4
GridSize: 8
TimelineZoom: 1.2

[Metadata]
Title:Tsurugi no Mai
TitleUnicode:剣の舞
Artist:Sakakibara Yui
ArtistUnicode:榊原ゆい
Creator:Garden
Version:Insane
Source:夢想灯籠
Tags:musou tourou dream lantern opening evergreen ken FOG 日本一ソフトウェア Nippon Ichi Software visual novel vn japanese pop video game 菊田大介 kikuta daisuke elements
BeatmapID:4425381
BeatmapSetID:2108585

[Difficulty]
HPDrainRate:6
CircleSize:4
OverallDifficulty:8
ApproachRate:8
SliderMultiplier:1.8
SliderTickRate:1

[Events]
//Background and Video events
0,0,"1.jpg",0,0
//Break Periods
2,104120,114756
2,221637,232273
//Storyboard Layer 0 (Background)
//Storyboard Layer 1 (Fail)
//Storyboard Layer 2 (Pass)
//Storyboard Layer 3 (Foreground)
//Storyboard Layer 4 (Overlay)
//Storyboard Sound Samples

[TimingPoints]
2955,413.793103448276,4,2,1,35,1,0
7920,-100,4,2,1,35,0,0
9575,-125,4,2,1,50,0,0
12886,-125,4,2,1,55,0,0
14541,-83.3333333333333,4,2,1,60,0,0
16196,-100,4,2,1,70,0,0
26127,-125,4,2,1,70,0,0
27368,-100,4,2,1,70,0,0
29437,-125,4,2,1,70,0,0
29541,-125,4,2,1,50,0,0
42472,-111.111111111111,4,2,1,60,0,0
55920,-100,4,2,1,65,0,0
72886,-83.3333333333333,4,2,1,65,0,0
74127,-90.9090909090909,4,2,1,75,0,1
90679,-76.9230769230769,4,2,1,75,0,1
91092,-90.9090909090909,4,2,1,75,0,1
103920,-100,4,2,1,75,0,0
104023,-125,4,2,1,50,0,0
130196,-111.111111111111,4,2,1,60,0,0
143644,-100,4,2,1,65,0,0
160610,-83.3333333333333,4,2,1,65,0,0
161851,-90.9090909090909,4,2,1,75,0,1
178403,-76.9230769230769,4,2,1,75,0,1
178817,-90.9090909090909,4,2,1,75,0,1
191644,-125,4,2,1,60,0,0
203230,-100,4,2,1,60,0,0
204886,-100,4,2,1,65,0,0
234679,-90.9090909090909,4,2,1,75,0,1
237989,-76.9230769230769,4,2,1,75,0,1
238403,-90.9090909090909,4,2,1,75,0,1
251230,-100,4,2,1,70,0,0

[Colours]
Combo1 : 162,162,208
Combo2 : 255,130,130

[HitObjects]
256,192,7920,12,0,9368,0:0:0:0:
79,344,9575,6,0,P|114:330|161:315,1,72,4|0,3:2|0:0,0:0:0:0:
164,326,9886,2,0,L|184:275,2,36,2|0|2,0:0|0:0|0:0,0:0:0:0:
302,384,10403,2,0,P|315:343|326:292,1,72,2|0,0:0|0:0,0:0:0:0:
310,301,10713,1,0,0:0:0:0:
298,290,10817,2,0,P|270:297|252:301,2,36,2|0|2,0:0|0:0|0:0,0:0:0:0:
402,157,11230,6,0,P|392:191|380:225,1,72,2|0,3:2|0:0,0:0:0:0:
369,242,11541,2,0,P|382:267|391:290,2,36,2|0|2,0:0|0:0|0:0,0:0:0:0:
231,206,12058,2,0,P|271:197|304:183,1,72,2|0,0:0|0:0,0:0:0:0:
311,172,12368,1,0,0:0:0:0:
314,154,12472,1,2,0:0:0:0:
308,136,12575,1,0,0:0:0:0:
295,123,12679,2,0,P|305:97|315:67,1,36,2|0,0:0|0:0,0:0:0:0:
257,21,12886,5,2,3:2:0:0:
237,12,12989,1,0,3:0:0:0:
216,7,13092,1,0,3:0:0:0:
195,8,13196,1,0,3:0:0:0:
175,12,13299,1,2,3:2:0:0:
156,21,13403,1,0,3:0:0:0:
139,34,13506,1,0,3:0:0:0:
128,50,13610,1,0,3:0:0:0:
119,68,13713,1,2,1:2:0:0:
114,89,13817,1,0,1:0:0:0:
113,109,13920,1,0,1:0:0:0:
117,129,14023,1,0,1:0:0:0:
126,147,14127,1,2,1:2:0:0:
138,165,14230,1,0,1:0:0:0:
153,179,14334,1,0,1:0:0:0:
171,188,14437,1,0,1:0:0:0:
192,193,14541,1,12,3:0:0:0:
382,115,14851,5,8,3:0:0:0:
339,101,14955,1,4,3:0:0:0:
339,101,15161,2,0,P|351:82|358:42,1,53.9999983520508,8|0,3:0|0:0,0:0:0:0:
437,40,15368,5,2,3:2:0:0:
464,68,15472,1,2,3:2:0:0:
479,106,15575,1,2,3:2:0:0:
482,146,15679,1,2,3:2:0:0:
470,185,15782,1,2,3:2:0:0:
448,217,15886,1,2,3:2:0:0:
414,241,15989,1,2,3:2:0:0:
376,252,16092,1,2,3:2:0:0:
335,249,16196,5,4,3:2:0:0:
254,361,16403,1,2,0:0:0:0:
276,354,16506,1,2,0:0:0:0:
298,346,16610,1,0,1:0:0:0:
319,338,16713,1,2,0:0:0:0:
261,197,16920,1,0,0:0:0:0:
261,197,17023,2,0,P|231:238|224:286,1,90,2|0,3:2|0:0,0:0:0:0:
168,331,17334,1,2,0:0:0:0:
147,321,17437,1,2,1:2:0:0:
137,300,17541,1,2,0:0:0:0:
141,278,17644,1,2,0:0:0:0:
20,174,17851,6,0,P|25:219|72:236,1,90,2|0,3:2|0:0,0:0:0:0:
132,194,18161,2,0,P|148:145|174:89,1,90,2|0,0:0|0:0,0:0:0:0:
118,44,18472,1,2,0:0:0:0:
285,0,18679,1,2,3:2:0:0:
300,18,18782,1,2,0:0:0:0:
307,40,18886,1,2,0:0:0:0:
303,64,18989,1,2,0:0:0:0:
290,84,19092,1,2,1:2:0:0:
270,96,19196,1,2,0:0:0:0:
246,99,19299,1,2,0:0:0:0:
283,239,19506,6,0,P|269:197|226:187,1,90,2|0,3:2|0:0,0:0:0:0:
149,195,19817,1,2,0:0:0:0:
152,217,19920,1,0,1:0:0:0:
155,239,20023,1,2,0:0:0:0:
159,261,20127,1,2,0:0:0:0:
70,138,20334,1,0,3:0:0:0:
13,292,20541,1,2,0:0:0:0:
9,270,20644,1,2,0:0:0:0:
6,248,20748,1,2,1:2:0:0:
3,226,20851,1,2,0:0:0:0:
0,204,20955,1,2,0:0:0:0:
95,331,21161,6,0,P|143:361|188:343,1,90,2|0,3:2|0:0,0:0:0:0:
242,313,21472,1,2,0:0:0:0:
262,322,21575,1,0,1:0:0:0:
280,308,21679,2,0,P|268:267|259:207,1,90,2|0,0:0|0:0,0:0:0:0:
319,161,21989,1,2,3:2:0:0:
179,251,22196,1,2,0:0:0:0:
155,248,22299,1,2,0:0:0:0:
135,236,22403,1,2,1:2:0:0:
122,216,22506,1,2,0:0:0:0:
118,192,22610,1,2,0:0:0:0:
125,170,22713,1,2,0:0:0:0:
140,152,22817,5,2,3:2:0:0:
40,61,23023,1,2,0:0:0:0:
62,65,23127,1,2,0:0:0:0:
83,70,23230,1,0,1:0:0:0:
104,75,23334,1,2,0:0:0:0:
223,2,23541,1,2,0:0:0:0:
223,2,23644,2,0,P|198:45|193:91,1,90,2|0,3:2|0:0,0:0:0:0:
249,144,23955,1,2,0:0:0:0:
270,134,24058,1,2,1:2:0:0:
280,113,24161,1,2,0:0:0:0:
276,91,24265,1,2,0:0:0:0:
202,214,24472,6,0,P|207:259|254:276,1,90,2|0,3:2|0:0,0:0:0:0:
324,259,24782,2,0,P|354:300|356:346,1,90,2|0,0:0|0:0,0:0:0:0:
293,384,25092,1,2,0:0:0:0:
403,215,25299,1,2,3:2:0:0:
427,191,25403,1,2,0:0:0:0:
443,162,25506,1,2,0:0:0:0:
447,128,25610,1,2,0:0:0:0:
439,96,25713,1,2,1:2:0:0:
422,67,25817,1,2,0:0:0:0:
394,49,25920,1,2,0:0:0:0:
361,38,26023,1,2,0:0:0:0:
328,41,26127,5,2,3:2:0:0:
184,343,26541,1,2,1:2:0:0:
184,343,27368,2,0,P|144:332|144:281,1,90,2|0,1:2|0:0,0:0:0:0:
190,199,27782,5,2,3:2:0:0:
172,203,27886,1,2,3:2:0:0:
155,207,27989,1,2,3:2:0:0:
137,211,28092,1,2,3:2:0:0:
120,215,28196,1,2,1:2:0:0:
102,220,28299,1,2,3:2:0:0:
85,225,28403,1,2,3:2:0:0:
68,230,28506,1,2,3:2:0:0:
51,235,28610,5,2,3:2:0:0:
39,191,28713,1,0,1:0:0:0:
45,147,28817,1,0,1:0:0:0:
68,108,28920,1,0,1:0:0:0:
103,82,29023,1,2,1:2:0:0:
147,71,29127,1,2,1:2:0:0:
191,77,29230,1,2,1:2:0:0:
229,100,29334,1,2,1:2:0:0:
256,137,29437,6,0,B|270:186|239:164|252:206,2,72,4|2|2,3:1|0:0|0:0,0:0:0:0:
421,0,30265,1,2,0:0:0:0:
405,80,30472,1,2,0:0:0:0:
405,80,30886,1,2,0:0:0:0:
479,97,31092,2,0,P|517:132|499:193,1,108,2|2,0:0|0:0,0:0:0:0:
299,324,31713,2,0,P|369:328|415:381,1,144,2|0,0:0|0:0,0:0:0:0:
447,238,32334,1,2,0:0:0:0:
387,305,32541,1,2,0:0:0:0:
387,305,32644,1,2,0:0:0:0:
387,305,32748,1,2,0:0:0:0:
477,324,32955,5,2,0:0:0:0:
477,324,33161,1,2,0:0:0:0:
294,162,33575,1,2,0:0:0:0:
294,162,33782,1,2,0:0:0:0:
193,372,34196,1,2,0:0:0:0:
193,372,34299,1,2,0:0:0:0:
193,372,34403,2,0,P|121:365|102:316,1,108,2|2,0:0|0:0,0:0:0:0:
58,194,35023,2,0,P|8:242|22:310,1,144,2|0,0:0|0:0,0:0:0:0:
133,250,35644,2,0,P|148:216|150:180,1,72,2|0,0:0|0:0,0:0:0:0:
150,181,35955,1,0,0:0:0:0:
150,181,36058,1,0,0:0:0:0:
114,50,36265,5,2,0:0:0:0:
92,132,36472,1,2,0:0:0:0:
92,132,36886,1,2,0:0:0:0:
160,188,37092,1,2,0:0:0:0:
160,188,37506,1,2,0:0:0:0:
236,155,37713,2,0,P|324:177|326:244,1,144,2|0,0:0|0:0,0:0:0:0:
452,310,38334,2,0,P|452:346|406:353,1,72,2|0,0:0|0:0,0:0:0:0:
275,279,38748,2,0,P|343:255|412:235,1,144,2|0,0:0|0:0,0:0:0:0:
412,235,39265,1,0,0:0:0:0:
412,235,39368,5,2,0:0:0:0:
447,165,39575,1,2,0:0:0:0:
391,105,39782,1,2,0:0:0:0:
426,35,39989,1,2,0:0:0:0:
426,35,40403,1,2,0:0:0:0:
391,105,40610,2,0,P|360:120|310:123,1,72,2|0,0:0|0:0,0:0:0:0:
323,124,40920,1,0,0:0:0:0:
323,124,41023,5,2,0:0:0:0:
245,105,41437,1,2,0:0:0:0:
248,18,41851,5,2,0:0:0:0:
258,99,42058,1,2,0:0:0:0:
204,159,42265,1,2,0:0:0:0:
122,144,42472,1,2,3:2:0:0:
122,144,42575,1,2,3:2:0:0:
122,144,42679,6,0,P|97:118|92:66,1,80.9999975280763,4|2,3:2|0:0,0:0:0:0:
9,269,43092,1,2,3:2:0:0:
71,215,43299,1,0,0:0:0:0:
71,215,43403,1,0,0:0:0:0:
71,215,43506,1,2,3:2:0:0:
180,292,43713,2,0,P|178:252|151:222,1,80.9999975280763,2|0,0:0|3:0,0:0:0:0:
204,82,44127,1,2,0:0:0:0:
204,82,44230,1,0,0:0:0:0:
204,82,44334,6,0,P|174:138|95:127,1,121.499996292114,2|2,3:2|0:0,0:0:0:0:
102,135,44748,1,0,3:0:0:0:
50,24,44955,2,0,P|83:43|129:48,1,80.9999975280763,2|0,0:0|3:0,0:0:0:0:
275,30,45368,1,2,0:0:0:0:
196,0,45575,1,2,3:2:0:0:
289,116,45782,1,2,0:0:0:0:
289,116,45886,1,0,0:0:0:0:
289,116,45989,1,0,3:0:0:0:
428,58,46196,5,2,0:0:0:0:
396,201,46403,2,0,P|379:175|372:124,1,80.9999975280763,2|0,3:2|0:0,0:0:0:0:
372,126,46713,1,0,0:0:0:0:
372,126,46817,1,2,3:2:0:0:
486,224,47023,2,0,P|406:227|349:303,1,161.999995056153,2|0,0:0|0:0,0:0:0:0:
340,325,47541,1,0,0:0:0:0:
340,325,47644,6,0,P|266:319|246:260,1,121.499996292114,2|2,3:2|0:0,0:0:0:0:
254,264,48058,1,0,3:0:0:0:
242,155,48265,2,0,P|222:117|187:108,1,80.9999975280763,2|0,0:0|3:0,0:0:0:0:
163,268,48679,2,0,L|334:199,1,161.999995056153,2|0,0:0|0:0,0:0:0:0:
313,207,49196,1,0,0:0:0:0:
313,207,49299,1,0,3:0:0:0:
410,322,49506,5,2,0:0:0:0:
401,179,49713,1,2,3:2:0:0:
330,303,49920,1,0,0:0:0:0:
330,303,50023,1,0,0:0:0:0:
330,303,50127,1,2,3:2:0:0:
454,248,50334,2,0,P|485:212|487:174,1,80.9999975280763,2|0,0:0|3:0,0:0:0:0:
337,88,50748,1,2,0:0:0:0:
337,88,50851,1,0,0:0:0:0:
337,88,50955,6,0,P|393:103|402:170,1,121.499996292114,2|2,3:2|0:0,0:0:0:0:
401,179,51368,1,0,3:0:0:0:
391,309,51575,2,0,P|408:349|447:357,1,80.9999975280763,2|0,0:0|3:0,0:0:0:0:
454,248,51989,2,0,P|380:266|283:295,1,161.999995056153,2|2,0:0|0:0,0:0:0:0:
297,289,52506,1,2,0:0:0:0:
297,289,52610,5,2,3:2:0:0:
148,253,52817,1,2,0:0:0:0:
278,374,53023,1,0,3:0:0:0:
235,229,53230,2,0,L|189:392,1,161.999995056153,2|0,0:0|0:0,0:0:0:0:
319,209,53851,2,0,L|344:120,1,80.9999975280763,2|2,3:2|0:0,0:0:0:0:
340,131,54161,1,2,0:0:0:0:
340,131,54265,5,2,3:2:0:0:
223,55,54472,1,2,0:0:0:0:
86,107,54679,1,2,3:2:0:0:
32,242,54886,1,2,0:0:0:0:
96,372,55092,5,2,3:2:0:0:
178,349,55299,1,2,0:0:0:0:
204,269,55506,1,2,3:2:0:0:
164,205,55713,1,2,0:0:0:0:
164,205,55817,1,2,0:0:0:0:
164,205,55920,6,0,P|112:204|68:158,1,90,4|2,3:2|0:0,0:0:0:0:
239,160,56334,1,2,3:2:0:0:
51,104,56541,1,2,0:0:0:0:
51,104,56644,1,2,0:0:0:0:
51,104,56748,2,0,P|93:25|193:37,1,180,2|0,3:2|3:0,0:0:0:0:
311,109,57368,1,2,0:0:0:0:
311,109,57472,1,0,0:0:0:0:
311,109,57575,5,2,3:2:0:0:
264,29,57782,1,2,0:0:0:0:
264,182,57989,1,2,3:2:0:0:
404,102,58196,1,2,0:0:0:0:
404,102,58299,1,2,0:0:0:0:
404,102,58403,2,0,P|489:140|481:222,1,180,2|0,3:2|3:0,0:0:0:0:
417,287,59023,1,2,0:0:0:0:
417,287,59127,1,0,0:0:0:0:
417,287,59230,6,0,P|405:236|387:185,1,90,2|2,3:2|0:0,0:0:0:0:
339,337,59644,1,2,3:2:0:0:
493,224,59851,1,2,0:0:0:0:
493,224,59955,1,2,0:0:0:0:
493,224,60058,1,0,3:0:0:0:
306,178,60265,1,2,0:0:0:0:
280,162,60368,1,0,0:0:0:0:
262,138,60472,1,2,3:2:0:0:
253,109,60575,1,0,0:0:0:0:
255,80,60679,1,2,0:0:0:0:
268,53,60782,1,0,0:0:0:0:
289,32,60886,5,2,3:2:0:0:
223,352,61299,1,2,3:2:0:0:
289,32,61713,2,0,P|325:59|321:108,1,90,2|0,3:2|0:0,0:0:0:0:
145,222,62127,1,2,3:2:0:0:
155,183,62230,1,2,0:0:0:0:
185,155,62334,1,2,0:0:0:0:
225,150,62437,1,2,0:0:0:0:
261,168,62541,6,0,L|285:267,1,90,4|2,3:2|0:0,0:0:0:0:
325,100,62955,1,2,3:2:0:0:
379,292,63161,1,2,0:0:0:0:
379,292,63265,1,2,0:0:0:0:
379,292,63368,2,0,P|474:266|471:178,1,180,2|0,3:2|3:0,0:0:0:0:
430,67,63989,1,2,0:0:0:0:
430,67,64092,1,0,0:0:0:0:
430,67,64196,5,2,3:2:0:0:
403,150,64403,1,2,0:0:0:0:
512,36,64610,1,2,3:2:0:0:
364,0,64817,1,2,0:0:0:0:
364,0,64920,1,2,0:0:0:0:
364,0,65023,2,0,P|280:12|261:95,1,180,2|0,3:2|3:0,0:0:0:0:
256,265,65644,1,2,0:0:0:0:
256,265,65748,1,2,0:0:0:0:
256,265,65851,6,0,P|325:232|314:165,1,135,2|2,3:2|0:0,0:0:0:0:
320,163,66265,1,0,3:0:0:0:
209,342,66472,2,0,P|173:318|164:274,1,90,2|0,0:0|3:0,0:0:0:0:
300,345,66886,1,2,0:0:0:0:
294,365,66989,1,2,0:0:0:0:
286,384,67092,1,0,3:0:0:0:
95,219,67299,1,2,0:0:0:0:
101,199,67403,1,2,0:0:0:0:
109,180,67506,6,0,P|90:106|62:4,1,180,2|0,3:2|3:0,0:0:0:0:
62,6,68334,6,0,P|86:43|144:46,1,90,2|0,3:2|0:0,0:0:0:0:
152,76,68644,2,0,L|165:19,1,45,2|2,0:0|3:2,0:0:0:0:
192,237,68955,2,0,L|182:280,1,45,2|0,0:0|0:2,0:0:0:0:
55,196,69161,5,2,3:2:0:0:
76,188,69265,1,0,0:0:0:0:
97,181,69368,1,0,0:0:0:0:
118,174,69472,1,0,0:0:0:0:
140,168,69575,1,0,3:0:0:0:
162,161,69679,1,0,0:0:0:0:
183,156,69782,1,0,0:0:0:0:
205,150,69886,1,0,0:0:0:0:
239,171,69989,5,2,3:2:0:0:
217,178,70092,1,0,0:0:0:0:
196,185,70196,1,0,0:0:0:0:
175,192,70299,1,0,0:0:0:0:
153,198,70403,1,0,3:0:0:0:
131,205,70506,1,0,0:0:0:0:
110,210,70610,1,0,0:0:0:0:
88,216,70713,1,0,0:0:0:0:
69,252,70817,5,2,3:2:0:0:
95,272,70920,1,0,1:0:0:0:
125,287,71023,1,0,1:0:0:0:
158,296,71127,1,0,1:0:0:0:
191,299,71230,1,0,1:0:0:0:
225,295,71334,1,0,1:0:0:0:
257,285,71437,1,0,1:0:0:0:
286,268,71541,1,0,1:0:0:0:
312,247,71644,1,0,1:0:0:0:
333,220,71748,1,0,1:0:0:0:
349,191,71851,1,0,1:0:0:0:
359,158,71955,1,0,1:0:0:0:
362,125,72058,1,0,1:0:0:0:
359,91,72161,1,0,1:0:0:0:
349,59,72265,1,0,1:0:0:0:
334,29,72368,1,8,1:3:0:0:
313,3,72472,1,12,3:0:0:0:
122,178,72782,5,8,3:0:0:0:
165,192,72886,1,4,3:0:0:0:
165,192,73092,2,0,P|153:211|146:251,1,53.9999983520508,8|0,3:0|0:0,0:0:0:0:
67,253,73299,5,2,3:2:0:0:
40,225,73403,1,2,3:2:0:0:
25,187,73506,1,2,3:2:0:0:
22,147,73610,1,2,3:2:0:0:
34,108,73713,1,2,3:2:0:0:
56,76,73817,1,2,3:2:0:0:
90,52,73920,1,2,3:2:0:0:
128,41,74023,1,2,3:2:0:0:
169,44,74127,6,0,P|224:104|338:103,1,198.000006042481,4|0,3:2|1:0,0:0:0:0:
504,11,74748,1,2,0:0:0:0:
504,11,74851,1,0,0:0:0:0:
504,11,74955,1,2,3:2:0:0:
334,104,75161,1,2,0:0:0:0:
510,185,75368,1,2,1:2:0:0:
444,97,75575,1,2,0:0:0:0:
444,97,75679,1,0,0:0:0:0:
444,97,75782,6,0,P|420:183|400:307,2,198.000006042481,2|0|2,3:2|1:0|3:2,0:0:0:0:
257,32,76817,1,2,0:0:0:0:
238,61,76920,1,0,0:0:0:0:
232,98,77023,1,2,1:2:0:0:
238,133,77127,1,0,0:0:0:0:
258,162,77230,1,2,0:0:0:0:
286,184,77334,1,0,0:0:0:0:
321,195,77437,6,0,P|302:264|285:350,1,148.50000453186,2|0,3:2|0:0,0:0:0:0:
366,368,77851,2,0,P|431:364|450:325,1,99.0000030212403,2|0,1:2|0:0,0:0:0:0:
216,240,78265,1,2,3:2:0:0:
412,159,78472,1,2,0:0:0:0:
438,136,78575,1,2,0:0:0:0:
441,101,78679,1,2,1:2:0:0:
420,72,78782,1,2,0:0:0:0:
320,162,78989,1,0,0:0:0:0:
320,162,79092,6,0,P|438:186|527:210,1,198.000006042481,2|0,3:2|1:0,0:0:0:0:
244,216,79713,1,2,0:0:0:0:
213,200,79817,1,2,0:0:0:0:
225,168,79920,1,2,3:2:0:0:
334,257,80127,1,2,0:0:0:0:
334,291,80230,1,2,0:0:0:0:
311,317,80334,1,0,1:0:0:0:
276,322,80437,1,2,0:0:0:0:
320,162,80644,1,2,0:0:0:0:
320,162,80748,6,0,P|282:85|145:101,1,198.000006042481,2|0,3:2|1:0,0:0:0:0:
69,168,81368,1,2,0:0:0:0:
69,168,81472,1,0,0:0:0:0:
69,168,81575,1,2,3:2:0:0:
110,13,81782,1,2,0:0:0:0:
133,234,81989,1,2,1:2:0:0:
2,107,82196,1,2,0:0:0:0:
2,107,82299,1,0,0:0:0:0:
2,107,82403,6,0,P|68:129|201:169,1,198.000006042481,2|0,3:2|1:0,0:0:0:0:
110,13,83023,2,0,P|74:52|89:108,1,99.0000030212403,2|0,0:0|3:0,0:0:0:0:
224,247,83437,1,2,0:0:0:0:
263,238,83541,1,0,0:0:0:0:
297,214,83644,1,2,1:2:0:0:
318,179,83748,1,0,0:0:0:0:
324,138,83851,1,2,0:0:0:0:
314,99,83955,1,0,0:0:0:0:
289,66,84058,1,2,3:2:0:0:
134,233,84265,5,2,0:0:0:0:
142,266,84368,1,0,0:0:0:0:
151,299,84472,1,2,1:2:0:0:
190,166,84679,1,2,0:0:0:0:
87,365,84886,5,2,3:2:0:0:
49,332,84989,1,2,0:0:0:0:
25,290,85092,1,2,0:0:0:0:
14,241,85196,1,2,0:0:0:0:
20,192,85299,1,2,1:2:0:0:
41,148,85403,1,2,0:0:0:0:
75,112,85506,1,2,0:0:0:0:
119,89,85610,1,2,0:0:0:0:
168,81,85713,5,4,3:2:0:0:
234,340,86023,5,2,3:2:0:0:
496,288,86334,5,2,3:2:0:0:
496,288,86437,1,2,3:2:0:0:
496,288,86541,1,2,3:2:0:0:
404,230,86748,1,2,3:2:0:0:
386,199,86851,1,2,3:2:0:0:
381,164,86955,1,2,3:2:0:0:
390,130,87058,1,2,3:2:0:0:
412,104,87161,1,2,3:2:0:0:
442,86,87265,1,2,3:2:0:0:
477,82,87368,6,0,P|432:136|302:127,1,198.000006042481,4|0,3:2|1:0,0:0:0:0:
134,88,87989,1,2,0:0:0:0:
134,88,88092,1,0,0:0:0:0:
134,88,88196,1,2,3:2:0:0:
330,42,88403,1,2,0:0:0:0:
209,163,88610,2,0,P|218:113|240:59,1,99.0000030212403,2|0,1:2|0:0,0:0:0:0:
251,329,89023,5,2,3:2:0:0:
286,338,89127,1,0,0:0:0:0:
323,336,89230,1,0,0:0:0:0:
356,320,89334,1,0,0:0:0:0:
383,294,89437,1,0,1:0:0:0:
399,261,89541,1,0,0:0:0:0:
402,224,89644,1,0,0:0:0:0:
393,189,89748,1,0,0:0:0:0:
371,158,89851,1,2,3:2:0:0:
243,76,90058,1,2,0:0:0:0:
243,76,90161,1,0,0:0:0:0:
243,76,90265,1,0,1:2:0:0:
299,235,90472,1,2,0:0:0:0:
438,98,90679,6,0,P|356:127|261:158,1,175.499991966248,2|0,3:2|0:0,0:0:0:0:
208,220,91092,2,0,P|177:195|191:136,1,99.0000030212403,2|0,1:2|0:0,0:0:0:0:
366,27,91506,1,2,3:2:0:0:
307,242,91713,1,2,0:0:0:0:
307,242,91817,1,0,0:0:0:0:
307,242,91920,2,0,L|279:339,1,99.0000030212403,2|0,1:2|0:0,0:0:0:0:
203,371,92230,1,0,0:0:0:0:
203,371,92334,5,2,3:2:0:0:
165,374,92437,1,0,0:0:0:0:
130,365,92541,1,0,0:0:0:0:
99,344,92644,1,0,0:0:0:0:
77,314,92748,1,0,1:0:0:0:
66,278,92851,1,0,0:0:0:0:
68,241,92955,1,0,0:0:0:0:
82,208,93058,1,0,0:0:0:0:
107,180,93161,1,2,3:2:0:0:
222,127,93368,1,0,0:0:0:0:
215,150,93472,1,0,0:0:0:0:
209,174,93575,1,0,1:0:0:0:
203,198,93679,1,0,0:0:0:0:
198,223,93782,1,0,0:0:0:0:
194,247,93886,1,0,0:0:0:0:
190,271,93989,1,4,3:2:0:0:
316,130,94196,5,2,0:0:0:0:
317,86,94299,1,0,0:0:0:0:
294,48,94403,1,2,1:2:0:0:
254,29,94506,1,0,0:0:0:0:
211,35,94610,2,0,P|178:66|117:64,1,99.0000030212403,2|0,0:0|3:0,0:0:0:0:
295,226,95023,1,2,0:0:0:0:
335,227,95127,1,0,0:0:0:0:
374,212,95230,1,2,1:2:0:0:
402,183,95334,1,0,0:0:0:0:
418,145,95437,1,2,0:0:0:0:
416,104,95541,1,0,0:0:0:0:
399,67,95644,1,2,3:2:0:0:
304,318,95851,5,2,0:0:0:0:
261,324,95955,1,0,0:0:0:0:
222,305,96058,1,2,1:2:0:0:
198,266,96161,1,0,0:0:0:0:
199,223,96265,2,0,P|214:172|233:113,1,99.0000030212403,2|0,0:0|3:0,0:0:0:0:
26,189,96679,1,2,0:0:0:0:
8,235,96782,1,0,0:0:0:0:
10,284,96886,1,0,1:0:0:0:
31,328,96989,1,0,0:0:0:0:
69,359,97092,1,2,0:0:0:0:
116,373,97196,1,0,0:0:0:0:
165,366,97299,1,4,3:2:0:0:
165,366,97713,5,2,1:2:0:0:
290,240,97920,1,2,0:0:0:0:
279,272,98023,1,2,0:0:0:0:
267,304,98127,1,2,3:2:0:0:
255,336,98230,1,2,0:0:0:0:
225,181,98437,1,2,0:0:0:0:
225,181,98541,1,0,1:0:0:0:
352,315,98748,2,0,P|417:306|442:271,1,99.0000030212403,2|0,0:0|3:0,0:0:0:0:
422,57,99161,5,2,0:0:0:0:
375,228,99368,1,2,1:2:0:0:
501,171,99575,1,2,0:0:0:0:
467,161,99679,1,2,0:0:0:0:
433,153,99782,1,2,3:2:0:0:
399,144,99886,1,2,0:0:0:0:
277,5,100092,1,2,0:0:0:0:
277,5,100196,2,0,P|325:19|332:73,1,99.0000030212403,0|2,1:0|0:0,0:0:0:0:
316,145,100506,1,0,0:0:0:0:
316,145,100610,5,2,3:2:0:0:
302,157,100713,1,0,0:0:0:0:
286,167,100817,1,0,0:0:0:0:
269,173,100920,1,0,0:0:0:0:
251,176,101023,1,0,1:0:0:0:
232,175,101127,1,0,0:0:0:0:
214,170,101230,1,0,0:0:0:0:
198,161,101334,1,0,0:0:0:0:
184,149,101437,1,2,3:2:0:0:
172,135,101541,1,0,0:0:0:0:
164,118,101644,1,0,0:0:0:0:
159,100,101748,1,0,0:0:0:0:
158,82,101851,1,0,1:0:0:0:
161,64,101955,1,0,0:0:0:0:
167,46,102058,1,0,0:0:0:0:
177,31,102161,1,0,0:0:0:0:
189,17,102265,5,4,3:2:0:0:
238,23,102368,1,2,0:0:0:0:
282,46,102472,1,2,0:0:0:0:
315,82,102575,1,2,0:0:0:0:
335,127,102679,1,2,1:2:0:0:
338,176,102782,1,2,0:0:0:0:
325,223,102886,1,2,0:0:0:0:
296,263,102989,1,2,0:0:0:0:
256,292,103092,5,2,3:2:0:0:
244,244,103196,1,0,1:0:0:0:
248,195,103299,1,0,1:0:0:0:
267,149,103403,1,0,1:0:0:0:
300,112,103506,1,2,1:2:0:0:
343,88,103610,1,0,1:0:0:0:
391,78,103713,1,0,1:0:0:0:
440,84,103817,1,0,1:0:0:0:
484,106,103920,1,4,3:2:0:0:
256,192,115506,12,4,117161,0:0:0:0:
152,364,117368,6,0,P|162:326|173:290,1,72,2|2,0:0|0:0,0:0:0:0:
171,294,117989,2,0,P|205:303|240:313,1,72,2|2,0:0|0:0,0:0:0:0:
240,313,118610,1,2,0:0:0:0:
322,302,118817,2,0,P|358:252|341:200,1,108,2|2,0:0|0:0,0:0:0:0:
258,109,119437,1,2,0:0:0:0:
258,109,119851,1,2,0:0:0:0:
191,156,120058,1,2,0:0:0:0:
237,223,120265,2,0,P|252:229|280:238,2,36,2|0|0,0:0|0:0|0:0,0:0:0:0:
160,257,120679,6,0,P|125:246|91:234,1,72,2|2,0:0|0:0,0:0:0:0:
91,234,121299,2,0,P|102:199|113:165,1,72,2|2,0:0|0:0,0:0:0:0:
113,165,121920,1,2,0:0:0:0:
59,105,122127,2,0,P|64:40|117:27,1,108,2|2,0:0|0:0,0:0:0:0:
241,94,122748,2,0,L|387:62,1,144,2|2,0:0|0:0,0:0:0:0:
457,106,123368,1,0,0:0:0:0:
504,36,123575,2,0,L|512:1,2,36
473,189,123989,5,2,0:0:0:0:
473,189,124196,1,2,0:0:0:0:
381,63,124610,1,2,0:0:0:0:
381,63,124817,1,2,0:0:0:0:
349,213,125230,1,2,0:0:0:0:
349,213,125437,2,0,P|296:267|228:262,1,144,2|2,0:0|0:0,0:0:0:0:
187,132,126058,2,0,L|170:202,1,72,2|0,0:0|0:0,0:0:0:0:
141,61,126472,2,0,P|71:60|23:111,1,144,2|2,0:0|0:0,0:0:0:0:
23,111,126989,1,0,0:0:0:0:
23,111,127092,5,2,0:0:0:0:
13,200,127299,1,2,0:0:0:0:
79,250,127506,1,2,0:0:0:0:
65,332,127713,1,2,0:0:0:0:
65,332,128127,1,2,0:0:0:0:
79,250,128334,2,0,P|114:245|146:230,1,72,2|0,0:0|0:0,0:0:0:0:
146,230,128644,1,0,0:0:0:0:
146,230,128748,5,2,0:0:0:0:
222,286,129161,1,2,0:0:0:0:
190,367,129575,5,2,0:0:0:0:
211,286,129782,1,2,0:0:0:0:
287,250,129989,1,2,0:0:0:0:
375,283,130196,1,2,3:2:0:0:
375,283,130299,1,2,3:2:0:0:
375,283,130403,6,0,P|401:315|399:358,1,80.9999975280763,4|2,3:2|0:0,0:0:0:0:
509,245,130817,1,2,3:2:0:0:
431,215,131023,1,0,0:0:0:0:
431,215,131127,1,0,0:0:0:0:
431,215,131230,1,2,3:2:0:0:
459,78,131437,2,0,P|460:117|487:147,1,80.9999975280763,2|0,0:0|3:0,0:0:0:0:
299,65,131851,1,2,0:0:0:0:
299,65,131955,1,0,0:0:0:0:
299,65,132058,6,0,P|329:9|408:20,1,121.499996292114,2|2,3:2|0:0,0:0:0:0:
401,12,132472,1,0,3:0:0:0:
356,134,132679,2,0,P|323:153|276:151,1,80.9999975280763,2|0,0:0|3:0,0:0:0:0:
162,64,133092,1,2,0:0:0:0:
196,139,133299,1,2,3:2:0:0:
229,7,133506,1,2,0:0:0:0:
229,7,133610,1,0,0:0:0:0:
229,7,133713,1,0,3:0:0:0:
281,152,133920,5,2,0:0:0:0:
123,201,134127,2,0,P|102:166|101:123,1,80.9999975280763,2|0,3:2|0:0,0:0:0:0:
100,126,134437,1,0,0:0:0:0:
100,126,134541,1,2,3:2:0:0:
78,282,134748,2,0,P|134:225|213:228,1,161.999995056153,2|0,0:0|0:0,0:0:0:0:
248,248,135265,1,0,0:0:0:0:
248,248,135368,6,0,P|240:306|301:336,1,121.499996292114,2|2,3:2|0:0,0:0:0:0:
306,336,135782,1,0,3:0:0:0:
390,207,135989,2,0,P|351:213|332:248,1,80.9999975280763,2|0,0:0|3:0,0:0:0:0:
435,378,136403,2,0,L|477:203,1,161.999995056153,2|0,0:0|0:0,0:0:0:0:
472,220,136920,1,0,0:0:0:0:
472,220,137023,1,0,3:0:0:0:
364,125,137230,5,2,0:0:0:0:
390,207,137437,1,2,3:2:0:0:
433,71,137644,1,0,0:0:0:0:
433,71,137748,1,0,0:0:0:0:
433,71,137851,1,2,3:2:0:0:
305,190,138058,2,0,P|260:192|220:154,1,80.9999975280763,2|0,0:0|3:0,0:0:0:0:
168,11,138472,1,2,0:0:0:0:
168,11,138575,1,0,0:0:0:0:
168,11,138679,6,0,P|232:27|232:100,1,121.499996292114,2|2,3:2|0:0,0:0:0:0:
231,87,139092,1,0,3:0:0:0:
78,35,139299,2,0,P|45:75|69:114,1,80.9999975280763,2|0,0:0|3:0,0:0:0:0:
102,253,139713,2,0,P|121:174|144:96,1,161.999995056153,2|2,0:0|0:0,0:0:0:0:
144,96,140230,1,2,0:0:0:0:
144,96,140334,5,2,3:2:0:0:
29,198,140541,1,2,0:0:0:0:
78,35,140748,1,0,3:0:0:0:
219,157,140955,2,0,P|301:146|326:74,1,161.999995056153,2|0,0:0|0:0,0:0:0:0:
144,96,141575,2,0,L|117:186,1,80.9999975280763,2|2,3:2|0:0,0:0:0:0:
120,173,141886,1,2,0:0:0:0:
120,173,141989,5,2,3:2:0:0:
231,284,142196,1,2,0:0:0:0:
376,298,142403,1,2,3:2:0:0:
490,207,142610,1,2,0:0:0:0:
487,61,142817,5,2,3:2:0:0:
408,29,143023,1,2,0:0:0:0:
338,78,143230,1,2,3:2:0:0:
351,170,143437,1,2,0:0:0:0:
351,170,143541,1,2,0:0:0:0:
351,170,143644,6,0,P|405:184|428:218,1,90,4|2,3:2|0:0,0:0:0:0:
272,205,144058,1,2,3:2:0:0:
438,301,144265,1,2,0:0:0:0:
438,301,144368,1,2,0:0:0:0:
438,301,144472,2,0,P|379:369|288:356,1,180,2|0,3:2|3:0,0:0:0:0:
198,259,145092,1,2,0:0:0:0:
198,259,145196,1,0,0:0:0:0:
198,259,145299,5,2,3:2:0:0:
272,205,145506,1,2,0:0:0:0:
208,343,145713,1,2,3:2:0:0:
113,225,145920,1,2,0:0:0:0:
113,225,146023,1,2,0:0:0:0:
113,225,146127,2,0,P|95:133|162:86,1,180,2|0,3:2|3:0,0:0:0:0:
236,35,146748,1,2,0:0:0:0:
236,35,146851,1,0,0:0:0:0:
236,35,146955,6,0,L|249:128,1,90,2|2,3:2|0:0,0:0:0:0:
316,0,147368,1,2,3:2:0:0:
164,94,147575,1,2,0:0:0:0:
164,94,147679,1,2,0:0:0:0:
164,94,147782,1,0,3:0:0:0:
334,146,147989,1,2,0:0:0:0:
357,161,148092,1,0,0:0:0:0:
375,184,148196,1,2,3:2:0:0:
384,214,148299,1,0,0:0:0:0:
381,245,148403,1,2,0:0:0:0:
369,269,148506,1,0,0:0:0:0:
348,290,148610,5,2,3:2:0:0:
164,94,149023,1,2,3:2:0:0:
348,290,149437,2,0,P|299:290|274:253,1,90,2|0,3:2|0:0,0:0:0:0:
91,153,149851,1,2,3:2:0:0:
113,186,149955,1,2,0:0:0:0:
149,203,150058,1,2,0:0:0:0:
189,200,150161,1,2,0:0:0:0:
221,176,150265,6,0,L|251:78,1,90,4|2,3:2|0:0,0:0:0:0:
275,260,150679,1,2,3:2:0:0:
155,95,150886,1,2,0:0:0:0:
155,95,150989,1,2,0:0:0:0:
155,95,151092,2,0,P|64:77|1:141,1,180,2|0,3:2|3:0,0:0:0:0:
112,245,151713,1,2,0:0:0:0:
112,245,151817,1,0,0:0:0:0:
112,245,151920,5,2,3:2:0:0:
91,158,152127,1,2,0:0:0:0:
42,294,152334,1,2,3:2:0:0:
204,260,152541,1,2,0:0:0:0:
204,260,152644,1,2,0:0:0:0:
204,260,152748,2,0,P|296:275|328:355,1,180,2|0,3:2|3:0,0:0:0:0:
413,192,153368,1,2,0:0:0:0:
413,192,153472,1,2,0:0:0:0:
413,192,153575,6,0,P|336:191|304:248,1,135,2|2,3:2|0:0,0:0:0:0:
307,253,153989,1,0,3:0:0:0:
438,110,154196,2,0,P|481:101|505:64,1,90,2|0,0:0|3:0,0:0:0:0:
274,50,154610,1,2,0:0:0:0:
254,44,154713,1,2,0:0:0:0:
235,36,154817,1,0,3:0:0:0:
413,192,155023,1,2,0:0:0:0:
433,198,155127,1,2,0:0:0:0:
452,206,155230,6,0,P|431:293|414:381,1,180,2|0,3:2|3:0,0:0:0:0:
413,381,156058,6,0,P|389:344|331:341,1,90,2|0,3:2|0:0,0:0:0:0:
325,308,156368,2,0,L|312:365,1,45,2|2,0:0|3:2,0:0:0:0:
284,157,156679,2,0,L|294:114,1,45,2|0,0:0|0:2,0:0:0:0:
190,272,156886,5,2,3:2:0:0:
211,264,156989,1,0,0:0:0:0:
232,257,157092,1,0,0:0:0:0:
253,250,157196,1,0,0:0:0:0:
275,244,157299,1,0,3:0:0:0:
297,237,157403,1,0,0:0:0:0:
318,232,157506,1,0,0:0:0:0:
340,226,157610,1,0,0:0:0:0:
353,188,157713,5,2,3:2:0:0:
331,195,157817,1,0,0:0:0:0:
310,202,157920,1,0,0:0:0:0:
289,209,158023,1,0,0:0:0:0:
267,215,158127,1,0,3:0:0:0:
245,222,158230,1,0,0:0:0:0:
224,227,158334,1,0,0:0:0:0:
202,233,158437,1,0,0:0:0:0:
165,216,158541,5,2,3:2:0:0:
160,182,158644,1,0,1:0:0:0:
162,149,158748,1,0,1:0:0:0:
171,116,158851,1,0,1:0:0:0:
184,86,158955,1,0,1:0:0:0:
204,58,159058,1,0,1:0:0:0:
230,36,159161,1,0,1:0:0:0:
259,19,159265,1,0,1:0:0:0:
290,7,159368,1,0,1:0:0:0:
324,2,159472,1,0,1:0:0:0:
357,3,159575,1,0,1:0:0:0:
391,11,159679,1,0,1:0:0:0:
420,25,159782,1,0,1:0:0:0:
449,44,159886,1,0,1:0:0:0:
472,69,159989,1,0,1:0:0:0:
490,97,160092,1,8,1:3:0:0:
502,128,160196,1,12,3:0:0:0:
281,235,160506,5,8,3:0:0:0:
291,192,160610,1,4,3:0:0:0:
291,192,160817,2,0,P|272:180|232:173,1,53.9999983520508,8|0,3:0|0:0,0:0:0:0:
165,216,161023,5,2,3:2:0:0:
172,253,161127,1,2,3:2:0:0:
194,287,161230,1,2,3:2:0:0:
225,313,161334,1,2,3:2:0:0:
263,325,161437,1,2,3:2:0:0:
303,326,161541,1,2,3:2:0:0:
342,311,161644,1,2,3:2:0:0:
372,287,161748,1,2,3:2:0:0:
394,252,161851,6,0,P|385:161|361:47,1,198.000006042481,4|0,3:2|1:0,0:0:0:0:
176,0,162472,1,2,0:0:0:0:
176,0,162575,1,0,0:0:0:0:
176,0,162679,1,2,3:2:0:0:
216,194,162886,1,2,0:0:0:0:
363,56,163092,1,2,1:2:0:0:
258,88,163299,1,2,0:0:0:0:
258,88,163403,1,0,0:0:0:0:
258,88,163506,6,0,P|171:115|53:131,2,198.000006042481,2|0|2,3:2|1:0|3:2,0:0:0:0:
375,196,164541,1,2,0:0:0:0:
384,231,164644,1,0,0:0:0:0:
379,267,164748,1,2,1:2:0:0:
360,298,164851,1,0,0:0:0:0:
330,319,164955,1,2,0:0:0:0:
295,326,165058,1,0,0:0:0:0:
260,319,165161,6,0,L|292:158,1,148.50000453186,2|0,3:2|0:0,0:0:0:0:
258,88,165575,2,0,P|206:119|217:176,1,99.0000030212403,2|0,1:2|0:0,0:0:0:0:
379,267,165989,1,2,3:2:0:0:
204,384,166196,1,2,0:0:0:0:
173,369,166299,1,2,0:0:0:0:
161,336,166403,1,2,1:2:0:0:
174,303,166506,1,2,0:0:0:0:
346,353,166713,1,0,0:0:0:0:
346,353,166817,6,0,P|460:310|436:212,1,198.000006042481,2|0,3:2|1:0,0:0:0:0:
488,107,167437,1,2,0:0:0:0:
489,143,167541,1,2,0:0:0:0:
458,159,167644,1,2,3:2:0:0:
332,82,167851,1,2,0:0:0:0:
332,48,167955,1,2,0:0:0:0:
355,22,168058,1,0,1:0:0:0:
390,17,168161,1,2,0:0:0:0:
364,172,168368,1,2,0:0:0:0:
364,172,168472,6,0,P|283:150|153:121,1,198.000006042481,2|0,3:2|1:0,0:0:0:0:
0,83,169092,1,2,0:0:0:0:
0,83,169196,1,0,0:0:0:0:
0,83,169299,1,2,3:2:0:0:
124,206,169506,1,2,0:0:0:0:
159,30,169713,1,2,1:2:0:0:
37,175,169920,1,2,0:0:0:0:
37,175,170023,1,0,0:0:0:0:
37,175,170127,6,0,P|19:283|103:325,1,198.000006042481,2|0,3:2|1:0,0:0:0:0:
251,243,170748,2,0,L|154:268,1,99.0000030212403,2|0,0:0|3:0,0:0:0:0:
263,382,171161,1,2,0:0:0:0:
304,384,171265,1,0,0:0:0:0:
337,362,171368,1,2,1:2:0:0:
352,324,171472,1,0,0:0:0:0:
341,285,171575,1,2,0:0:0:0:
277,147,171782,6,0,L|250:242,1,99.0000030212403,2|0,3:2|0:0,0:0:0:0:
212,255,172092,1,0,0:0:0:0:
175,238,172196,1,2,1:2:0:0:
160,201,172299,1,0,0:0:0:0:
172,163,172403,1,2,0:0:0:0:
341,285,172610,5,2,3:2:0:0:
392,280,172713,1,2,0:0:0:0:
436,262,172817,1,2,0:0:0:0:
473,229,172920,1,2,0:0:0:0:
500,188,173023,1,2,1:2:0:0:
511,140,173127,1,2,0:0:0:0:
505,91,173230,1,2,0:0:0:0:
486,46,173334,1,2,0:0:0:0:
451,8,173437,5,4,3:2:0:0:
249,242,173748,5,2,3:2:0:0:
512,382,174058,5,2,3:2:0:0:
512,382,174161,1,2,3:2:0:0:
512,382,174265,1,2,3:2:0:0:
358,315,174472,1,2,3:2:0:0:
348,279,174575,1,2,3:2:0:0:
354,244,174679,1,2,3:2:0:0:
370,213,174782,1,2,3:2:0:0:
401,190,174886,1,2,3:2:0:0:
432,184,174989,1,2,3:2:0:0:
468,190,175092,6,0,P|442:284|422:401,1,198.000006042481,4|0,3:2|1:0,0:0:0:0:
275,251,175713,1,2,0:0:0:0:
275,251,175817,1,0,0:0:0:0:
275,251,175920,1,2,3:2:0:0:
468,190,176127,1,2,0:0:0:0:
325,61,176334,2,0,P|322:105|293:171,1,99.0000030212403,2|0,1:2|0:0,0:0:0:0:
74,218,176748,5,2,3:2:0:0:
61,183,176851,1,0,0:0:0:0:
60,146,176955,1,0,0:0:0:0:
73,112,177058,1,0,0:0:0:0:
97,83,177161,1,0,1:0:0:0:
128,64,177265,1,0,0:0:0:0:
165,58,177368,1,0,0:0:0:0:
201,64,177472,1,0,0:0:0:0:
233,83,177575,1,2,3:2:0:0:
334,211,177782,1,2,0:0:0:0:
334,211,177886,1,0,0:0:0:0:
334,211,177989,1,0,1:2:0:0:
162,156,178196,1,2,0:0:0:0:
301,13,178403,6,0,P|272:95|241:190,1,175.499991966248,2|0,3:2|0:0,0:0:0:0:
184,237,178817,2,0,P|219:270|271:259,1,99.0000030212403,2|0,1:2|0:0,0:0:0:0:
381,57,179230,1,2,3:2:0:0:
162,156,179437,1,2,0:0:0:0:
162,156,179541,1,0,0:0:0:0:
162,156,179644,2,0,P|116:147|52:131,1,99.0000030212403,2|0,1:2|0:0,0:0:0:0:
14,200,179955,1,0,0:0:0:0:
14,200,180058,5,2,3:2:0:0:
0,234,180161,1,0,0:0:0:0:
1,270,180265,1,0,0:0:0:0:
15,305,180368,1,0,0:0:0:0:
37,333,180472,1,0,1:0:0:0:
70,351,180575,1,0,0:0:0:0:
107,358,180679,1,0,0:0:0:0:
142,352,180782,1,0,0:0:0:0:
176,333,180886,1,2,3:2:0:0:
269,267,181092,1,0,0:0:0:0:
246,260,181196,1,0,0:0:0:0:
222,254,181299,1,0,1:0:0:0:
198,248,181403,1,0,0:0:0:0:
173,243,181506,1,0,0:0:0:0:
149,239,181610,1,0,0:0:0:0:
125,235,181713,1,4,3:2:0:0:
270,173,181920,5,2,0:0:0:0:
314,172,182023,1,0,0:0:0:0:
352,195,182127,1,2,1:2:0:0:
371,235,182230,1,0,0:0:0:0:
365,278,182334,2,0,P|355:318|338:375,1,99.0000030212403,2|0,0:0|3:0,0:0:0:0:
173,155,182748,1,2,0:0:0:0:
172,115,182851,1,0,0:0:0:0:
187,76,182955,1,2,1:2:0:0:
216,48,183058,1,0,0:0:0:0:
254,32,183161,1,2,0:0:0:0:
295,34,183265,1,0,0:0:0:0:
332,51,183368,1,2,3:2:0:0:
70,144,183575,5,2,0:0:0:0:
64,187,183679,1,0,0:0:0:0:
83,226,183782,1,2,1:2:0:0:
122,250,183886,1,0,0:0:0:0:
165,249,183989,2,0,P|228:236|246:193,1,99.0000030212403,2|0,0:0|3:0,0:0:0:0:
475,6,184403,1,2,0:0:0:0:
493,52,184506,1,0,0:0:0:0:
491,101,184610,1,0,1:0:0:0:
470,145,184713,1,0,0:0:0:0:
432,176,184817,1,2,0:0:0:0:
385,190,184920,1,0,0:0:0:0:
336,183,185023,1,4,3:2:0:0:
336,183,185437,5,2,1:2:0:0:
220,300,185644,1,2,0:0:0:0:
229,268,185748,1,2,0:0:0:0:
238,235,185851,1,2,3:2:0:0:
247,202,185955,1,2,0:0:0:0:
293,353,186161,1,2,0:0:0:0:
293,353,186265,1,0,1:0:0:0:
155,234,186472,2,0,P|106:227|59:208,1,99.0000030212403,2|0,0:0|3:0,0:0:0:0:
336,183,186886,5,2,0:0:0:0:
373,170,186989,1,0,0:0:0:0:
395,137,187092,1,2,1:2:0:0:
390,97,187196,1,0,0:0:0:0:
365,66,187299,1,2,0:0:0:0:
247,202,187506,1,2,3:2:0:0:
247,202,187610,1,2,0:0:0:0:
400,300,187817,1,2,0:0:0:0:
400,300,187920,2,0,P|347:281|290:273,1,99.0000030212403,0|2,1:0|0:0,0:0:0:0:
224,304,188230,1,0,0:0:0:0:
224,304,188334,5,2,3:2:0:0:
210,316,188437,1,0,0:0:0:0:
194,326,188541,1,0,0:0:0:0:
177,332,188644,1,0,0:0:0:0:
159,335,188748,1,0,1:0:0:0:
140,334,188851,1,0,0:0:0:0:
122,329,188955,1,0,0:0:0:0:
106,320,189058,1,0,0:0:0:0:
92,308,189161,1,2,3:2:0:0:
80,294,189265,1,0,0:0:0:0:
72,277,189368,1,0,0:0:0:0:
67,259,189472,1,0,0:0:0:0:
66,241,189575,1,0,1:0:0:0:
69,223,189679,1,0,0:0:0:0:
75,205,189782,1,0,0:0:0:0:
85,190,189886,1,0,0:0:0:0:
96,176,189989,5,4,3:2:0:0:
136,149,190092,1,2,0:0:0:0:
185,139,190196,1,2,0:0:0:0:
233,145,190299,1,2,0:0:0:0:
277,169,190403,1,2,1:2:0:0:
310,206,190506,1,2,0:0:0:0:
328,252,190610,1,2,0:0:0:0:
329,301,190713,1,2,0:0:0:0:
313,347,190817,5,2,3:2:0:0:
269,368,190920,1,0,1:0:0:0:
222,357,191023,1,0,1:0:0:0:
190,321,191127,1,0,1:0:0:0:
186,272,191230,5,2,1:2:0:0:
203,277,191334,1,2,1:2:0:0:
221,280,191437,1,2,1:2:0:0:
239,283,191541,1,2,1:2:0:0:
256,287,191644,6,0,B|237:222|281:247|255:183,2,108,4|2|2,3:2|0:0|0:0,0:0:0:0:
464,353,192679,1,2,0:0:0:0:
464,353,192886,1,2,3:2:0:0:
430,142,193299,5,2,3:2:0:0:
430,142,193403,1,2,0:0:0:0:
402,220,193610,1,2,0:0:0:0:
373,11,193920,1,2,0:0:0:0:
482,269,194334,1,2,0:0:0:0:
482,269,194541,1,2,3:2:0:0:
189,199,194955,5,2,3:2:0:0:
189,199,195058,1,2,0:0:0:0:
111,227,195265,1,2,0:0:0:0:
320,256,195575,1,2,0:0:0:0:
52,146,195989,1,2,0:0:0:0:
52,146,196196,1,2,3:2:0:0:
320,256,196610,5,2,3:2:0:0:
320,256,196713,1,2,0:0:0:0:
242,284,196920,1,2,0:0:0:0:
451,313,197230,1,2,0:0:0:0:
183,203,197644,1,2,0:0:0:0:
183,203,197851,1,2,3:2:0:0:
183,203,198265,5,2,3:2:0:0:
201,191,198368,1,2,0:0:0:0:
211,171,198472,1,2,0:0:0:0:
201,151,198575,2,0,P|162:141|108:125,1,72,2|0,0:0|0:0,0:0:0:0:
124,113,198886,2,0,P|89:103|54:93,1,72,2|2,0:0|3:2,0:0:0:0:
247,23,199299,1,2,0:0:0:0:
227,31,199403,1,2,0:0:0:0:
223,52,199506,1,2,3:2:0:0:
232,72,199610,2,0,P|265:80|321:93,1,72,2|0,0:0|0:0,0:0:0:0:
392,104,199920,5,2,3:2:0:0:
414,93,200023,1,2,0:0:0:0:
423,67,200127,1,2,0:0:0:0:
410,45,200230,1,2,0:0:0:0:
334,175,200437,1,2,0:0:0:0:
334,175,200541,2,0,P|322:220|311:267,1,72,2|2,0:0|3:2,0:0:0:0:
208,367,200955,1,2,0:0:0:0:
197,343,201058,1,2,0:0:0:0:
202,317,201161,1,2,3:2:0:0:
226,308,201265,2,0,P|265:317|327:332,1,72,2|0,0:0|0:0,0:0:0:0:
374,281,201575,5,2,3:2:0:0:
367,254,201679,1,2,0:0:0:0:
344,237,201782,1,2,0:0:0:0:
316,244,201886,1,2,0:0:0:0:
245,189,202092,1,2,0:0:0:0:
245,189,202196,2,0,P|257:144|268:97,1,72,2|2,0:0|3:2,0:0:0:0:
111,61,202610,5,2,0:0:0:0:
118,88,202713,1,2,0:0:0:0:
141,105,202817,1,2,3:2:0:0:
169,98,202920,1,2,0:0:0:0:
287,38,203127,1,2,1:2:0:0:
263,11,203230,5,2,3:2:0:0:
235,34,203334,2,0,P|253:75|263:130,1,90,2|0,3:2|3:0,0:0:0:0:
262,119,203644,1,0,3:0:0:0:
232,249,203851,1,2,1:2:0:0:
203,227,203955,1,2,3:2:0:0:
215,193,204058,1,0,3:0:0:0:
315,274,204265,2,0,L|381:290,1,45,2|0,3:2|1:0,0:0:0:0:
216,333,204472,1,2,3:2:0:0:
176,323,204575,1,2,3:2:0:0:
136,315,204679,1,2,3:2:0:0:
97,304,204782,1,2,3:2:0:0:
57,293,204886,6,0,P|8:245|35:169,1,135,4|0,3:2|0:2,0:0:0:0:
34,166,205299,1,2,1:2:0:0:
111,102,205506,1,2,0:0:0:0:
111,102,205610,1,0,0:0:0:0:
111,102,205713,2,0,P|98:56|88:7,1,90,2|0,3:2|0:0,0:0:0:0:
199,142,206127,1,2,1:2:0:0:
207,172,206230,1,0,0:0:0:0:
216,202,206334,1,0,0:0:0:0:
224,232,206437,1,0,0:0:0:0:
235,261,206541,6,0,P|331:242|354:155,1,180,2|0,3:2|1:0,0:0:0:0:
321,10,207161,1,2,0:0:0:0:
321,10,207265,1,0,0:0:0:0:
321,10,207368,1,2,3:2:0:0:
278,112,207575,1,2,0:0:0:0:
278,112,207679,1,2,0:0:0:0:
278,112,207782,1,2,1:2:0:0:
307,101,207886,1,2,0:0:0:0:
336,92,207989,1,2,0:0:0:0:
365,84,208092,1,2,0:0:0:0:
396,74,208196,1,2,3:2:0:0:
481,134,208403,5,2,0:0:0:0:
481,134,208506,1,2,0:0:0:0:
481,134,208610,1,2,1:2:0:0:
511,257,208817,5,2,0:0:0:0:
511,257,208920,1,2,0:0:0:0:
511,257,209023,1,2,3:2:0:0:
431,378,209230,5,2,0:0:0:0:
431,378,209334,1,2,0:0:0:0:
431,378,209437,1,2,1:2:0:0:
242,383,209644,5,2,0:0:0:0:
242,383,209748,1,2,0:0:0:0:
242,383,209851,2,0,P|276:312|399:323,1,180,2|0,3:2|1:0,0:0:0:0:
424,225,210472,1,2,0:0:0:0:
424,225,210575,1,0,0:0:0:0:
424,225,210679,1,2,3:2:0:0:
311,118,210886,1,2,0:0:0:0:
318,148,210989,1,2,0:0:0:0:
325,178,211092,1,2,1:2:0:0:
333,208,211196,1,2,0:0:0:0:
387,58,211403,1,2,0:0:0:0:
387,57,211506,6,0,P|473:48|520:123,2,180,2|0|2,3:2|1:0|3:2,0:0:0:0:
258,163,212541,1,2,0:0:0:0:
288,155,212644,1,2,0:0:0:0:
318,148,212748,1,2,1:2:0:0:
348,139,212851,1,2,0:0:0:0:
205,12,213058,1,0,0:0:0:0:
205,12,213161,6,0,P|184:102|166:200,1,180,2|0,3:2|1:0,0:0:0:0:
64,303,213782,1,0,0:0:0:0:
64,303,213886,1,0,0:0:0:0:
64,303,213989,2,0,P|143:285|168:282,1,90,2|0,3:2|0:0,0:0:0:0:
178,301,214299,1,0,0:0:0:0:
209,307,214403,1,2,1:2:0:0:
238,298,214506,1,0,0:0:0:0:
259,276,214610,1,0,0:0:0:0:
265,245,214713,1,0,0:0:0:0:
259,215,214817,5,2,3:2:0:0:
77,169,215023,1,2,0:0:0:0:
49,153,215127,1,2,0:0:0:0:
39,123,215230,1,2,1:2:0:0:
52,94,215334,1,2,0:0:0:0:
168,191,215541,1,2,0:0:0:0:
168,191,215644,1,2,3:2:0:0:
245,25,215851,1,2,0:0:0:0:
217,7,215955,1,2,0:0:0:0:
186,4,216058,1,2,1:2:0:0:
158,17,216161,1,2,0:0:0:0:
140,42,216265,1,2,0:0:0:0:
134,73,216368,1,2,0:0:0:0:
141,103,216472,1,2,3:2:0:0:
141,103,216886,6,0,P|228:80|345:55,1,180,2|2,1:2|3:2,0:0:0:0:
428,0,217506,1,2,0:0:0:0:
420,30,217610,1,2,0:0:0:0:
411,60,217713,1,2,1:2:0:0:
402,90,217817,1,2,0:0:0:0:
476,154,218023,1,2,0:0:0:0:
485,124,218127,5,2,3:2:0:0:
27,260,218541,1,2,1:2:0:0:
454,229,218955,5,2,3:2:0:0:
58,155,219368,1,2,1:2:0:0:
256,192,219782,5,2,3:2:0:0:
256,192,219886,12,4,221437,0:0:0:0:
104,73,233023,5,12,3:0:0:0:
408,73,233334,5,12,3:0:0:0:
256,312,233644,5,2,3:2:0:0:
256,304,233748,1,2,1:3:0:0:
256,296,233851,1,2,3:2:0:0:
256,216,234058,5,12,3:0:0:0:
256,192,234161,1,2,1:3:0:0:
288,157,234265,5,12,3:0:0:0:
268,121,234368,1,2,1:3:0:0:
224,102,234472,5,12,3:0:0:0:
250,70,234575,1,2,1:3:0:0:
256,18,234679,6,0,P|145:32|114:115,1,198.000006042481,4|0,3:2|1:0,0:0:0:0:
138,244,235299,1,2,0:0:0:0:
138,244,235403,1,0,0:0:0:0:
138,244,235506,1,2,3:2:0:0:
20,118,235713,1,2,0:0:0:0:
183,164,235920,1,2,1:2:0:0:
99,322,236127,1,2,0:0:0:0:
275,370,236334,5,2,3:2:0:0:
310,383,236437,1,0,0:0:0:0:
347,384,236541,1,0,0:0:0:0:
381,371,236644,1,0,0:0:0:0:
410,347,236748,1,0,1:0:0:0:
429,316,236851,1,0,0:0:0:0:
435,279,236955,1,0,0:0:0:0:
429,243,237058,1,0,0:0:0:0:
410,211,237161,1,2,3:2:0:0:
291,121,237368,1,2,0:0:0:0:
291,121,237472,1,0,0:0:0:0:
291,121,237575,1,0,1:2:0:0:
336,289,237782,1,2,0:0:0:0:
476,151,237989,6,0,P|393:180|309:207,1,175.499991966248,2|0,3:2|0:0,0:0:0:0:
227,178,238403,2,0,P|194:143|202:96,1,99.0000030212403,2|0,1:2|0:0,0:0:0:0:
325,34,238817,1,2,3:2:0:0:
251,279,239023,1,2,0:0:0:0:
251,279,239127,1,2,0:0:0:0:
251,279,239230,1,2,1:2:0:0:
251,279,239437,2,0,L|235:330,1,49.5000015106202,2|0,0:0|0:0,0:0:0:0:
85,357,239644,5,2,3:2:0:0:
74,314,239748,1,0,0:0:0:0:
71,271,239851,1,0,0:0:0:0:
75,228,239955,1,0,0:0:0:0:
85,186,240058,1,0,1:0:0:0:
102,146,240161,1,0,0:0:0:0:
125,110,240265,1,0,0:0:0:0:
153,77,240368,1,0,0:0:0:0:
186,49,240472,1,2,3:2:0:0:
223,27,240575,1,0,0:0:0:0:
264,11,240679,1,0,0:0:0:0:
306,1,240782,1,0,0:0:0:0:
349,0,240886,1,0,1:0:0:0:
392,3,240989,1,0,0:0:0:0:
434,14,241092,1,0,0:0:0:0:
473,31,241196,1,0,0:0:0:0:
510,55,241299,6,0,P|487:103|479:155,1,99.0000030212403,4|0,3:2|0:0,0:0:0:0:
395,155,241610,1,0,0:0:0:0:
365,181,241713,1,2,1:2:0:0:
364,220,241817,1,0,0:0:0:0:
393,245,241920,2,0,P|451:254|496:277,1,99.0000030212403,2|0,0:0|3:0,0:0:0:0:
310,300,242334,1,2,0:0:0:0:
270,301,242437,1,0,0:0:0:0:
231,286,242541,1,2,1:2:0:0:
203,257,242644,1,0,0:0:0:0:
187,219,242748,1,2,0:0:0:0:
189,178,242851,1,0,0:0:0:0:
206,141,242955,1,2,3:2:0:0:
384,361,243161,5,2,0:0:0:0:
427,367,243265,1,0,0:0:0:0:
466,348,243368,1,2,1:2:0:0:
490,309,243472,1,0,0:0:0:0:
489,266,243575,2,0,P|474:219|460:156,1,99.0000030212403,2|0,0:0|3:0,0:0:0:0:
222,44,243989,1,2,0:0:0:0:
176,26,244092,1,0,0:0:0:0:
127,28,244196,1,0,1:0:0:0:
83,49,244299,1,0,0:0:0:0:
52,87,244403,1,2,0:0:0:0:
38,134,244506,1,0,0:0:0:0:
45,183,244610,1,4,3:2:0:0:
45,183,245023,5,2,1:2:0:0:
100,338,245230,1,2,0:0:0:0:
106,305,245334,1,2,0:0:0:0:
113,271,245437,1,2,3:2:0:0:
120,238,245541,1,2,0:0:0:0:
16,363,245748,1,2,0:0:0:0:
16,363,245851,1,0,1:0:0:0:
191,303,246058,2,0,P|239:312|293:315,1,99.0000030212403,2|0,0:0|3:0,0:0:0:0:
407,204,246472,5,2,0:0:0:0:
358,384,246679,1,2,1:2:0:0:
490,309,246886,1,2,0:0:0:0:
455,304,246989,1,2,0:0:0:0:
420,299,247092,1,2,3:2:0:0:
385,294,247196,1,2,0:0:0:0:
255,170,247403,1,2,0:0:0:0:
255,170,247506,2,0,P|267:212|326:220,1,99.0000030212403,0|2,1:0|0:0,0:0:0:0:
407,204,247817,1,0,0:0:0:0:
407,204,247920,5,2,3:2:0:0:
423,195,248023,1,0,0:0:0:0:
439,185,248127,1,0,0:0:0:0:
451,172,248230,1,0,0:0:0:0:
462,158,248334,1,0,1:0:0:0:
469,140,248437,1,0,0:0:0:0:
471,121,248541,1,0,0:0:0:0:
470,103,248644,1,0,0:0:0:0:
465,85,248748,1,2,3:2:0:0:
458,69,248851,1,0,0:0:0:0:
446,54,248955,1,0,0:0:0:0:
431,43,249058,1,0,0:0:0:0:
416,33,249161,1,0,1:0:0:0:
398,28,249265,1,0,0:0:0:0:
379,26,249368,1,0,0:0:0:0:
361,29,249472,1,0,0:0:0:0:
344,33,249575,5,2,3:2:0:0:
316,73,249679,1,2,0:0:0:0:
301,120,249782,1,2,0:0:0:0:
302,170,249886,1,2,0:0:0:0:
318,216,249989,1,2,1:2:0:0:
348,256,250092,1,2,0:0:0:0:
388,284,250196,1,2,0:0:0:0:
435,300,250299,1,2,0:0:0:0:
484,299,250403,5,2,3:2:0:0:
474,250,250506,1,0,1:0:0:0:
451,207,250610,1,0,1:0:0:0:
416,172,250713,1,0,1:0:0:0:
371,151,250817,1,2,1:2:0:0:
323,144,250920,1,0,1:0:0:0:
274,152,251023,1,0,1:0:0:0:
230,174,251127,1,0,1:0:0:0:
195,209,251230,6,0,P|190:255|168:318,1,90,4|2,3:2|0:0,0:0:0:0:
139,366,251541,1,2,0:0:0:0:
118,357,251644,1,0,1:0:0:0:
99,369,251748,2,0,P|61:346|70:284,1,90,2|0,0:0|0:0,0:0:0:0:
88,234,252058,1,2,3:2:0:0:
63,108,252265,1,2,0:0:0:0:
40,112,252368,1,2,0:0:0:0:
22,127,252472,1,2,1:2:0:0:
18,150,252575,1,2,0:0:0:0:
27,170,252679,1,2,0:0:0:0:
149,134,252886,6,0,P|194:129|211:82,1,90,2|0,3:2|0:0,0:0:0:0:
202,6,253196,2,0,P|243:23|286:37,1,90,2|0,0:0|0:0,0:0:0:0:
361,64,253506,1,2,0:0:0:0:
424,182,253713,1,2,3:2:0:0:
406,197,253817,1,2,0:0:0:0:
384,204,253920,1,2,0:0:0:0:
360,200,254023,1,2,0:0:0:0:
340,187,254127,1,2,1:2:0:0:
328,167,254230,1,2,0:0:0:0:
325,143,254334,1,2,0:0:0:0:
502,214,254541,6,0,P|505:266|471:289,1,90,2|0,3:2|0:0,0:0:0:0:
409,343,254851,1,2,0:0:0:0:
406,321,254955,1,0,1:0:0:0:
403,299,255058,1,2,0:0:0:0:
399,277,255161,1,2,0:0:0:0:
330,384,255368,1,0,3:0:0:0:
228,271,255575,1,2,0:0:0:0:
232,293,255679,1,2,0:0:0:0:
235,315,255782,1,2,1:2:0:0:
238,337,255886,1,2,0:0:0:0:
241,359,255989,1,2,0:0:0:0:
314,231,256196,6,0,P|319:173|290:151,1,90,2|0,3:2|0:0,0:0:0:0:
233,92,256506,1,2,0:0:0:0:
224,72,256610,1,0,1:0:0:0:
238,54,256713,2,0,P|279:66|339:75,1,90,2|0,0:0|0:0,0:0:0:0:
396,35,257023,1,2,3:2:0:0:
168,0,257230,1,2,0:0:0:0:
144,7,257334,1,2,0:0:0:0:
127,22,257437,1,2,1:2:0:0:
117,44,257541,1,2,0:0:0:0:
118,68,257644,1,2,0:0:0:0:
128,89,257748,1,2,0:0:0:0:
146,104,257851,5,2,3:2:0:0:
211,210,258058,1,2,0:0:0:0:
215,188,258161,1,2,0:0:0:0:
220,167,258265,1,0,1:0:0:0:
225,146,258368,1,2,0:0:0:0:
119,227,258575,1,2,0:0:0:0:
119,227,258679,2,0,P|111:271|98:324,1,90,2|0,3:2|0:0,0:0:0:0:
42,374,258989,1,2,0:0:0:0:
21,364,259092,1,2,1:2:0:0:
11,343,259196,1,2,0:0:0:0:
15,321,259299,1,2,0:0:0:0:
192,311,259506,6,0,P|239:318|306:335,1,90,2|0,3:2|0:0,0:0:0:0:
354,376,259817,1,2,0:0:0:0:
374,366,259920,1,2,1:2:0:0:
378,344,260023,2,0,P|373:291|315:270,1,90,2|0,0:0|0:0,0:0:0:0:
265,236,260334,1,2,3:2:0:0:
241,212,260437,1,2,0:0:0:0:
225,183,260541,1,2,0:0:0:0:
221,149,260644,1,2,0:0:0:0:
229,117,260748,1,2,1:2:0:0:
246,88,260851,1,2,0:0:0:0:
274,70,260955,1,2,0:0:0:0:
307,59,261058,1,2,0:0:0:0:
340,62,261161,5,2,3:2:0:0:
172,322,261575,1,2,1:2:0:0:
172,322,262403,2,0,P|125:329|89:297,1,90,2|0,1:2|0:0,0:0:0:0:
260,277,262817,5,2,3:2:0:0:
278,279,262920,1,2,3:2:0:0:
295,281,263023,1,2,3:2:0:0:
313,284,263127,1,2,3:2:0:0:
331,286,263230,1,2,1:2:0:0:
349,290,263334,1,2,3:2:0:0:
366,293,263437,1,2,3:2:0:0:
384,297,263541,1,2,3:2:0:0:
401,300,263644,5,2,3:2:0:0:
411,256,263748,1,0,1:0:0:0:
403,212,263851,1,0,1:0:0:0:
377,176,263955,1,0,1:0:0:0:
339,153,264058,1,2,1:2:0:0:
294,149,264161,1,2,1:2:0:0:
252,163,264265,1,2,1:2:0:0:
219,193,264368,1,2,1:2:0:0:
