osu file format v14

[General]
AudioFilename: Treasures.mp3
AudioLeadIn: 0
PreviewTime: 177693
Countdown: 0
SampleSet: Soft
StackLeniency: 0.5
Mode: 0
LetterboxInBreaks: 0
WidescreenStoryboard: 1

[Editor]
Bookmarks: 14614,58516,87784
DistanceSpacing: 0.6
BeatDivisor: 8
GridSize: 16
TimelineZoom: 2.100003

[Metadata]
Title:Treasures
TitleUnicode:Treasures
Artist:Sakakibara Yui
ArtistUnicode:榊原ゆい
Creator:Hakusui3820
Version:Muz's Hard
Source:弓張月の導き雲はるか
Tags:Muziyami lp_Blue Japanese JP Jpop J-pop pop 椎名俊介 Shiina Shunsuke ロールプレイングゲーム Role-playing game RPG Visual Novel VN Vocals Galgame 美少女ゲーム Eroge Video Game でぼの巣製作所 Debo no Su Seisakusho Tsukino Michibiki Kumo Haruka ED Ending Full Version フレイア Freyja
BeatmapID:3004678
BeatmapSetID:1415573

[Difficulty]
HPDrainRate:6
CircleSize:4
OverallDifficulty:6
ApproachRate:7
SliderMultiplier:2.88
SliderTickRate:1

[Events]
//Background and Video events
0,0,"Freyja-2.jpg",0,0
//Break Periods
2,178716,186397
//Storyboard Layer 0 (Background)
//Storyboard Layer 1 (Fail)
//Storyboard Layer 2 (Pass)
//Storyboard Layer 3 (Foreground)
//Storyboard Layer 4 (Overlay)
//Storyboard Sound Samples

[TimingPoints]
-20,731.707317073171,4,2,1,50,1,0
2358,-125,4,2,1,20,0,0
8028,-83.3333333333333,4,2,2,60,0,1
8211,-83.3333333333333,4,2,2,5,0,1
8303,-83.3333333333333,4,2,2,5,0,1
8394,-166.666666666667,4,2,2,60,0,0
9126,-166.666666666667,4,2,2,5,0,0
9400,-166.666666666667,4,2,2,5,0,0
9492,-125,4,2,1,30,0,0
11687,-166.666666666667,4,2,1,40,0,0
13059,-166.666666666667,4,2,1,5,0,0
13150,-250,4,2,1,40,0,0
13882,-250,4,2,1,5,0,0
14522,-250,4,2,1,5,0,0
14614,-125,4,2,1,30,0,0
21565,-125,4,2,2,30,0,0
21931,-125,4,2,1,30,0,0
36931,-125,4,2,1,35,0,0
37205,-125,4,2,1,5,0,0
37297,-125,4,2,1,35,0,0
37571,-125,4,2,1,5,0,0
37662,-125,4,2,1,35,0,0
37937,-125,4,2,1,5,0,0
38028,-125,4,2,1,40,0,0
39858,-125,4,2,2,40,0,0
40223,-125,4,2,1,40,0,0
42784,-125,4,2,2,40,0,0
43150,-125,4,2,1,40,0,0
45894,-125,4,2,2,40,0,0
46077,-125,4,2,1,40,0,0
48821,-125,4,2,2,40,0,0
49004,-125,4,2,1,40,0,0
51748,-83.3333333333333,4,2,3,40,0,0
51794,-83.3333333333333,4,2,2,40,0,0
51839,-83.3333333333333,4,2,3,40,0,0
51885,-83.3333333333333,4,2,2,40,0,0
51931,-100,4,2,1,45,0,0
52662,-100,4,2,1,50,0,0
55223,-125,4,2,1,50,0,0
55498,-125,4,2,1,5,0,0
55589,-100,4,2,2,55,0,0
55864,-100,4,2,2,5,0,0
55955,-100,4,2,2,55,0,0
56230,-100,4,2,2,5,0,0
56321,-100,4,2,2,55,0,0
56595,-100,4,2,2,5,0,0
56687,-100,4,2,2,55,0,0
56961,-100,4,2,2,5,0,0
57053,-100,4,2,2,55,0,0
57327,-100,4,2,2,5,0,0
57419,-100,4,2,2,55,0,0
57601,-83.3333333333333,4,2,3,55,0,0
57647,-83.3333333333333,4,2,2,55,0,0
57693,-83.3333333333333,4,2,3,55,0,0
57739,-83.3333333333333,4,2,2,55,0,0
57784,-83.3333333333333,4,2,1,55,0,0
57876,-83.3333333333333,4,2,1,5,0,0
57967,-83.3333333333333,4,2,1,55,0,0
58059,-83.3333333333333,4,2,1,5,0,0
58150,-166.666666666667,4,2,1,55,0,0
58425,-125,4,2,1,5,0,0
58516,-83.3333333333333,4,2,1,60,0,1
59065,-83.3333333333333,4,2,2,60,0,1
59248,-83.3333333333333,4,2,1,60,0,1
60254,-83.3333333333333,4,2,1,5,0,1
60345,-83.3333333333333,4,2,1,60,0,1
61992,-83.3333333333333,4,2,2,60,0,1
62175,-83.3333333333333,4,2,1,60,0,1
62723,-83.3333333333333,4,2,2,60,0,1
62906,-83.3333333333333,4,2,1,60,0,1
63272,-83.3333333333333,4,2,2,60,0,1
63638,-83.3333333333333,4,2,1,60,0,1
64370,-100,4,2,1,50,0,1
64919,-100,4,2,2,50,0,1
65101,-100,4,2,1,50,0,1
67297,-83.3333333333333,4,2,1,60,0,0
67662,-83.3333333333333,4,2,2,60,0,0
68028,-83.3333333333333,4,2,1,60,0,0
69034,-83.3333333333333,4,2,1,5,0,0
69126,-83.3333333333333,4,2,1,60,0,0
69309,-83.3333333333333,4,2,3,60,0,0
69355,-83.3333333333333,4,2,2,60,0,0
69400,-83.3333333333333,4,2,3,60,0,0
69446,-83.3333333333333,4,2,2,60,0,0
69492,-83.3333333333333,4,2,1,60,0,0
69583,-83.3333333333333,4,2,1,5,0,0
69675,-83.3333333333333,4,2,1,60,0,0
69766,-83.3333333333333,4,2,1,5,0,0
69858,-166.666666666667,4,2,1,60,0,0
70132,-166.666666666667,4,2,1,5,0,0
70223,-83.3333333333333,4,2,1,60,0,1
70772,-83.3333333333333,4,2,2,60,0,1
70955,-83.3333333333333,4,2,1,60,0,1
71961,-83.3333333333333,4,2,1,5,0,1
72053,-83.3333333333333,4,2,1,60,0,1
73699,-83.3333333333333,4,2,2,60,0,1
73882,-83.3333333333333,4,2,1,60,0,1
74431,-83.3333333333333,4,2,2,60,0,1
74614,-83.3333333333333,4,2,1,60,0,1
75162,-83.3333333333333,4,2,2,60,0,1
75345,-83.3333333333333,4,2,1,60,0,1
76626,-83.3333333333333,4,2,2,60,0,1
76809,-83.3333333333333,4,2,1,60,0,1
78089,-83.3333333333333,4,2,2,60,0,1
78272,-83.3333333333333,4,2,1,60,0,1
79004,-100,4,2,1,60,0,1
79553,-100,4,2,3,60,0,1
79598,-100,4,2,2,60,0,1
79644,-100,4,2,3,60,0,1
79690,-100,4,2,2,60,0,1
79736,-83.3333333333333,4,2,1,60,0,1
80467,-166.666666666667,4,2,1,55,0,0
81839,-166.666666666667,4,2,1,5,0,0
81931,-100,4,2,1,50,0,1
82022,-100,4,2,1,50,0,0
82297,-100,4,2,2,50,0,0
82662,-100,4,2,1,50,0,0
85406,-83.3333333333333,4,2,3,50,0,0
85452,-83.3333333333333,4,2,2,50,0,0
85498,-83.3333333333333,4,2,3,50,0,0
85544,-83.3333333333333,4,2,2,50,0,0
85589,-100,4,2,1,50,0,0
86138,-100,4,2,2,50,0,0
86321,-166.666666666667,4,2,1,50,0,0
86870,-166.666666666667,4,2,1,5,0,0
86961,-166.666666666667,4,2,1,5,0,0
87053,-125,4,2,1,40,0,0
87601,-125,4,2,1,5,0,0
87693,-125,4,2,1,5,0,0
87784,-125,4,2,1,30,0,0
94736,-125,4,2,2,30,0,0
95101,-125,4,2,1,30,0,0
109553,-125,4,2,2,30,0,0
109736,-125,4,2,1,30,0,0
110284,-83.3333333333333,4,2,3,30,0,0
110330,-83.3333333333333,4,2,2,30,0,0
110376,-83.3333333333333,4,2,3,30,0,0
110422,-83.3333333333333,4,2,2,30,0,0
110467,-125,4,2,1,35,0,0
111199,-125,4,2,1,40,0,0
113028,-125,4,2,2,40,0,0
113394,-125,4,2,1,40,0,0
116138,-125,4,2,2,40,0,0
116321,-125,4,2,1,40,0,0
117419,-125,4,2,2,40,0,0
117784,-125,4,2,1,40,0,0
119065,-125,4,2,2,40,0,0
119248,-125,4,2,1,40,0,0
121992,-125,4,2,2,40,0,0
122175,-125,4,2,1,40,0,0
124919,-83.3333333333333,4,2,3,40,0,0
124964,-83.3333333333333,4,2,2,40,0,0
125010,-83.3333333333333,4,2,3,40,0,0
125056,-83.3333333333333,4,2,2,40,0,0
125101,-125,4,2,1,45,0,0
125833,-100,4,2,1,50,0,0
126199,-100,4,2,2,50,0,0
126565,-100,4,2,1,50,0,0
128394,-166.666666666667,4,2,1,50,0,0
128669,-166.666666666667,4,2,1,5,0,0
128760,-100,4,2,2,55,0,0
129034,-100,4,2,2,5,0,0
129126,-100,4,2,2,55,0,0
129400,-100,4,2,2,5,0,0
129492,-100,4,2,2,55,0,0
129766,-100,4,2,2,5,0,0
129858,-100,4,2,2,55,0,0
130132,-100,4,2,2,5,0,0
130223,-100,4,2,2,55,0,0
130498,-100,4,2,2,5,0,0
130589,-100,4,2,2,55,0,0
130772,-83.3333333333333,4,2,3,55,0,0
130818,-83.3333333333333,4,2,2,55,0,0
130864,-83.3333333333333,4,2,3,55,0,0
130909,-83.3333333333333,4,2,2,55,0,0
130955,-83.3333333333333,4,2,1,55,0,0
131047,-83.3333333333333,4,2,1,5,0,0
131138,-83.3333333333333,4,2,1,55,0,0
131230,-83.3333333333333,4,2,1,5,0,0
131321,-166.666666666667,4,2,1,55,0,0
131595,-166.666666666667,4,2,1,5,0,0
131687,-83.3333333333333,4,2,1,60,0,1
132236,-83.3333333333333,4,2,2,60,0,1
132419,-83.3333333333333,4,2,1,60,0,1
133425,-83.3333333333333,4,2,1,5,0,1
133516,-83.3333333333333,4,2,1,60,0,1
135162,-83.3333333333333,4,2,2,60,0,1
135345,-83.3333333333333,4,2,1,60,0,1
135894,-83.3333333333333,4,2,2,60,0,1
136077,-83.3333333333333,4,2,1,60,0,1
136443,-83.3333333333333,4,2,2,60,0,1
136809,-83.3333333333333,4,2,1,60,0,1
137540,-100,4,2,1,50,0,1
138089,-100,4,2,2,50,0,1
138272,-100,4,2,1,50,0,1
140467,-83.3333333333333,4,2,1,60,0,0
140833,-83.3333333333333,4,2,2,60,0,0
141199,-83.3333333333333,4,2,1,60,0,0
142205,-83.3333333333333,4,2,1,5,0,0
142297,-83.3333333333333,4,2,1,60,0,0
142480,-83.3333333333333,4,2,3,60,0,0
142525,-83.3333333333333,4,2,2,60,0,0
142571,-83.3333333333333,4,2,3,60,0,0
142617,-83.3333333333333,4,2,2,60,0,0
142662,-83.3333333333333,4,2,1,60,0,0
142754,-83.3333333333333,4,2,1,5,0,0
142845,-83.3333333333333,4,2,1,60,0,0
142937,-83.3333333333333,4,2,1,5,0,0
143028,-166.666666666667,4,2,1,60,0,0
143303,-166.666666666667,4,2,1,5,0,0
143394,-83.3333333333333,4,2,1,60,0,1
143943,-83.3333333333333,4,2,2,60,0,1
144126,-83.3333333333333,4,2,1,60,0,1
145132,-83.3333333333333,4,2,1,5,0,1
145223,-83.3333333333333,4,2,1,60,0,1
146870,-83.3333333333333,4,2,2,60,0,1
147053,-83.3333333333333,4,2,1,60,0,1
147601,-83.3333333333333,4,2,2,60,0,1
147784,-83.3333333333333,4,2,1,60,0,1
148333,-83.3333333333333,4,2,2,60,0,1
148516,-83.3333333333333,4,2,1,60,0,1
149797,-83.3333333333333,4,2,2,60,0,1
149980,-83.3333333333333,4,2,1,60,0,1
151260,-83.3333333333333,4,2,2,60,0,1
151443,-83.3333333333333,4,2,1,60,0,1
152723,-83.3333333333333,4,2,3,60,0,1
152769,-83.3333333333333,4,2,2,60,0,1
152815,-83.3333333333333,4,2,3,60,0,1
152861,-83.3333333333333,4,2,2,60,0,1
152906,-83.3333333333333,4,2,1,60,0,1
153638,-83.3333333333333,4,2,1,55,0,0
154370,-83.3333333333333,4,2,2,55,0,0
154736,-83.3333333333333,4,2,1,55,0,0
154919,-83.3333333333333,4,2,1,55,0,0
155101,-100,4,2,1,50,0,1
155193,-100,4,2,1,50,0,0
155467,-100,4,2,2,50,0,0
155833,-100,4,2,1,50,0,0
158028,-83.3333333333333,4,2,1,50,0,0
158303,-83.3333333333333,4,2,1,5,0,0
158394,-83.3333333333333,4,2,1,50,0,0
159034,-83.3333333333333,4,2,1,5,0,0
159126,-83.3333333333333,4,2,1,50,0,0
159492,-83.3333333333333,4,2,1,50,0,0
159766,-83.3333333333333,4,2,1,5,0,0
159858,-83.3333333333333,4,2,1,50,0,0
160498,-83.3333333333333,4,2,1,5,0,0
160589,-83.3333333333333,4,2,1,50,0,0
161321,-100,4,2,2,50,0,0
161687,-100,4,2,1,50,0,0
164156,-100,4,2,1,5,0,0
164248,-100,4,2,1,50,0,0
164888,-100,4,2,1,5,0,0
164980,-100,4,2,1,50,0,0
165620,-100,4,2,1,5,0,0
165711,-100,4,2,1,50,0,0
166351,-100,4,2,1,5,0,0
166443,-100,4,2,1,50,0,0
167175,-100,4,2,2,50,0,0
167540,-100,4,2,1,50,0,0
168638,-100,4,2,2,50,0,0
169004,-100,4,2,1,50,0,0
170010,-100,4,2,1,5,0,0
170101,-100,4,2,1,50,0,0
170742,-100,4,2,1,5,0,0
170833,-100,4,2,1,50,0,0
171473,-100,4,2,1,5,0,0
171565,-100,4,2,1,50,0,0
171748,-83.3333333333333,4,2,3,50,0,0
171794,-83.3333333333333,4,2,2,50,0,0
171839,-83.3333333333333,4,2,3,50,0,0
171885,-83.3333333333333,4,2,2,50,0,0
171931,-100,4,2,1,55,0,0
172662,-100,4,2,2,60,0,1
172937,-100,4,2,2,5,0,1
173028,-83.3333333333333,4,2,2,62,0,1
173303,-83.3333333333333,4,2,2,5,0,1
173394,-71.4285714285714,4,2,2,64,0,1
173669,-71.4285714285714,4,2,2,5,0,1
173760,-62.5,4,2,2,66,0,1
174034,-62.5,4,2,2,5,0,1
174126,-55.5555555555556,4,2,2,68,0,1
174400,-55.5555555555556,4,2,2,5,0,1
174492,-50,4,2,2,70,0,1
174766,-50,4,2,2,5,0,1
174858,-83.3333333333333,4,2,1,65,0,1
175589,-100,4,2,1,60,0,0
178516,-100,4,2,1,40,0,0
187297,-100,4,2,1,50,0,0
189492,-100,4,2,1,55,0,0
189614,-100,4,2,3,55,0,0
189736,-100,4,2,2,55,0,0
189858,-100,4,2,1,55,0,0
190223,-83.3333333333333,4,2,1,60,0,1
190772,-83.3333333333333,4,2,2,60,0,1
190955,-83.3333333333333,4,2,1,60,0,1
191321,-83.3333333333333,4,2,1,60,0,1
193699,-83.3333333333333,4,2,2,60,0,1
193882,-83.3333333333333,4,2,1,60,0,1
194431,-83.3333333333333,4,2,2,60,0,1
194614,-83.3333333333333,4,2,1,60,0,1
195162,-83.3333333333333,4,2,2,60,0,1
195345,-83.3333333333333,4,2,1,60,0,1
196077,-100,4,2,1,50,0,1
196626,-100,4,2,2,50,0,1
196809,-100,4,2,1,50,0,1
198089,-100,4,2,2,50,0,1
198272,-100,4,2,1,50,0,1
199004,-83.3333333333333,4,2,1,60,0,0
199461,-83.3333333333333,4,2,1,5,0,0
199553,-83.3333333333333,4,2,1,60,0,0
201016,-83.3333333333333,4,2,3,60,0,0
201062,-83.3333333333333,4,2,2,60,0,0
201108,-83.3333333333333,4,2,3,60,0,0
201153,-83.3333333333333,4,2,2,60,0,0
201199,-83.3333333333333,4,2,1,60,0,0
201290,-83.3333333333333,4,2,1,5,0,0
201382,-83.3333333333333,4,2,1,60,0,0
201473,-83.3333333333333,4,2,1,5,0,0
201565,-83.3333333333333,4,2,1,60,0,0
201656,-83.3333333333333,4,2,1,5,0,0
201748,-83.3333333333333,4,2,1,60,0,0
201839,-83.3333333333333,4,2,1,5,0,0
201931,-83.3333333333333,4,2,1,60,0,1
202480,-83.3333333333333,4,2,2,60,0,1
202662,-83.3333333333333,4,2,1,60,0,1
203669,-83.3333333333333,4,2,1,5,0,1
203760,-83.3333333333333,4,2,1,60,0,1
205406,-83.3333333333333,4,2,2,60,0,1
205589,-83.3333333333333,4,2,1,60,0,1
206138,-83.3333333333333,4,2,2,60,0,1
206321,-83.3333333333333,4,2,1,60,0,1
206687,-83.3333333333333,4,2,2,60,0,1
207053,-83.3333333333333,4,2,1,60,0,1
207784,-100,4,2,1,50,0,1
208333,-100,4,2,2,50,0,1
208516,-100,4,2,1,50,0,1
210711,-83.3333333333333,4,2,1,60,0,0
211077,-83.3333333333333,4,2,2,60,0,0
211443,-83.3333333333333,4,2,1,60,0,0
212449,-83.3333333333333,4,2,1,5,0,0
212540,-83.3333333333333,4,2,1,60,0,0
212723,-83.3333333333333,4,2,3,60,0,0
212769,-83.3333333333333,4,2,2,60,0,0
212815,-83.3333333333333,4,2,3,60,0,0
212861,-83.3333333333333,4,2,2,60,0,0
212906,-83.3333333333333,4,2,1,60,0,0
212998,-83.3333333333333,4,2,1,5,0,0
213089,-83.3333333333333,4,2,1,60,0,0
213181,-83.3333333333333,4,2,1,5,0,0
213272,-166.666666666667,4,2,1,60,0,0
213547,-166.666666666667,4,2,1,5,0,0
213638,-83.3333333333333,4,2,1,60,0,1
214187,-83.3333333333333,4,2,2,60,0,1
214370,-83.3333333333333,4,2,1,60,0,1
215376,-83.3333333333333,4,2,1,5,0,1
215467,-83.3333333333333,4,2,1,60,0,1
217114,-83.3333333333333,4,2,2,60,0,1
217297,-83.3333333333333,4,2,1,60,0,1
217845,-83.3333333333333,4,2,2,60,0,1
218028,-83.3333333333333,4,2,1,60,0,1
218577,-83.3333333333333,4,2,2,60,0,1
218760,-83.3333333333333,4,2,1,60,0,1
220040,-83.3333333333333,4,2,2,60,0,1
220223,-83.3333333333333,4,2,1,60,0,1
221504,-83.3333333333333,4,2,2,60,0,1
221687,-83.3333333333333,4,2,1,60,0,1
222419,-100,4,2,1,60,0,1
222967,-83.3333333333333,4,2,3,60,0,1
223013,-83.3333333333333,4,2,2,60,0,1
223059,-83.3333333333333,4,2,3,60,0,1
223105,-83.3333333333333,4,2,2,60,0,1
223150,-83.3333333333333,4,2,1,60,0,1
223882,-166.666666666667,4,2,1,55,0,0
225162,-166.666666666667,4,2,1,5,0,0
225254,-166.666666666667,4,2,1,5,0,0
225345,-125,4,2,1,30,0,0
230467,-83.3333333333333,4,2,2,60,0,1
230650,-83.3333333333333,4,2,2,5,0,1
230742,-83.3333333333333,4,2,2,5,0,1
230833,-166.666666666667,4,2,2,60,0,0
231565,-166.666666666667,4,2,2,5,0,0
231839,-166.666666666667,4,2,2,5,0,0
231931,-125,4,2,1,30,0,0
232480,-125,4,2,1,30,0,0
232662,-125,4,2,1,30,0,0
233028,-125,4,2,1,30,0,0
233394,-125,4,2,1,30,0,0
233577,-125,4,2,1,30,0,0
234126,-166.666666666667,4,2,1,40,0,0
234858,-125,4,2,1,40,0,0
235589,-500,4,2,1,40,0,0
237053,-100,4,2,1,30,0,0
237144,-100,4,2,1,30,0,0
238516,-100,4,2,1,25,0,0
239980,-100,4,2,1,20,0,0
241443,-100,4,2,1,15,0,0
242906,-100,4,2,1,10,0,0
244370,-100,4,2,1,5,0,0
245101,-125,4,2,99,8,0,0

[Colours]
Combo1 : 191,191,191
Combo2 : 255,128,191
Combo3 : 123,255,123
Combo4 : 255,208,85

[HitObjects]
97,149,2358,6,0,P|91:116|75:75,2,57.6,2|2|2,0:0|0:0|0:0,0:0:0:0:
88,226,2906,2,0,L|161:218,1,57.6,2|0,0:0|0:0,0:0:0:0:
219,207,3272,1,2,0:0:0:0:
264,266,3455,2,0,L|382:278,1,115.2,2|0,0:0|0:0,0:0:0:0:
453,288,4004,1,2,0:0:0:0:
333,198,4370,2,0,P|355:149|345:75,2,115.2,2|0|0,0:0|0:0|0:0,0:0:0:0:
258,190,5284,2,0,P|251:162|248:126,2,57.6,2|2|2,0:0|0:0|0:0,0:0:0:0:
264,266,5833,6,0,L|260:345,1,57.6,2|0,0:0|0:0,0:0:0:0:
214,382,6199,1,2,0:0:0:0:
158,332,6382,2,0,L|23:345,1,115.2,2|0,0:0|0:0,0:0:0:0:
10,275,6931,1,2,0:0:0:0:
184,257,7297,2,0,P|163:181|179:136,1,115.2,2|0,0:0|0:0,0:0:0:0:
374,20,8028,6,0,B|415:8|415:8|458:19,1,86.3999973632813,10|0,2:1|0:0,0:0:0:0:
470,96,8394,2,0,B|416:83|416:83|298:117,1,172.799994726563,14|0,2:1|0:0,0:0:0:0:
203,129,9492,6,0,L|208:255,1,115.2,2|0,0:0|0:0,0:0:0:0:
212,318,10040,1,0,3:0:0:0:
212,318,10132,1,0,3:0:0:0:
212,318,10223,2,0,P|258:317|320:368,1,115.2,10|8,0:0|2:3,0:0:0:0:
285,246,10955,5,10,0:0:0:0:
351,281,11138,1,8,0:0:0:0:
350,206,11321,1,4,2:3:0:0:
140,287,11687,6,0,B|153:237|136:204|103:219|83:183|81:125,1,172.799994726563,6|0,3:2|0:0,0:0:0:0:
269,140,13150,6,0,P|216:124|156:146,1,115.2,6|0,3:2|0:0,0:0:0:0:
4,305,14614,6,0,B|129:312|65:375|221:358,1,230.4,6|8,3:2|2:1,0:0:0:0:
323,293,15711,2,0,L|252:289,1,57.6,2|0,0:0|0:0,0:0:0:0:
190,286,16077,1,2,2:1:0:0:
77,178,16443,2,0,L|80:251,1,57.6,0|0,3:0|0:0,0:0:0:0:
152,219,16809,2,0,L|146:81,1,115.2,8|2,2:1|0:0,0:0:0:0:
0,35,17540,6,0,P|19:87|73:104,1,115.2,2|0,3:2|0:0,0:0:0:0:
214,68,18272,1,8,2:1:0:0:
226,217,18638,1,2,0:0:0:0:
152,219,18821,1,2,0:0:0:0:
116,285,19004,2,0,L|-7:291,2,115.2,2|0|8,2:1|3:0|2:1,0:0:0:0:
233,346,20101,5,2,0:0:0:0:
268,280,20284,1,2,0:0:0:0:
342,284,20467,2,0,B|358:163|429:230|401:72,1,230.4,2|8,3:2|2:1,0:0:0:0:
262,15,21565,1,2,0:0:0:0:
282,163,21931,6,0,P|257:164|205:240,1,115.2,2|0,2:1|3:0,0:0:0:0:
129,222,22480,1,0,0:0:0:0:
129,222,22662,2,0,P|128:197|52:145,1,115.2,8|2,2:1|0:0,0:0:0:0:
184,80,23394,6,0,P|209:79|261:3,1,115.2,2|0,3:2|0:0,0:0:0:0:
336,19,23943,1,2,0:0:0:0:
336,19,24126,2,0,P|337:44|413:96,1,115.2,8|2,2:1|0:0,0:0:0:0:
475,113,24675,1,2,0:0:0:0:
475,113,24858,2,0,L|492:-9,2,115.2,2|0|8,2:1|3:0|2:1,0:0:0:0:
420,252,25955,6,0,L|427:330,1,57.6,2|0,0:0|0:0,0:0:0:0:
366,356,26321,2,0,P|263:307|128:336,1,230.4,2|8,3:2|2:1,0:0:0:0:
109,178,27419,2,0,P|141:175|179:191,1,57.6,2|0,0:0|0:0,0:0:0:0:
238,197,27784,2,0,P|238:138|223:79,2,115.2,2|0|8,2:1|3:0|2:1,0:0:0:0:
420,252,28882,6,0,L|427:330,1,57.6,2|0,0:0|0:0,0:0:0:0:
366,356,29248,2,0,P|263:307|128:336,1,230.4,2|8,3:2|2:1,0:0:0:0:
165,182,30345,2,0,P|137:174|109:178,1,57.6,2|0,0:0|0:0,0:0:0:0:
54,229,30711,2,0,P|61:290|78:345,2,115.2,2|0|8,2:1|3:0|2:1,0:0:0:0:
39,79,31809,6,0,P|38:44|32:8,1,57.6,2|2,0:0|0:0,0:0:0:0:
109,10,32175,2,0,P|167:11|223:17,1,115.2,2|2,3:2|0:0,0:0:0:0:
270,75,32723,1,2,0:0:0:0:
270,75,32906,2,0,P|327:81|384:82,1,115.2,8|0,2:1|0:0,0:0:0:0:
511,0,33638,5,2,2:1:0:0:
489,148,34004,2,0,P|450:146|420:134,1,57.6,0|0,3:0|0:0,0:0:0:0:
384,81,34370,1,8,2:1:0:0:
453,226,34736,1,2,0:0:0:0:
289,212,35101,6,0,B|225:208|243:235|176:232,1,115.2,2|0,3:2|0:0,0:0:0:0:
15,266,35833,2,0,B|78:262|60:289|127:286,1,115.2,8|0,2:1|0:0,0:0:0:0:
199,303,36382,1,2,0:0:0:0:
272,287,36565,1,2,2:1:0:0:
193,159,36931,6,0,L|90:151,1,86.4,2|0,3:2|0:0,0:0:0:0:
69,147,37297,6,0,P|45:92|63:57,1,86.4,10|0,2:3|0:0,0:0:0:0:
72,38,37662,6,0,B|114:49|114:49|181:42,1,86.4,6|0,2:3|0:0,0:0:0:0:
186,21,38028,6,0,P|242:15|301:56,1,115.2,6|0,3:2|0:0,0:0:0:0:
329,108,38577,1,2,0:0:0:0:
403,97,38760,1,2,2:1:0:0:
490,218,39126,2,0,P|458:220|417:209,1,57.6,2|0,3:2|0:0,0:0:0:0:
375,167,39492,2,0,L|381:294,2,115.2,2|2|8,3:2|0:0|2:1,0:0:0:0:
355,9,40589,5,2,0:0:0:0:
253,118,40955,2,0,P|198:104|147:129,1,115.2,2|0,3:2|0:0,0:0:0:0:
96,184,41504,1,2,0:0:0:0:
24,163,41687,1,2,2:1:0:0:
85,26,42053,2,0,P|84:61|92:102,1,57.6,2|0,3:2|0:0,0:0:0:0:
147,129,42419,1,2,3:2:0:0:
278,200,42784,2,0,P|279:165|271:124,1,57.6,2|2,0:0|0:0,0:0:0:0:
216,97,43150,1,8,2:1:0:0:
96,184,43516,6,0,P|95:219|103:260,1,57.6,2|0,0:0|0:0,0:0:0:0:
138,304,43882,2,0,P|250:287|352:336,1,230.4,2|2,3:2|2:1,0:0:0:0:
395,209,44980,2,0,L|392:266,1,57.6,2|0,3:2|0:0,0:0:0:0:
434,329,45345,2,0,B|463:307|465:278|465:278|467:214,1,115.2,2|0,3:2|0:0,0:0:0:0:
444,152,45894,1,2,0:0:0:0:
395,209,46077,2,0,P|347:212|263:202,1,115.2,8|0,2:1|0:0,0:0:0:0:
136,160,46809,6,0,B|128:117|128:117|149:41,1,115.2,2|0,3:2|0:0,0:0:0:0:
207,185,47540,2,0,B|248:199|248:199|303:255,1,115.2,2|0,2:1|3:2,0:0:0:0:
149,233,48272,2,0,B|115:261|115:261|39:281,1,115.2,2|0,3:2|0:0,0:0:0:0:
2,218,48821,1,2,0:0:0:0:
27,147,49004,1,8,2:1:0:0:
149,233,49370,5,2,0:0:0:0:
157,307,49553,1,2,0:0:0:0:
167,381,49736,2,0,P|227:373|284:360,1,115.2,2|0,3:2|0:0,0:0:0:0:
334,308,50284,1,2,0:0:0:0:
334,308,50467,2,0,P|394:316|451:329,1,115.2,2|0,2:1|3:2,0:0:0:0:
485,262,51016,1,2,0:0:0:0:
477,187,51199,5,2,3:2:0:0:
458,36,51565,2,0,P|422:55|381:64,1,57.6,0|0,0:0|1:0,0:0:0:0:
383,96,51839,1,0,1:0:0:0:
383,96,51931,2,0,P|364:132|355:173,1,72,10|8,0:0|0:0,0:0:0:0:
344,235,52297,1,6,2:3:0:0:
285,127,52662,6,0,B|273:111|239:105|217:121|210:153|210:153|200:247|200:247|198:272|175:293|148:296|129:276,1,288,6|8,3:2|0:0,0:0:0:0:
46,158,53760,1,2,0:0:0:0:
118,159,53943,1,0,3:0:0:0:
155,95,54126,2,0,P|207:51|281:45,1,144,2|0,3:2|3:0,0:0:0:0:
343,174,54858,2,0,P|316:196|279:201,1,72,8|8,0:0|0:0,0:0:0:0:
285,127,55223,5,6,2:3:0:0:
155,95,55589,6,0,P|99:92|44:65,1,108,14|0,2:1|0:0,0:0:0:0:
18,85,55955,6,0,P|43:134|47:196,1,108,10|0,2:1|0:0,0:0:0:0:
77,208,56321,6,0,P|107:161|158:126,1,108,10|0,2:1|0:0,0:0:0:0:
155,95,56687,6,0,P|99:92|44:65,1,108,10|0,2:1|0:0,0:0:0:0:
16,40,57053,6,0,P|15:84|9:128,1,72,10|0,2:1|0:0,0:0:0:0:
34,186,57419,2,0,P|35:230|41:274,1,72,10|0,2:1|1:0,0:0:0:0:
77,245,57693,1,0,1:0:0:0:
77,245,57784,2,0,L|171:253,1,86.3999973632813,10|8,0:0|0:0,0:0:0:0:
236,256,58150,1,6,2:3:0:0:
402,306,58516,6,0,B|305:305|340:363|237:331,1,172.799994726563,6|0,3:2|0:0,0:0:0:0:
164,326,59065,1,2,0:0:0:0:
163,252,59248,2,0,B|187:229|194:202|177:165,1,86.3999973632813,8|0,0:0|0:0,0:0:0:0:
122,128,59614,2,0,B|98:105|91:78|108:41,1,86.3999973632813,2|2,0:0|0:0,0:0:0:0:
160,0,59980,1,2,3:2:0:0:
272,111,60345,6,0,B|244:91|216:93|186:100,1,86.3999973632813,2|0,0:0|0:0,0:0:0:0:
122,128,60711,2,0,B|94:148|66:146|36:139,1,86.3999973632813,10|0,0:0|0:0,0:0:0:0:
1,208,61077,2,0,B|21:236|19:264|12:294,1,86.3999973632813,2|0,0:0|0:0,0:0:0:0:
72,336,61443,6,0,B|129:371|165:339|158:286|219:285,1,172.799994726563,2|0,3:2|0:0,0:0:0:0:
440,336,62175,2,0,B|382:371|346:339|353:286|292:285,1,172.799994726563,10|0,0:0|0:0,0:0:0:0:
256,222,62723,1,2,0:0:0:0:
256,222,62906,2,0,B|264:164|264:164|249:101|249:101|256:51,2,172.799994726563,2|2|10,3:2|0:0|0:0,0:0:0:0:
256,348,64004,5,2,0:0:0:0:
293,285,64187,1,2,0:0:0:0:
361,314,64370,2,0,P|420:348|498:329,1,144,2|0,3:2|0:0,0:0:0:0:
512,263,64919,1,2,0:0:0:0:
495,191,65101,1,8,0:0:0:0:
427,63,65467,5,2,0:0:0:0:
357,81,65650,1,2,0:0:0:0:
345,154,65833,2,0,L|263:146,1,72,2|0,3:2|0:0,0:0:0:0:
199,155,66199,2,0,L|117:147,1,72,2|0,0:0|0:0,0:0:0:0:
91,218,66565,2,0,L|173:226,1,72,10|0,0:0|0:0,0:0:0:0:
236,219,66931,2,0,L|318:227,1,72,2|0,0:0|0:0,0:0:0:0:
274,148,67297,6,0,B|292:58|287:30|218:10,2,172.799994726563,2|2|8,3:2|0:0|0:0,0:0:0:0:
200,289,68394,5,2,0:0:0:0:
248,345,68577,1,2,0:0:0:0:
306,300,68760,2,0,P|345:286|405:297,1,86.3999973632813,2|0,3:2|0:0,0:0:0:0:
421,357,69126,2,0,P|461:371|504:366,1,86.3999973632813,8|0,0:0|1:0,0:0:0:0:
512,332,69400,1,0,1:0:0:0:
512,332,69492,2,0,L|508:245,1,86.3999973632813,10|8,0:0|0:0,0:0:0:0:
503,172,69858,1,6,2:3:0:0:
392,23,70223,6,0,B|295:22|330:80|227:48,1,172.799994726563,6|0,3:2|0:0,0:0:0:0:
158,25,70772,1,2,0:0:0:0:
90,53,70955,2,0,B|67:67|72:96|82:133,1,86.3999973632813,8|0,0:0|0:0,0:0:0:0:
127,192,71321,2,0,B|149:206|144:235|134:272,1,86.3999973632813,2|2,0:0|0:0,0:0:0:0:
82,324,71687,1,2,3:2:0:0:
216,266,72053,6,0,B|249:267|260:230|291:227,1,86.3999973632813,2|0,0:0|0:0,0:0:0:0:
371,162,72419,2,0,B|353:190|380:218|366:246,1,86.3999973632813,10|0,0:0|0:0,0:0:0:0:
384,349,72784,2,0,B|368:319|330:328|312:302,1,86.3999973632813,2|0,0:0|0:0,0:0:0:0:
216,266,73150,6,0,B|181:246|170:211|177:183|210:171|218:111,1,172.799994726563,2|0,3:2|0:0,0:0:0:0:
296,266,73882,2,0,B|331:246|342:211|335:183|302:171|294:111,1,172.799994726563,10|0,0:0|0:0,0:0:0:0:
256,48,74431,1,2,0:0:0:0:
256,48,74614,2,0,P|177:13|93:27,1,172.799994726563,2|0,3:2|0:0,0:0:0:0:
50,86,75162,5,2,0:0:0:0:
50,86,75345,2,0,P|103:151|113:236,1,172.799994726563,10|2,0:0|0:0,0:0:0:0:
156,298,75894,1,2,0:0:0:0:
156,298,76077,2,0,P|224:247|254:167,1,172.799994726563,2|0,3:2|0:0,0:0:0:0:
212,107,76626,1,2,0:0:0:0:
256,48,76809,1,8,0:0:0:0:
319,218,77175,5,2,0:0:0:0:
392,229,77358,1,2,0:0:0:0:
465,240,77540,2,0,P|429:161|443:78,1,172.799994726563,2|0,3:2|0:0,0:0:0:0:
477,12,78089,2,0,B|450:2|417:7|391:11,1,86.3999973632813,2|10,0:0|0:0,0:0:0:0:
337,62,78455,2,0,B|310:72|277:67|251:62,2,86.3999973632813,2|2|2,0:0|0:0|0:0,0:0:0:0:
354,135,79004,6,0,P|395:222|322:323,1,216,6|0,3:2|3:0,0:0:0:0:
302,324,79644,1,0,1:0:0:0:
302,324,79736,2,0,B|299:304|281:292|228:293,1,86.3999973632813,10|8,0:0|0:0,0:0:0:0:
156,298,80101,1,4,2:3:0:0:
1,192,80467,6,0,B|59:204|117:146|84:82|84:82|129:117|180:85,1,259.199992089844,6|2,3:2|0:0,0:0:0:0:
145,216,81931,6,0,B|192:227|241:182|282:181,2,144,6|2|10,3:2|0:0|0:0,0:0:0:0:
18,118,83028,5,2,3:2:0:0:
61,52,83211,1,2,0:0:0:0:
133,27,83394,2,0,P|169:19|209:32,1,72,2|2,3:2|0:0,0:0:0:0:
309,93,83760,2,0,P|273:101|233:88,1,72,2|0,0:0|0:0,0:0:0:0:
276,27,84126,1,10,0:0:0:0:
166,95,84492,5,2,3:2:0:0:
206,159,84675,1,2,0:0:0:0:
163,220,84858,2,0,P|232:204|296:233,1,144,6|0,3:2|0:0,0:0:0:0:
332,299,85406,1,0,1:0:0:0:
332,299,85498,1,0,1:0:0:0:
332,299,85589,2,0,B|325:349|325:349|330:391,1,72,8|8,0:0|0:0,0:0:0:0:
406,299,85955,2,0,B|413:249|413:249|408:207,1,72,4|2,2:3|0:0,0:0:0:0:
257,297,86321,6,0,B|226:300|191:350|127:329,1,129.599996044922,6|0,3:2|0:0,0:0:0:0:
78,376,87053,2,0,B|96:277|71:249|23:231,1,172.8,4|0,2:3|0:0,0:0:0:0:
7,306,87784,6,0,P|107:252|128:145,1,230.4,6|8,3:2|2:1,0:0:0:0:
68,18,88882,2,0,L|139:22,1,57.6,2|0,0:0|0:0,0:0:0:0:
201,25,89248,1,2,2:1:0:0:
284,204,89614,2,0,L|281:131,1,57.6,0|0,3:0|0:0,0:0:0:0:
209,163,89980,2,0,L|215:301,1,115.2,8|2,0:0|0:0,0:0:0:0:
420,328,90711,6,0,P|366:302|329:234,1,115.2,2|0,3:2|0:0,0:0:0:0:
359,188,91260,2,0,L|356:115,1,57.6,0|8,0:0|2:1,0:0:0:0:
285,0,91809,1,2,0:0:0:0:
359,2,91992,1,2,0:0:0:0:
396,66,92175,2,0,L|519:72,2,115.2,2|0|8,2:1|3:0|0:0,0:0:0:0:
281,146,93272,5,2,0:0:0:0:
209,163,93455,1,2,0:0:0:0:
182,233,93638,2,0,B|167:346|113:262|44:337|52:214,1,230.4,2|8,3:2|2:1,0:0:0:0:
130,65,94736,1,2,0:0:0:0:
281,146,95101,2,0,P|339:145|365:203,1,115.2,2|0,2:1|3:0,0:0:0:0:
437,166,95650,1,2,0:0:0:0:
437,166,95833,2,0,P|436:108|494:82,1,115.2,8|2,0:0|0:0,0:0:0:0:
508,282,96565,6,0,P|450:283|424:225,1,115.2,2|0,3:2|0:0,0:0:0:0:
352,262,97114,1,2,0:0:0:0:
352,262,97297,2,0,P|353:320|295:346,1,115.2,8|2,2:1|0:0,0:0:0:0:
236,322,97845,1,2,0:0:0:0:
236,322,98028,2,0,L|114:305,2,115.2,2|0|8,2:1|3:0|0:0,0:0:0:0:
308,191,99126,2,0,L|301:113,1,57.6,2|0,0:0|0:0,0:0:0:0:
290,59,99492,6,0,P|177:75|75:26,1,230.4,2|8,3:2|2:1,0:0:0:0:
46,224,100589,2,0,P|73:231|102:228,1,57.6,2|0,0:0|0:0,0:0:0:0:
170,257,100955,2,0,P|170:316|155:375,2,115.2,2|0|8,2:1|3:0|0:0,0:0:0:0:
308,191,102053,6,0,L|301:113,1,57.6,2|0,0:0|0:0,0:0:0:0:
290,59,102419,2,0,P|177:75|75:26,1,230.4,2|8,3:2|2:1,0:0:0:0:
46,224,103516,2,0,P|73:231|102:228,1,57.6,2|0,0:0|0:0,0:0:0:0:
162,182,103882,2,0,P|162:123|147:64,2,115.2,2|0|8,2:1|3:0|0:0,0:0:0:0:
286,266,104980,6,0,P|287:301|293:337,1,57.6,2|2,0:0|0:0,0:0:0:0:
360,351,105345,2,0,P|375:308|439:285,1,115.2,2|2,3:2|0:0,0:0:0:0:
482,219,105894,1,2,0:0:0:0:
482,219,106077,2,0,P|439:204|416:140,1,115.2,8|0,2:1|0:0,0:0:0:0:
425,67,106626,5,2,0:0:0:0:
425,67,106809,2,0,P|376:39|323:59,1,115.2,2|0,2:1|3:0,0:0:0:0:
217,166,107540,1,8,0:0:0:0:
127,46,107906,1,2,0:0:0:0:
217,166,108272,6,0,B|281:170|263:143|330:146,1,115.2,2|0,3:2|0:0,0:0:0:0:
467,239,109004,2,0,B|404:243|422:216|355:219,1,115.2,10|0,2:1|0:0,0:0:0:0:
279,212,109553,1,2,0:0:0:0:
217,166,109736,1,2,2:1:0:0:
28,224,110101,6,0,L|20:296,1,57.6,2|0,3:2|1:0,0:0:0:0:
50,307,110376,1,0,1:0:0:0:
50,307,110467,2,0,L|42:379,1,57.6,10|8,0:0|0:0,0:0:0:0:
116,384,110833,1,6,2:3:0:0:
97,189,111199,6,0,L|109:74,1,115.2,6|0,3:2|0:0,0:0:0:0:
116,0,111748,1,2,0:0:0:0:
34,67,111931,2,0,L|26:139,1,57.6,2|0,3:2|0:0,0:0:0:0:
177,138,112297,2,0,L|183:80,1,57.6,2|2,0:0|0:0,0:0:0:0:
97,189,112662,2,0,L|85:304,2,115.2,2|2|8,3:2|0:0|0:0,0:0:0:0:
229,18,113760,6,0,P|260:8|299:16,1,57.6,2|0,0:0|0:0,0:0:0:0:
367,85,114126,2,0,P|315:106|265:81,1,115.2,2|0,3:2|0:0,0:0:0:0:
284,10,114675,1,2,0:0:0:0:
406,22,114858,2,0,P|429:44|442:81,1,57.6,2|0,3:2|0:0,0:0:0:0:
427,194,115223,2,0,P|417:162|425:124,1,57.6,2|0,0:0|0:0,0:0:0:0:
493,155,115589,2,0,B|506:178|503:203|503:203|490:289,1,115.2,2|0,3:2|0:0,0:0:0:0:
489,342,116138,1,2,0:0:0:0:
425,302,116321,1,8,0:0:0:0:
493,155,116687,5,2,0:0:0:0:
419,138,116870,1,2,0:0:0:0:
345,121,117053,2,0,P|233:138|131:89,1,230.4,2|2,3:2|3:2,0:0:0:0:
22,189,118150,2,0,L|25:132,1,57.6,2|2,0:0|0:0,0:0:0:0:
96,202,118516,2,0,B|92:233|66:251|66:251|62:318,1,115.2,2|0,3:2|0:0,0:0:0:0:
58,382,119065,1,2,0:0:0:0:
125,350,119248,2,0,P|173:347|257:357,1,115.2,8|2,0:0|0:0,0:0:0:0:
367,361,119980,6,0,B|381:361|395:356|395:356|388:316|351:283,1,115.2,2|0,3:2|0:0,0:0:0:0:
208,229,120711,2,0,B|201:241|197:255|197:255|235:269|283:254,1,115.2,2|0,3:2|0:0,0:0:0:0:
401,157,121443,2,0,B|394:144|383:134|383:134|352:161|341:209,1,115.2,2|0,3:2|0:0,0:0:0:0:
351,283,121992,1,2,0:0:0:0:
409,237,122175,1,8,0:0:0:0:
283,254,122540,5,2,0:0:0:0:
292,328,122723,1,2,0:0:0:0:
241,383,122906,2,0,P|181:375|124:362,1,115.2,2|0,3:2|0:0,0:0:0:0:
113,289,123455,1,2,0:0:0:0:
113,289,123638,2,0,P|53:297|-4:310,1,115.2,8|0,2:1|3:2,0:0:0:0:
127,362,124370,5,2,3:2:0:0:
40,220,124736,2,0,L|34:151,1,57.6,0|0,0:0|1:0,0:0:0:0:
66,133,125010,1,0,1:0:0:0:
66,133,125101,2,0,P|88:102|94:56,1,57.6,10|8,0:0|0:0,0:0:0:0:
61,15,125467,1,6,2:3:0:0:
119,192,125833,6,0,B|131:176|165:170|187:186|194:218|194:218|204:312|204:312|205:339|187:358|161:366|136:354,1,288,6|8,3:2|0:0,0:0:0:0:
45,178,126931,1,2,0:0:0:0:
119,192,127114,1,0,3:0:0:0:
193,209,127297,2,0,P|254:208|319:159,1,144,2|0,3:2|3:0,0:0:0:0:
435,342,128028,2,0,P|399:337|372:314,1,72,8|8,0:0|0:0,0:0:0:0:
329,254,128394,5,6,2:3:0:0:
399,153,128760,6,0,P|444:111|430:64,1,108,14|0,2:1|0:0,0:0:0:0:
427,35,129126,6,0,P|368:17|334:52,1,108,10|0,2:1|0:0,0:0:0:0:
310,69,129492,6,0,P|323:128|371:140,1,108,10|0,2:1|0:0,0:0:0:0:
399,153,129858,6,0,P|444:111|430:64,1,108,10|0,2:1|0:0,0:0:0:0:
454,39,130223,6,0,P|417:43|380:38,1,72,10|0,2:1|0:0,0:0:0:0:
310,69,130589,2,0,P|273:73|236:68,1,72,10|0,2:1|1:0,0:0:0:0:
198,50,130864,1,0,1:0:0:0:
198,50,130955,2,0,L|190:144,1,86.3999973632813,10|8,0:0|0:0,0:0:0:0:
183,210,131321,1,6,2:3:0:0:
168,354,131687,6,0,P|97:319|116:220,1,172.799994726563,6|0,3:2|0:0,0:0:0:0:
160,280,132236,1,2,0:0:0:0:
234,268,132419,2,0,P|281:255|327:265,1,86.3999973632813,8|0,0:0|0:0,0:0:0:0:
367,315,132784,2,0,P|414:328|460:318,1,86.3999973632813,2|2,0:0|0:0,0:0:0:0:
503,270,133150,1,2,3:2:0:0:
481,136,133516,6,0,P|434:123|388:133,1,86.3999973632813,2|0,0:0|0:0,0:0:0:0:
328,105,133882,2,0,P|341:152|331:198,1,86.3999973632813,10|0,0:0|0:0,0:0:0:0:
261,183,134248,2,0,P|248:136|258:90,1,86.3999973632813,2|0,0:0|0:0,0:0:0:0:
295,39,134614,6,0,P|201:73|143:24,1,172.799994726563,2|0,3:2|0:0,0:0:0:0:
74,36,135162,1,2,0:0:0:0:
74,36,135345,2,0,P|150:100|137:175,1,172.799994726563,10|0,0:0|0:0,0:0:0:0:
171,235,135894,1,2,0:0:0:0:
171,235,136077,2,0,P|188:136|259:110,2,172.799994726563,2|2|10,3:2|0:0|0:0,0:0:0:0:
256,348,137175,5,2,0:0:0:0:
185,364,137358,1,2,0:0:0:0:
143,303,137540,2,0,P|84:337|6:318,1,144,2|0,3:2|0:0,0:0:0:0:
25,251,138089,1,2,0:0:0:0:
6,181,138272,1,8,0:0:0:0:
85,63,138638,5,2,0:0:0:0:
154,90,138821,1,2,0:0:0:0:
229,83,139004,2,0,L|311:75,1,72,2|0,3:2|0:0,0:0:0:0:
338,11,139370,2,0,L|420:3,1,72,2|0,0:0|0:0,0:0:0:0:
446,74,139736,2,0,L|364:82,1,72,10|0,0:0|0:0,0:0:0:0:
338,148,140101,2,0,L|256:156,1,72,2|0,0:0|0:0,0:0:0:0:
229,83,140467,6,0,B|139:65|111:70|91:139,2,172.799994726563,2|2|8,3:2|0:0|0:0,0:0:0:0:
422,279,141565,5,2,0:0:0:0:
374,335,141748,1,2,0:0:0:0:
316,290,141931,2,0,P|277:276|217:287,1,86.3999973632813,2|0,3:2|0:0,0:0:0:0:
201,347,142297,2,0,P|161:361|118:356,1,86.3999973632813,8|0,0:0|1:0,0:0:0:0:
110,322,142571,1,0,1:0:0:0:
110,322,142662,2,0,P|105:281|76:243,1,86.3999973632813,10|8,0:0|0:0,0:0:0:0:
7,218,143028,1,6,2:3:0:0:
86,100,143394,6,0,P|121:29|220:48,1,172.799994726563,6|0,3:2|0:0,0:0:0:0:
160,92,143943,1,2,0:0:0:0:
131,161,144126,2,0,B|153:229|164:229|175:230,1,86.3999973632813,8|0,0:0|0:0,0:0:0:0:
232,280,144492,2,0,B|300:258|300:247|301:236,1,86.3999973632813,2|2,0:0|0:0,0:0:0:0:
309,161,144858,1,2,3:2:0:0:
147,14,145223,6,0,B|147:50|109:50|108:89,1,86.3999973632813,2|0,0:0|0:0,0:0:0:0:
47,164,145589,2,0,B|78:146|97:178|131:160,1,86.3999973632813,10|0,0:0|0:0,0:0:0:0:
226,176,145955,2,0,B|194:158|213:125|180:104,1,86.3999973632813,2|0,0:0|0:0,0:0:0:0:
165,230,146321,6,0,B|152:259|128:270|127:284|138:298|196:275|254:300,1,172.799994726563,2|0,3:2|0:0,0:0:0:0:
300,358,146870,1,2,0:0:0:0:
300,358,147053,2,0,B|331:354|353:370|365:363|372:347|323:308|316:245,1,172.799994726563,10|0,0:0|0:0,0:0:0:0:
343,177,147601,1,2,0:0:0:0:
343,177,147784,2,0,B|324:151|326:124|315:117|297:119|288:181|237:218,1,172.799994726563,2|0,3:2|0:0,0:0:0:0:
420,274,148516,6,0,P|482:241|422:201,1,172.799994726563,10|2,0:0|0:0,0:0:0:0:
401,129,149065,1,2,0:0:0:0:
401,129,149248,2,0,P|433:66|474:127,1,172.799994726563,2|0,3:2|0:0,0:0:0:0:
448,202,149797,1,2,0:0:0:0:
420,274,149980,1,8,0:0:0:0:
252,299,150345,5,2,0:0:0:0:
179,310,150528,1,2,0:0:0:0:
106,321,150711,2,0,P|142:242|128:159,1,172.799994726563,2|0,3:2|0:0,0:0:0:0:
68,117,151260,2,0,B|50:109|47:82|68:72|62:32,1,86.3999973632813,2|10,0:0|0:0,0:0:0:0:
137,24,151626,6,0,B|145:6|172:3|182:24|221:18,2,86.3999973632813,2|2|2,0:0|0:0|0:0,0:0:0:0:
173,93,152175,2,0,P|263:143|414:68,1,259.199992089844,6|0,3:2|3:0,0:0:0:0:
441,100,152815,1,0,1:0:0:0:
441,100,152906,2,0,B|461:103|473:121|472:174,1,86.3999973632813,10|8,0:0|0:0,0:0:0:0:
447,243,153272,1,4,2:3:0:0:
442,24,153638,5,10,0:0:0:0:
368,20,153821,2,0,L|177:28,1,172.799994726563,8|4,2:3|2:3,0:0:0:0:
160,31,154278,1,4,2:3:0:0:
160,31,154370,2,0,P|140:68|146:123,1,86.3999973632813,10|10,2:1|2:1,0:0:0:0:
197,167,154736,2,0,P|217:130|211:75,1,86.3999973632813,10|6,2:3|2:3,0:0:0:0:
123,188,155101,6,0,B|41:197|12:184|5:140,2,144,6|2|10,3:2|0:0|0:0,0:0:0:0:
105,263,156199,5,2,0:0:0:0:
179,242,156382,1,2,0:0:0:0:
253,221,156565,2,0,L|340:229,1,72,2|0,3:2|0:0,0:0:0:0:
383,178,156931,2,0,L|470:186,1,72,2|0,0:0|0:0,0:0:0:0:
445,110,157297,2,0,L|358:102,1,72,10|0,0:0|0:0,0:0:0:0:
315,153,157662,2,0,L|228:145,1,72,2|0,0:0|0:0,0:0:0:0:
168,137,158028,6,0,B|130:134|108:154|106:174|112:198|116:229|149:208|151:265,1,172.799994726563,2|2,3:2|2:1,0:0:0:0:
243,146,158760,2,0,B|280:152|296:177|293:197|281:219|269:248|242:219|226:274,1,172.799994726563,10|2,0:0|2:1,0:0:0:0:
335,276,159492,6,0,P|379:225|481:197,1,172.799994726563,2|2,3:2|2:1,0:0:0:0:
431,112,160223,2,0,P|375:77|256:62,1,172.799994726563,10|2,0:0|2:1,0:0:0:0:
235,205,160955,6,0,P|218:125|136:45,2,172.799994726563,2|2|10,3:2|0:0|0:0,0:0:0:0:
213,347,162053,5,2,0:0:0:0:
140,363,162236,1,2,0:0:0:0:
72,330,162419,2,0,P|65:292|71:244,1,72,2|0,3:2|0:0,0:0:0:0:
120,206,162784,2,0,P|127:168|121:120,1,72,2|0,0:0|0:0,0:0:0:0:
53,116,163150,2,0,P|46:154|52:202,1,72,10|0,0:0|0:0,0:0:0:0:
189,241,163516,2,0,P|196:279|190:327,1,72,2|0,0:0|0:0,0:0:0:0:
0,337,163882,6,0,L|91:327,1,72,2|0,3:2|0:0,0:0:0:0:
140,363,164248,1,2,2:1:0:0:
256,175,164614,2,0,L|165:165,1,72,10|0,0:0|0:0,0:0:0:0:
120,206,164980,1,2,2:1:0:0:
193,312,165345,6,0,L|284:302,1,72,2|0,3:2|0:0,0:0:0:0:
302,370,165711,1,2,2:1:0:0:
401,175,166077,2,0,L|310:165,1,72,10|0,0:0|0:0,0:0:0:0:
299,236,166443,1,2,2:1:0:0:
460,226,166809,6,0,P|464:301|441:383,2,144,6|2|10,3:2|0:0|0:0,0:0:0:0:
307,95,167906,5,2,0:0:0:0:
329,167,168089,1,2,0:0:0:0:
299,236,168272,2,0,P|223:214|138:222,2,144,2|2|10,3:2|0:0|0:0,0:0:0:0:
302,370,169370,5,2,0:0:0:0:
375,351,169553,1,2,0:0:0:0:
447,367,169736,2,0,P|464:297|460:226,1,144,2|2,3:2|2:1,0:0:0:0:
512,37,170467,6,0,P|436:59|351:51,1,144,10|2,0:0|2:1,0:0:0:0:
307,95,171016,1,0,0:0:0:0:
250,45,171199,2,0,B|236:32|207:35|180:37,1,72,2|0,3:2|0:0,0:0:0:0:
148,107,171565,2,0,B|162:120|191:117|217:114,1,72,2|0,2:1|1:0,0:0:0:0:
249,144,171839,1,0,1:0:0:0:
249,144,171931,6,0,L|244:216,1,72,10|8,0:0|0:0,0:0:0:0:
192,338,172297,2,0,L|187:266,1,72,8|6,2:3|2:3,0:0:0:0:
333,337,172662,6,0,P|300:353|259:344,1,72,14|0,2:1|0:0,0:0:0:0:
304,267,173028,2,0,P|347:262|389:286,1,86.3999973632813,10|0,2:1|0:0,0:0:0:0:
408,353,173394,6,0,P|369:302|398:274,1,100.799996923828,10|0,2:1|0:0,0:0:0:0:
443,231,173760,2,0,P|432:175|366:176,1,115.2,10|0,2:1|0:0,0:0:0:0:
301,184,174126,6,0,P|236:198|161:179,1,129.599996044922,10|0,2:1|0:0,0:0:0:0:
138,310,174492,2,0,P|228:318|265:371,1,144,10|0,2:1|0:0,0:0:0:0:
408,353,174858,5,8,0:0:0:0:
383,280,175040,1,8,0:0:0:0:
458,296,175223,5,10,2:3:0:0:
333,337,175406,1,4,2:3:0:0:
411,357,175589,1,4,3:2:0:0:
256,192,175681,12,2,178516,0:0:0:0:
207,345,187297,5,6,3:2:0:0:
131,347,187480,2,0,P|109:288|130:206,1,144,8|4,0:0|2:3,0:0:0:0:
151,184,187937,1,4,2:3:0:0:
151,184,188028,2,0,P|171:147|164:98,1,72,8|8,0:0|0:0,0:0:0:0:
118,66,188394,2,0,P|98:103|105:152,1,72,10|6,2:3|2:3,0:0:0:0:
205,239,188760,5,6,3:2:0:0:
281,235,188943,1,8,0:0:0:0:
285,311,189126,1,8,0:0:0:0:
209,315,189309,1,4,2:3:0:0:
277,159,189492,6,0,L|290:95,2,48,10|0|0,0:0|1:0|1:0,0:0:0:0:
357,231,189858,2,0,L|370:295,2,48,10|8|4,0:0|2:3|2:3,0:0:0:0:
485,216,190223,6,0,P|434:146|353:155,1,172.799994726563,6|0,3:2|0:0,0:0:0:0:
277,159,190772,1,2,0:0:0:0:
262,293,190955,2,0,P|192:242|201:161,1,172.799994726563,14|2,0:0|0:0,0:0:0:0:
277,159,191504,1,2,0:0:0:0:
355,153,191687,1,2,3:2:0:0:
141,106,192053,6,0,P|178:125|198:162,1,86.3999973632813,2|0,0:0|0:0,0:0:0:0:
86,59,192419,2,0,P|121:35|164:37,1,86.3999973632813,10|0,0:0|0:0,0:0:0:0:
14,82,192784,2,0,P|11:39|34:3,1,86.3999973632813,2|0,0:0|0:0,0:0:0:0:
70,133,193150,6,0,B|35:150|38:186|38:186|50:317,1,172.799994726563,2|0,3:2|0:0,0:0:0:0:
78,359,193699,1,2,0:0:0:0:
122,299,193882,2,0,B|139:264|175:267|175:267|306:279,1,172.799994726563,10|0,0:0|0:0,0:0:0:0:
355,283,194431,1,2,0:0:0:0:
312,345,194614,2,0,B|277:328|280:292|280:292|292:161,1,172.799994726563,2|0,3:2|0:0,0:0:0:0:
263,34,195345,6,0,P|268:82|246:125,1,86.3999973632813,10|0,0:0|0:0,0:0:0:0:
177,149,195711,1,2,0:0:0:0:
187,68,195894,1,2,0:0:0:0:
253,116,196077,2,0,P|323:117|367:184,1,144,2|0,3:2|0:0,0:0:0:0:
289,186,196626,1,2,0:0:0:0:
440,158,196809,1,8,0:0:0:0:
387,293,197175,5,2,0:0:0:0:
359,366,197358,1,2,0:0:0:0:
308,305,197540,2,0,P|237:266|158:282,1,144,2|0,3:2|0:0,0:0:0:0:
115,317,198089,1,2,0:0:0:0:
54,274,198272,1,10,0:0:0:0:
78,202,198455,2,0,P|73:171|80:111,2,72,2|2|2,0:0|3:2|0:0,0:0:0:0:
176,273,199004,6,0,B|227:246|238:162|165:114|203:31,1,259.199992089844,6|0,3:2|3:0,0:0:0:0:
273,0,199736,1,10,0:0:0:0:
336,36,199919,1,8,0:0:0:0:
268,73,200101,1,8,2:3:0:0:
264,201,200467,5,10,0:0:0:0:
205,149,200650,2,0,L|95:141,2,86.3999973632813,4|0|0,2:3|0:0|3:0,0:0:0:0:
242,126,201108,1,0,1:0:0:0:
242,126,201199,2,0,L|351:132,1,86.3999973632813,10|8,0:0|0:0,0:0:0:0:
458,200,201565,2,0,L|349:194,1,86.3999973632813,10|4,2:3|2:3,0:0:0:0:
267,280,201931,6,0,B|308:293|308:293|392:270|392:270|439:272,1,172.799994726563,6|0,3:2|0:0,0:0:0:0:
508,256,202480,1,2,0:0:0:0:
458,200,202662,2,0,L|349:194,1,86.3999973632813,8|0,0:0|0:0,0:0:0:0:
328,130,203028,2,0,L|242:126,1,86.3999973632813,2|2,0:0|0:0,0:0:0:0:
184,177,203394,1,2,3:2:0:0:
51,349,203760,6,0,P|85:369|137:360,1,86.3999973632813,2|0,0:0|0:0,0:0:0:0:
80,216,204126,2,0,P|45:235|27:284,1,86.3999973632813,10|0,0:0|0:0,0:0:0:0:
181,308,204492,2,0,P|181:268|147:228,1,86.3999973632813,2|0,0:0|0:0,0:0:0:0:
57,134,204858,6,0,P|142:142|215:85,1,172.799994726563,2|0,3:2|0:0,0:0:0:0:
455,134,205589,2,0,P|370:142|297:85,1,172.799994726563,10|0,0:0|0:0,0:0:0:0:
257,157,206138,1,2,0:0:0:0:
257,157,206321,2,0,B|249:215|249:215|264:278|264:278|257:328,2,172.799994726563,2|2|10,3:2|0:0|0:0,0:0:0:0:
256,32,207419,5,2,0:0:0:0:
209,93,207601,1,2,0:0:0:0:
135,71,207784,2,0,P|69:79|20:19,1,144,2|0,3:2|0:0,0:0:0:0:
95,8,208333,1,2,0:0:0:0:
135,71,208516,1,8,0:0:0:0:
27,152,208882,5,2,0:0:0:0:
101,163,209065,1,2,0:0:0:0:
139,229,209248,2,0,L|221:237,1,72,2|0,3:2|0:0,0:0:0:0:
285,228,209614,2,0,L|367:236,1,72,2|0,0:0|0:0,0:0:0:0:
393,165,209980,2,0,L|311:157,1,72,10|0,0:0|0:0,0:0:0:0:
248,164,210345,2,0,L|166:156,1,72,2|0,0:0|0:0,0:0:0:0:
139,229,210711,6,0,B|160:292|146:352|146:352|101:368,2,172.799994726563,2|2|8,3:2|0:0|0:0,0:0:0:0:
248,164,211809,5,2,0:0:0:0:
285,228,211992,1,2,0:0:0:0:
325,290,212175,2,0,P|367:294|408:280,1,86.3999973632813,2|0,3:2|0:0,0:0:0:0:
473,313,212540,2,0,P|480:271|464:232,1,86.3999973632813,8|0,0:0|1:0,0:0:0:0:
439,208,212815,1,0,1:0:0:0:
439,208,212906,2,0,L|435:121,1,86.3999973632813,10|8,0:0|0:0,0:0:0:0:
429,48,213272,1,6,2:3:0:0:
227,116,213638,6,0,B|357:193|210:183|358:125,1,172.799994726563,6|0,3:2|0:0,0:0:0:0:
435,121,214187,1,2,0:0:0:0:
429,48,214370,2,0,P|390:38|337:54,1,86.3999973632813,8|0,0:0|0:0,0:0:0:0:
358,125,214736,2,0,P|369:165|366:210,1,86.3999973632813,2|2,0:0|0:0,0:0:0:0:
335,280,215101,1,2,3:2:0:0:
127,211,215467,6,0,B|207:180,1,86.3999973632813,2|0,0:0|0:0,0:0:0:0:
291,65,215833,2,0,B|277:150,1,86.3999973632813,10|0,0:0|0:0,0:0:0:0:
335,280,216199,2,0,B|267:225,1,86.3999973632813,2|0,0:0|0:0,0:0:0:0:
56,245,216565,6,0,B|104:252|104:252|149:317|149:317|212:326,1,172.799994726563,2|0,3:2|0:0,0:0:0:0:
269,331,217114,1,2,0:0:0:0:
269,331,217297,2,0,B|286:285|286:285|253:214|253:214|276:155,1,172.799994726563,10|0,0:0|0:0,0:0:0:0:
249,98,217845,1,2,0:0:0:0:
249,98,218028,2,0,B|201:104|201:104|156:169|156:169|93:179,1,172.799994726563,2|0,3:2|0:0,0:0:0:0:
56,245,218577,5,2,0:0:0:0:
56,245,218760,2,0,B|103:251|103:251|148:316|148:316|211:326,1,172.799994726563,10|2,0:0|0:0,0:0:0:0:
269,331,219309,1,2,0:0:0:0:
269,331,219492,2,0,P|340:324|435:370,1,172.799994726563,2|0,3:2|0:0,0:0:0:0:
503,384,220040,1,2,0:0:0:0:
483,311,220223,1,8,0:0:0:0:
396,114,220589,5,2,0:0:0:0:
323,103,220772,1,2,0:0:0:0:
250,92,220955,2,0,P|286:171|272:254,1,172.799994726563,2|0,3:2|0:0,0:0:0:0:
269,331,221504,2,0,P|228:340|183:330,1,86.3999973632813,2|10,0:0|0:0,0:0:0:0:
112,306,221870,2,0,P|70:296|28:305,2,86.3999973632813,2|2|2,0:0|0:0|0:0,0:0:0:0:
173,257,222419,6,0,P|127:174|147:37,1,216,6|0,3:2|3:0,0:0:0:0:
177,60,223059,1,0,1:0:0:0:
177,60,223150,2,0,B|180:80|198:92|251:91,1,86.3999973632813,10|8,0:0|0:0,0:0:0:0:
326,97,223516,1,4,2:3:0:0:
496,4,223882,6,0,B|517:208|386:75|409:272,1,302.399990771485,6|0,3:2|0:0,0:0:0:0:
419,348,225345,6,0,L|346:340,1,57.6,2|0,0:0|0:0,0:0:0:0:
288,329,225711,1,2,0:0:0:0:
248,266,225894,2,0,L|130:278,1,115.2,2|0,0:0|0:0,0:0:0:0:
59,288,226443,1,2,0:0:0:0:
179,198,226809,2,0,P|157:149|167:75,2,115.2,2|0|0,0:0|0:0|0:0,0:0:0:0:
254,190,227723,2,0,P|261:162|264:126,2,57.6,2|2|2,0:0|0:0|0:0,0:0:0:0:
248,266,228272,6,0,L|252:345,1,57.6,2|0,0:0|0:0,0:0:0:0:
298,382,228638,1,2,0:0:0:0:
354,332,228821,2,0,L|489:345,1,115.2,2|0,0:0|0:0,0:0:0:0:
502,275,229370,1,2,0:0:0:0:
328,257,229736,2,0,P|349:181|333:136,1,115.2,2|0,0:0|0:0,0:0:0:0:
138,20,230467,6,0,B|97:8|97:8|54:19,1,86.3999973632813,10|0,2:1|0:0,0:0:0:0:
42,96,230833,2,0,B|96:83|96:83|214:117,1,172.799994726563,14|0,2:1|0:0,0:0:0:0:
309,129,231931,6,0,L|304:255,1,115.2,2|0,0:0|0:0,0:0:0:0:
300,318,232480,1,0,3:0:0:0:
300,318,232571,1,0,3:0:0:0:
300,318,232662,2,0,P|254:317|192:368,1,115.2,10|4,0:0|3:0,0:0:0:0:
227,246,233394,5,10,0:0:0:0:
161,281,233577,1,8,0:0:0:0:
162,206,233760,1,12,3:0:0:0:
372,287,234126,6,0,B|359:237|376:204|409:219|429:183|431:125,1,172.799994726563,6|8,3:2|0:0,0:0:0:0:
385,75,235040,2,0,L|383:9,2,57.6,8|8|4,0:0|2:3|2:3,0:0:0:0:
351,142,235589,6,0,P|297:124|243:140,1,115.2,6|6,3:2|3:2,0:0:0:0:
256,192,237144,12,0,245101,0:0:0:0:
