osu file format v14

[General]
AudioFilename: Treasures.mp3
AudioLeadIn: 0
PreviewTime: 177693
Countdown: 0
SampleSet: Soft
StackLeniency: 0
Mode: 0
LetterboxInBreaks: 0
WidescreenStoryboard: 0

[Editor]
DistanceSpacing: 0.8
BeatDivisor: 8
GridSize: 32
TimelineZoom: 2

[Metadata]
Title:Treasures
TitleUnicode:Treasures
Artist:Sakakibara Yui
ArtistUnicode:榊原ゆい
Creator:Hakusui3820
Version:Fate
Source:弓張月の導き雲はるか
Tags:Muziyami lp_Blue Japanese JP Jpop J-pop pop 椎名俊介 Shiina Shunsuke ロールプレイングゲーム Role-playing game RPG Visual Novel VN Vocals Galgame 美少女ゲーム Eroge Video Game でぼの巣製作所 Debo no Su Seisakusho Tsukino Michibiki Kumo Haruka ED Ending Full Version フレイア Freyja
BeatmapID:2917432
BeatmapSetID:1415573

[Difficulty]
HPDrainRate:7.5
CircleSize:5
OverallDifficulty:7.5
ApproachRate:8
SliderMultiplier:3.28
SliderTickRate:1

[Events]
//Background and Video events
0,0,"Freyja-1.jpg",0,0
//Break Periods
2,178716,186547
//Storyboard Layer 0 (Background)
//Storyboard Layer 1 (Fail)
//Storyboard Layer 2 (Pass)
//Storyboard Layer 3 (Foreground)
//Storyboard Layer 4 (Overlay)
//Storyboard Sound Samples

[TimingPoints]
-20,731.707317073171,4,2,1,50,1,0
2358,-166.666666666667,4,2,1,20,0,0
2906,-125,4,2,1,30,0,0
8028,-71.4285714285714,4,2,2,60,0,1
8303,-71.4285714285714,4,2,2,5,0,0
8394,-343.642611683849,4,2,2,60,0,0
9400,-344.827586206897,4,2,2,5,0,0
9492,-125,4,2,1,30,0,0
11687,-250,4,2,1,40,0,0
13059,-250,4,2,1,5,0,0
13150,-500,4,2,1,40,0,0
14522,-500,4,2,1,5,0,0
14614,-125,4,2,1,30,0,0
21565,-125,4,2,2,30,0,0
21931,-125,4,2,1,30,0,0
36931,-125,4,2,1,35,0,0
37205,-125,4,2,1,5,0,0
37297,-100,4,2,1,35,0,0
37571,-100,4,2,1,5,0,0
37662,-83.3333333333333,4,2,1,35,0,0
37937,-83.3333333333333,4,2,1,5,0,0
38028,-125,4,2,1,40,0,0
39858,-125,4,2,2,40,0,0
40223,-125,4,2,1,40,0,0
42784,-125,4,2,2,40,0,0
43150,-125,4,2,1,40,0,0
45894,-125,4,2,2,40,0,0
46077,-125,4,2,1,40,0,0
48821,-125,4,2,2,40,0,0
49004,-125,4,2,1,40,0,0
51748,-83.3333333333333,4,2,3,40,0,0
51794,-83.3333333333333,4,2,2,40,0,0
51839,-83.3333333333333,4,2,3,40,0,0
51885,-83.3333333333333,4,2,2,40,0,0
51931,-100,4,2,1,45,0,0
52662,-100,4,2,1,50,0,0
55223,-166.666666666667,4,2,1,50,0,0
55498,-166.666666666667,4,2,1,5,0,0
55589,-100,4,2,2,55,0,0
55864,-100,4,2,2,5,0,0
55955,-100,4,2,2,55,0,0
56230,-100,4,2,2,5,0,0
56321,-100,4,2,2,55,0,0
56595,-100,4,2,2,5,0,0
56687,-100,4,2,2,55,0,0
56961,-100,4,2,2,5,0,0
57053,-100,4,2,2,55,0,0
57327,-100,4,2,2,5,0,0
57419,-100,4,2,2,55,0,0
57601,-83.3333333333333,4,2,3,55,0,0
57647,-83.3333333333333,4,2,2,55,0,0
57693,-83.3333333333333,4,2,3,55,0,0
57739,-83.3333333333333,4,2,2,55,0,0
57784,-83.3333333333333,4,2,1,55,0,0
57876,-83.3333333333333,4,2,1,5,0,0
57967,-83.3333333333333,4,2,1,55,0,0
58059,-83.3333333333333,4,2,1,5,0,0
58150,-166.666666666667,4,2,1,55,0,0
58425,-166.666666666667,4,2,1,5,0,0
58516,-83.3333333333333,4,2,1,60,0,1
59065,-83.3333333333333,4,2,2,60,0,1
59248,-83.3333333333333,4,2,1,60,0,1
60254,-83.3333333333333,4,2,1,5,0,1
60345,-83.3333333333333,4,2,1,60,0,1
61992,-83.3333333333333,4,2,2,60,0,1
62175,-83.3333333333333,4,2,1,60,0,1
62723,-83.3333333333333,4,2,2,60,0,1
62906,-83.3333333333333,4,2,1,60,0,1
63272,-83.3333333333333,4,2,2,60,0,1
63638,-83.3333333333333,4,2,1,60,0,1
64370,-100,4,2,1,50,0,0
64919,-100,4,2,2,50,0,0
65101,-100,4,2,1,50,0,0
67297,-83.3333333333333,4,2,1,60,0,1
67662,-83.3333333333333,4,2,2,60,0,1
68028,-83.3333333333333,4,2,1,60,0,1
69034,-83.3333333333333,4,2,1,5,0,1
69126,-83.3333333333333,4,2,1,60,0,1
69309,-83.3333333333333,4,2,3,60,0,1
69355,-83.3333333333333,4,2,2,60,0,1
69400,-83.3333333333333,4,2,3,60,0,1
69446,-83.3333333333333,4,2,2,60,0,1
69492,-83.3333333333333,4,2,1,60,0,1
69583,-83.3333333333333,4,2,1,5,0,1
69675,-83.3333333333333,4,2,1,60,0,1
69766,-83.3333333333333,4,2,1,5,0,1
69858,-166.666666666667,4,2,1,60,0,1
70132,-166.666666666667,4,2,1,5,0,0
70223,-83.3333333333333,4,2,1,60,0,1
70772,-83.3333333333333,4,2,2,60,0,1
70955,-83.3333333333333,4,2,1,60,0,1
71961,-83.3333333333333,4,2,1,5,0,1
72053,-83.3333333333333,4,2,1,60,0,1
73699,-83.3333333333333,4,2,2,60,0,1
73882,-83.3333333333333,4,2,1,60,0,1
74431,-83.3333333333333,4,2,2,60,0,1
74614,-83.3333333333333,4,2,1,60,0,1
75162,-83.3333333333333,4,2,2,60,0,1
75345,-83.3333333333333,4,2,1,60,0,1
76626,-83.3333333333333,4,2,2,60,0,1
76809,-83.3333333333333,4,2,1,60,0,1
78089,-83.3333333333333,4,2,2,60,0,1
78272,-83.3333333333333,4,2,1,60,0,1
79553,-83.3333333333333,4,2,3,60,0,1
79598,-83.3333333333333,4,2,2,60,0,1
79644,-83.3333333333333,4,2,3,60,0,1
79690,-83.3333333333333,4,2,2,60,0,1
79736,-83.3333333333333,4,2,1,60,0,1
80467,-312.5,4,2,1,55,0,0
81839,-312.5,4,2,1,5,0,0
81931,-100,4,2,1,50,0,1
82022,-100,4,2,1,50,0,0
82297,-100,4,2,2,50,0,0
82662,-100,4,2,1,50,0,0
85406,-83.3333333333333,4,2,3,50,0,0
85452,-83.3333333333333,4,2,2,50,0,0
85498,-83.3333333333333,4,2,3,50,0,0
85544,-83.3333333333333,4,2,2,50,0,0
85589,-100,4,2,1,50,0,0
86138,-100,4,2,2,50,0,0
86321,-250,4,2,1,50,0,0
86961,-250,4,2,1,5,0,0
87053,-166.666666666667,4,2,1,40,0,0
87693,-166.666666666667,4,2,1,5,0,0
87784,-125,4,2,1,30,0,0
94736,-125,4,2,2,30,0,0
95101,-125,4,2,1,30,0,0
109553,-125,4,2,2,30,0,0
109736,-125,4,2,1,30,0,0
110284,-83.3333333333333,4,2,3,30,0,0
110330,-83.3333333333333,4,2,2,30,0,0
110376,-83.3333333333333,4,2,3,30,0,0
110422,-83.3333333333333,4,2,2,30,0,0
110467,-125,4,2,1,35,0,0
111199,-125,4,2,1,40,0,0
113028,-125,4,2,2,40,0,0
113394,-125,4,2,1,40,0,0
116138,-125,4,2,2,40,0,0
116321,-125,4,2,1,40,0,0
117419,-125,4,2,2,40,0,0
117784,-125,4,2,1,40,0,0
119065,-125,4,2,2,40,0,0
119248,-125,4,2,1,40,0,0
121992,-125,4,2,2,40,0,0
122175,-125,4,2,1,40,0,0
124919,-83.3333333333333,4,2,3,40,0,0
124964,-83.3333333333333,4,2,2,40,0,0
125010,-83.3333333333333,4,2,3,40,0,0
125056,-83.3333333333333,4,2,2,40,0,0
125101,-125,4,2,1,45,0,0
125833,-100,4,2,1,50,0,0
126199,-100,4,2,2,50,0,0
126565,-100,4,2,1,50,0,0
128394,-166.666666666667,4,2,1,50,0,0
128669,-166.666666666667,4,2,1,5,0,0
128760,-100,4,2,2,55,0,0
129034,-100,4,2,2,5,0,0
129126,-100,4,2,2,55,0,0
129400,-100,4,2,2,5,0,0
129492,-100,4,2,2,55,0,0
129766,-100,4,2,2,5,0,0
129858,-100,4,2,2,55,0,0
130132,-100,4,2,2,5,0,0
130223,-100,4,2,2,55,0,0
130498,-100,4,2,2,5,0,0
130589,-100,4,2,2,55,0,0
130772,-83.3333333333333,4,2,3,55,0,0
130818,-83.3333333333333,4,2,2,55,0,0
130864,-83.3333333333333,4,2,3,55,0,0
130909,-83.3333333333333,4,2,2,55,0,0
130955,-83.3333333333333,4,2,1,55,0,0
131047,-83.3333333333333,4,2,1,5,0,0
131138,-83.3333333333333,4,2,1,55,0,0
131230,-83.3333333333333,4,2,1,5,0,0
131321,-166.666666666667,4,2,1,55,0,0
131595,-166.666666666667,4,2,1,5,0,0
131687,-83.3333333333333,4,2,1,60,0,1
132236,-83.3333333333333,4,2,2,60,0,1
132419,-83.3333333333333,4,2,1,60,0,1
133425,-83.3333333333333,4,2,1,5,0,1
133516,-83.3333333333333,4,2,1,60,0,1
135162,-83.3333333333333,4,2,2,60,0,1
135345,-83.3333333333333,4,2,1,60,0,1
135894,-83.3333333333333,4,2,2,60,0,1
136077,-83.3333333333333,4,2,1,60,0,1
136443,-83.3333333333333,4,2,2,60,0,1
136809,-83.3333333333333,4,2,1,60,0,1
137540,-100,4,2,1,50,0,0
138089,-100,4,2,2,50,0,0
138272,-100,4,2,1,50,0,0
140467,-83.3333333333333,4,2,1,60,0,1
140833,-83.3333333333333,4,2,2,60,0,1
141199,-83.3333333333333,4,2,1,60,0,1
142205,-83.3333333333333,4,2,1,5,0,1
142297,-83.3333333333333,4,2,1,60,0,1
142480,-83.3333333333333,4,2,3,60,0,1
142525,-83.3333333333333,4,2,2,60,0,1
142571,-83.3333333333333,4,2,3,60,0,1
142617,-83.3333333333333,4,2,2,60,0,1
142662,-83.3333333333333,4,2,1,60,0,1
142754,-83.3333333333333,4,2,1,5,0,1
142845,-83.3333333333333,4,2,1,60,0,1
142937,-83.3333333333333,4,2,1,5,0,1
143028,-166.666666666667,4,2,1,60,0,1
143303,-166.666666666667,4,2,1,5,0,0
143394,-83.3333333333333,4,2,1,60,0,1
143943,-83.3333333333333,4,2,2,60,0,1
144126,-83.3333333333333,4,2,1,60,0,1
145132,-83.3333333333333,4,2,1,5,0,1
145223,-83.3333333333333,4,2,1,60,0,1
146870,-83.3333333333333,4,2,2,60,0,1
147053,-83.3333333333333,4,2,1,60,0,1
147601,-83.3333333333333,4,2,2,60,0,1
147784,-83.3333333333333,4,2,1,60,0,1
148333,-83.3333333333333,4,2,2,60,0,1
148516,-83.3333333333333,4,2,1,60,0,1
149797,-83.3333333333333,4,2,2,60,0,1
149980,-83.3333333333333,4,2,1,60,0,1
151260,-83.3333333333333,4,2,2,60,0,1
151443,-83.3333333333333,4,2,1,60,0,1
152723,-83.3333333333333,4,2,3,60,0,1
152769,-83.3333333333333,4,2,2,60,0,1
152815,-83.3333333333333,4,2,3,60,0,1
152861,-83.3333333333333,4,2,2,60,0,1
152906,-83.3333333333333,4,2,1,60,0,1
153638,-83.3333333333333,4,2,1,55,0,1
154370,-83.3333333333333,4,2,2,55,0,1
154736,-83.3333333333333,4,2,1,55,0,1
154919,-83.3333333333333,4,2,1,55,0,0
155101,-100,4,2,1,50,0,1
155193,-100,4,2,1,50,0,0
155467,-100,4,2,2,50,0,0
155833,-100,4,2,1,50,0,0
158303,-100,4,2,1,5,0,0
158394,-100,4,2,1,50,0,0
159034,-100,4,2,1,5,0,0
159126,-100,4,2,1,50,0,0
159766,-100,4,2,1,5,0,0
159858,-100,4,2,1,50,0,0
160498,-100,4,2,1,5,0,0
160589,-100,4,2,1,50,0,0
161321,-100,4,2,2,50,0,0
161687,-100,4,2,1,50,0,0
164156,-100,4,2,1,5,0,0
164248,-100,4,2,1,50,0,0
164888,-100,4,2,1,5,0,0
164980,-100,4,2,1,50,0,0
165620,-100,4,2,1,5,0,0
165711,-100,4,2,1,50,0,0
166351,-100,4,2,1,5,0,0
166443,-100,4,2,1,50,0,0
167175,-100,4,2,2,50,0,0
167540,-100,4,2,1,50,0,0
168638,-100,4,2,2,50,0,0
169004,-100,4,2,1,50,0,0
170010,-100,4,2,1,5,0,0
170101,-100,4,2,1,50,0,0
170742,-100,4,2,1,5,0,0
170833,-100,4,2,1,50,0,0
171473,-100,4,2,1,5,0,0
171565,-100,4,2,1,50,0,0
171748,-83.3333333333333,4,2,3,50,0,0
171794,-83.3333333333333,4,2,2,50,0,0
171839,-83.3333333333333,4,2,3,50,0,0
171885,-83.3333333333333,4,2,2,50,0,0
171931,-100,4,2,1,55,0,0
172662,-100,4,2,2,60,0,1
172937,-100,4,2,2,5,0,1
173028,-83.3333333333333,4,2,2,62,0,1
173303,-83.3333333333333,4,2,2,5,0,1
173394,-71.4285714285714,4,2,2,64,0,1
173669,-71.4285714285714,4,2,2,5,0,1
173760,-62.5,4,2,2,66,0,1
174034,-62.5,4,2,2,5,0,1
174126,-55.5555555555556,4,2,2,68,0,1
174400,-55.5555555555556,4,2,2,5,0,1
174492,-50,4,2,2,70,0,1
174766,-50,4,2,2,5,0,1
174858,-83.3333333333333,4,2,1,65,0,1
175589,-100,4,2,1,60,0,0
178516,-100,4,2,1,40,0,0
187297,-100,4,2,1,50,0,0
189492,-100,4,2,1,55,0,0
189614,-100,4,2,3,55,0,0
189736,-100,4,2,2,55,0,0
189858,-100,4,2,1,55,0,0
190223,-71.4285714285714,4,2,1,60,0,1
190772,-83.3333333333333,4,2,2,60,0,1
190955,-62.5,4,2,1,60,0,1
191321,-83.3333333333333,4,2,1,60,0,1
193699,-83.3333333333333,4,2,2,60,0,1
193882,-83.3333333333333,4,2,1,60,0,1
194431,-83.3333333333333,4,2,2,60,0,1
194614,-83.3333333333333,4,2,1,60,0,1
195162,-83.3333333333333,4,2,2,60,0,1
195345,-83.3333333333333,4,2,1,60,0,1
196077,-100,4,2,1,50,0,0
196626,-100,4,2,2,50,0,0
196809,-100,4,2,1,50,0,0
198089,-100,4,2,2,50,0,0
198272,-100,4,2,1,50,0,0
199004,-83.3333333333333,4,2,1,60,0,1
199461,-83.3333333333333,4,2,1,5,0,1
199553,-83.3333333333333,4,2,1,60,0,1
201016,-83.3333333333333,4,2,3,60,0,1
201062,-83.3333333333333,4,2,2,60,0,1
201108,-83.3333333333333,4,2,3,60,0,1
201153,-83.3333333333333,4,2,2,60,0,1
201199,-83.3333333333333,4,2,1,60,0,1
201290,-83.3333333333333,4,2,1,5,0,1
201382,-83.3333333333333,4,2,1,60,0,1
201473,-83.3333333333333,4,2,1,5,0,1
201565,-83.3333333333333,4,2,1,60,0,1
201656,-83.3333333333333,4,2,1,5,0,1
201748,-83.3333333333333,4,2,1,60,0,1
201839,-83.3333333333333,4,2,1,5,0,0
201931,-83.3333333333333,4,2,1,60,0,1
202480,-83.3333333333333,4,2,2,60,0,1
202662,-83.3333333333333,4,2,1,60,0,1
203669,-83.3333333333333,4,2,1,5,0,1
203760,-83.3333333333333,4,2,1,60,0,1
205406,-83.3333333333333,4,2,2,60,0,1
205589,-83.3333333333333,4,2,1,60,0,1
206138,-83.3333333333333,4,2,2,60,0,1
206321,-83.3333333333333,4,2,1,60,0,1
206687,-83.3333333333333,4,2,2,60,0,1
207053,-83.3333333333333,4,2,1,60,0,1
207784,-100,4,2,1,50,0,0
208333,-100,4,2,2,50,0,0
208516,-100,4,2,1,50,0,0
210711,-83.3333333333333,4,2,1,60,0,1
211077,-83.3333333333333,4,2,2,60,0,1
211443,-83.3333333333333,4,2,1,60,0,1
212449,-83.3333333333333,4,2,1,5,0,1
212540,-83.3333333333333,4,2,1,60,0,1
212723,-83.3333333333333,4,2,3,60,0,1
212769,-83.3333333333333,4,2,2,60,0,1
212815,-83.3333333333333,4,2,3,60,0,1
212861,-83.3333333333333,4,2,2,60,0,1
212906,-83.3333333333333,4,2,1,60,0,1
212998,-83.3333333333333,4,2,1,5,0,1
213089,-83.3333333333333,4,2,1,60,0,1
213181,-83.3333333333333,4,2,1,5,0,1
213272,-166.666666666667,4,2,1,60,0,1
213547,-166.666666666667,4,2,1,5,0,0
213638,-83.3333333333333,4,2,1,60,0,1
214187,-83.3333333333333,4,2,2,60,0,1
214370,-83.3333333333333,4,2,1,60,0,1
215376,-83.3333333333333,4,2,1,5,0,1
215467,-83.3333333333333,4,2,1,60,0,1
217114,-83.3333333333333,4,2,2,60,0,1
217297,-83.3333333333333,4,2,1,60,0,1
217845,-83.3333333333333,4,2,2,60,0,1
218028,-83.3333333333333,4,2,1,60,0,1
218577,-83.3333333333333,4,2,2,60,0,1
218760,-83.3333333333333,4,2,1,60,0,1
220040,-83.3333333333333,4,2,2,60,0,1
220223,-83.3333333333333,4,2,1,60,0,1
221504,-83.3333333333333,4,2,2,60,0,1
221687,-83.3333333333333,4,2,1,60,0,1
222967,-83.3333333333333,4,2,3,60,0,1
223013,-83.3333333333333,4,2,2,60,0,1
223059,-83.3333333333333,4,2,3,60,0,1
223105,-83.3333333333333,4,2,2,60,0,1
223150,-83.3333333333333,4,2,1,60,0,1
223882,-312.5,4,2,1,55,0,0
225254,-312.5,4,2,1,5,0,0
225345,-125,4,2,1,30,0,0
230467,-71.4285714285714,4,2,2,60,0,1
230742,-71.4285714285714,4,2,2,5,0,0
230833,-343.642611683849,4,2,2,60,0,0
231839,-343.642611683849,4,2,2,5,0,0
231931,-125,4,2,1,30,0,0
234126,-116.959064327485,4,2,1,40,0,0
234766,-116.959064327485,4,2,1,5,0,0
234858,-125,4,2,1,40,0,0
235589,-500,4,2,1,40,0,0
236961,-500,4,2,1,5,0,0
237053,-100,4,2,1,30,0,0
237144,-100,4,2,1,30,0,0
238516,-100,4,2,1,25,0,0
239980,-100,4,2,1,20,0,0
241443,-100,4,2,1,15,0,0
242906,-100,4,2,1,10,0,0
244370,-100,4,2,1,5,0,0
245101,-125,4,2,99,8,0,0

[Colours]
Combo1 : 170,170,170
Combo2 : 255,85,170
Combo3 : 255,85,255
Combo4 : 255,169,128

[HitObjects]
118,242,2358,53,2,0:0:0:0:
123,240,2540,1,2,0:0:0:0:
127,244,2723,1,2,0:0:0:0:
202,325,2906,5,2,0:0:0:0:
233,337,3272,1,2,0:0:0:0:
301,275,3455,2,0,L|367:279,1,65.6,2|0,0:0|0:0,0:0:0:0:
367,279,4004,1,2,0:0:0:0:
243,204,4370,2,0,P|224:143|255:81,2,131.2,2|0|0,0:0|0:0|0:0,0:0:0:0:
317,149,5284,1,2,0:0:0:0:
243,71,5467,1,2,0:0:0:0:
315,39,5650,1,2,0:0:0:0:
171,39,5833,5,2,0:0:0:0:
140,50,6199,1,2,0:0:0:0:
72,112,6382,2,0,L|6:108,1,65.6,2|0,0:0|0:0,0:0:0:0:
7,108,6931,1,2,0:0:0:0:
130,183,7297,2,0,P|149:244|118:306,1,131.2,2|0,0:0|0:0,0:0:0:0:
122,302,8028,6,0,P|199:277|278:317,1,172.199994744873,10|0,2:1|0:0,0:0:0:0:
308,374,8394,6,0,L|315:242,1,131.2,14|0,2:1|0:0,0:0:0:0:
323,243,9492,6,0,L|315:374,1,131.2,2|0,0:0|0:0,0:0:0:0:
448,245,10040,1,0,3:0:0:0:
451,248,10132,1,0,3:0:0:0:
454,251,10223,5,10,0:0:0:0:
315,374,10589,1,8,2:3:0:0:
454,251,10955,5,10,0:0:0:0:
384,312,11138,1,8,0:0:0:0:
315,374,11321,1,4,2:3:0:0:
62,367,11687,22,0,B|3:341|-56:227|55:192|94:235,1,246,6|0,3:2|0:0,0:0:0:0:
109,230,13150,6,0,P|54:206|1:232,1,123,6|0,3:2|0:0,0:0:0:0:
0,249,14614,38,0,P|62:333|109:230,1,262.4,6|8,3:2|2:1,0:0:0:0:
20,133,15711,1,2,0:0:0:0:
109,37,16077,1,2,2:1:0:0:
212,118,16443,2,0,P|249:118|286:98,1,65.6,0|0,3:0|0:0,0:0:0:0:
230,41,16809,1,8,2:1:0:0:
194,195,17175,1,2,0:0:0:0:
393,128,17540,6,0,P|337:95|262:115,1,131.2,2|0,3:2|0:0,0:0:0:0:
188,206,18272,1,8,2:1:0:0:
232,336,18638,2,0,P|246:291|228:241,1,87.4666666666667,2|0,0:0|0:0,0:0:0:0:
188,206,19004,2,0,L|55:212,2,131.2,2|0|8,2:1|3:0|2:1,0:0:0:0:
188,206,20101,1,2,0:0:0:0:
236,253,20284,1,2,0:0:0:0:
316,177,20467,6,0,P|246:101|189:208,1,262.4,2|8,3:2|2:1,0:0:0:0:
188,206,21565,1,2,0:0:0:0:
364,223,21931,1,2,2:1:0:0:
438,84,22297,2,0,P|401:84|364:104,1,65.6,0|0,3:0|0:0,0:0:0:0:
308,137,22662,1,8,2:1:0:0:
412,270,23028,1,2,0:0:0:0:
305,59,23394,6,0,P|245:34|174:64,1,131.2,2|0,3:2|0:0,0:0:0:0:
162,130,23943,1,2,0:0:0:0:
110,30,24126,1,8,2:1:0:0:
168,194,24492,2,0,P|171:161|161:129,1,65.6,2|0,0:0|0:0,0:0:0:0:
105,241,24858,2,0,L|238:235,2,131.2,2|0|8,2:1|3:0|2:1,0:0:0:0:
105,241,25955,1,2,0:0:0:0:
305,311,26321,6,0,L|43:322,1,262.4,2|8,3:2|2:1,0:0:0:0:
167,159,27419,1,2,0:0:0:0:
305,311,27784,2,0,L|299:178,2,131.2,2|0|8,2:1|3:0|2:1,0:0:0:0:
429,147,28882,1,2,0:0:0:0:
305,311,29248,6,0,L|43:322,1,262.4,2|8,3:2|2:1,0:0:0:0:
167,159,30345,2,0,B|170:225|170:225|182:244,1,87.4666666666667,2|0,0:0|0:0,0:0:0:0:
234,201,30711,2,0,L|367:195,2,131.2,2|0|8,2:1|3:0|2:1,0:0:0:0:
234,201,31809,1,2,0:0:0:0:
167,159,31992,1,2,0:0:0:0:
228,53,32175,5,2,3:2:0:0:
98,9,32540,2,0,P|143:-5|193:13,1,87.4666666666667,2|0,0:0|0:0,0:0:0:0:
228,53,32906,2,0,P|296:63|358:46,1,131.2,8|0,2:1|0:0,0:0:0:0:
504,156,33638,1,2,2:1:0:0:
406,342,34004,2,0,P|409:309|399:277,1,65.6,0|0,3:0|0:0,0:0:0:0:
331,318,34370,1,8,2:1:0:0:
481,366,34736,1,2,0:0:0:0:
204,324,35101,6,0,P|272:334|334:317,1,131.2,2|0,3:2|0:0,0:0:0:0:
448,213,35833,2,0,P|458:145|441:83,1,131.2,8|0,2:1|0:0,0:0:0:0:
400,278,36565,1,2,2:1:0:0:
275,62,36931,6,0,L|176:57,1,98.4,2|0,3:2|0:0,0:0:0:0:
111,85,37297,6,0,P|82:136|107:192,1,123,10|0,2:3|0:0,0:0:0:0:
154,140,37662,6,0,B|277:146|277:146|256:160,1,147.599995495606,6|0,2:3|0:0,0:0:0:0:
211,212,38028,22,0,P|186:272|216:343,1,131.2,6|0,3:2|0:0,0:0:0:0:
297,347,38577,2,0,P|361:339|427:341,1,131.2,2|0,0:0|0:0,0:0:0:0:
501,285,39126,2,0,P|504:252|494:220,1,65.6,2|0,3:2|0:0,0:0:0:0:
364,227,39492,2,0,L|497:221,2,131.2,2|2|8,3:2|0:0|2:1,0:0:0:0:
364,227,40589,1,2,0:0:0:0:
172,193,40955,6,0,P|147:133|177:62,1,131.2,2|0,3:2|0:0,0:0:0:0:
240,130,41504,2,0,P|304:138|370:136,1,131.2,2|0,0:0|0:0,0:0:0:0:
447,188,42053,2,0,P|456:219|452:253,1,65.6,2|0,3:2|0:0,0:0:0:0:
364,227,42419,1,2,3:2:0:0:
454,96,42784,1,2,0:0:0:0:
371,136,42967,1,2,0:0:0:0:
469,89,43150,1,8,2:1:0:0:
364,227,43516,2,0,P|360:259|369:292,1,65.6,2|0,0:0|0:0,0:0:0:0:
386,129,43882,6,0,P|320:53|300:161,1,262.4,2|2,3:2|2:1,0:0:0:0:
450,195,44980,1,2,3:2:0:0:
391,49,45345,2,0,P|331:24|271:47,1,131.2,2|0,3:2|0:0,0:0:0:0:
247,135,45894,1,2,0:0:0:0:
207,2,46077,2,0,P|223:64|231:129,1,131.2,8|0,2:1|0:0,0:0:0:0:
49,167,46809,6,0,P|131:122|232:131,1,196.8,2|0,3:2|0:0,0:0:0:0:
294,198,47540,1,2,2:1:0:0:
187,348,47906,1,0,3:2:0:0:
40,181,48272,2,0,P|56:243|64:308,1,131.2,2|0,3:2|0:0,0:0:0:0:
32,382,48821,1,2,0:0:0:0:
139,285,49004,1,8,2:1:0:0:
139,285,49370,1,2,0:0:0:0:
187,348,49553,1,2,0:0:0:0:
207,221,49736,6,0,P|182:281|212:352,1,131.2,2|0,3:2|0:0,0:0:0:0:
293,356,50284,2,0,P|357:348|423:350,1,131.2,2|0,0:0|0:0,0:0:0:0:
497,294,50833,2,0,P|500:261|490:229,1,65.6,0|0,3:2|0:0,0:0:0:0:
422,270,51199,2,0,P|447:210|417:139,1,131.2,2|0,3:2|0:0,0:0:0:0:
349,93,51748,2,0,L|350:68,2,24.5999992492676,0|0|0,1:0|1:0|1:0,0:0:0:0:
282,126,51931,5,10,0:0:0:0:
326,223,52114,1,8,0:0:0:0:
422,270,52297,1,6,2:3:0:0:
271,143,52662,38,0,P|120:183|14:66,1,328,6|8,3:2|0:0,0:0:0:0:
324,216,53760,1,2,0:0:0:0:
405,205,53943,1,0,3:0:0:0:
271,143,54126,2,0,P|233:214|266:285,1,164,2|0,3:2|3:0,0:0:0:0:
266,285,54858,1,8,0:0:0:0:
125,318,55040,1,8,0:0:0:0:
106,231,55223,6,0,P|114:268|116:304,1,73.7999977478028,6|0,2:3|0:0,0:0:0:0:
125,318,55589,6,0,P|123:264|104:198,1,123,14|0,2:1|0:0,0:0:0:0:
50,147,55955,2,0,P|52:93|71:27,1,123,10|0,2:1|0:0,0:0:0:0:
145,26,56321,2,0,P|157:78|157:147,1,123,10|0,2:1|0:0,0:0:0:0:
104,198,56687,2,0,P|155:181|223:176,1,123,10|0,2:1|0:0,0:0:0:0:
294,152,57053,2,0,P|342:176|393:220,1,123,10|0,2:1|0:0,0:0:0:0:
460,253,57419,1,10,2:1:0:0:
299,332,57601,2,0,P|304:317|313:301,1,24.5999992492676,0|0,1:0|1:0,0:0:0:0:
295,316,57693,2,0,P|298:301|304:283,1,24.5999992492676,0|0,1:0|1:0,0:0:0:0:
283,327,57784,6,0,P|256:323|232:311,1,49.1999984985352,10|0,0:0|0:0,0:0:0:0:
166,338,57967,2,0,P|149:316|141:290,1,49.1999984985352,8|0,0:0|0:0,0:0:0:0:
75,263,58150,2,0,P|84:224|104:198,1,73.7999977478028,6|0,2:3|0:0,0:0:0:0:
142,296,58516,6,0,P|65:338|0:268,1,196.799993994141,6|0,3:2|0:0,0:0:0:0:
104,198,59065,1,2,0:0:0:0:
236,314,59248,2,0,P|282:327|330:312,1,98.3999969970704,8|0,0:0|0:0,0:0:0:0:
280,161,59614,1,2,0:0:0:0:
281,243,59797,1,2,0:0:0:0:
338,85,59980,6,0,P|395:112|350:160,1,147.599995495606,2|0,3:2|0:0,0:0:0:0:
280,145,60345,2,0,P|226:135|175:140,1,98.3999969970704,2|0,0:0|0:0,0:0:0:0:
50,279,60711,2,0,P|85:237|106:190,1,98.3999969970704,10|0,0:0|0:0,0:0:0:0:
49,12,61077,2,0,P|67:63|97:105,1,98.3999969970704,2|0,0:0|0:0,0:0:0:0:
242,50,61443,6,0,P|152:27|92:99,1,196.799993994141,2|0,3:2|0:0,0:0:0:0:
104,198,61992,1,2,0:0:0:0:
232,288,62175,2,0,P|255:198|183:138,1,196.799993994141,10|0,0:0|0:0,0:0:0:0:
104,198,62723,1,2,0:0:0:0:
296,333,62906,6,0,P|393:326|489:348,2,196.799993994141,2|2|10,3:2|0:0|0:0,0:0:0:0:
296,333,64004,1,2,0:0:0:0:
232,288,64187,1,2,0:0:0:0:
369,303,64370,6,0,P|305:258|231:289,1,164,2|0,3:2|0:0,0:0:0:0:
225,366,64919,1,2,0:0:0:0:
168,243,65101,1,8,0:0:0:0:
168,243,65467,1,2,0:0:0:0:
161,321,65650,1,2,0:0:0:0:
175,165,65833,6,0,L|93:157,1,82,2|0,3:2|0:0,0:0:0:0:
182,87,66199,2,0,L|100:79,1,82,2|0,0:0|0:0,0:0:0:0:
253,172,66565,2,0,L|334:179,1,82,10|0,0:0|0:0,0:0:0:0:
175,165,66931,2,0,L|93:157,1,82,2|0,0:0|0:0,0:0:0:0:
260,94,67297,6,0,L|456:111,2,196.799993994141,2|2|8,3:2|0:0|0:0,0:0:0:0:
260,94,68394,1,2,0:0:0:0:
175,165,68577,1,2,0:0:0:0:
328,258,68760,2,0,P|356:192|328:126,1,147.599995495606,2|0,3:2|0:0,0:0:0:0:
260,94,69126,1,8,0:0:0:0:
205,305,69309,2,0,L|224:319,1,24.5999992492676,0|0,1:0|1:0,0:0:0:0:
190,313,69400,2,0,L|206:330,1,24.5999992492676,0|0,1:0|1:0,0:0:0:0:
175,321,69492,6,0,L|124:328,1,49.1999984985352,10|0,0:0|0:0,0:0:0:0:
66,285,69675,2,0,L|58:234,1,49.1999984985352,8|0,0:0|0:0,0:0:0:0:
102,176,69858,2,0,L|174:165,1,73.7999977478028,6|0,2:3|0:0,0:0:0:0:
43,131,70223,6,0,P|40:44|124:58,1,196.799993994141,6|0,3:2|0:0,0:0:0:0:
175,165,70772,1,2,0:0:0:0:
315,26,70955,2,0,P|270:8|221:18,1,98.3999969970704,8|0,0:0|0:0,0:0:0:0:
256,172,71321,1,2,0:0:0:0:
263,91,71504,1,2,0:0:0:0:
102,176,71687,6,0,P|145:233|215:228,1,147.599995495606,2|0,3:2|0:0,0:0:0:0:
271,178,72053,2,0,P|318:168|367:180,1,98.3999969970704,2|0,0:0|0:0,0:0:0:0:
480,335,72419,2,0,P|447:299|433:250,1,98.3999969970704,10|0,0:0|0:0,0:0:0:0:
511,76,72784,2,0,P|496:121|461:158,1,98.3999969970704,2|0,0:0|0:0,0:0:0:0:
358,38,73150,6,0,P|271:9|229:88,1,196.799993994141,2|0,3:2|0:0,0:0:0:0:
271,178,73699,1,2,0:0:0:0:
131,91,73882,2,0,P|102:178|181:220,1,196.799993994141,10|0,0:0|0:0,0:0:0:0:
271,178,74431,1,2,0:0:0:0:
184,318,74614,2,0,P|271:347|313:268,1,196.799993994141,2|0,3:2|0:0,0:0:0:0:
271,178,75162,1,2,0:0:0:0:
400,361,75345,6,0,P|429:321|428:275,1,98.3999969970704,10|0,0:0|0:0,0:0:0:0:
271,178,75711,1,2,0:0:0:0:
393,93,75894,1,2,0:0:0:0:
205,35,76077,6,0,L|392:93,1,196.799993994141,2|0,3:2|0:0,0:0:0:0:
181,45,76626,1,2,0:0:0:0:
278,193,76809,1,8,0:0:0:0:
278,193,77175,1,2,0:0:0:0:
185,226,77358,1,2,0:0:0:0:
249,347,77540,6,0,P|337:305|434:318,1,196.799993994141,2|0,3:2|0:0,0:0:0:0:
511,378,78089,1,2,0:0:0:0:
471,226,78272,1,10,0:0:0:0:
433,317,78455,1,2,0:0:0:0:
332,278,78638,1,2,0:0:0:0:
249,347,78821,1,2,0:0:0:0:
70,247,79004,6,0,P|158:205|255:218,1,196.799993994141,6|0,3:2|0:0,0:0:0:0:
332,278,79553,2,0,P|346:272|364:268,2,24.5999992492676,0|0|0,3:0|1:0|1:0,0:0:0:0:
276,327,79736,5,10,0:0:0:0:
254,217,79919,1,8,0:0:0:0:
276,107,80101,1,4,2:3:0:0:
70,247,80467,38,0,P|158:205|255:218,1,196.799993994141,6|0,3:2|0:0,0:0:0:0:
318,179,81931,22,0,P|398:163|478:176,2,164,6|2|10,3:2|0:0|0:0,0:0:0:0:
318,179,83028,1,2,3:2:0:0:
254,217,83211,1,2,0:0:0:0:
292,109,83394,1,2,3:2:0:0:
325,194,83577,1,2,0:0:0:0:
478,176,83760,2,0,P|438:169|397:175,1,82,2|0,0:0|0:0,0:0:0:0:
287,302,84126,1,10,0:0:0:0:
287,302,84492,1,2,3:2:0:0:
325,366,84675,1,2,0:0:0:0:
470,322,84858,6,0,P|506:253|474:172,1,164,6|0,3:2|0:0,0:0:0:0:
388,138,85406,2,0,L|389:113,2,24.5999992492676,0|0|0,1:0|1:0|1:0,0:0:0:0:
333,188,85589,5,8,0:0:0:0:
222,158,85772,1,8,0:0:0:0:
111,188,85955,1,4,2:3:0:0:
179,218,86138,1,2,0:0:0:0:
282,114,86321,22,0,P|230:85|178:97,1,114.8,6|0,3:2|0:0,0:0:0:0:
222,158,87053,6,0,P|141:126|111:189,1,172.199994744873,4|0,2:3|0:0,0:0:0:0:
179,218,87784,38,0,P|297:184|365:287,1,262.4,6|8,3:2|2:1,0:0:0:0:
243,333,88882,1,2,0:0:0:0:
179,218,89248,1,2,2:1:0:0:
64,282,89614,2,0,L|1:264,1,65.6,0|0,3:0|0:0,0:0:0:0:
154,308,89980,1,8,0:0:0:0:
38,372,90345,1,2,0:0:0:0:
179,218,90711,6,0,P|185:112|133:15,1,218.666666666667,2|0,3:2|0:0,0:0:0:0:
68,0,91443,1,8,2:1:0:0:
0,112,91809,2,0,P|-7:65|17:18,1,87.4666666666667,2|0,0:0|0:0,0:0:0:0:
68,0,92175,2,0,L|201:6,2,131.2,2|0|8,2:1|3:0|0:0,0:0:0:0:
68,0,93272,1,2,0:0:0:0:
8,29,93455,1,2,0:0:0:0:
85,167,93638,6,0,P|0:110|102:90,1,262.4,2|8,3:2|2:1,0:0:0:0:
102,90,94736,1,2,0:0:0:0:
170,202,95101,1,2,2:1:0:0:
294,164,95467,2,0,P|297:131|287:99,1,65.6,0|0,3:0|0:0,0:0:0:0:
245,226,95833,1,8,0:0:0:0:
352,303,96199,1,2,0:0:0:0:
220,140,96565,6,0,P|160:115|89:145,1,131.2,2|0,3:2|0:0,0:0:0:0:
77,211,97114,1,2,0:0:0:0:
25,111,97297,1,8,2:1:0:0:
83,275,97662,2,0,P|86:242|76:210,1,65.6,2|0,0:0|0:0,0:0:0:0:
20,322,98028,2,0,L|153:316,2,131.2,2|0|8,2:1|3:0|0:0,0:0:0:0:
20,322,99126,1,2,0:0:0:0:
100,135,99492,6,0,P|226:104|348:145,1,262.4,2|8,3:2|2:1,0:0:0:0:
438,242,100589,1,2,0:0:0:0:
504,63,100955,2,0,P|513:127|498:192,2,131.2,2|0|8,2:1|3:0|0:0,0:0:0:0:
348,145,102053,1,2,0:0:0:0:
438,242,102419,6,0,P|312:273|190:232,1,262.4,2|8,3:2|2:1,0:0:0:0:
52,197,103516,2,0,P|97:183|147:201,1,87.4666666666667,2|0,0:0|0:0,0:0:0:0:
190,232,103882,2,0,P|199:296|184:361,2,131.2,2|0|8,2:1|3:0|0:0,0:0:0:0:
190,232,104980,1,2,0:0:0:0:
135,193,105162,1,2,0:0:0:0:
186,86,105345,5,2,3:2:0:0:
48,51,105711,2,0,P|93:37|143:55,1,87.4666666666667,2|0,0:0|0:0,0:0:0:0:
186,86,106077,2,0,P|250:95|315:80,1,131.2,8|0,2:1|0:0,0:0:0:0:
358,14,106626,1,2,0:0:0:0:
358,146,106809,5,2,2:1:0:0:
247,216,107175,2,0,P|280:219|312:209,1,65.6,0|0,3:0|0:0,0:0:0:0:
185,167,107540,1,8,0:0:0:0:
108,274,107906,1,2,0:0:0:0:
304,320,108272,6,0,P|236:330|174:313,1,131.2,2|0,3:2|0:0,0:0:0:0:
60,209,109004,2,0,P|50:141|67:79,1,131.2,10|0,2:1|0:0,0:0:0:0:
132,38,109553,1,2,0:0:0:0:
4,32,109736,1,2,2:1:0:0:
60,209,110101,1,2,3:2:0:0:
139,206,110284,2,0,P|146:196|156:186,2,24.5999992492676,0|0|0,1:0|1:0|1:0,0:0:0:0:
108,274,110467,5,10,0:0:0:0:
200,323,110650,1,8,0:0:0:0:
304,320,110833,1,6,2:3:0:0:
47,324,111199,38,0,P|27:262|61:208,1,131.2,6|0,3:2|0:0,0:0:0:0:
155,187,111748,1,2,0:0:0:0:
92,134,111931,2,0,P|89:101|99:69,1,65.6,2|0,3:2|0:0,0:0:0:0:
178,12,112297,1,2,0:0:0:0:
241,65,112480,1,2,0:0:0:0:
385,61,112662,2,0,P|321:53|255:55,2,131.2,2|2|8,3:2|0:0|0:0,0:0:0:0:
385,61,113760,2,0,P|352:58|320:68,1,65.6,2|0,0:0|0:0,0:0:0:0:
309,182,114126,6,0,P|289:120|323:66,1,131.2,2|0,3:2|0:0,0:0:0:0:
413,78,114675,1,2,0:0:0:0:
435,159,114858,2,0,P|432:126|442:94,1,65.6,2|0,3:2|0:0,0:0:0:0:
459,235,115223,2,0,P|426:238|394:228,1,65.6,2|0,0:0|0:0,0:0:0:0:
510,135,115589,2,0,P|508:194|454:236,1,131.2,2|0,3:2|0:0,0:0:0:0:
435,159,116138,1,2,0:0:0:0:
473,313,116321,1,8,0:0:0:0:
473,313,116687,1,2,0:0:0:0:
455,236,116870,1,2,0:0:0:0:
336,292,117053,6,0,P|272:300|206:298,2,131.2,2|2|2,3:2|0:0|3:2,0:0:0:0:
336,292,118150,1,2,0:0:0:0:
377,224,118333,1,2,0:0:0:0:
397,351,118516,2,0,P|365:293|388:234,1,131.2,2|0,3:2|0:0,0:0:0:0:
476,211,119065,1,2,0:0:0:0:
344,152,119248,1,8,0:0:0:0:
397,351,119614,1,2,0:0:0:0:
344,152,119980,6,0,P|255:121|157:148,1,196.8,2|0,3:2|0:0,0:0:0:0:
105,221,120711,2,0,P|135:132|108:34,1,196.8,2|0,3:2|0:0,0:0:0:0:
194,0,121443,2,0,P|233:53|288:86,1,131.2,2|0,3:2|0:0,0:0:0:0:
367,75,121992,1,2,0:0:0:0:
208,126,122175,1,8,0:0:0:0:
208,126,122540,1,2,0:0:0:0:
289,86,122723,1,2,0:0:0:0:
261,206,122906,6,0,P|241:144|275:90,1,131.2,2|0,3:2|0:0,0:0:0:0:
367,75,123455,2,0,P|379:134|323:155,1,131.2,2|0,0:0|0:0,0:0:0:0:
274,91,124004,1,0,3:2:0:0:
441,13,124370,2,0,P|476:70|480:132,1,131.2,2|0,3:2|0:0,0:0:0:0:
416,199,124919,2,0,P|430:191|447:186,2,24.5999992492676,0|0|0,1:0|1:0|1:0,0:0:0:0:
370,256,125101,5,10,0:0:0:0:
268,282,125284,1,8,0:0:0:0:
166,256,125467,1,6,2:3:0:0:
416,199,125833,38,0,P|396:279|412:357,2,164,6|2|8,3:2|0:0|0:0,0:0:0:0:
106,90,126931,1,2,0:0:0:0:
187,101,127114,1,0,3:0:0:0:
53,163,127297,2,0,P|15:92|48:21,1,164,2|0,3:2|3:0,0:0:0:0:
48,21,128028,1,8,0:0:0:0:
187,101,128211,1,8,0:0:0:0:
275,89,128394,6,0,P|237:94|202:105,1,73.7999977478028,6|0,2:3|0:0,0:0:0:0:
187,101,128760,6,0,P|238:84|306:79,1,123,14|0,2:1|0:0,0:0:0:0:
364,32,129126,2,0,P|347:83|342:151,1,123,10|0,2:1|0:0,0:0:0:0:
302,214,129492,2,0,P|250:197|182:192,1,123,10|0,2:1|0:0,0:0:0:0:
127,143,129858,2,0,P|143:194|148:262,1,123,10|0,2:1|0:0,0:0:0:0:
198,318,130223,2,0,P|249:301|317:296,1,123,10|0,2:1|0:0,0:0:0:0:
370,244,130589,1,10,2:1:0:0:
306,79,130772,2,0,P|311:94|320:110,1,24.5999992492676,0|0,1:0|1:0,0:0:0:0:
302,95,130864,2,0,P|305:109|311:127,1,24.5999992492676,0|0,1:0|1:0,0:0:0:0:
291,83,130955,6,0,P|264:86|240:99,1,49.1999984985352,10|0,0:0|0:0,0:0:0:0:
195,41,131138,2,0,P|178:62|170:89,1,49.1999984985352,8|0,0:0|0:0,0:0:0:0:
97,79,131321,2,0,P|105:117|128:143,1,73.7999977478028,6|0,2:3|0:0,0:0:0:0:
195,41,131687,6,0,P|106:29|81:117,1,196.799993994141,6|0,3:2|0:0,0:0:0:0:
201,155,132236,1,2,0:0:0:0:
305,2,132419,2,0,P|290:48|302:95,1,98.3999969970704,8|0,0:0|0:0,0:0:0:0:
465,54,132784,1,2,0:0:0:0:
367,51,132967,1,2,0:0:0:0:
299,236,133150,6,0,P|319:169|302:95,1,147.599995495606,2|0,3:2|0:0,0:0:0:0:
355,147,133516,2,0,P|401:162|448:150,1,98.3999969970704,2|0,0:0|0:0,0:0:0:0:
209,91,133882,2,0,P|255:79|301:94,1,98.3999969970704,10|0,0:0|0:0,0:0:0:0:
59,136,134248,2,0,P|105:151|152:139,1,98.3999969970704,2|0,0:0|0:0,0:0:0:0:
20,284,134614,6,0,P|-11:197|59:136,1,196.799993994141,2|0,3:2|0:0,0:0:0:0:
164,150,135162,1,2,0:0:0:0:
298,294,135345,2,0,P|211:325|150:255,1,196.799993994141,10|0,0:0|0:0,0:0:0:0:
164,150,135894,1,2,0:0:0:0:
308,16,136077,6,0,P|405:9|501:31,2,196.799993994141,2|2|10,3:2|0:0|0:0,0:0:0:0:
308,16,137175,1,2,0:0:0:0:
244,61,137358,1,2,0:0:0:0:
107,76,137540,6,0,P|171:31|245:62,1,164,2|0,3:2|0:0,0:0:0:0:
180,106,138089,1,2,0:0:0:0:
315,94,138272,1,8,0:0:0:0:
315,94,138638,1,2,0:0:0:0:
308,16,138821,1,2,0:0:0:0:
322,172,139004,6,0,L|404:164,1,82,2|0,3:2|0:0,0:0:0:0:
329,250,139370,2,0,L|411:242,1,82,2|0,0:0|0:0,0:0:0:0:
244,179,139736,2,0,L|163:186,1,82,10|0,0:0|0:0,0:0:0:0:
322,172,140101,2,0,L|404:164,1,82,2|0,0:0|0:0,0:0:0:0:
251,257,140467,6,0,L|55:274,2,196.799993994141,2|2|8,3:2|0:0|0:0,0:0:0:0:
251,257,141565,1,2,0:0:0:0:
322,172,141748,1,2,0:0:0:0:
425,316,141931,2,0,P|359:345|293:318,1,147.599995495606,2|0,3:2|0:0,0:0:0:0:
251,257,142297,1,8,0:0:0:0:
342,33,142480,2,0,L|356:14,1,24.5999992492676,0|0,1:0|1:0,0:0:0:0:
350,48,142571,2,0,L|367:32,1,24.5999992492676,0|0,1:0|1:0,0:0:0:0:
358,63,142662,6,0,L|365:114,1,49.1999984985352,10|0,0:0|0:0,0:0:0:0:
322,172,142845,2,0,L|271:180,1,49.1999984985352,8|0,0:0|0:0,0:0:0:0:
213,136,143028,2,0,L|202:64,1,73.7999977478028,6|0,2:3|0:0,0:0:0:0:
168,195,143394,6,0,P|81:198|95:114,1,196.799993994141,6|0,3:2|0:0,0:0:0:0:
202,63,143943,1,2,0:0:0:0:
53,207,144126,2,0,P|39:162|57:115,1,98.3999969970704,8|0,0:0|0:0,0:0:0:0:
168,195,144492,1,2,0:0:0:0:
117,261,144675,1,2,0:0:0:0:
57,116,144858,6,0,P|122:85|188:114,1,147.599995495606,2|0,3:2|0:0,0:0:0:0:
243,161,145223,2,0,P|287:179|335:170,1,98.3999969970704,2|0,0:0|0:0,0:0:0:0:
351,21,145589,2,0,P|312:50|296:96,1,98.3999969970704,10|0,0:0|0:0,0:0:0:0:
418,184,145955,2,0,P|411:136|379:99,1,98.3999969970704,2|0,0:0|0:0,0:0:0:0:
243,161,146321,6,0,P|211:248|287:298,1,196.799993994141,2|0,3:2|0:0,0:0:0:0:
383,276,146870,1,2,0:0:0:0:
243,161,147053,2,0,P|156:129|106:205,1,196.799993994141,10|0,0:0|0:0,0:0:0:0:
128,301,147601,1,2,0:0:0:0:
243,161,147784,2,0,P|275:74|199:24,1,196.799993994141,2|0,3:2|0:0,0:0:0:0:
103,46,148333,1,2,0:0:0:0:
243,161,148516,6,0,P|281:192|328:193,1,98.3999969970704,10|0,0:0|0:0,0:0:0:0:
476,136,148882,1,2,0:0:0:0:
306,123,149065,1,2,0:0:0:0:
444,222,149248,6,0,P|476:130|456:36,1,196.799993994141,2|0,3:2|0:0,0:0:0:0:
306,123,149797,1,2,0:0:0:0:
476,136,149980,1,8,0:0:0:0:
476,136,150345,1,2,0:0:0:0:
391,129,150528,1,2,0:0:0:0:
270,47,150711,6,0,P|279:144|233:230,1,196.799993994141,2|0,3:2|0:0,0:0:0:0:
150,281,151260,1,2,0:0:0:0:
306,295,151443,1,10,0:0:0:0:
234,229,151626,1,2,0:0:0:0:
307,149,151809,1,2,0:0:0:0:
270,47,151992,1,2,0:0:0:0:
86,77,152175,6,0,P|174:35|271:48,1,196.799993994141,6|0,3:2|0:0,0:0:0:0:
349,104,152723,2,0,P|343:118|339:136,2,24.5999992492676,0|0|0,3:0|1:0|1:0,0:0:0:0:
414,68,152906,5,10,0:0:0:0:
464,186,153089,1,8,0:0:0:0:
414,304,153272,1,4,2:3:0:0:
414,68,153638,5,10,0:0:0:0:
449,192,153821,1,8,2:3:0:0:
429,62,154187,5,4,2:3:0:0:
464,186,154370,1,10,2:1:0:0:
444,56,154553,1,10,2:1:0:0:
339,225,154736,1,10,2:3:0:0:
434,198,154919,1,6,2:3:0:0:
244,252,155101,38,0,P|162:261|86:235,2,164,6|2|10,3:2|0:0|0:0,0:0:0:0:
244,252,156199,1,2,0:0:0:0:
268,156,156382,1,2,0:0:0:0:
410,295,156565,6,0,L|332:266,1,82,2|0,3:2|0:0,0:0:0:0:
511,227,156931,2,0,L|433:198,1,82,2|0,0:0|0:0,0:0:0:0:
292,61,157297,2,0,L|371:89,1,82,10|0,0:0|0:0,0:0:0:0:
191,129,157662,2,0,L|270:157,1,82,2|0,0:0|0:0,0:0:0:0:
309,363,158028,6,0,P|291:309|333:266,1,123,2|0,3:2|0:0,0:0:0:0:
383,354,158394,2,0,P|348:373|309:363,1,82,2|0,2:1|0:0,0:0:0:0:
161,258,158760,2,0,P|221:261|263:304,1,123,10|0,0:0|0:0,0:0:0:0:
309,363,159126,2,0,P|346:373|383:354,1,82,2|0,2:1|0:0,0:0:0:0:
306,189,159492,6,0,L|263:304,1,123,2|0,3:2|0:0,0:0:0:0:
271,204,159858,2,0,L|300:126,1,82,2|0,2:1|0:0,0:0:0:0:
104,27,160223,2,0,L|219:69,1,123,10|0,0:0|0:0,0:0:0:0:
300,127,160589,2,0,L|222:98,1,82,2|0,2:1|0:0,0:0:0:0:
33,250,160955,6,0,P|24:168|50:92,2,164,2|2|10,3:2|0:0|0:0,0:0:0:0:
33,250,162053,1,2,0:0:0:0:
126,271,162236,1,2,0:0:0:0:
271,204,162419,6,0,P|312:197|362:202,1,82,2|0,3:2|0:0,0:0:0:0:
129,274,162784,2,0,P|161:247|206:226,1,82,2|0,0:0|0:0,0:0:0:0:
429,215,163150,2,0,P|468:229|508:258,1,82,10|0,0:0|0:0,0:0:0:0:
271,204,163516,2,0,P|312:197|362:202,1,82,2|0,0:0|0:0,0:0:0:0:
224,326,163882,6,0,P|182:287|197:229,1,123,2|0,3:2|0:0,0:0:0:0:
284,282,164248,2,0,P|262:315|223:325,1,82,2|0,2:1|0:0,0:0:0:0:
116,178,164614,2,0,P|154:136|212:151,1,123,10|0,0:0|0:0,0:0:0:0:
271,204,164980,2,0,P|312:207|354:199,1,82,2|0,2:1|0:0,0:0:0:0:
475,118,165345,2,0,P|437:76|379:91,1,123,2|0,3:2|0:0,0:0:0:0:
353,113,165711,2,0,P|314:125|278:107,1,82,2|0,2:1|0:0,0:0:0:0:
183,39,166077,2,0,P|141:77|156:135,1,123,10|0,0:0|0:0,0:0:0:0:
141,142,166443,2,0,P|123:107|128:66,1,82,2|0,2:1|0:0,0:0:0:0:
109,311,166809,22,0,P|101:228|128:153,2,164,6|2|10,3:2|0:0|0:0,0:0:0:0:
109,311,167906,1,2,0:0:0:0:
205,335,168089,1,2,0:0:0:0:
377,320,168272,2,0,P|295:304|217:325,2,164,2|2|10,3:2|0:0|0:0,0:0:0:0:
377,320,169370,1,2,0:0:0:0:
461,269,169553,1,2,0:0:0:0:
297,277,169736,6,0,P|278:219|303:165,1,123,2|0,3:2|0:0,0:0:0:0:
375,149,170101,2,0,L|456:155,1,82,2|0,2:1|0:0,0:0:0:0:
209,71,170467,2,0,P|267:83|302:132,1,123,10|0,0:0|0:0,0:0:0:0:
280,240,170833,2,0,P|282:199|303:165,1,82,2|0,2:1|0:0,0:0:0:0:
222,346,171199,2,0,P|164:364|110:339,1,123,2|0,3:2|0:0,0:0:0:0:
170,283,171565,1,2,2:1:0:0:
316,305,171748,2,0,P|317:320|315:339,2,24.5999992492676,0|0|0,1:0|1:0|1:0,0:0:0:0:
280,240,171931,5,10,0:0:0:0:
383,144,172114,1,8,0:0:0:0:
414,281,172297,1,8,2:3:0:0:
358,222,172480,1,6,2:3:0:0:
470,340,172662,22,0,P|413:360|356:340,1,123,14|0,2:1|0:0,0:0:0:0:
485,208,173028,6,0,P|505:276|470:339,1,147.599995495606,10|0,2:1|0:0,0:0:0:0:
356,340,173394,6,0,P|318:266|355:192,1,172.199994744873,10|0,2:1|0:0,0:0:0:0:
296,271,173760,22,0,P|201:283|147:209,1,196.8,10|0,2:1|0:0,0:0:0:0:
245,107,174126,6,0,P|326:169|296:271,1,221.399993243408,10|0,2:1|0:0,0:0:0:0:
56,293,174492,6,0,P|174:261|297:271,1,246,10|0,2:1|0:0,0:0:0:0:
470,340,174858,21,8,0:0:0:0:
355,192,175040,1,8,0:0:0:0:
256,384,175223,5,10,2:3:0:0:
372,334,175406,1,4,2:3:0:0:
56,293,175589,5,4,3:2:0:0:
256,192,175681,12,2,178516,0:0:0:0:
56,293,187297,5,6,3:2:0:0:
143,380,187480,1,8,0:0:0:0:
456,293,187845,5,4,2:3:0:0:
369,380,188028,1,8,0:0:0:0:
282,293,188211,1,8,0:0:0:0:
369,206,188394,1,10,2:3:0:0:
369,293,188577,1,6,2:3:0:0:
195,206,188760,5,6,3:2:0:0:
282,293,188943,1,8,0:0:0:0:
369,380,189126,1,8,0:0:0:0:
369,293,189309,1,4,2:3:0:0:
143,380,189492,5,10,0:0:0:0:
182,360,189614,1,0,1:0:0:0:
226,360,189736,1,0,1:0:0:0:
284,310,189858,5,10,0:0:0:0:
306,308,189980,1,8,2:3:0:0:
327,315,190101,1,4,2:3:0:0:
369,379,190223,6,0,P|372:263|399:154,1,229.599992993164,6|0,3:2|0:0,0:0:0:0:
466,80,190772,1,2,0:0:0:0:
351,223,190955,6,0,P|298:189|304:126,1,131.2,14|0,0:0|0:0,0:0:0:0:
395,297,191321,1,2,0:0:0:0:
369,379,191504,1,2,0:0:0:0:
469,253,191687,37,2,3:2:0:0:
43,131,192053,2,0,L|137:158,1,98.3999969970704,2|0,0:0|0:0,0:0:0:0:
303,127,192419,2,0,L|208:99,1,98.3999969970704,10|0,0:0|0:0,0:0:0:0:
375,69,192784,2,0,L|469:96,1,98.3999969970704,2|0,0:0|0:0,0:0:0:0:
209,99,193150,6,0,L|20:44,1,196.799993994141,2|0,3:2|0:0,0:0:0:0:
17,47,193699,1,2,0:0:0:0:
138,157,193882,2,0,L|326:211,1,196.799993994141,10|0,0:0|0:0,0:0:0:0:
330,214,194431,1,2,0:0:0:0:
445,324,194614,2,0,L|256:269,1,196.799993994141,2|0,3:2|0:0,0:0:0:0:
253,272,195162,1,2,0:0:0:0:
434,86,195345,6,0,P|439:134|417:177,1,98.3999969970704,10|0,0:0|0:0,0:0:0:0:
209,100,195711,1,2,0:0:0:0:
319,57,195894,1,2,0:0:0:0:
327,211,196077,6,0,P|314:132|335:51,1,164,2|0,3:2|0:0,0:0:0:0:
405,9,196626,1,2,0:0:0:0:
272,0,196809,1,8,0:0:0:0:
272,0,197175,1,2,0:0:0:0:
335,52,197358,1,2,0:0:0:0:
170,35,197540,6,0,P|249:19|319:57,1,164,2|0,3:2|0:0,0:0:0:0:
231,132,198089,1,2,0:0:0:0:
160,22,198272,1,10,0:0:0:0:
69,111,198455,2,0,P|110:118|160:113,2,82,2|2|2,0:0|3:2|0:0,0:0:0:0:
231,132,199004,6,0,B|168:247|211:345|211:345|232:355,1,245.999992492676,6|0,3:2|0:0,0:0:0:0:
301,383,199553,1,0,3:0:0:0:
164,270,199736,1,10,0:0:0:0:
300,248,199919,1,8,0:0:0:0:
372,315,200101,1,8,2:3:0:0:
301,383,200467,5,10,0:0:0:0:
300,248,200650,1,4,2:3:0:0:
372,315,201016,22,0,P|367:300|358:284,1,24.5999992492676,0|0,3:0|1:0,0:0:0:0:
376,299,201108,2,0,P|373:284|367:266,1,24.5999992492676,0|0,1:0|1:0,0:0:0:0:
388,310,201199,6,0,P|415:306|439:294,1,49.1999984985352,10|0,0:0|0:0,0:0:0:0:
287,202,201382,2,0,P|291:229|303:253,1,49.1999984985352,8|0,0:0|0:0,0:0:0:0:
496,209,201565,2,0,P|492:182|480:158,1,49.1999984985352,10|0,2:3|0:0,0:0:0:0:
395,101,201748,2,0,P|368:105|344:117,1,49.1999984985352,4|0,2:3|0:0,0:0:0:0:
189,242,201931,38,0,P|112:188|119:91,1,196.799993994141,6|0,3:2|0:0,0:0:0:0:
201,39,202480,1,2,0:0:0:0:
16,105,202662,2,0,P|63:93|110:78,1,98.3999969970704,8|0,0:0|0:0,0:0:0:0:
195,150,203028,1,2,0:0:0:0:
115,62,203211,1,2,0:0:0:0:
287,202,203394,6,0,P|361:226|428:214,1,147.599995495606,2|0,3:2|0:0,0:0:0:0:
486,167,203760,2,0,P|501:121|489:74,1,98.3999969970704,2|0,0:0|0:0,0:0:0:0:
290,109,204126,2,0,P|275:155|287:202,1,98.3999969970704,10|0,0:0|0:0,0:0:0:0:
489,74,204492,2,0,P|456:38|409:24,1,98.3999969970704,2|0,0:0|0:0,0:0:0:0:
287,202,204858,6,0,P|195:221|126:154,1,196.799993994141,2|0,3:2|0:0,0:0:0:0:
101,60,205406,1,2,0:0:0:0:
80,316,205589,2,0,P|61:224|128:155,1,196.799993994141,10|0,0:0|0:0,0:0:0:0:
222,130,206138,1,2,0:0:0:0:
277,380,206321,6,0,P|270:283|292:187,2,196.799993994141,2|2|10,3:2|0:0|0:0,0:0:0:0:
277,380,207419,1,2,0:0:0:0:
284,302,207601,1,2,0:0:0:0:
421,317,207784,6,0,P|357:272|283:303,1,164,2|0,3:2|0:0,0:0:0:0:
277,380,208333,1,2,0:0:0:0:
220,257,208516,1,8,0:0:0:0:
220,257,208882,1,2,0:0:0:0:
213,335,209065,1,2,0:0:0:0:
227,179,209248,6,0,L|145:171,1,82,2|0,3:2|0:0,0:0:0:0:
234,101,209614,2,0,L|152:93,1,82,2|0,0:0|0:0,0:0:0:0:
305,186,209980,2,0,L|386:193,1,82,10|0,0:0|0:0,0:0:0:0:
227,179,210345,2,0,L|145:171,1,82,2|0,0:0|0:0,0:0:0:0:
312,108,210711,6,0,L|508:125,2,196.799993994141,2|2|8,3:2|0:0|0:0,0:0:0:0:
312,108,211809,1,2,0:0:0:0:
227,179,211992,1,2,0:0:0:0:
380,272,212175,2,0,P|408:206|380:140,1,147.599995495606,2|0,3:2|0:0,0:0:0:0:
312,108,212540,1,8,0:0:0:0:
257,319,212723,2,0,L|276:333,1,24.5999992492676,0|0,1:0|1:0,0:0:0:0:
242,327,212815,2,0,L|258:344,1,24.5999992492676,0|0,1:0|1:0,0:0:0:0:
227,335,212906,6,0,L|176:342,1,49.1999984985352,10|0,0:0|0:0,0:0:0:0:
118,299,213089,2,0,L|110:248,1,49.1999984985352,8|0,0:0|0:0,0:0:0:0:
154,190,213272,2,0,L|226:179,1,73.7999977478028,6|0,2:3|0:0,0:0:0:0:
95,145,213638,6,0,P|92:58|176:72,1,196.799993994141,6|0,3:2|0:0,0:0:0:0:
227,179,214187,1,2,0:0:0:0:
57,144,214370,2,0,P|43:99|61:52,1,98.3999969970704,8|0,0:0|0:0,0:0:0:0:
154,190,214736,1,2,0:0:0:0:
36,240,214919,1,2,0:0:0:0:
61,53,215101,6,0,P|126:22|192:51,1,147.599995495606,2|0,3:2|0:0,0:0:0:0:
248,98,215467,2,0,P|292:116|340:107,1,98.3999969970704,2|0,0:0|0:0,0:0:0:0:
512,55,215833,2,0,P|468:37|420:46,1,98.3999969970704,10|0,0:0|0:0,0:0:0:0:
471,229,216199,2,0,P|464:181|432:144,1,98.3999969970704,2|0,0:0|0:0,0:0:0:0:
299,280,216565,6,0,L|110:225,1,196.799993994141,2|0,3:2|0:0,0:0:0:0:
14,197,217114,1,2,0:0:0:0:
186,146,217297,2,0,L|375:201,1,196.799993994141,10|0,0:0|0:0,0:0:0:0:
471,229,217845,1,2,0:0:0:0:
299,280,218028,2,0,L|110:225,1,196.799993994141,2|0,3:2|0:0,0:0:0:0:
11,200,218577,1,2,0:0:0:0:
28,365,218760,6,0,L|122:337,1,98.3999969970704,10|0,0:0|0:0,0:0:0:0:
11,200,219126,1,2,0:0:0:0:
90,118,219309,1,2,0:0:0:0:
279,173,219492,6,0,L|90:118,1,196.799993994141,2|0,3:2|0:0,0:0:0:0:
169,36,220040,1,2,0:0:0:0:
110,225,220223,1,8,0:0:0:0:
110,225,220589,1,2,0:0:0:0:
90,118,220772,1,2,0:0:0:0:
27,294,220955,6,0,P|115:252|212:265,1,196.799993994141,2|0,3:2|0:0,0:0:0:0:
289,325,221504,1,2,0:0:0:0:
249,173,221687,1,10,0:0:0:0:
211,264,221870,1,2,0:0:0:0:
110,225,222053,1,2,0:0:0:0:
27,294,222236,1,2,0:0:0:0:
212,357,222419,6,0,P|212:259|267:178,1,196.799993994141,6|0,3:2|0:0,0:0:0:0:
353,133,222967,2,0,L|355:109,2,24.5999992492676,0|0|0,3:0|1:0|1:0,0:0:0:0:
372,206,223150,5,10,0:0:0:0:
211,264,223333,1,8,0:0:0:0:
50,206,223516,1,4,2:3:0:0:
372,206,223882,38,0,P|441:263|384:329,1,196.8,6|0,3:2|0:0,0:0:0:0:
310,325,225345,21,2,0:0:0:0:
279,337,225711,1,2,0:0:0:0:
211,275,225894,2,0,L|145:279,1,65.6,2|0,0:0|0:0,0:0:0:0:
145,279,226443,1,2,0:0:0:0:
269,204,226809,2,0,P|288:143|257:81,2,131.2,2|0|0,0:0|0:0|0:0,0:0:0:0:
195,149,227723,1,2,0:0:0:0:
269,71,227906,1,2,0:0:0:0:
197,39,228089,1,2,0:0:0:0:
341,39,228272,5,2,0:0:0:0:
372,50,228638,1,2,0:0:0:0:
440,112,228821,2,0,L|506:108,1,65.6,2|0,0:0|0:0,0:0:0:0:
505,108,229370,1,2,0:0:0:0:
382,183,229736,2,0,P|363:244|394:306,1,131.2,2|0,0:0|0:0,0:0:0:0:
390,302,230467,6,0,P|313:277|234:317,1,172.199994744873,10|0,2:1|0:0,0:0:0:0:
204,374,230833,6,0,L|197:242,1,131.2,14|0,2:1|0:0,0:0:0:0:
189,243,231931,6,0,L|197:374,1,131.2,2|0,0:0|0:0,0:0:0:0:
52,245,232480,1,0,3:0:0:0:
55,248,232571,1,0,3:0:0:0:
58,251,232662,5,10,0:0:0:0:
197,374,233028,1,4,3:0:0:0:
58,251,233394,5,10,0:0:0:0:
128,312,233577,1,8,0:0:0:0:
197,374,233760,1,12,3:0:0:0:
450,367,234126,6,0,B|509:341|568:227|457:192|418:235,1,246,6|0,3:2|0:0,0:0:0:0:
367,287,234858,5,8,0:0:0:0:
256,310,235040,5,8,0:0:0:0:
145,287,235223,5,8,2:3:0:0:
93,234,235406,5,4,2:3:0:0:
145,97,235589,6,0,P|201:79|246:118,1,123,6|0,3:2|0:0,0:0:0:0:
256,192,237053,5,6,3:2:0:0:
256,192,237144,12,0,245101,0:0:0:0:
