osu file format v14

[General]
AudioFilename: audio.mp3
AudioLeadIn: 0
PreviewTime: 64501
Countdown: 0
SampleSet: Soft
StackLeniency: 0.4
Mode: 0
LetterboxInBreaks: 0
WidescreenStoryboard: 1

[Editor]
Bookmarks: 31501,91673,92358
DistanceSpacing: 0.8
BeatDivisor: 4
GridSize: 32
TimelineZoom: 1.5

[Metadata]
Title:Scarlet (Short Ver.)
TitleUnicode:Scarlet (Short Ver.)
Artist:Sakakibara Yui
ArtistUnicode:榊原ゆい
Creator:nantokanaru
Version:Normal
Source:DRACU-RIOT!
Tags:yuzusoft ゆずソフト dracu riot ドラクリオット visual novel vn eroge galgame video game japanese pop jpop j-pop op opening natsume shizuku natsume_shizuku angel note 井ノ原智 inohara satoru Famishin female vocalist
BeatmapID:4524337
BeatmapSetID:2132283

[Difficulty]
HPDrainRate:4
CircleSize:3.3
OverallDifficulty:4
ApproachRate:5
SliderMultiplier:1.3
SliderTickRate:1

[Events]
//Background and Video events
0,0,"gg.jpg",0,0
//Break Periods
//Storyboard Layer 0 (Background)
//Storyboard Layer 1 (Fail)
//Storyboard Layer 2 (Pass)
//Storyboard Layer 3 (Foreground)
//Storyboard Layer 4 (Overlay)
//Storyboard Sound Samples

[TimingPoints]
-727,342.857142857143,4,2,1,100,1,0
473,-133.333333333333,4,2,1,100,0,0
476,-133.333333333333,4,2,1,55,0,0
4587,-133.333333333333,4,2,1,70,0,0
6130,-117.647058823529,4,2,1,73,0,0
17444,-117.647058823529,4,2,1,60,0,0
19501,-125,4,2,1,60,0,0
19844,-125,4,2,1,70,0,0
22930,-125,4,2,1,60,0,0
25330,-125,4,2,1,70,0,0
39387,-125,4,2,1,60,0,0
41273,-125,4,2,1,70,0,0
44873,-125,4,2,1,60,0,0
46587,-125,4,2,1,70,0,0
63558,-125,4,2,1,80,0,0
64930,-100,4,2,1,93,0,0
91501,-100,4,2,1,96,0,0
92358,-100,4,2,1,5,0,0

[Colours]
Combo1 : 134,151,176
Combo2 : 255,151,151
Combo3 : 210,132,169
Combo4 : 151,148,205

[HitObjects]
426,384,473,5,0,0:0:0:0:
426,384,644,2,0,L|447:275,1,97.50000371933,2|2,0:2|0:0,0:0:0:0:
474,249,1158,2,0,L|462:139,1,97.50000371933,0|2,0:0|0:0,0:0:0:0:
504,123,1673,5,2,0:0:0:0:
504,123,1844,2,0,P|467:76|429:77,1,97.50000371933,2|2,0:0|0:0,0:0:0:0:
343,114,2530,2,0,P|286:110|237:77,1,97.50000371933,2|0,0:0|0:0,0:0:0:0:
239,43,3044,1,2,0:0:0:0:
143,20,3387,6,0,P|109:70|118:113,1,97.50000371933,2|2,0:0|0:0,0:0:0:0:
141,150,3901,1,0,0:0:0:0:
141,150,4073,2,0,P|186:157|245:190,1,97.50000371933,2|2,0:0|0:0,0:0:0:0:
260,220,4587,1,12,0:2:0:0:
337,160,4930,5,0,3:0:0:0:
337,160,5101,2,0,P|365:167|390:194,1,48.750001859665,8|0,0:0|3:0,0:0:0:0:
425,198,5444,2,0,P|441:239|468:286,1,97.50000371933,0|10,3:0|0:0,0:0:0:0:
387,344,6130,6,0,L|267:378,1,110.50000210762,4|10,3:2|0:0,0:0:0:0:
191,329,6815,2,0,P|161:301|88:298,1,110.50000210762,2|10,3:2|2:0,0:0:0:0:
63,335,7330,1,2,0:0:0:0:
14,248,7673,2,0,L|0:183,1,55.2500010538101,10|0,0:0|3:0,0:0:0:0:
36,157,8015,2,0,L|53:38,1,110.50000210762,10|0,0:0|3:0,0:0:0:0:
34,0,8530,1,10,0:0:0:0:
132,13,8873,6,0,P|172:54|227:64,1,110.50000210762,0|10,3:0|0:0,0:0:0:0:
305,118,9558,2,0,L|419:88,1,110.50000210762,0|2,3:2|3:2,0:0:0:0:
442,49,10073,1,10,0:2:0:0:
473,143,10415,2,0,L|454:207,1,55.2500010538101,2|12,3:2|0:0,0:0:0:0:
422,231,10758,2,0,P|477:235|511:292,1,110.50000210762,2|8,3:2|0:0,0:0:0:0:
487,321,11273,1,2,3:2:0:0:
390,343,11615,6,0,L|279:312,1,110.50000210762,0|10,3:0|0:0,0:0:0:0:
191,350,12301,2,0,P|160:298|177:236,1,110.50000210762,2|8,3:2|0:0,0:0:0:0:
206,218,12815,1,2,0:0:0:0:
237,123,13158,2,0,L|225:58,1,55.2500010538101,10|0,0:0|3:0,0:0:0:0:
194,30,13501,2,0,P|147:41|99:86,1,110.50000210762,10|0,0:0|0:0,0:0:0:0:
107,131,14015,1,10,0:0:0:0:
18,177,14358,6,0,P|48:206|58:272,1,110.50000210762,0|10,3:0|0:0,0:0:0:0:
28,312,14873,1,10,0:0:0:0:
124,336,15215,2,0,P|150:345|172:367,1,55.2500010538101,10|0,0:0|3:0,0:0:0:0:
215,384,15558,2,0,P|261:361|264:300,1,110.50000210762,10|8,0:0|0:0,0:0:0:0:
247,260,16073,1,8,0:0:0:0:
298,170,16415,5,8,0:0:0:0:
298,170,16587,2,0,L|414:197,1,110.50000210762,2|8,3:2|0:0,0:0:0:0:
441,230,17101,1,6,3:2:0:0:
303,0,19330,6,0,P|358:42|357:96,1,110.50000210762,2|0,0:0|0:0,0:0:0:0:
336,118,19844,2,0,L|276:143,1,52,6|2,3:2|0:0,0:0:0:0:
259,175,20187,2,0,L|195:164,1,52,2|2,3:2|0:0,0:0:0:0:
171,136,20530,1,0,0:0:0:0:
102,72,20873,6,0,P|72:56|65:33,1,52,0|2,3:0|0:0,0:0:0:0:
33,7,21215,2,0,P|5:43|6:119,1,104,2|0,0:0|3:0,0:0:0:0:
32,133,21730,1,2,0:0:0:0:
2,221,22073,2,0,L|23:332,1,104,2|2,0:0|0:0,0:0:0:0:
60,348,22587,1,6,3:2:0:0:
149,338,24815,6,0,P|189:374|250:377,1,104,2|2,0:0|0:0,0:0:0:0:
271,347,25330,2,0,L|264:287,1,52,6|2,3:2|0:0,0:0:0:0:
225,270,25673,2,0,L|218:210,1,52,2|2,3:2|0:0,0:0:0:0:
240,176,26015,1,0,0:0:0:0:
283,93,26358,6,0,P|314:67|345:66,1,52,0|2,3:0|0:0,0:0:0:0:
358,32,26701,2,0,P|431:50|453:91,1,104,2|0,0:0|3:0,0:0:0:0:
460,115,27215,1,2,0:0:0:0:
470,208,27558,2,0,P|486:226|517:245,2,52,2|2|10,0:0|3:2|0:0,0:0:0:0:
425,193,28073,6,0,L|308:219,1,104,6|2,3:2|3:2,0:0:0:0:
285,301,28758,2,0,P|246:290|169:271,1,104,2|0,0:0|3:0,0:0:0:0:
149,242,29273,1,0,0:0:0:0:
79,188,29615,5,2,0:0:0:0:
79,188,29787,2,0,L|67:123,1,52,2|2,3:2|0:0,0:0:0:0:
47,95,30130,1,0,0:0:0:0:
104,20,30473,2,0,L|158:32,1,52,2|0,3:2|0:0,0:0:0:0:
191,60,30815,2,0,L|303:38,1,104,2|2,0:0|3:2,0:0:0:0:
380,5,31501,2,0,P|399:51|382:112,1,104,2|2,0:0|3:2,0:0:0:0:
354,135,32015,1,2,0:0:0:0:
279,192,32358,6,0,L|265:303,1,104,2|2,0:0|0:0,0:0:0:0:
237,332,32873,2,0,P|256:358|285:369,1,52,2|2,0:0|0:0,0:0:0:0:
319,358,33215,1,0,3:0:0:0:
401,313,33558,2,0,P|458:310|497:270,1,104,2|2,0:0|3:2,0:0:0:0:
504,187,34244,2,0,P|473:132|483:83,1,104,2|0,0:0|3:0,0:0:0:0:
495,50,34758,1,0,0:0:0:0:
417,10,35101,5,2,0:0:0:0:
417,10,35273,2,0,L|358:23,1,52,0|2,3:2|0:0,0:0:0:0:
333,55,35615,2,0,L|212:36,1,104,2|2,0:0|3:2,0:0:0:0:
142,4,36301,2,0,L|35:29,1,104,2|0,0:0|3:0,0:0:0:0:
10,116,36987,6,0,P|-8:163|21:216,1,104,2|0,0:0|3:0,0:0:0:0:
59,215,37501,2,0,L|89:340,1,104,2|2,0:0|0:0,0:0:0:0:
160,369,38187,2,0,P|208:333|263:338,1,104,2|2,0:0|0:0,0:0:0:0:
287,361,38701,2,0,L|340:375,1,52,0|2,3:0|0:0,0:0:0:0:
381,358,39044,1,6,3:2:0:0:
463,308,41273,6,0,L|521:328,2,52,0|8|8,3:0|0:0|0:0,0:0:0:0:
436,268,41787,2,0,L|328:296,1,104,4|0,3:2|3:2,0:0:0:0:
300,325,42301,1,2,0:0:0:0:
300,325,42473,1,0,0:0:0:0:
223,271,42815,2,0,L|230:211,1,52,0|2,3:0|0:0,0:0:0:0:
260,184,43158,2,0,L|245:65,1,104,2|0,0:0|3:0,0:0:0:0:
261,36,43673,1,2,0:0:0:0:
345,75,44015,2,0,P|419:57|452:21,1,104,2|2,0:0|0:0,0:0:0:0:
463,3,44530,1,6,3:2:0:0:
489,330,46587,6,0,P|496:288|512:250,2,78,8|10|10,0:0|0:0|0:0,0:0:0:0:
451,358,47273,2,0,P|400:346|361:298,1,104,6|0,3:2|3:0,0:0:0:0:
353,269,47787,1,2,0:0:0:0:
353,269,47958,1,0,0:0:0:0:
271,314,48301,2,0,P|238:330|220:332,1,52,0|2,3:0|0:0,0:0:0:0:
184,357,48644,2,0,P|143:318|154:252,1,104,2|0,0:0|3:0,0:0:0:0:
161,230,49158,1,2,0:0:0:0:
169,136,49501,6,0,P|141:109|129:92,2,52,2|10|0,0:0|0:0|0:0,0:0:0:0:
211,156,50015,2,0,P|257:120|325:119,1,104,6|2,3:2|3:2,0:0:0:0:
371,175,50701,2,0,L|396:60,1,104,2|0,0:0|3:0,0:0:0:0:
371,31,51215,1,0,0:0:0:0:
463,4,51558,5,2,0:0:0:0:
463,4,51730,2,0,P|495:16|508:38,1,52,2|2,3:2|0:0,0:0:0:0:
504,76,52073,2,0,P|485:121|480:183,1,104,2|2,0:0|3:2,0:0:0:0:
499,266,52758,2,0,P|472:321|419:344,1,104,2|2,0:0|3:2,0:0:0:0:
351,382,53444,2,0,P|298:355|232:349,1,104,2|2,0:0|3:2,0:0:0:0:
215,370,53958,1,2,0:0:0:0:
156,296,54301,6,0,P|110:315|46:337,1,104,2|2,0:0|0:0,0:0:0:0:
16,312,54815,2,0,P|9:278|22:258,1,52,2|2,0:0|0:0,0:0:0:0:
54,237,55158,1,0,3:0:0:0:
43,143,55501,2,0,P|11:99|20:34,1,104,2|2,0:0|3:2,0:0:0:0:
93,3,56187,2,0,L|209:23,1,104,2|0,0:0|3:0,0:0:0:0:
224,57,56701,1,0,0:0:0:0:
281,137,57044,5,2,0:0:0:0:
281,137,57215,2,0,L|343:118,1,52,2|2,3:2|0:0,0:0:0:0:
367,93,57558,1,2,0:0:0:0:
408,19,57901,2,0,P|433:21|455:35,1,52,2|0,3:2|0:0,0:0:0:0:
487,69,58244,6,0,L|516:183,1,104,2|0,0:0|3:2,0:0:0:0:
451,240,58930,2,0,B|396:227|409:215|334:207,1,104,2|0,0:0|3:0,0:0:0:0:
311,184,59444,2,0,P|247:221|202:229,1,104,2|2,0:0|0:0,0:0:0:0:
172,238,59958,2,0,P|141:222|119:216,1,52,0|2,3:0|0:0,0:0:0:0:
52,276,60473,1,2,0:0:0:0:
52,276,60644,2,0,P|48:307|63:333,1,52,0|2,3:0|0:0,0:0:0:0:
98,345,60987,6,0,P|150:354|198:379,1,104,2|0,0:0|3:0,0:0:0:0:
289,375,61673,2,0,P|323:340|320:288,1,104,2|0,0:0|3:0,0:0:0:0:
352,253,62187,2,0,P|421:234|474:218,1,104,2|8,0:0|0:0,0:0:0:0:
495,243,62701,1,0,3:0:0:0:
505,149,63044,6,0,P|512:111|465:47,1,104,8|8,0:0|0:0,0:0:0:0:
439,70,63558,1,8,0:0:0:0:
439,70,63730,2,0,L|381:58,1,52,2|8,3:2|0:0,0:0:0:0:
314,1,64244,1,6,0:0:0:0:
249,68,64587,2,0,L|190:50,1,52,2|0,0:0|0:0,0:0:0:0:
159,9,64930,6,0,P|97:36|80:106,1,130,6|0,3:2|3:2,0:0:0:0:
99,146,65444,2,0,P|90:197|68:215,1,65,10|0,0:2|0:2,0:0:0:0:
48,245,65787,1,2,3:2:0:0:
48,245,65958,2,0,P|83:257|110:277,1,65,0|10,3:2|0:2,0:0:0:0:
123,321,66301,1,2,3:3:0:0:
217,273,66644,1,0,3:2:0:0:
217,273,66815,2,0,L|286:295,1,65,10|0,0:2|0:2,0:0:0:0:
322,321,67158,6,0,P|327:350|340:386,2,65,0|0|10,3:2|3:2|0:2,0:0:0:0:
362,287,67673,2,0,P|426:276|486:227,1,130,2|0,3:3|3:2,0:0:0:0:
495,189,68187,1,10,0:2:0:0:
430,116,68530,1,2,3:2:0:0:
430,116,68701,2,0,L|442:43,1,65,0|10,3:2|0:2,0:0:0:0:
480,18,69044,6,0,P|416:-11|350:9,1,130,2|0,3:3|3:2,0:0:0:0:
338,49,69558,1,10,0:2:0:0:
303,146,69901,2,0,L|320:218,2,65,0|2|8,3:2|3:2|0:2,0:0:0:0:
265,110,70415,6,0,P|182:148|164:199,1,130,6|2,3:2|3:2,0:0:0:0:
194,230,70930,1,8,0:2:0:0:
194,230,71101,1,2,0:2:0:0:
279,288,71444,2,0,P|270:334|249:357,1,65,2|8,3:2|0:2,0:0:0:0:
219,380,71787,6,0,P|166:351|97:343,1,130,6|0,3:2|3:2,0:0:0:0:
57,374,72301,1,10,0:2:0:0:
57,374,72473,1,2,3:2:0:0:
8,282,72815,2,0,P|2:243|16:214,1,65,2|8,3:2|0:2,0:0:0:0:
27,172,73158,6,0,B|57:178|89:164|89:164|110:121|77:94,1,130,6|0,3:2|3:2,0:0:0:0:
57,56,73673,1,10,0:2:0:0:
145,2,74015,2,0,P|191:10|220:83,1,130,2|10,3:2|0:2,0:0:0:0:
194,126,74530,2,0,B|274:132|250:151|319:161,1,130,6|2,3:2|3:2,0:0:0:0:
365,136,75044,1,10,0:2:0:0:
365,136,75215,1,10,0:2:0:0:
468,104,75558,6,0,P|483:155|472:171,1,65,2|10,0:0|0:2,0:0:0:0:
449,205,75901,2,0,B|383:224|420:252|325:280,1,130,6|0,3:2|3:2,0:0:0:0:
289,269,76415,1,10,0:2:0:0:
252,368,76758,1,2,3:2:0:0:
252,368,76930,2,0,P|209:343|180:341,1,65,2|8,3:2|0:2,0:0:0:0:
150,368,77273,6,0,P|79:343|56:276,1,130,2|0,3:3|3:2,0:0:0:0:
64,245,77787,1,10,0:2:0:0:
15,158,78130,1,0,3:2:0:0:
15,158,78301,2,0,L|28:83,1,65,2|8,3:2|0:2,0:0:0:0:
8,44,78644,6,0,B|86:30|65:9|136:2,1,130,2|0,3:3|3:2,0:0:0:0:
173,32,79158,1,10,0:2:0:0:
278,13,79501,1,2,3:2:0:0:
278,13,79673,2,0,P|300:55|290:86,1,65,0|10,3:2|0:2,0:0:0:0:
261,107,80015,6,0,P|283:168|285:251,1,130,2|0,3:3|3:2,0:0:0:0:
275,283,80530,1,10,0:2:0:0:
348,356,80873,1,0,3:2:0:0:
348,356,81044,2,0,P|395:374|430:366,1,65,2|8,3:2|0:2,0:0:0:0:
460,374,81387,6,0,P|491:314|468:249,1,130,6|2,3:2|3:2,0:0:0:0:
432,225,81901,1,8,0:2:0:0:
432,225,82073,1,2,0:2:0:0:
488,137,82415,2,0,P|505:91|498:58,1,65,2|8,3:2|0:2,0:0:0:0:
477,31,82758,6,0,P|440:11|352:12,1,130,6|2,3:2|3:2,0:0:0:0:
320,51,83273,1,8,0:2:0:0:
320,51,83444,1,2,0:2:0:0:
256,133,83787,2,0,P|208:115|188:92,1,65,2|8,3:2|0:2,0:0:0:0:
170,62,84130,6,0,P|103:88|34:108,1,130,6|0,3:2|3:2,0:0:0:0:
5,135,84644,1,10,0:2:0:0:
77,216,84987,1,0,3:2:0:0:
77,216,85158,2,0,P|62:247|55:289,1,65,2|8,3:2|0:2,0:0:0:0:
32,323,85501,1,6,3:2:0:0:
128,375,85844,5,0,3:2:0:0:
128,375,86015,2,0,P|155:371|190:343,1,65,14|0,0:2|0:0,0:0:0:0:
222,313,86358,2,0,L|236:249,1,65,10|8,3:2|0:2,0:0:0:0:
213,202,86701,1,10,0:2:0:0:
289,131,87044,6,0,P|328:161|420:173,1,130,6|2,3:2|3:3,0:0:0:0:
456,154,87558,1,2,0:2:0:0:
456,154,87730,2,0,P|482:188|476:228,1,65,0|2,3:2|0:2,0:0:0:0:
461,256,88073,1,8,0:2:0:0:
461,256,88244,1,2,0:2:0:0:
398,339,88587,6,0,P|383:304|361:275,1,65,2|0,0:2|3:2,0:0:0:0:
317,268,88930,2,0,P|267:306|187:313,1,130,2|0,0:2|0:0,0:0:0:0:
153,295,89444,1,8,0:2:0:0:
51,318,89787,6,0,L|68:391,2,65,0|10|8,3:2|0:2|0:2,0:0:0:0:
21,281,90301,1,0,3:2:0:0:
21,281,90473,2,0,L|33:208,1,65,10|8,0:2|0:2,0:0:0:0:
9,115,90987,6,0,B|66:116|92:66|90:62|88:60|122:18|188:30,1,195,14|10,0:2|0:2,0:0:0:0:
207,68,91673,2,0,B|233:108|326:128|365:80|365:80|355:22|305:18,1,260,14|0,0:0|0:0,0:0:0:0:
