osu file format v14

[General]
AudioFilename: audio.mp3
AudioLeadIn: 0
PreviewTime: 64501
Countdown: 0
SampleSet: Soft
StackLeniency: 0.4
Mode: 0
LetterboxInBreaks: 0
WidescreenStoryboard: 1

[Editor]
Bookmarks: 2530,31501,91673
DistanceSpacing: 1.3
BeatDivisor: 4
GridSize: 32
TimelineZoom: 1.5

[Metadata]
Title:Scarlet (Short Ver.)
TitleUnicode:Scarlet (Short Ver.)
Artist:Sakakibara Yui
ArtistUnicode:榊原ゆい
Creator:nantokanaru
Version:Hard
Source:DRACU-RIOT!
Tags:yuzusoft ゆずソフト dracu riot ドラクリオット visual novel vn eroge galgame video game japanese pop jpop j-pop op opening natsume shizuku natsume_shizuku angel note 井ノ原智 inohara satoru Famishin female vocalist
BeatmapID:4522508
BeatmapSetID:2132283

[Difficulty]
HPDrainRate:5
CircleSize:3.8
OverallDifficulty:7
ApproachRate:8
SliderMultiplier:1.6
SliderTickRate:1

[Events]
//Background and Video events
0,0,"gg.jpg",0,0
//Break Periods
//Storyboard Layer 0 (Background)
//Storyboard Layer 1 (Fail)
//Storyboard Layer 2 (Pass)
//Storyboard Layer 3 (Foreground)
//Storyboard Layer 4 (Overlay)
//Storyboard Sound Samples

[TimingPoints]
-727,342.857142857143,4,2,1,100,1,0
476,-100,4,2,1,55,0,0
644,-133.333333333333,4,2,1,55,0,0
4587,-133.333333333333,4,2,1,70,0,0
6130,-120.481927710843,4,2,1,73,0,0
17444,-120.481927710843,4,2,1,60,0,0
19501,-133.333333333333,4,2,1,60,0,0
19844,-133.333333333333,4,2,1,70,0,0
22930,-133.333333333333,4,2,1,60,0,0
25330,-133.333333333333,4,2,1,70,0,0
39387,-133.333333333333,4,2,1,60,0,0
41273,-133.333333333333,4,2,1,70,0,0
44873,-133.333333333333,4,2,1,60,0,0
46587,-133.333333333333,4,2,1,70,0,0
63558,-133.333333333333,4,2,1,80,0,0
64930,-117.647058823529,4,2,1,93,0,0
91501,-117.647058823529,4,2,1,96,0,0
91673,-153.846153846153,4,2,1,96,0,0
92358,-153.846153846153,4,2,1,5,0,0

[Colours]
Combo1 : 134,151,176
Combo2 : 255,151,151
Combo3 : 210,132,169
Combo4 : 151,148,205

[HitObjects]
448,384,473,5,0,0:0:0:0:
507,316,644,2,0,P|476:280|382:267,1,120.000004577637,2|2,0:2|0:0,0:0:0:0:
335,206,1158,2,0,P|323:250|317:268,1,60.0000022888184,0|2,0:0|0:0,0:0:0:0:
325,353,1501,2,0,P|296:344|267:336,1,60.0000022888184,0|2,0:0|0:0,0:0:0:0:
205,271,1844,6,0,L|76:303,1,120.000004577637,2|2,0:0|0:0,0:0:0:0:
2,140,2530,2,0,P|60:128|91:77,1,120.000004577637,2|0,0:0|0:0,0:0:0:0:
139,4,3044,2,0,P|172:27|180:58,1,60.0000022888184,2|0,0:0|0:0,0:0:0:0:
262,77,3387,6,0,L|381:47,1,120.000004577637,2|2,0:0|0:0,0:0:0:0:
449,2,3901,1,0,0:0:0:0:
506,70,4073,2,0,P|496:96|485:137,1,60.0000022888184,2|0,0:0|0:0,0:0:0:0:
511,213,4415,1,2,0:0:0:0:
431,255,4587,1,12,0:2:0:0:
300,378,4930,5,0,3:0:0:0:
233,317,5101,1,8,0:0:0:0:
296,253,5273,1,0,3:0:0:0:
296,253,5358,1,8,0:0:0:0:
296,253,5444,2,0,L|312:198,3,30.0000011444092,0|8|0|0,3:0|0:0|3:0|0:0,0:0:0:0:
336,192,5787,2,0,P|327:157|323:128,1,60.0000022888184,10|0,0:0|3:0,0:0:0:0:
386,56,6130,6,0,L|307:38,1,66.4000009625244,4|0,3:2|0:0,0:0:0:0:
243,3,6473,1,10,0:0:0:0:
204,83,6644,1,0,0:0:0:0:
204,83,6815,2,0,L|218:152,1,66.4000009625244,2|0,3:2|0:0,0:0:0:0:
147,212,7158,1,10,2:0:0:0:
67,177,7330,6,0,L|50:249,1,66.4000009625244,2|0,0:0|3:0,0:0:0:0:
5,314,7673,2,0,P|46:347|82:347,1,66.4000009625244,10|0,0:0|3:0,0:0:0:0:
138,380,8015,2,0,P|193:335|265:344,1,132.800001925049,10|0,0:0|3:0,0:0:0:0:
326,381,8530,2,0,P|331:343|385:294,1,99.6000014437867,10|8,0:0|0:0,0:0:0:0:
407,274,8873,6,0,L|473:290,1,66.4000009625244,0|0,3:0|0:0,0:0:0:0:
512,221,9215,1,10,0:0:0:0:
445,173,9387,1,0,0:0:0:0:
445,173,9558,2,0,P|432:136|436:102,1,66.4000009625244,0|8,3:2|0:0,0:0:0:0:
501,55,9901,1,2,3:2:0:0:
431,3,10073,6,0,P|387:29|365:37,1,66.4000009625244,10|0,0:2|3:0,0:0:0:0:
335,112,10415,1,2,3:2:0:0:
279,45,10587,2,0,P|239:26|199:28,1,66.4000009625244,12|2,0:0|3:2,0:0:0:0:
186,54,10844,1,8,0:0:0:0:
186,54,10930,2,0,L|197:125,1,66.4000009625244,0|8,3:0|0:0,0:0:0:0:
263,173,11273,2,0,L|255:212,1,33.2000004812622,10|8,0:0|0:0,0:0:0:0:
189,259,11530,5,8,0:0:0:0:
189,259,11615,2,0,L|115:239,1,66.4000009625244,0|0,3:0|0:0,0:0:0:0:
49,184,11958,1,10,0:0:0:0:
17,268,12130,1,0,0:0:0:0:
17,268,12301,2,0,P|28:311|56:327,1,66.4000009625244,2|0,3:2|0:0,0:0:0:0:
114,374,12644,1,8,0:0:0:0:
191,337,12815,6,0,L|265:317,1,66.4000009625244,2|0,0:0|3:0,0:0:0:0:
326,368,13158,2,0,L|400:348,1,66.4000009625244,10|0,0:0|3:0,0:0:0:0:
472,376,13501,2,0,P|505:320|482:250,1,132.800001925049,10|0,0:0|0:0,0:0:0:0:
500,171,14015,2,0,P|439:188|420:212,1,66.4000009625244,10|0,0:0|0:0,0:0:0:0:
390,260,14358,6,0,P|325:208|256:186,1,132.800001925049,0|10,3:0|0:0,0:0:0:0:
199,224,14873,2,0,P|140:192|135:179,1,66.4000009625244,10|0,0:0|3:0,0:0:0:0:
156,111,15215,2,0,P|127:66|97:47,1,66.4000009625244,10|0,0:0|3:0,0:0:0:0:
57,3,15558,6,0,P|-2:57|3:114,1,132.800001925049,10|8,0:0|0:0,0:0:0:0:
75,147,16073,2,0,L|83:188,1,33.2000004812622,8|8,0:0|0:0,0:0:0:0:
31,251,16330,1,0,3:0:0:0:
31,251,16415,1,8,0:0:0:0:
102,299,16587,6,0,B|182:318|147:341|225:361,1,132.800001925049,2|8,3:2|0:0,0:0:0:0:
261,381,17015,1,8,0:0:0:0:
261,381,17101,1,6,3:2:0:0:
256,0,19330,5,2,0:0:0:0:
195,60,19501,2,0,P|198:113|231:142,1,90.0000034332277,2|0,3:2|0:0,0:0:0:0:
236,174,19844,2,0,P|293:145|365:140,1,120.000004577637,6|2,3:2|3:2,0:0:0:0:
414,96,20358,1,2,0:0:0:0:
469,151,20530,2,0,P|456:204|456:228,1,60.0000022888184
478,284,20873,1,0,3:0:0:0:
422,339,21044,5,2,0:0:0:0:
422,339,21215,2,0,P|356:314|299:309,1,120.000004577637,2|0,0:0|3:0,0:0:0:0:
238,271,21730,2,0,P|199:294|188:309,1,60.0000022888184,2|0,0:0|0:0,0:0:0:0:
187,383,22073,2,0,P|167:324|112:295,1,120.000004577637,2|2,0:0|0:0,0:0:0:0:
88,281,22501,1,8,0:0:0:0:
88,281,22587,1,6,3:2:0:0:
0,64,24815,5,2,0:0:0:0:
56,9,24987,2,0,P|88:32|92:93,1,90.0000034332277
69,107,25330,2,0,P|123:127|181:174,1,120.000004577637,6|2,3:2|3:2,0:0:0:0:
217,228,25844,1,2,0:0:0:0:
280,182,26015,2,0,P|303:141|292:109,1,60.0000022888184
252,70,26358,1,0,3:0:0:0:
316,26,26530,5,2,0:0:0:0:
316,26,26701,2,0,P|361:47|442:58,1,120.000004577637,2|0,0:0|3:0,0:0:0:0:
499,23,27215,2,0,P|508:60|503:89,1,60.0000022888184,2|8,0:0|0:0,0:0:0:0:
454,140,27558,1,2,0:0:0:0:
454,140,27644,1,8,0:0:0:0:
454,140,27730,1,2,3:2:0:0:
493,206,27901,1,10,0:0:0:0:
422,241,28073,6,0,L|361:257,1,60.0000022888184,6|0,3:2|0:0,0:0:0:0:
319,320,28415,2,0,L|258:336,1,60.0000022888184,2|0,3:2|0:0,0:0:0:0:
194,376,28758,2,0,P|145:339|151:286,1,120.000004577637,2|0,0:0|3:0,0:0:0:0:
218,246,29273,2,0,P|231:197|283:151,1,120.000004577637,0|2,0:0|0:0,0:0:0:0:
359,158,29787,2,0,P|389:114|391:89,1,60.0000022888184,2|2,3:2|0:0,0:0:0:0:
360,35,30130,2,0,P|330:21|303:3,1,60.0000022888184
234,35,30473,1,2,3:2:0:0:
159,10,30644,5,0,0:0:0:0:
159,10,30730,1,0,0:0:0:0:
159,10,30815,2,0,P|116:17|79:21,1,60.0000022888184,2|0,0:0|0:0,0:0:0:0:
22,6,31158,2,0,P|30:44|33:79,1,60.0000022888184,2|0,3:2|0:0,0:0:0:0:
99,104,31501,2,0,P|91:142|82:232,1,120.000004577637,2|2,0:0|3:2,0:0:0:0:
24,274,32015,6,0,P|36:333|111:365,1,120.000004577637,2|2,0:0|0:0,0:0:0:0:
160,380,32530,2,0,P|204:362|227:358,1,60.0000022888184,0|2,3:0|0:0,0:0:0:0:
273,306,32873,2,0,P|301:329|310:359,2,60.0000022888184,0|2|2,0:0|0:0|3:2,0:0:0:0:
211,250,33387,1,2,0:0:0:0:
257,187,33558,6,0,P|268:141|280:123,1,60.0000022888184,2|0,0:0|0:0,0:0:0:0:
301,56,33901,2,0,P|337:67|365:83,1,60.0000022888184,2|0,3:2|0:0,0:0:0:0:
435,82,34244,2,0,P|411:138|396:202,1,120.000004577637,2|0,0:0|3:0,0:0:0:0:
334,241,34758,2,0,P|348:277|356:303,1,60.0000022888184
432,297,35101,1,2,0:0:0:0:
403,370,35273,2,0,P|369:376|341:388,1,60.0000022888184,0|2,3:2|0:0,0:0:0:0:
277,347,35615,6,0,P|220:336|206:327,1,60.0000022888184,2|0,0:0|0:0,0:0:0:0:
158,285,35958,1,2,3:2:0:0:
121,357,36130,1,0,0:0:0:0:
121,357,36215,1,0,0:0:0:0:
121,357,36301,2,0,P|72:370|44:380,1,60.0000022888184,2|0,0:0|0:0,0:0:0:0:
13,312,36644,1,0,3:0:0:0:
96,180,36987,6,0,P|145:193|218:211,1,120.000004577637,2|0,0:0|3:0,0:0:0:0:
281,246,37501,2,0,B|337:218|337:218|329:194|339:160,1,120.000004577637,2|2,0:0|0:0,0:0:0:0:
399,112,38015,1,0,3:0:0:0:
335,66,38187,2,0,P|277:53|219:36,1,120.000004577637,2|2,0:0|0:0,0:0:0:0:
151,6,38701,1,0,3:0:0:0:
151,6,38873,1,2,0:0:0:0:
85,47,39044,1,6,3:2:0:0:
0,320,41273,5,0,3:0:0:0:
0,320,41358,1,8,0:0:0:0:
0,320,41444,2,0,L|75:300,1,60.0000022888184,8|8,0:0|0:0,0:0:0:0:
112,247,41787,2,0,P|143:264|236:292,1,120.000004577637,4|0,3:2|3:2,0:0:0:0:
278,345,42301,1,2,0:0:0:0:
348,310,42473,2,0,P|368:277|368:236,1,60.0000022888184
317,199,42815,1,0,3:0:0:0:
376,148,42987,5,2,0:0:0:0:
376,148,43158,2,0,P|436:139|493:94,1,120.000004577637,2|0,0:0|3:0,0:0:0:0:
427,49,43673,2,0,P|392:69|363:68,1,60.0000022888184,2|0,0:0|0:0,0:0:0:0:
306,109,44015,2,0,P|259:85|180:77,1,120.000004577637,2|2,0:0|0:0,0:0:0:0:
163,100,44444,1,0,0:0:0:0:
163,100,44530,1,6,3:2:0:0:
483,204,46587,5,8,0:0:0:0:
483,204,46673,1,8,0:0:0:0:
443,272,46844,1,10,0:0:0:0:
443,272,46930,2,0,L|464:338,1,60.0000022888184,8|10,0:0|0:0,0:0:0:0:
400,377,47273,6,0,P|366:351|328:348,1,60.0000022888184,6|2,3:2|0:0,0:0:0:0:
282,309,47615,1,0,3:0:0:0:
251,382,47787,1,2,0:0:0:0:
251,382,47958,2,0,P|235:328|196:269,1,120.000004577637,0|0,0:0|3:0,0:0:0:0:
123,259,48473,1,2,0:0:0:0:
120,181,48644,6,0,P|173:154|207:100,1,120.000004577637,2|0,0:0|3:0,0:0:0:0:
214,22,49158,2,0,P|174:0|151:0,1,60.0000022888184,2|0,0:0|0:0,0:0:0:0:
101,58,49501,1,2,0:0:0:0:
22,26,49673,2,0,L|10:77,1,30.0000011444092,10|8,0:0|0:0,0:0:0:0:
5,142,49930,5,8,0:0:0:0:
5,142,50015,2,0,P|13:163|24:200,1,60.0000022888184,6|0,3:2|0:0,0:0:0:0:
103,226,50358,2,0,P|130:214|159:207,1,60.0000022888184,2|0,3:2|0:0,0:0:0:0:
208,138,50701,2,0,P|270:152|332:158,1,120.000004577637,2|0,0:0|3:0,0:0:0:0:
383,96,51215,6,0,P|443:122|459:186,1,120.000004577637,0|2,0:0|0:0,0:0:0:0:
411,239,51730,1,2,3:2:0:0:
411,239,51901,1,2,0:0:0:0:
479,288,52073,2,0,P|500:329|499:350,1,60.0000022888184,2|0,0:0|0:0,0:0:0:0:
425,379,52415,1,2,3:2:0:0:
360,342,52587,5,0,0:0:0:0:
360,342,52673,1,0,0:0:0:0:
360,342,52758,2,0,L|238:317,1,120.000004577637,2|2,0:0|3:2,0:0:0:0:
190,256,53273,1,0,0:0:0:0:
142,317,53444,2,0,L|159:382,1,60.0000022888184,2|0,0:0|0:0,0:0:0:0:
79,370,53787,1,2,3:2:0:0:
21,317,53958,6,0,L|48:193,1,120.000004577637,2|2,0:0|0:0,0:0:0:0:
2,134,54473,2,0,P|41:106|64:107,1,60.0000022888184,0|2,3:0|0:0,0:0:0:0:
120,150,54815,1,2,0:0:0:0:
120,150,54987,1,2,0:0:0:0:
166,87,55158,2,0,P|172:38|184:16,1,60.0000022888184,0|2,3:0|0:0,0:0:0:0:
250,3,55501,6,0,B|324:7|300:27|373:35,1,120.000004577637,2|2,0:0|3:2,0:0:0:0:
438,9,56015,1,0,0:0:0:0:
484,72,56187,2,0,P|467:112|465:141,1,60.0000022888184,2|0,0:0|0:0,0:0:0:0:
505,194,56530,1,0,3:0:0:0:
460,257,56701,6,0,B|396:239|427:223|342:205,1,120.000004577637,0|2,0:0|0:0,0:0:0:0:
308,142,57215,2,0,P|280:172|277:192,1,60.0000022888184,2|2,3:2|0:0,0:0:0:0:
298,264,57558,1,2,0:0:0:0:
298,264,57730,1,0,0:0:0:0:
247,323,57901,2,0,P|201:332|184:343,1,60.0000022888184,2|0,3:2|0:0,0:0:0:0:
158,360,58158,5,0,0:0:0:0:
158,360,58244,2,0,P|91:325|77:269,1,120.000004577637,2|0,0:0|3:2,0:0:0:0:
111,218,58758,1,0,0:0:0:0:
111,218,58930,2,0,L|121:149,1,60.0000022888184,2|0,0:0|0:0,0:0:0:0:
69,98,59273,1,0,3:0:0:0:
128,47,59444,6,0,B|195:35|177:9|246:4,1,120.000004577637,2|2,0:0|0:0,0:0:0:0:
299,54,59958,1,0,3:0:0:0:
366,14,60130,1,2,0:0:0:0:
366,14,60215,1,0,0:0:0:0:
366,14,60301,2,0,P|414:9|442:0,1,60.0000022888184,2|2,0:0|0:0,0:0:0:0:
490,48,60644,1,0,3:0:0:0:
490,48,60815,1,2,0:0:0:0:
437,106,60987,6,0,P|422:152|407:237,1,120.000004577637,2|0,0:0|3:0,0:0:0:0:
468,272,61501,1,0,0:0:0:0:
435,343,61673,2,0,P|413:375|381:383,1,60.0000022888184,2|0,0:0|0:0,0:0:0:0:
321,354,62015,1,0,3:0:0:0:
244,371,62187,6,0,B|182:356|213:328|125:314,1,120.000004577637,2|8,0:0|0:0,0:0:0:0:
76,364,62701,2,0,P|68:328|58:293,1,60.0000022888184,0|8,3:0|0:0,0:0:0:0:
9,247,63044,1,8,0:0:0:0:
9,247,63130,1,8,0:0:0:0:
58,187,63301,1,8,0:0:0:0:
58,187,63387,2,0,P|87:200|124:205,1,60.0000022888184,8|8,0:0|0:0,0:0:0:0:
178,249,63730,5,2,3:2:0:0:
239,200,63901,2,0,P|248:157|263:120,1,60.0000022888184,8|0,0:0|0:0,0:0:0:0:
272,65,64244,1,6,0:0:0:0:
411,1,64587,6,0,L|422:66,1,60.0000022888184,2|0,0:0|0:0,0:0:0:0:
497,117,64930,6,0,P|487:186|427:224,1,136.000002593994,6|0,3:2|3:2,0:0:0:0:
352,174,65444,1,10,0:2:0:0:
352,174,65615,1,0,0:2:0:0:
299,245,65787,2,0,P|319:277|322:316,1,68.0000012969971,2|0,3:2|3:2,0:0:0:0:
273,379,66130,1,10,0:2:0:0:
196,335,66301,6,0,B|155:316|155:316|111:339|55:334,1,136.000002593994,2|0,3:3|3:2,0:0:0:0:
7,269,66815,1,10,0:2:0:0:
55,194,66987,1,0,0:2:0:0:
55,194,67073,1,8,0:2:0:0:
55,194,67158,2,0,P|62:147|49:115,1,68.0000012969971,0|0,3:2|3:2,0:0:0:0:
7,53,67501,1,10,0:2:0:0:
84,9,67673,6,0,B|161:23|131:56|204:76,1,136.000002593994,2|0,3:3|3:2,0:0:0:0:
288,72,68187,2,0,P|269:118|261:147,1,68.0000012969971,10|0,0:2|0:2,0:0:0:0:
184,175,68530,1,2,3:2:0:0:
184,175,68701,1,0,3:2:0:0:
229,250,68873,1,10,0:2:0:0:
308,211,69044,6,0,P|370:221|421:288,1,136.000002593994,2|0,3:3|3:2,0:0:0:0:
479,211,69558,2,0,P|486:161|496:139,1,68.0000012969971,10|0,0:2|0:2,0:0:0:0:
509,108,69815,1,8,0:2:0:0:
509,108,69901,1,0,3:2:0:0:
441,50,70073,1,2,3:2:0:0:
387,117,70244,1,8,0:2:0:0:
301,61,70415,6,0,P|236:47|161:24,1,136.000002593994,6|2,3:2|3:2,0:0:0:0:
86,9,70930,1,8,0:2:0:0:
86,9,71101,2,0,P|51:23|21:29,1,68.0000012969971,2|0,0:2|3:2,0:0:0:0:
5,117,71444,1,2,3:2:0:0:
71,175,71615,1,8,0:2:0:0:
165,135,71787,6,0,P|151:180|127:270,1,136.000002593994,6|0,3:2|3:2,0:0:0:0:
71,334,72301,1,10,0:2:0:0:
153,384,72473,1,2,3:2:0:0:
153,384,72558,1,8,0:2:0:0:
153,384,72644,2,0,P|193:370|231:359,1,68.0000012969971,0|2,3:2|3:2,0:0:0:0:
303,382,72987,1,8,0:2:0:0:
370,306,73158,6,0,B|401:280|449:275|449:275|461:245|486:231,1,136.000002593994,6|0,3:2|3:2,0:0:0:0:
505,150,73673,2,0,P|493:117|453:100,1,68.0000012969971,10|0,0:2|0:0,0:0:0:0:
395,47,74015,2,0,P|375:91|362:110,1,68.0000012969971,2|0,3:2|3:2,0:0:0:0:
403,186,74358,1,10,0:2:0:0:
313,235,74530,6,0,P|247:216|174:203,1,136.000002593994,6|2,3:2|3:2,0:0:0:0:
101,242,75044,1,10,0:2:0:0:
20,205,75215,1,10,0:2:0:0:
23,120,75387,5,8,0:2:0:0:
23,120,75473,1,8,0:2:0:0:
97,71,75644,1,8,0:2:0:0:
97,71,75730,1,10,0:2:0:0:
194,101,75901,6,0,P|266:80|336:54,1,136.000002593994,6|0,3:2|3:2,0:0:0:0:
394,6,76415,1,10,0:2:0:0:
394,6,76587,1,0,0:2:0:0:
461,62,76758,2,0,P|439:127|437:144,1,68.0000012969971,2|2,3:2|3:2,0:0:0:0:
493,196,77101,1,8,0:2:0:0:
463,293,77273,6,0,P|417:242|344:231,1,136.000002593994,2|0,3:3|3:2,0:0:0:0:
292,164,77787,1,10,0:2:0:0:
234,231,77958,1,0,0:2:0:0:
234,231,78044,1,8,0:2:0:0:
234,231,78130,2,0,P|248:268|250:304,1,68.0000012969971,0|2,3:2|3:2,0:0:0:0:
200,369,78473,1,8,0:2:0:0:
123,324,78644,6,0,B|86:303|57:300|57:300|22:278|25:242,1,136.000002593994,2|0,3:3|3:2,0:0:0:0:
83,180,79158,2,0,P|91:138|104:109,1,68.0000012969971,10|0,0:2|0:2,0:0:0:0:
125,79,79415,1,0,0:0:0:0:
125,79,79501,1,2,3:2:0:0:
207,111,79673,1,0,3:2:0:0:
250,34,79844,1,10,0:2:0:0:
318,109,80015,6,0,P|297:164|282:245,1,136.000002593994,2|0,3:3|3:2,0:0:0:0:
230,311,80530,1,10,0:2:0:0:
309,369,80701,1,0,0:2:0:0:
309,369,80787,1,8,0:2:0:0:
309,369,80873,2,0,P|349:352|382:345,1,68.0000012969971,0|2,3:2|3:2,0:0:0:0:
456,374,81215,1,8,0:2:0:0:
504,283,81387,6,0,P|501:206|445:153,1,136.000002593994,6|2,3:2|3:2,0:0:0:0:
376,177,81901,1,8,0:2:0:0:
324,104,82073,1,2,0:2:0:0:
324,104,82244,2,0,P|339:64|342:23,1,68.0000012969971,0|2,3:2|3:2,0:0:0:0:
259,6,82587,1,8,0:2:0:0:
180,71,82758,6,0,P|123:97|41:101,1,136.000002593994,6|2,3:2|3:2,0:0:0:0:
4,178,83273,1,8,0:2:0:0:
75,246,83444,1,2,0:2:0:0:
75,246,83530,1,8,0:2:0:0:
75,246,83615,2,0,P|61:288|51:321,1,68.0000012969971,0|2,3:2|3:2,0:0:0:0:
106,381,83958,1,8,0:2:0:0:
197,334,84130,6,0,P|263:320|334:288,1,136.000002593994,6|0,3:2|3:2,0:0:0:0:
410,319,84644,2,0,P|435:281|432:251,1,68.0000012969971,10|0,0:2|0:2,0:0:0:0:
493,193,84987,2,0,P|438:178|418:165,1,68.0000012969971,0|2,3:2|3:2,0:0:0:0:
376,101,85330,1,8,0:2:0:0:
309,177,85501,6,0,P|242:170|171:117,1,136.000002593994,6|0,3:2|3:2,0:0:0:0:
105,173,86015,2,0,P|83:134|88:104,1,68.0000012969971,14|0,0:2|0:0,0:0:0:0:
19,52,86358,1,10,3:2:0:0:
91,1,86530,1,8,0:2:0:0:
168,52,86701,5,10,0:2:0:0:
168,52,86787,1,8,0:2:0:0:
252,20,86958,1,8,0:2:0:0:
252,20,87044,2,0,P|293:12|367:0,1,102.000001945496,6|0,3:2|0:0,0:0:0:0:
393,18,87387,6,0,P|402:58|375:103,1,68.0000012969971,2|2,3:3|0:2,0:0:0:0:
347,159,87730,1,0,3:2:0:0:
347,159,87901,2,0,L|364:230,1,68.0000012969971,2|8,0:2|0:2,0:0:0:0:
437,273,88244,2,0,P|415:305|381:322,1,68.0000012969971,2|0,0:2|3:2,0:0:0:0:
322,376,88587,2,0,L|242:360,1,68.0000012969971,2|0,0:2|3:0,0:0:0:0:
191,301,88930,1,2,0:0:0:0:
250,235,89101,6,0,L|257:190,1,34.0000006484985,0|8,3:2|0:2,0:2:0:0:
206,133,89358,1,0,3:2:0:0:
206,133,89444,2,0,L|217:58,1,68.0000012969971,8|0,0:2|0:2,0:0:0:0:
241,31,89701,1,8,0:2:0:0:
241,31,89787,1,0,3:2:0:0:
158,0,89958,5,10,0:2:0:0:
93,60,90130,2,0,P|36:72|7:88,1,68.0000012969971,8|0,0:2|3:2,0:0:0:0:
3,161,90473,5,10,0:2:0:0:
42,240,90644,2,0,P|55:294|71:323,1,68.0000012969971,8|0,0:2|3:2,0:0:0:0:
159,368,90987,6,0,P|176:370|248:273,1,136.000002593994,14|0,0:2|3:2,0:0:0:0:
195,193,91501,1,10,0:2:0:0:
277,118,91673,6,0,B|342:108|375:157|372:160|368:162|402:214|465:195,1,207.999990478516,14|0,0:2|0:0,0:0:0:0:
