osu file format v14

[General]
AudioFilename: audio.mp3
AudioLeadIn: 0
PreviewTime: 64501
Countdown: 0
SampleSet: Soft
StackLeniency: 0.4
Mode: 0
LetterboxInBreaks: 0
WidescreenStoryboard: 1

[Editor]
Bookmarks: 91673
DistanceSpacing: 0.3
BeatDivisor: 4
GridSize: 32
TimelineZoom: 1.5

[Metadata]
Title:Scarlet (Short Ver.)
TitleUnicode:Scarlet (Short Ver.)
Artist:Sakakibara Yui
ArtistUnicode:榊原ゆい
Creator:nantokanaru
Version:-w-
Source:DRACU-RIOT!
Tags:yuzusoft ゆずソフト dracu riot ドラクリオット visual novel vn eroge galgame video game japanese pop jpop j-pop op opening natsume shizuku natsume_shizuku angel note 井ノ原智 inohara satoru Famishin female vocalist
BeatmapID:4485271
BeatmapSetID:2132283

[Difficulty]
HPDrainRate:6
CircleSize:4
OverallDifficulty:8.3
ApproachRate:9
SliderMultiplier:1.8
SliderTickRate:1

[Events]
//Background and Video events
0,0,"gg.jpg",0,0
//Break Periods
//Storyboard Layer 0 (Background)
//Storyboard Layer 1 (Fail)
//Storyboard Layer 2 (Pass)
//Storyboard Layer 3 (Foreground)
//Storyboard Layer 4 (Overlay)
//Storyboard Sound Samples

[TimingPoints]
-727,342.857142857143,4,2,1,100,1,0
476,-133.333333333333,4,2,1,55,0,0
4587,-133.333333333333,4,2,1,70,0,0
6130,-133.333333333333,4,2,1,73,0,0
6305,-100,4,2,1,73,0,0
16587,-83.3333333333333,4,2,1,73,0,0
16758,-100,4,2,1,73,0,0
17101,-133.333333333333,4,2,1,73,0,0
17444,-133.333333333333,4,2,1,60,0,0
19844,-117.647058823529,4,2,1,70,0,0
21901,-117.647058823529,4,2,1,70,0,0
22930,-133.333333333333,4,2,1,60,0,0
24987,-133.333333333333,4,2,1,60,0,0
25330,-117.647058823529,4,2,1,70,0,0
28073,-117.647058823529,4,2,1,70,0,0
39387,-117.647058823529,4,2,1,60,0,0
39558,-133.333333333333,4,2,1,60,0,0
41273,-133.333333333333,4,2,1,70,0,0
44873,-133.333333333333,4,2,1,60,0,0
46587,-133.333333333333,4,2,1,70,0,0
63558,-133.333333333333,4,2,1,80,0,0
64930,-100,4,2,1,93,0,0
91501,-100,4,2,1,96,0,0
91673,-181.818181818181,4,2,1,96,0,0
91930,-181.818181818181,4,2,1,96,0,0
92358,-100,4,2,1,5,0,0

[Colours]
Combo1 : 134,151,176
Combo2 : 255,151,151
Combo3 : 210,132,169
Combo4 : 151,148,205

[HitObjects]
16,68,473,5,2,0:0:0:0:
91,7,644,2,0,P|135:51|120:136,1,135.000005149842,2|2,0:2|0:0,0:0:0:0:
70,184,1158,2,0,P|34:162|4:154,1,67.5000025749208,0|2,0:0|0:0,0:0:0:0:
131,263,1501,1,0,0:0:0:0:
213,201,1673,1,2,0:0:0:0:
256,352,1844,5,2,0:0:0:0:
259,363,2187,1,2,0:0:0:0:
332,272,2530,6,0,P|403:286|442:346,1,135.000005149842,2|0,0:0|0:0,0:0:0:0:
500,248,3044,2,0,P|507:207|528:174,1,67.5000025749208,2|0,0:0|0:0,0:0:0:0:
332,0,3387,6,0,B|408:11|383:54|458:67,1,135.000005149842,2|2,0:0|0:0,0:0:0:0:
512,8,3901,1,0,0:0:0:0:
381,122,4073,2,0,P|334:138|311:159,1,67.5000025749208,2|0,0:0|0:0,0:0:0:0:
273,215,4415,1,2,0:0:0:0:
170,68,4587,5,12,0:2:0:0:
170,68,4930,5,0,3:0:0:0:
241,110,5101,1,8,0:0:0:0:
110,278,5273,1,0,3:0:0:0:
99,249,5358,1,8,0:0:0:0:
85,221,5444,1,0,3:0:0:0:
70,194,5530,1,8,0:0:0:0:
53,168,5615,5,0,3:0:0:0:
206,250,5787,1,10,0:0:0:0:
58,346,5958,1,0,3:0:0:0:
130,384,6130,1,4,3:2:0:0:
277,195,6301,5,0,0:0:0:0:
277,195,6387,1,0,0:0:0:0:
277,195,6473,2,0,P|316:230|319:272,1,90,10|0,0:0|0:0,0:0:0:0:
315,277,6730,1,8,0:0:0:0:
308,289,6815,1,2,3:2:0:0:
372,355,6987,1,0,0:0:0:0:
510,304,7158,1,10,2:0:0:0:
425,147,7330,6,0,P|434:88|457:52,1,90,2|0,0:0|3:0,0:0:0:0:
277,195,7673,2,0,P|286:136|309:100,1,90,10|0,0:0|3:0,0:0:0:0:
483,223,8015,1,10,0:0:0:0:
426,285,8187,1,0,3:0:0:0:
426,285,8273,1,8,0:0:0:0:
426,285,8358,1,0,3:0:0:0:
269,384,8530,6,0,P|229:358|187:349,1,90,10|0,0:0|0:0,0:0:0:0:
175,354,8787,1,8,0:0:0:0:
163,360,8873,1,0,3:0:0:0:
0,265,9044,1,0,0:0:0:0:
75,199,9215,2,0,P|88:264|93:297,1,90,10|0,0:0|0:0,0:0:0:0:
88,300,9473,1,0,0:0:0:0:
86,313,9558,1,0,3:2:0:0:
161,202,9730,1,8,0:0:0:0:
57,94,9901,1,2,3:2:0:0:
171,2,10073,6,0,P|220:16|271:21,1,90,10|0,0:2|3:0,0:0:0:0:
271,25,10330,1,8,0:0:0:0:
283,29,10415,1,2,3:2:0:0:
184,276,10587,2,0,P|152:232|168:192,1,90,12|2,0:0|3:2,0:0:0:0:
171,192,10844,1,8,0:0:0:0:
182,184,10930,1,0,3:0:0:0:
290,250,11101,1,8,0:0:0:0:
408,142,11273,1,2,3:2:0:0:
408,142,11358,1,8,0:0:0:0:
509,234,11530,5,8,0:0:0:0:
494,214,11615,2,0,P|468:267|443:366,1,135,0|0,3:0|0:0,0:0:0:0:
457,349,11958,2,0,P|416:385|365:378,1,90,10|0,0:0|0:0,0:0:0:0:
370,379,12215,1,8,0:0:0:0:
357,373,12301,1,2,3:2:0:0:
254,269,12473,1,0,0:0:0:0:
334,225,12644,1,8,0:0:0:0:
160,384,12815,6,0,P|112:365|59:358,1,90,2|0,0:0|3:0,0:0:0:0:
257,277,13158,2,0,P|209:258|156:251,1,90,10|0,0:0|3:0,0:0:0:0:
81,271,13501,1,10,0:0:0:0:
0,128,13673,1,0,3:0:0:0:
0,128,13758,1,8,0:0:0:0:
127,20,13930,5,0,0:0:0:0:
107,0,14015,2,0,P|93:61|141:124,1,135,10|0,0:0|0:0,0:0:0:0:
139,128,14358,2,0,P|185:132|233:155,1,90,0|0,3:0|0:0,0:0:0:0:
300,194,14701,1,10,0:0:0:0:
480,85,14873,6,0,P|492:32|509:-3,1,90,10|0,0:0|3:0,0:0:0:0:
382,121,15215,2,0,P|400:162|409:206,1,90,10|0,0:0|3:0,0:0:0:0:
512,384,15558,6,0,P|455:308|352:303,1,180,10|8,0:0|0:0,0:0:0:0:
280,228,16073,1,8,0:0:0:0:
286,239,16158,1,8,0:0:0:0:
233,377,16330,1,0,3:0:0:0:
239,366,16415,1,8,0:0:0:0:
88,158,16587,6,0,B|42:159|29:189|29:189|106:185|158:251,1,215.999993408203,2|8,3:2|0:0,0:0:0:0:
159,260,17015,1,8,0:0:0:0:
163,272,17101,1,6,3:2:0:0:
163,272,17444,5,2,0:0:0:0:
286,239,17615,2,0,P|296:190|313:156,1,67.5000025749208,2|0,0:0|0:0,0:0:0:0:
318,320,17958,2,0,P|308:369|291:403,1,67.5000025749208,2|0,0:0|0:0,0:0:0:0:
211,204,18301,6,0,P|138:195|67:178,1,135.000005149842,2|2,0:0|0:0,0:0:0:0:
0,225,18815,1,0,0:0:0:0:
32,384,18987,1,2,0:0:0:0:
32,384,19330,6,0,P|4:341|4:334,1,33.7500012874604,2|0,0:0|0:0,0:0:0:0:
90,206,19501,2,0,L|71:309,1,101.250003862381,2|0,3:2|0:0,0:0:0:0:
77,323,19844,5,6,3:2:0:0:
172,263,20015,1,2,0:0:0:0:
310,339,20187,2,0,P|288:373|253:385,1,76.5000014591217,2|2,3:2|0:0,0:0:0:0:
176,277,20530,2,0,P|188:204|202:117,1,153.000002918243,0|0,0:0|3:0,0:0:0:0:
279,203,21044,1,2,0:0:0:0:
239,44,21215,6,0,P|159:44|114:100,1,153.000002918243,2|0,0:0|3:0,0:0:0:0:
19,138,21730,2,0,P|43:175|76:192,1,76.5000014591217,2|0,0:0|0:0,0:0:0:0:
115,96,22073,2,0,P|164:42|181:37,1,76.5000014591217,2|0,0:0|3:0,0:0:0:0:
239,44,22415,1,2,0:0:0:0:
136,183,22587,5,6,3:2:0:0:
3,294,22930,5,2,0:0:0:0:
69,253,23101,2,0,P|114:268|156:353,1,135.000005149842,2|2,0:0|0:0,0:0:0:0:
0,384,23787,2,0,P|17:326|17:305,1,67.5000025749208,2|0,0:0|0:0,0:0:0:0:
178,197,24130,2,0,P|161:255|161:276,1,67.5000025749208,2|0,0:0|0:0,0:0:0:0:
232,383,24473,2,0,P|282:335|323:338,1,101.250003862381,2|0,0:0|0:0,0:0:0:0:
360,278,24815,6,0,P|381:303|383:327,1,33.7500012874604,2|0,0:0|0:0,0:0:0:0:
448,384,24987,2,0,L|465:270,1,101.250003862381
474,271,25330,5,6,3:2:0:0:
401,183,25501,1,2,0:0:0:0:
511,86,25673,2,0,L|496:183,1,76.5000014591217,2|2,3:2|0:0,0:0:0:0:
397,195,26015,2,0,P|350:147|264:139,1,153.000002918243,0|0,0:0|3:0,0:0:0:0:
211,194,26530,1,2,0:0:0:0:
96,0,26701,6,0,L|126:153,1,153.000002918243,2|0,0:0|3:0,0:0:0:0:
86,233,27215,2,0,P|47:198|37:169,1,76.5000014591217,2|8,0:0|0:0,0:0:0:0:
152,63,27558,1,2,0:0:0:0:
152,63,27644,1,8,0:0:0:0:
152,63,27730,1,2,3:2:0:0:
214,102,27901,1,10,0:0:0:0:
163,240,28073,6,0,P|151:304|148:342,1,76.5000014591217,6|0,3:2|0:0,0:0:0:0:
38,158,28415,2,0,P|26:222|23:260,1,76.5000014591217,2|0,3:2|0:0,0:0:0:0:
91,384,28758,2,0,P|135:350|237:362,1,153.000002918243,2|0,0:0|3:0,0:0:0:0:
319,130,29273,6,0,P|280:191|281:212,1,76.5000014591217
319,295,29615,1,2,0:0:0:0:
432,384,29787,5,2,3:2:0:0:
509,325,29958,1,2,0:0:0:0:
431,276,30130,2,0,P|418:225|400:175,1,76.5000014591217
473,131,30473,1,2,3:2:0:0:
361,1,30644,5,0,0:0:0:0:
361,1,30730,1,0,0:0:0:0:
361,1,30815,2,0,P|318:42|250:51,1,114.750002188683,2|0,0:0|0:0,0:0:0:0:
246,56,31158,2,0,P|266:113|270:143,1,76.5000014591217,2|0,3:2|0:0,0:0:0:0:
4,87,31501,6,0,B|96:79|77:124|170:111,1,153.000002918243,2|2,0:0|3:2,0:0:0:0:
52,317,32015,2,0,P|18:262|43:175,1,153.000002918243,2|2,0:0|0:0,0:0:0:0:
174,309,32530,2,0,P|165:373|164:397,1,76.5000014591217,0|2,3:0|0:0,0:0:0:0:
118,235,32873,1,0,0:0:0:0:
198,195,33044,1,2,0:0:0:0:
293,281,33215,1,2,3:2:0:0:
373,205,33387,5,2,0:0:0:0:
373,205,33473,1,0,0:0:0:0:
373,205,33558,2,0,P|382:141|388:85,1,114.750002188683,2|0,0:0|0:0,0:0:0:0:
375,76,33901,2,0,L|383:0,1,76.5000014591217,2|0,3:2|0:0,0:0:0:0:
448,241,34244,6,0,P|348:253|312:317,1,153.000002918243,2|0,0:0|3:0,0:0:0:0:
251,345,34758,2,0,P|175:358|103:385,1,153.000002918243,0|2,0:0|0:0,0:0:0:0:
16,342,35273,1,0,3:2:0:0:
83,269,35444,1,2,0:0:0:0:
43,190,35615,2,0,P|7:226|-1:260,1,76.5000014591217,2|0,0:0|0:0,0:0:0:0:
169,302,35958,1,2,3:2:0:0:
223,227,36130,1,0,0:0:0:0:
162,132,36301,6,0,P|88:118|31:68,1,153.000002918243,2|0,0:0|3:0,0:0:0:0:
262,0,36987,2,0,P|278:52|290:76,1,76.5000014591217,2|0,0:0|0:0,0:0:0:0:
272,155,37330,1,0,3:0:0:0:
449,209,37501,6,0,P|502:175|497:86,1,153.000002918243,2|2,0:0|0:0,0:0:0:0:
431,45,38015,1,0,3:0:0:0:
359,215,38187,6,0,P|433:241|483:304,1,153.000002918243,2|2,0:0|0:0,0:0:0:0:
512,384,38701,5,0,3:0:0:0:
410,362,38873,1,2,0:0:0:0:
310,338,39044,1,6,3:2:0:0:
142,384,39387,5,2,0:0:0:0:
73,335,39558,2,0,P|49:287|83:201,1,135.000005149842,2|2,0:0|0:0,0:0:0:0:
198,40,40244,2,0,P|166:30|135:18,1,67.5000025749208,2|0,0:0|0:0,0:0:0:0:
0,168,40587,2,0,P|26:143|59:132,1,67.5000025749208,2|0,0:0|0:0,0:0:0:0:
135,159,40930,1,2,0:0:0:0:
320,0,41273,5,0,3:0:0:0:
320,0,41358,1,8,0:0:0:0:
320,0,41444,1,8,0:0:0:0:
385,67,41615,1,8,0:0:0:0:
234,188,41787,5,4,3:2:0:0:
307,133,41958,1,2,0:0:0:0:
397,175,42130,2,0,P|441:162|483:137,1,67.5000025749208,0|2,3:2|0:0,0:0:0:0:
435,330,42473,6,0,P|397:280|308:263,1,135.000005149842,0|0,0:0|3:0,0:0:0:0:
265,319,42987,1,2,0:0:0:0:
169,248,43158,2,0,P|119:265|81:270,1,67.5000025749208,2|0,0:0|0:0,0:0:0:0:
20,239,43501,1,0,3:0:0:0:
21,383,43673,2,0,P|-3:342|6:311,1,67.5000025749208,2|0,0:0|0:0,0:0:0:0:
89,179,44015,2,0,P|98:121|56:48,1,135.000005149842,2|2,0:0|0:0,0:0:0:0:
0,0,44530,5,6,3:2:0:0:
128,108,44873,1,2,0:0:0:0:
203,46,45044,2,0,P|259:59|352:73,1,135.000005149842,2|2,0:0|0:0,0:0:0:0:
420,111,45558,1,0,0:0:0:0:
420,111,45730,2,0,P|438:66|431:37,1,67.5000025749208,2|0,0:0|0:0,0:0:0:0:
512,193,46073,2,0,P|477:201|437:215,1,67.5000025749208,2|0,0:0|0:0,0:0:0:0:
366,182,46415,1,2,0:0:0:0:
501,300,46587,5,8,0:0:0:0:
501,300,46673,1,8,0:0:0:0:
364,384,46844,1,10,0:0:0:0:
364,384,46930,1,8,0:0:0:0:
403,291,47101,1,10,0:0:0:0:
294,252,47273,5,6,3:2:0:0:
227,345,47444,1,2,0:0:0:0:
139,301,47615,2,0,P|89:294|55:278,1,67.5000025749208,0|2,3:0|0:0,0:0:0:0:
0,74,47958,2,0,P|66:92|93:159,1,135.000005149842,0|0,0:0|3:0,0:0:0:0:
39,214,48473,1,2,0:0:0:0:
178,206,48644,6,0,P|250:192|288:124,1,135.000005149842,2|0,0:0|3:0,0:0:0:0:
181,0,49158,2,0,P|173:49|171:72,1,67.5000025749208,2|0,0:0|0:0,0:0:0:0:
295,153,49501,1,2,0:0:0:0:
468,35,49673,1,10,0:0:0:0:
468,35,49758,1,8,0:0:0:0:
351,0,49930,5,8,0:0:0:0:
351,0,50015,2,0,P|361:52|365:77,1,67.5000025749208,6|0,3:2|0:0,0:0:0:0:
512,269,50358,2,0,P|502:217|498:192,1,67.5000025749208,2|0,3:2|0:0,0:0:0:0:
480,110,50701,2,0,B|416:132|447:169|369:192,1,135.000005149842,2|0,0:0|3:0,0:0:0:0:
295,153,51215,2,0,P|253:232|280:258,1,135.000005149842,0|2,0:0|0:0,0:0:0:0:
346,366,51730,5,2,3:2:0:0:
418,306,51901,1,2,0:0:0:0:
496,355,52073,2,0,P|503:319|512:287,1,67.5000025749208,2|0,0:0|0:0,0:0:0:0:
353,378,52415,2,0,P|301:367|279:338,1,67.5000025749208,2|0,3:2|0:0,0:0:0:0:
283,347,52673,1,0,0:0:0:0:
272,338,52758,2,0,P|226:350|191:356,1,67.5000025749208,2|0,0:0|0:0,0:0:0:0:
0,214,53101,6,0,P|51:224|117:238,1,101.250003862381,2|0,3:2|0:0,0:0:0:0:
108,243,53444,2,0,P|151:203|154:182,1,67.5000025749208,2|0,0:0|0:0,0:0:0:0:
108,122,53787,1,2,3:2:0:0:
107,17,53958,6,0,P|58:29|15:110,1,135.000005149842,2|2,0:0|0:0,0:0:0:0:
189,80,54473,2,0,P|242:85|277:95,1,67.5000025749208,0|2,3:0|0:0,0:0:0:0:
324,136,54815,1,2,0:0:0:0:
404,34,54987,1,2,0:0:0:0:
479,81,55158,1,0,3:0:0:0:
440,210,55330,1,2,0:0:0:0:
440,210,55415,1,0,0:0:0:0:
440,210,55501,2,0,P|457:265|459:286,1,67.5000025749208,2|0,0:0|0:0,0:0:0:0:
377,384,55844,2,0,P|360:329|358:308,1,67.5000025749208,2|0,3:2|0:0,0:0:0:0:
512,163,56187,6,0,P|463:118|397:123,1,135.000005149842,2|0,0:0|3:0,0:0:0:0:
288,0,56701,2,0,P|275:70|259:142,1,135.000005149842,0|2,0:0|0:0,0:0:0:0:
197,193,57215,1,2,3:2:0:0:
122,115,57387,1,2,0:0:0:0:
19,20,57558,6,0,P|51:8|85:4,1,67.5000025749208,2|0,0:0|0:0,0:0:0:0:
108,113,57901,2,0,P|76:125|42:129,1,67.5000025749208,2|0,3:2|0:0,0:0:0:0:
30,133,58158,1,0,0:0:0:0:
21,143,58244,2,0,P|7:205|53:258,1,135.000005149842,2|0,0:0|3:2,0:0:0:0:
123,216,58758,1,0,0:0:0:0:
36,368,58930,6,0,P|96:338|162:328,1,135.000005149842,2|0,0:0|3:0,0:0:0:0:
353,200,59444,2,0,P|292:229|226:239,1,135.000005149842,2|2,0:0|0:0,0:0:0:0:
361,384,59958,5,0,3:0:0:0:
447,358,60130,1,2,0:0:0:0:
447,358,60215,1,0,0:0:0:0:
447,358,60301,2,0,P|500:368|526:379,1,67.5000025749208,2|2,0:0|0:0,0:0:0:0:
339,293,60644,1,0,3:0:0:0:
259,366,60815,1,2,0:0:0:0:
443,255,60987,6,0,P|460:194|468:96,1,135.000005149842,2|0,0:0|3:0,0:0:0:0:
511,38,61501,1,0,0:0:0:0:
385,0,61673,2,0,P|396:36|403:76,1,67.5000025749208,2|0,0:0|0:0,0:0:0:0:
315,155,62015,1,0,3:0:0:0:
142,0,62187,6,0,P|161:64|174:130,1,135.000005149842,2|8,0:0|0:0,0:0:0:0:
265,240,62701,1,0,3:0:0:0:
219,323,62873,1,8,0:0:0:0:
6,209,63044,5,8,0:0:0:0:
6,209,63130,1,8,0:0:0:0:
116,365,63301,1,8,0:0:0:0:
116,365,63387,1,8,0:0:0:0:
170,252,63558,1,8,0:0:0:0:
5,321,63730,5,2,3:2:0:0:
100,179,63901,1,8,0:0:0:0:
116,365,64244,5,6,0:0:0:0:
416,384,64587,6,0,P|449:339|440:320,1,67.5000025749208,2|0,0:0|0:0,0:0:0:0:
381,142,64930,6,0,P|428:217|512:246,1,180,6|0,3:2|3:2,0:0:0:0:
335,368,65444,2,0,P|322:309|310:283,1,90,10|0,0:2|0:2,0:0:0:0:
305,274,65701,1,0,0:0:0:0:
298,267,65787,1,2,3:2:0:0:
213,346,65958,1,0,3:2:0:0:
32,207,66130,1,10,0:2:0:0:
96,384,66301,6,0,P|100:336|152:188,1,180,2|0,3:3|3:2,0:0:0:0:
233,177,66815,1,10,0:2:0:0:
103,36,66987,1,0,0:2:0:0:
103,36,67073,1,8,0:2:0:0:
103,36,67158,2,0,P|60:58|18:64,1,90,0|0,3:2|3:2,0:0:0:0:
160,115,67501,1,10,0:2:0:0:
288,11,67673,6,0,P|363:16|423:104,1,180,2|0,3:3|3:2,0:0:0:0:
312,216,68187,2,0,P|258:184|217:182,1,90,10|0,0:2|0:2,0:0:0:0:
416,308,68530,1,2,3:2:0:0:
511,248,68701,1,0,3:2:0:0:
404,320,68873,1,10,0:2:0:0:
232,311,69044,6,0,P|144:319|85:384,1,180,2|0,3:3|3:2,0:0:0:0:
41,283,69558,2,0,P|21:215|-4:180,1,90,10|0,0:2|0:2,0:0:0:0:
5,191,69815,1,8,0:2:0:0:
0,183,69901,2,0,P|22:142|65:123,1,90,0|2,3:2|3:2,0:0:0:0:
144,187,70244,1,8,0:2:0:0:
99,0,70415,6,0,P|136:48|257:72,1,180,6|2,3:2|3:2,0:0:0:0:
326,17,70930,1,8,0:2:0:0:
511,160,71101,6,0,P|455:173|424:192,1,90,2|0,0:2|3:2,0:0:0:0:
351,245,71444,1,2,3:2:0:0:
419,297,71615,1,8,0:2:0:0:
222,382,71787,6,0,P|230:316|267:194,1,180,6|0,3:2|3:2,0:0:0:0:
325,155,72301,1,10,0:2:0:0:
512,51,72473,5,2,3:2:0:0:
512,51,72558,1,8,0:2:0:0:
512,51,72644,2,0,P|471:10|421:4,1,90,0|2,3:2|3:2,0:0:0:0:
360,30,72987,1,8,0:2:0:0:
512,186,73158,6,0,P|439:200|339:279,1,180,6|0,3:2|3:2,0:0:0:0:
320,384,73673,2,0,P|272:352|219:341,1,90,10|0,0:2|0:0,0:0:0:0:
97,134,74015,6,0,P|46:146|-2:219,1,135,2|0,3:2|0:0,0:0:0:0:
1,220,74358,1,10,0:2:0:0:
122,384,74530,6,0,P|136:291|160:207,1,180,6|2,3:2|3:2,0:0:0:0:
261,154,75044,1,10,0:2:0:0:
170,217,75215,1,10,0:2:0:0:
16,138,75387,5,8,0:2:0:0:
16,138,75473,1,8,0:2:0:0:
169,307,75644,5,8,0:2:0:0:
169,307,75730,1,10,0:2:0:0:
510,293,75901,6,0,P|428:209|357:228,1,180,6|0,3:2|3:2,0:0:0:0:
318,384,76415,2,0,P|299:325|279:290,1,90,10|0,0:2|0:2,0:0:0:0:
280,292,76673,1,0,0:0:0:0:
274,285,76758,1,2,3:2:0:0:
424,343,76930,1,2,3:2:0:0:
502,286,77101,1,8,0:2:0:0:
279,152,77273,6,0,P|318:75|403:57,1,180,2|0,3:3|3:2,0:0:0:0:
487,126,77787,1,10,0:2:0:0:
356,248,77958,1,0,0:2:0:0:
356,248,78044,1,8,0:2:0:0:
356,248,78130,2,0,P|314:264|277:294,1,90,0|2,3:2|3:2,0:0:0:0:
458,226,78473,1,8,0:2:0:0:
273,376,78644,6,0,P|194:361|142:262,1,180,2|0,3:3|3:2,0:0:0:0:
209,210,79158,1,10,0:2:0:0:
81,130,79330,1,0,0:2:0:0:
81,130,79415,1,0,0:0:0:0:
81,130,79501,2,0,P|28:158|-5:166,1,90,2|0,3:2|3:2,0:0:0:0:
76,230,79844,1,10,0:2:0:0:
184,32,80015,6,0,P|271:30|333:92,1,180,2|0,3:3|3:2,0:0:0:0:
285,182,80530,1,10,0:2:0:0:
416,271,80701,1,0,0:2:0:0:
416,271,80787,1,8,0:2:0:0:
416,271,80873,2,0,P|428:215|448:179,1,90,0|2,3:2|3:2,0:0:0:0:
511,129,81215,1,8,0:2:0:0:
465,366,81387,6,0,P|409:308|303:300,1,180,6|2,3:2|3:2,0:0:0:0:
250,355,81901,1,8,0:2:0:0:
178,290,82073,2,0,P|158:234|131:196,1,90,2|0,0:2|3:2,0:0:0:0:
69,329,82415,1,2,3:2:0:0:
151,376,82587,1,8,0:2:0:0:
15,201,82758,6,0,P|102:186|167:126,1,180,6|2,3:2|3:2,0:0:0:0:
212,1,83273,1,8,0:2:0:0:
120,39,83444,1,2,0:2:0:0:
120,39,83530,1,8,0:2:0:0:
120,39,83615,2,0,P|56:19|12:-9,1,90,0|2,3:2|3:2,0:0:0:0:
173,132,83958,1,8,0:2:0:0:
388,118,84130,6,0,P|302:132|257:207,1,180,6|0,3:2|3:2,0:0:0:0:
506,42,84644,2,0,P|447:24|411:-6,1,90,10|0,0:2|0:2,0:0:0:0:
326,28,84987,1,0,3:2:0:0:
500,244,85158,5,2,3:2:0:0:
413,187,85330,1,8,0:2:0:0:
334,384,85501,2,0,P|324:340|312:297,1,90,6|0,3:2|0:0,0:0:0:0:
456,338,85844,1,0,3:2:0:0:
194,354,86015,6,0,B|118:341|152:309|68:299,1,135,14|0,0:2|0:0,0:0:0:0:
67,293,86358,2,0,P|31:321|32:365,1,90,10|8,3:2|0:2,0:0:0:0:
186,202,86701,1,10,0:2:0:0:
201,210,86787,1,8,0:2:0:0:
17,217,86958,5,8,0:2:0:0:
17,217,87044,2,0,P|-3:158|39:89,1,135,6|0,3:2|0:0,0:0:0:0:
37,97,87387,2,0,P|87:84|142:61,1,90,2|2,3:3|0:2,0:0:0:0:
245,100,87730,2,0,P|265:48|240:7,1,90,0|2,3:2|0:2,0:0:0:0:
186,202,88073,1,8,0:2:0:0:
320,320,88244,5,2,0:2:0:0:
320,320,88330,1,8,0:2:0:0:
320,320,88415,2,0,P|334:262|350:227,1,90,0|2,3:2|0:2,0:0:0:0:
381,157,88758,1,0,3:2:0:0:
512,241,88930,1,2,0:2:0:0:
446,315,89101,1,0,3:2:0:0:
452,323,89187,1,8,0:2:0:0:
290,137,89358,5,0,3:2:0:0:
290,137,89444,2,0,P|312:85|396:63,1,135,8|8,0:2|0:2,0:0:0:0:
389,65,89787,1,0,3:2:0:0:
488,133,89958,1,10,0:2:0:0:
346,234,90130,6,0,P|329:276|320:320,1,90,8|0,0:2|3:2,0:0:0:0:
353,226,90473,5,10,0:2:0:0:
214,384,90644,2,0,P|205:339|188:298,1,90,8|0,0:2|3:2,0:0:0:0:
0,136,90987,6,0,B|74:151|43:192|125:210,1,135,14|0,0:2|0:0,0:0:0:0:
118,212,91330,1,0,3:2:0:0:
23,262,91501,1,10,0:2:0:0:
284,0,91673,6,0,B|182:28|249:94|128:130,1,198.000006042481,14|0,0:2|0:0,0:0:0:0:
