osu file format v14

[General]
AudioFilename: audio.mp3
AudioLeadIn: 0
PreviewTime: 68900
Countdown: 0
SampleSet: Soft
StackLeniency: 0.4
Mode: 0
LetterboxInBreaks: 0
WidescreenStoryboard: 0

[Editor]
Bookmarks: 12400,50900,75900,76900
DistanceSpacing: 1.3
BeatDivisor: 4
GridSize: 4
TimelineZoom: 1.5

[Metadata]
Title:Ryuusa no Orpheus
TitleUnicode:流砂のオルフェウス
Artist:Sakakibara Yui
ArtistUnicode:榊原ゆい
Creator:Fushimi Rio
Version:Normal
Source:魔女こいにっき Dragon×Caravan
Tags:Majo Koi Nikki Eroge Video Game Japanese Opening OP pop jpop j-pop the witch's love diary dragon caravan
BeatmapID:2286721
BeatmapSetID:910260

[Difficulty]
HPDrainRate:3
CircleSize:3
OverallDifficulty:4
ApproachRate:5
SliderMultiplier:1.2
SliderTickRate:1

[Events]
//Background and Video events
0,0,"bg.jpg",0,0
//Break Periods
//Storyboard Layer 0 (Background)
//Storyboard Layer 1 (Fail)
//Storyboard Layer 2 (Pass)
//Storyboard Layer 3 (Foreground)
//Storyboard Layer 4 (Overlay)
//Storyboard Sound Samples

[TimingPoints]
-1100,500,4,2,1,50,1,0
8900,-100,4,2,1,60,0,0
12400,-100,4,2,1,60,0,0
12900,-100,4,2,1,60,0,0
16900,-100,4,2,1,60,0,0
17150,-100,4,2,1,60,0,0
18900,-100,4,2,1,60,0,0
19275,-100,4,2,1,60,0,0
20900,-100,4,2,1,70,0,0
21150,-100,4,2,1,70,0,0
22900,-100,4,2,1,80,0,0
24400,-100,4,2,1,90,0,0
24900,-100,4,2,1,100,0,1
25400,-100,4,2,1,90,0,0
30900,-100,4,2,1,100,0,0
31900,-100,4,2,1,60,0,0
48900,-100,4,2,1,80,0,0
50900,-100,4,2,1,90,0,0
52900,-100,4,2,1,70,0,0
65900,-100,4,2,1,90,0,0
66525,-100,4,2,1,5,0,0
66650,-100,4,2,1,100,0,0
68275,-100,4,2,1,70,0,0
68900,-100,4,2,1,100,0,1
69525,-100,4,2,1,90,0,1
82900,-100,4,2,1,90,0,0
84400,-100,4,2,1,90,0,0
84900,-100,4,2,1,100,0,1
85400,-100,4,2,1,90,0,0
90900,-100,4,2,1,100,0,0
91900,-100,4,2,1,60,0,0
92900,-100,4,2,1,90,0,0
94650,-200,4,2,2,90,0,0
94775,-200,4,2,2,5,0,0

[Colours]
Combo1 : 175,128,255
Combo2 : 255,207,128
Combo3 : 128,185,255
Combo4 : 255,175,128
SliderBorder : 255,207,128

[HitObjects]
343,191,900,6,0,P|431:152|459:60,2,180,4|0|0,1:0|0:0|1:0,0:0:0:0:
265,169,2650,1,0,0:0:0:0:
283,246,2900,2,0,P|281:305|256:357,2,89.9999999999999,4|0|0,0:1|0:0|0:0,0:0:0:0:
171,33,4400,1,2,1:2:0:0:
168,192,4900,6,0,P|80:231|52:323,2,180,4|0|0,1:0|0:0|1:0,0:0:0:0:
247,215,6650,1,0,0:0:0:0:
228,137,6900,2,0,P|230:78|256:27,2,89.9999999999999,4|0|0,0:1|0:0|0:0,0:0:0:0:
304,159,7900,2,0,L|434:159,1,120,0|0,0:0|1:0,0:0:0:0:
493,300,8900,6,0,L|373:300,1,120,4|0,0:0|1:0,0:0:0:0:
221,336,9900,2,0,L|101:336,1,120,0|0,3:0|1:0,0:0:0:0:
0,216,10900,2,0,P|7:158|41:109,1,120,2|0,3:2|1:0,0:0:0:0:
170,196,11900,2,0,P|162:224|146:250,2,60,0|0|0,0:3|0:0|1:0,0:0:0:0:
164,118,12650,1,0,0:0:0:0:
235,149,12900,6,0,P|283:183|342:190,1,120,4|0,0:1|1:0,0:0:0:0:
449,76,13900,2,0,P|400:41|341:34,1,120,0|2,3:0|1:2,0:0:0:0:
341,188,14900,2,0,B|343:263|343:263|371:298,1,120,0|0,3:0|1:0,0:0:0:0:
212,298,15900,2,0,L|212:216,2,60,0|0|0,1:0|0:0|1:0,0:0:0:0:
212,376,16650,1,0,0:0:0:0:
134,351,16900,6,0,B|133:239|133:239|80:196,1,180,4|2,0:0|0:0,0:0:0:0:
80,118,17900,2,0,P|118:73|175:57,1,120,0|0,3:0|1:0,0:0:0:0:
248,84,18650,1,0,0:0:0:0:
321,57,18900,2,0,B|374:100|374:100|374:211,1,180,4|2,0:1|0:0,0:0:0:0:
296,212,19900,2,0,P|251:250|235:307,1,120,0|0,3:0|1:0,0:0:0:0:
387,339,20900,5,4,0:0:0:0:
451,197,21400,1,0,0:0:0:0:
296,212,21900,1,0,3:0:0:0:
141,227,22400,1,0,1:0:0:0:
57,95,22900,2,0,B|14:34|14:34|132:59|132:59|191:71|227:29,1,300,4|0,0:0|0:0,0:0:0:0:
302,8,24400,2,0,P|334:21|357:46,1,60,4|0,1:0|1:0,0:0:0:0:
368,114,24900,5,4,1:2:0:0:
276,239,25400,2,0,P|253:219|226:206,1,60,0|0,1:0|0:0,0:0:0:0:
151,229,25900,2,0,P|102:277|28:271,1,120,0|0,1:0|1:0,0:0:0:0:
0,222,26650,1,0,0:0:0:0:
23,145,26900,2,0,B|56:114|56:114|99:107,2,90,4|0|0,0:1|0:0|0:0,0:0:0:0:
256,84,28400,1,0,1:0:0:0:
256,240,28900,5,4,0:0:0:0:
411,255,29400,2,0,P|430:232|443:205,1,60,0|0,1:0|0:0,0:0:0:0:
420,129,29900,2,0,P|377:90|369:32,1,120,0|0,3:0|1:0,0:0:0:0:
292,20,30650,1,0,1:0:0:0:
215,7,30900,1,4,1:2:0:0:
82,276,32150,6,0,P|148:272|197:230,1,120,4|0,0:1|0:0,0:0:0:0:
260,207,32900,6,0,L|382:207,1,120,4|0,0:0|1:0,0:0:0:0:
428,58,33900,2,0,P|387:48|348:56,1,60,0|0,3:0|0:0,0:0:0:0:
305,93,34400,1,0,1:0:0:0:
227,88,34650,1,0,0:0:0:0:
149,83,34900,2,0,B|110:106|110:106|35:98,1,120,4|0,0:0|1:0,0:0:0:0:
55,253,35900,2,0,L|46:312,1,60,0|0,3:0|0:0,0:0:0:0:
123,340,36400,2,0,L|131:280,1,60,0|0,1:0|0:0,0:0:0:0:
203,249,36900,6,0,P|268:280|334:264,2,120,4|0|0,3:1|1:0|3:0,0:0:0:0:
171,177,38150,1,0,3:0:0:0:
197,103,38400,2,0,L|224:19,1,60,0|0,1:0|0:0,0:0:0:0:
291,70,38900,1,2,0:0:0:0:
441,30,39400,1,0,1:0:0:0:
391,178,39900,2,0,P|388:208|394:240,1,60,0|0,3:0|3:0,0:0:0:0:
453,286,40400,2,0,P|456:316|450:348,1,60,0|0,1:0|1:0,0:0:0:0:
375,366,40900,6,0,B|345:338|345:338|264:328,1,120,4|0,0:0|1:0,0:0:0:0:
111,312,41900,2,0,P|101:271|109:232,1,60,0|0,3:0|0:0,0:0:0:0:
163,204,42400,1,0,1:0:0:0:
241,209,42650,1,0,0:0:0:0:
283,143,42900,2,0,B|306:104|306:104|298:29,1,120,4|0,0:0|1:0,0:0:0:0:
446,78,43900,2,0,L|437:137,1,60,0|0,3:0|0:0,0:0:0:0:
404,208,44400,2,0,L|395:267,1,60,0|0,1:0|0:0,0:0:0:0:
349,330,44900,6,0,P|414:361|480:345,2,120,4|0|0,0:1|1:0|3:0,0:0:0:0:
317,258,46150,1,0,0:0:0:0:
243,284,46400,2,0,L|159:311,1,60,0|0,1:0|0:0,0:0:0:0:
110,323,46900,6,0,P|52:306|102:231,1,180,2|0,0:0|0:0,0:0:0:0:
142,165,47900,2,0,P|145:135|139:103,1,60,0|0,1:0|3:0,0:0:0:0:
207,66,48400,2,0,P|231:83|262:94,1,60,0|0,1:0|0:0,0:0:0:0:
319,41,48900,5,4,0:0:0:0:
360,192,49400,1,0,1:0:0:0:
510,151,49900,1,0,0:0:0:0:
470,0,50400,1,0,1:0:0:0:
392,135,50900,2,0,P|349:170|322:178,1,60,4|0,1:0|3:0,0:0:0:0:
271,197,51400,2,0,P|216:191|191:178,1,60,0|0,1:0|1:0,0:0:0:0:
141,156,51900,1,0,3:0:0:0:
29,265,52400,2,0,P|83:270|108:283,1,60,4|0,1:0|1:0,0:0:0:0:
140,329,52900,6,0,B|170:301|170:301|251:291,1,120,4|0,0:0|1:0,0:0:0:0:
399,331,53900,2,0,P|389:290|397:251,1,60,0|0,3:0|0:0,0:0:0:0:
427,203,54400,1,0,1:0:0:0:
379,141,54650,1,0,0:0:0:0:
304,166,54900,2,0,B|281:205|281:205|288:279,1,120,0|0,3:0|1:0,0:0:0:0:
157,364,55900,2,0,B|180:325|180:325|172:250,1,120,0|0,3:0|1:0,0:0:0:0:
100,221,56650,1,0,0:0:0:0:
27,191,56900,6,0,B|20:117|20:117|43:78,1,120,0|0,3:0|1:0,0:0:0:0:
191,31,57900,2,0,B|198:105|198:105|175:144,1,120,0|0,3:0|1:0,0:0:0:0:
239,188,58650,1,0,0:0:0:0:
311,217,58900,2,0,P|382:212|413:195,2,90,2|0|0,3:2|0:0|0:0,0:0:0:0:
249,266,59900,2,0,P|228:321|182:358,1,120,0|0,3:0|1:0,0:0:0:0:
26,357,60900,6,0,L|26:272,1,60,4|0,0:0|0:0,0:0:0:0:
66,230,61400,2,0,L|66:145,1,60,0|0,1:0|0:0,0:0:0:0:
45,94,61900,2,0,B|84:71|84:71|158:78,1,120,0|0,3:0|1:0,0:0:0:0:
235,90,62650,1,0,0:0:0:0:
313,103,62900,2,0,L|313:188,1,60,0|0,3:0|0:0,0:0:0:0:
353,230,63400,2,0,L|353:315,1,60,0|0,1:0|0:0,0:0:0:0:
413,340,63900,2,0,B|440:304|440:304|441:229,1,120,0|0,3:0|1:0,0:0:0:0:
439,73,64900,6,0,P|376:53|346:10,1,120,4|0,3:1|1:0,0:0:0:0:
280,57,65650,1,0,0:0:0:0:
251,131,65900,2,0,P|231:153|205:168,1,60,0|0,1:0|1:0,0:0:0:0:
131,193,66400,2,0,P|101:194|72:186,1,60,4|0,1:0|3:0,0:0:0:0:
1,153,66900,1,4,1:2:0:0:
1,74,67150,1,0,1:0:0:0:
262,319,68400,6,0,P|305:286|325:283,1,60,4|0,1:0|3:0,0:0:0:0:
376,325,68900,6,0,P|437:327|470:315,1,90,4|0,0:0|0:0,0:0:0:0:
380,246,69650,1,0,0:0:0:0:
380,245,69900,2,0,P|360:187|338:160,1,90,4|0,3:0|3:0,0:0:0:0:
309,284,70650,1,0,0:0:0:0:
309,284,70900,2,0,L|170:263,1,120,4|0,0:1|1:0,0:0:0:0:
158,194,71650,1,0,0:0:0:0:
129,121,71900,2,0,L|-10:100,1,120,0|0,1:0|1:0,0:0:0:0:
0,182,72650,1,0,0:0:0:0:
51,243,72900,6,0,L|139:256,1,90,4|0,0:0|0:0,0:0:0:0:
79,168,73650,1,0,0:0:0:0:
79,168,73900,2,0,L|92:78,1,90,4|0,3:0|3:0,0:0:0:0:
162,179,74650,1,0,0:0:0:0:
162,179,74900,2,0,P|233:157|266:110,1,120,4|0,0:1|1:0,0:0:0:0:
338,130,75650,1,0,0:0:0:0:
409,99,75900,2,0,P|451:139|464:197,1,120,0|0,1:0|1:0,0:0:0:0:
450,274,76650,1,0,3:0:0:0:
378,306,76900,6,0,L|314:294,2,60,4|0|0,0:0|0:0|1:0,0:0:0:0:
248,219,77900,2,0,P|220:267|216:303,2,90,8|0|0,3:0|0:0|0:0,0:0:0:0:
324,201,78900,2,0,L|388:189,2,60,4|0|0,0:1|0:0|1:0,0:0:0:0:
454,114,79900,2,0,P|482:162|486:198,2,90,4|0|0,3:0|0:0|0:0,0:0:0:0:
388,72,80900,6,0,P|343:65|300:74,1,90,4|0,0:0|0:0,0:0:0:0:
389,158,81650,1,0,0:0:0:0:
389,158,81900,2,0,P|339:196|258:203,1,120,8|0,3:0|1:0,0:0:0:0:
206,201,82650,1,0,3:0:0:0:
139,159,82900,2,0,B|75:120|75:120|100:238|100:238|112:297|70:333,1,300,4|0,0:0|0:0,0:0:0:0:
131,384,84400,2,0,P|156:360|188:350,1,60,4|0,1:0|1:0,0:0:0:0:
257,356,84900,5,4,1:2:0:0:
306,207,85400,2,0,P|326:230|339:257,1,60,0|0,1:0|0:0,0:0:0:0:
416,261,85900,2,0,P|464:212|458:138,1,120,0|0,1:0|1:0,0:0:0:0:
407,113,86650,1,0,0:0:0:0:
428,38,86900,2,0,B|461:7|461:7|504:0,2,90,4|0|0,0:1|0:0|0:0,0:0:0:0:
256,196,88400,1,0,1:0:0:0:
256,352,88900,5,4,0:0:0:0:
101,367,89400,2,0,P|82:344|69:317,1,60,0|0,1:0|0:0,0:0:0:0:
92,241,89900,2,0,P|135:202|143:144,1,120,0|0,3:0|1:0,0:0:0:0:
220,132,90650,1,0,1:0:0:0:
297,119,90900,1,4,1:2:0:0:
26,356,92150,6,0,P|-1:311|8:234,1,120,4|0,0:1|0:0,0:0:0:0:
54,186,92900,6,0,B|109:192|109:192|139:215|139:215|195:221,1,150,4|0,1:2|1:0,0:0:0:0:
239,291,93775,2,0,B|271:259|271:259|277:214,1,90,0|0,1:0|1:0,0:0:0:0:
286,136,94400,1,0,3:2:0:0:
351,183,94650,5,4,1:0:0:0:
256,192,94900,12,0,100150,0:0:0:0:
