osu file format v14

[General]
AudioFilename: audio.mp3
AudioLeadIn: 0
PreviewTime: 68900
Countdown: 0
SampleSet: Soft
StackLeniency: 0.4
Mode: 0
LetterboxInBreaks: 0
WidescreenStoryboard: 0

[Editor]
Bookmarks: 75900,76900
DistanceSpacing: 1.6
BeatDivisor: 4
GridSize: 4
TimelineZoom: 1.5

[Metadata]
Title:Ryuusa no Orpheus
TitleUnicode:流砂のオルフェウス
Artist:Sakakibara Yui
ArtistUnicode:榊原ゆい
Creator:Fushimi Rio
Version:Hard
Source:魔女こいにっき Dragon×Caravan
Tags:Majo Koi Nikki Eroge Video Game Japanese Opening OP pop jpop j-pop the witch's love diary dragon caravan
BeatmapID:2085797
BeatmapSetID:910260

[Difficulty]
HPDrainRate:6
CircleSize:4
OverallDifficulty:6
ApproachRate:7.5
SliderMultiplier:2.4
SliderTickRate:1

[Events]
//Background and Video events
0,0,"bg.jpg",0,0
//Break Periods
//Storyboard Layer 0 (Background)
//Storyboard Layer 1 (Fail)
//Storyboard Layer 2 (Pass)
//Storyboard Layer 3 (Foreground)
//Storyboard Layer 4 (Overlay)
//Storyboard Sound Samples

[TimingPoints]
-1100,500,4,2,1,50,1,0
8900,-133.333333333333,4,2,1,60,0,0
12900,-133.333333333333,4,2,1,60,0,0
16900,-100,4,2,1,60,0,0
17150,-133.333333333333,4,2,1,60,0,0
18900,-100,4,2,1,60,0,0
19275,-133.333333333333,4,2,1,60,0,0
20900,-133.333333333333,4,2,1,70,0,0
21150,-133.333333333333,4,2,1,70,0,0
22900,-80,4,2,1,80,0,0
23775,-133.333333333333,4,2,1,100,0,0
24400,-80,4,2,1,90,0,0
24900,-80,4,2,1,100,0,1
25400,-100,4,2,1,90,0,0
30900,-133.333333333333,4,2,1,100,0,0
31900,-133.333333333333,4,2,1,60,0,0
48900,-100,4,2,1,80,0,0
50900,-100,4,2,1,90,0,0
51900,-83.3333333333333,4,2,1,100,0,0
52900,-100,4,2,1,70,0,0
65900,-83.3333333333333,4,2,1,90,0,0
66525,-83.3333333333333,4,2,1,5,0,0
66650,-83.3333333333333,4,2,1,100,0,0
68275,-80,4,2,1,70,0,0
68900,-100,4,2,1,100,0,1
69525,-100,4,2,1,90,0,1
72400,-80,4,2,1,100,0,1
72900,-100,4,2,1,100,0,1
82900,-80,4,2,1,90,0,0
83775,-133.333333333333,4,2,1,100,0,0
84400,-80,4,2,1,90,0,0
84900,-80,4,2,1,100,0,1
85400,-100,4,2,1,90,0,0
90900,-133.333333333333,4,2,1,100,0,0
91900,-133.333333333333,4,2,1,60,0,0
92900,-100,4,2,1,90,0,0
94650,-333.333333333333,4,2,2,90,0,0
94775,-666.666666666667,4,2,2,5,0,0

[Colours]
Combo1 : 175,128,255
Combo2 : 255,207,128
Combo3 : 128,185,255
Combo4 : 255,175,128
SliderBorder : 255,207,128

[HitObjects]
97,338,400,6,0,L|85:311,6,30,2|2|2|2|2|2|0,0:0|0:0|0:0|0:0|0:0|0:0|0:0,0:0:0:0:
7,292,900,6,0,P|55:292|83:216,1,120,4|2,1:0|0:0,0:0:0:0:
76,187,1275,1,0,0:0:0:0:
205,249,1650,2,0,P|253:249|281:173,1,120,0|0,0:0|0:0,0:0:0:0:
274,144,2025,1,0,0:0:0:0:
403,206,2400,2,0,P|451:206|479:130,1,120,0|0,1:0|0:0,0:0:0:0:
512,275,2900,5,4,0:1:0:0:
512,275,3275,1,0,0:0:0:0:
512,275,3650,1,0,0:0:0:0:
355,275,3900,1,0,0:0:0:0:
348,291,4025,1,0,0:0:0:0:
341,307,4150,1,0,0:0:0:0:
334,323,4275,1,0,0:0:0:0:
327,339,4400,2,0,L|267:339,3,60,2|0|0|0,1:2|0:0|0:0|0:0,0:0:0:0:
250,345,4900,6,0,P|202:345|174:269,1,120,4|0,1:0|0:0,0:0:0:0:
181,240,5275,1,0,0:0:0:0:
360,249,5650,2,0,P|312:249|284:173,1,120,0|0,0:0|0:0,0:0:0:0:
291,144,6025,1,0,0:0:0:0:
470,153,6400,2,0,P|422:153|394:77,1,120,0|0,1:0|0:0,0:0:0:0:
453,247,6900,5,4,0:1:0:0:
453,247,7275,1,0,0:0:0:0:
453,247,7650,1,0,0:0:0:0:
387,321,7900,2,0,L|387:385,2,60,0|2|2,0:0|0:0|0:0,0:0:0:0:
328,260,8400,5,0,1:0:0:0:
328,260,8525,2,0,P|304:207|246:202,1,120,2|0,0:0|0:0,0:0:0:0:
210,229,8900,6,0,L|75:229,1,135.000005149841,4|2,0:0|0:0,0:0:0:0:
30,230,9400,1,0,1:0:0:0:
30,230,9650,1,0,0:0:0:0:
31,140,9900,2,0,P|83:132|134:72,1,135.000005149841,0|2,3:0|0:0,0:0:0:0:
140,26,10400,1,0,1:0:0:0:
140,26,10650,1,0,0:0:0:0:
209,140,10900,6,0,L|338:140,1,90.0000034332277,2|2,3:2|0:0,0:0:0:0:
326,115,11275,1,2,0:0:0:0:
352,90,11400,2,0,L|481:90,1,90.0000034332277,0|0,1:0|0:0,0:0:0:0:
510,258,11900,2,0,P|445:244|406:190,1,135.000005149841,0|2,3:0|0:0,0:0:0:0:
407,226,12400,2,0,L|407:316,1,90.0000034332277,0|0,1:0|0:0,0:0:0:0:
227,112,12900,6,0,L|362:112,1,135.000005149841,4|2,0:1|0:0,0:0:0:0:
407,111,13400,1,0,1:0:0:0:
407,111,13650,1,0,0:0:0:0:
406,201,13900,2,0,P|354:209|303:269,1,135.000005149841,0|2,3:0|0:0,0:0:0:0:
297,315,14400,1,2,1:2:0:0:
297,315,14650,1,0,3:0:0:0:
240,201,14900,6,0,L|111:201,1,90.0000034332277,0|2,3:0|0:0,0:0:0:0:
123,176,15275,1,2,0:0:0:0:
97,151,15400,2,0,L|-32:151,1,90.0000034332277,0|0,1:0|0:0,0:0:0:0:
0,344,15900,2,0,P|53:304|66:240,1,135.000005149841,0|2,3:0|0:0,0:0:0:0:
87,270,16400,2,0,P|128:291|176:290,1,90.0000034332277,0|0,1:0|0:0,0:0:0:0:
256,192,16900,5,4,0:0:0:0:
353,283,17150,1,2,0:0:0:0:
353,283,17275,1,0,0:0:0:0:
353,283,17400,2,0,L|404:283,3,45.0000017166138,0|2|2|0,1:0|0:0|0:0|0:0,0:0:0:0:
425,284,17900,2,0,P|434:218|397:163,1,135.000005149841,0|0,3:0|0:0,0:0:0:0:
434,170,18399,2,0,P|476:156|508:125,1,90.0000034332277,0|0,1:0|0:0,0:0:0:0:
314,170,18900,5,4,0:1:0:0:
225,87,19150,1,2,0:0:0:0:
221,83,19275,1,2,0:0:0:0:
217,79,19400,2,0,L|166:79,3,45.0000017166138,0|2|2|0,1:0|0:0|0:0|0:0,0:0:0:0:
145,78,19900,2,0,P|135:143|172:198,1,135.000005149841,0|0,3:0|0:0,0:0:0:0:
213,215,20399,2,0,P|257:213|296:191,1,90.0000034332277,0|0,1:0|0:0,0:0:0:0:
456,63,20900,6,0,P|411:64|372:86,1,90.0000034332277,4|2,0:0|0:0,0:0:0:0:
347,118,21275,1,2,0:0:0:0:
347,118,21400,2,0,P|383:173|375:233,1,90.0000034332277,0|2,0:0|0:0,0:0:0:0:
447,279,21900,1,0,3:0:0:0:
447,279,22025,2,0,P|391:315|331:307,1,90.0000034332277,2|0,0:0|0:0,0:0:0:0:
334,309,22400,1,0,1:0:0:0:
284,214,22650,1,2,0:0:0:0:
227,305,22900,5,4,0:0:0:0:
85,216,23150,1,0,1:0:0:0:
85,216,23275,1,0,1:0:0:0:
79,384,23525,1,0,3:0:0:0:
227,305,23775,2,0,P|273:294|331:368,1,135.000005149841,4|0,1:0|0:0,0:0:0:0:
360,371,24275,5,0,1:0:0:0:
360,371,24400,2,0,P|389:356|413:317,1,75,4|0,1:0|0:0,0:0:0:0:
397,221,24650,2,0,P|395:253|417:293,1,75,0|0,1:0|0:0,0:0:0:0:
478,178,24900,6,0,P|423:134|318:175,1,150,4|0,1:2|0:0,0:0:0:0:
326,165,25275,1,0,0:0:0:0:
313,192,25400,1,0,1:0:0:0:
300,219,25525,1,0,0:0:0:0:
277,239,25650,2,0,P|204:250|147:205,1,120,0|0,0:0|1:0,0:0:0:0:
141,194,26025,2,0,P|87:170|29:183,1,120,2|2,0:0|0:0,0:0:0:0:
17,291,26400,2,0,P|70:314|128:301,1,120,0|0,1:0|0:0,0:0:0:0:
228,162,26900,6,0,B|238:231|238:231|227:269|227:269|242:353,2,180,4|0|0,0:1|0:0|0:0,0:0:0:0:
260,73,27900,5,0,1:0:0:0:
260,73,28025,1,0,0:0:0:0:
260,73,28150,1,0,3:0:0:0:
314,177,28400,2,0,L|333:295,1,120,0|0,1:0|0:0,0:0:0:0:
507,148,28900,6,0,L|447:157,3,60,4|0|0|0,0:0|0:0|0:0|0:0,0:0:0:0:
430,161,29400,1,0,1:0:0:0:
412,164,29525,1,0,0:0:0:0:
394,167,29650,2,0,B|336:156|336:156|314:89,1,120,0|0,0:0|3:0,0:0:0:0:
223,82,30025,2,0,B|241:138|241:138|193:189,1,120,0|0,1:0|0:0,0:0:0:0:
235,272,30400,2,0,B|274:227|274:227|343:243,1,120,0|0,1:0|1:0,0:0:0:0:
510,287,30900,5,4,1:2:0:0:
510,287,31900,1,0,3:0:0:0:
510,287,32025,1,0,3:0:0:0:
510,287,32150,2,0,B|450:353|450:353|361:332,1,180.000006866455,4|0,0:1|0:0,0:0:0:0:
273,269,32900,6,0,L|206:247,2,45.0000017166138,4|0|0,0:0|0:0|0:0,0:0:0:0:
156,304,33400,2,0,P|112:305|65:277,1,90.0000034332277,0|0,1:0|0:0,0:0:0:0:
72,248,33775,1,0,0:0:0:0:
49,220,33900,2,0,L|-18:198,2,45.0000017166138,0|0|0,3:0|1:0|0:0,0:0:0:0:
146,174,34400,2,0,P|168:136|168:81,1,90.0000034332277,0|0,1:0|0:0,0:0:0:0:
280,87,34900,6,0,P|282:55|296:30,2,60.0000022888184,4|0|0,0:0|0:0|0:0,0:0:0:0:
294,132,35400,2,0,P|341:110|415:112,1,90.0000034332277,0|0,1:0|0:0,0:0:0:0:
412,119,35775,1,0,0:0:0:0:
435,147,35900,2,0,L|502:169,2,45.0000017166138,0|0|0,3:0|1:0|0:0,0:0:0:0:
369,233,36400,2,0,L|369:334,1,90.0000034332277,0|0,1:0|0:0,0:0:0:0:
267,361,36900,6,0,P|222:354|182:334,1,90.0000034332277,4|0,3:1|0:0,0:0:0:0:
35,275,37400,2,0,P|82:253|156:255,1,90.0000034332277,0|0,1:0|0:0,0:0:0:0:
155,254,37775,1,0,0:0:0:0:
190,253,37900,2,0,L|206:211,2,45.0000017166138,0|0|0,3:0|1:0|3:0,0:0:0:0:
308,281,38400,2,0,L|293:191,1,90.0000034332277,0|0,1:0|0:0,0:0:0:0:
355,113,38900,5,2,0:0:0:0:
355,113,39150,2,0,L|443:127,1,90.0000034332277,0|0,0:0|1:0,0:0:0:0:
486,229,39650,2,0,L|397:243,1,90.0000034332277,0|0,0:0|3:0,0:0:0:0:
361,250,40025,1,0,1:0:0:0:
326,258,40150,2,0,L|281:265,2,45.0000017166138,0|0|0,3:0|3:0|1:0,0:0:0:0:
231,335,40650,1,0,1:0:0:0:
231,335,40775,1,0,1:0:0:0:
231,335,40900,6,0,L|186:342,2,45.0000017166138,4|0|0,0:0|0:0|0:0,0:0:0:0:
193,222,41400,2,0,P|149:221|102:249,1,90.0000034332277,0|0,1:0|0:0,0:0:0:0:
109,278,41775,1,0,0:0:0:0:
86,306,41900,2,0,L|19:328,2,45.0000017166138,0|0|0,3:0|1:0|0:0,0:0:0:0:
45,179,42400,2,0,P|31:136|0:104,1,90.0000034332277,0|0,1:0|0:0,0:0:0:0:
100,48,42900,5,4,0:0:0:0:
100,48,43025,1,0,0:0:0:0:
100,48,43150,1,0,0:0:0:0:
144,135,43400,2,0,P|191:157|265:155,1,90.0000034332277,0|0,1:0|0:0,0:0:0:0:
262,148,43775,1,0,0:0:0:0:
285,120,43900,2,0,L|352:98,2,45.0000017166138,0|0|0,3:0|1:0|0:0,0:0:0:0:
273,239,44400,2,0,L|273:329,1,90.0000034332277,0|0,1:0|0:0,0:0:0:0:
440,232,44900,6,0,L|362:187,1,90.0000034332277,4|0,0:1|0:0,0:0:0:0:
356,380,45400,2,0,L|433:335,1,90.0000034332277,0|0,1:0|0:0,0:0:0:0:
470,344,45775,1,0,0:0:0:0:
470,344,45900,2,0,L|508:321,2,45.0000017166138,0|0|0,3:0|1:0|0:0,0:0:0:0:
396,257,46400,2,0,P|388:216|399:168,1,90.0000034332277,0|0,1:0|0:0,0:0:0:0:
357,73,46900,5,2,0:0:0:0:
357,73,47150,2,0,P|316:81|268:70,1,90.0000034332277,0|0,0:0|1:0,0:0:0:0:
144,163,47650,2,0,P|187:173|231:165,1,90.0000034332277,0|0,0:0|1:0,0:0:0:0:
240,186,48025,1,0,3:0:0:0:
248,206,48150,1,0,3:0:0:0:
389,116,48400,2,0,P|345:105|301:113,1,90.0000034332277,0|0,1:0|0:0,0:0:0:0:
293,93,48775,1,0,0:0:0:0:
286,72,48900,6,0,L|265:5,3,60,4|0|0|0,0:0|0:0|0:0|0:0,0:0:0:0:
254,41,49400,1,0,1:0:0:0:
240,67,49525,1,0,0:0:0:0:
226,93,49650,2,0,P|149:108|100:89,1,120,0|0,0:0|0:0,0:0:0:0:
69,170,50025,2,0,P|120:229|128:281,1,120,2|2,0:0|0:0,0:0:0:0:
215,268,50400,1,0,1:0:0:0:
218,238,50525,1,0,0:0:0:0:
229,210,50650,1,0,3:0:0:0:
247,186,50775,1,0,3:0:0:0:
270,167,50900,6,0,L|333:147,3,60,4|0|0|0,1:0|0:0|3:0|0:0,0:0:0:0:
342,230,51400,2,0,L|404:209,3,60,0|0|0|0,1:0|0:0|1:0|3:0,0:0:0:0:
411,295,51900,5,0,3:0:0:0:
439,285,52025,1,0,1:0:0:0:
468,276,52150,1,0,1:0:0:0:
339,367,52400,2,0,P|271:303|194:319,1,143.999995605469,4|0,1:0|1:0,0:0:0:0:
196,326,52775,1,0,1:0:0:0:
160,332,52900,6,0,P|113:317|81:257,1,120,4|0,0:0|0:0,0:0:0:0:
83,227,53275,1,0,0:0:0:0:
89,197,53400,2,0,P|46:157|-13:156,1,120,0|0,1:0|0:0,0:0:0:0:
182,232,53900,5,0,3:0:0:0:
182,232,54025,2,0,P|199:175|249:145,1,120,2|0,0:0|0:0,0:0:0:0:
277,157,54400,2,0,P|335:154|378:113,1,120,0|0,1:0|0:0,0:0:0:0:
384,300,54900,6,0,P|462:266|470:181,1,180,0|0,3:0|0:0,0:0:0:0:
469,95,55400,2,0,B|412:105|412:105|451:154,1,120,0|0,1:0|0:0,0:0:0:0:
301,79,55900,2,0,L|264:32,2,60,0|2|0,3:0|0:0|0:0,0:0:0:0:
309,107,56275,1,2,0:0:0:0:
309,136,56400,2,0,P|259:177|205:178,1,120,0|0,1:0|0:0,0:0:0:0:
182,159,56775,1,0,0:0:0:0:
161,136,56900,6,0,L|92:250,1,120,0|0,3:0|0:0,0:0:0:0:
250,369,57400,2,0,L|185:252,1,120,0|0,1:0|0:0,0:0:0:0:
4,328,57900,1,0,3:0:0:0:
4,328,58025,2,0,L|137:330,1,120,2|0,0:0|0:0,0:0:0:0:
154,332,58400,2,0,P|210:293|221:245,1,120,0|0,1:0|0:0,0:0:0:0:
285,156,58900,6,0,P|284:96|300:63,2,80,2|2|0,3:2|3:2|3:2,0:0:0:0:
309,187,59400,2,0,L|442:160,1,120,0|0,1:0|0:0,0:0:0:0:
401,258,59900,1,0,3:0:0:0:
431,252,60025,1,2,0:0:0:0:
460,246,60150,1,0,0:0:0:0:
310,367,60400,2,0,L|443:340,1,120,0|0,1:0|1:0,0:0:0:0:
454,356,60775,1,0,1:0:0:0:
482,364,60900,6,0,P|510:313|495:250,1,120,4|0,0:0|0:0,0:0:0:0:
357,196,61400,2,0,P|307:226|288:288,1,120,0|0,1:0|0:0,0:0:0:0:
454,160,61900,1,0,3:0:0:0:
453,160,62025,2,0,B|394:165|394:165|349:126,1,120,2|2,0:0|0:0,0:0:0:0:
335,113,62400,1,0,1:0:0:0:
318,105,62525,1,0,0:0:0:0:
300,104,62650,1,0,0:0:0:0:
283,111,62775,1,0,0:0:0:0:
272,125,62900,6,0,P|255:180|200:214,1,120,0|0,3:0|0:0,0:0:0:0:
63,154,63400,2,0,P|49:97|79:40,1,120,0|0,1:0|0:0,0:0:0:0:
109,243,63900,1,0,3:0:0:0:
109,243,64025,2,0,B|49:238|49:238|4:276,1,120,2|2,0:0|0:0,0:0:0:0:
29,369,64400,2,0,B|88:373|88:373|133:335,1,120,0|0,1:0|0:0,0:0:0:0:
241,247,64900,6,0,P|296:238|358:279,1,120,4|0,3:1|0:0,0:0:0:0:
362,295,65275,1,0,0:0:0:0:
372,323,65400,2,0,B|406:354|406:354|492:346,1,120,0|0,1:0|0:0,0:0:0:0:
490,123,65900,5,0,1:0:0:0:
478,157,66025,1,0,1:0:0:0:
467,191,66150,1,0,1:0:0:0:
456,225,66275,1,0,1:0:0:0:
445,259,66400,1,4,1:0:0:0:
311,141,66650,5,0,3:0:0:0:
311,141,66775,1,0,3:0:0:0:
311,141,66900,1,4,1:2:0:0:
480,83,67150,1,0,1:0:0:0:
223,232,68275,5,0,3:0:0:0:
223,232,68400,2,0,P|134:217|154:124,1,150,4|0,1:0|3:0,0:0:0:0:
44,149,68775,1,0,3:0:0:0:
44,149,68900,6,0,P|102:143|132:91,1,120,4|0,0:0|0:0,0:0:0:0:
138,64,69275,1,0,0:0:0:0:
156,40,69400,2,0,B|190:7|190:7|267:20,1,120,0|0,1:0|0:0,0:0:0:0:
259,135,69900,1,4,3:0:0:0:
259,135,70025,2,0,L|379:115,1,120,0|0,1:2|3:0,0:0:0:0:
394,140,70400,2,0,L|514:120,1,120,0|0,1:0|0:0,0:0:0:0:
432,323,70900,6,0,P|352:291|341:206,1,180,4|0,0:1|0:0,0:0:0:0:
315,284,71400,2,0,P|296:317|221:337,1,120,0|0,1:0|0:0,0:0:0:0:
71,345,71900,1,0,1:0:0:0:
71,345,72025,2,0,L|34:205,1,120,0|0,3:0|0:0,0:0:0:0:
31,192,72400,1,0,1:0:0:0:
170,251,72650,1,0,0:0:0:0:
202,84,72900,6,0,P|260:90|290:142,1,120,4|0,0:0|0:0,0:0:0:0:
296,169,73275,1,0,0:0:0:0:
314,193,73400,2,0,B|348:226|348:226|425:213,1,120,0|0,1:0|0:0,0:0:0:0:
284,332,73900,1,4,3:0:0:0:
284,332,74025,2,0,L|164:312,1,120,0|0,1:0|3:0,0:0:0:0:
149,337,74400,2,0,L|29:317,1,120,0|0,1:0|0:0,0:0:0:0:
40,180,74900,6,0,P|120:148|131:63,1,180,4|0,0:1|0:0,0:0:0:0:
161,140,75400,2,0,P|180:173|255:193,1,120,0|0,1:0|0:0,0:0:0:0:
400,58,75900,1,0,1:0:0:0:
384,32,76025,1,0,1:0:0:0:
358,16,76150,1,0,1:0:0:0:
328,11,76275,1,0,3:0:0:0:
299,19,76400,1,0,1:0:0:0:
379,173,76650,5,0,3:0:0:0:
379,173,76775,1,0,3:0:0:0:
379,173,76900,2,0,L|483:257,1,120,4|0,0:0|0:0,0:0:0:0:
328,288,77400,1,0,1:0:0:0:
328,288,77525,2,0,L|375:326,2,60,0|0|0,0:0|0:0|0:0,0:0:0:0:
307,309,77900,5,8,3:0:0:0:
278,318,78025,2,0,P|212:289|191:246,1,120,0|0,1:0|0:0,0:0:0:0:
188,218,78400,2,0,P|145:177|86:173,1,120,0|0,1:0|0:0,0:0:0:0:
15,330,78900,6,0,L|108:254,1,120,4|0,0:1|0:0,0:0:0:0:
130,54,79400,1,0,1:0:0:0:
130,54,79525,2,0,L|83:91,2,60,0|0|0,0:0|0:0|0:0,0:0:0:0:
140,82,79900,5,4,3:0:0:0:
160,105,80025,2,0,P|231:112|271:86,1,120,0|0,1:0|0:0,0:0:0:0:
288,61,80400,2,0,P|345:47|398:73,1,120,0|0,1:0|0:0,0:0:0:0:
424,255,80900,6,0,P|344:223|333:138,1,180,4|0,0:0|0:0,0:0:0:0:
305,219,81400,2,0,P|286:252|211:272,1,120,0|0,1:0|0:0,0:0:0:0:
128,161,81900,1,8,3:0:0:0:
128,161,82025,2,0,L|165:21,1,120,0|0,1:0|3:0,0:0:0:0:
43,116,82400,2,0,L|6:-24,1,120,0|0,1:0|3:0,0:0:0:0:
87,265,82900,5,4,0:0:0:0:
150,149,83150,1,0,1:0:0:0:
140,185,83275,1,0,1:0:0:0:
53,96,83525,1,0,3:0:0:0:
194,45,83775,2,0,B|252:85|252:85|312:64,1,135.000005149841,4|0,0:1|0:0,0:0:0:0:
347,60,84275,5,0,1:0:0:0:
347,60,84400,2,0,P|364:87|365:133,1,75,4|0,1:0|0:0,0:0:0:0:
304,208,84650,2,0,P|318:179|357:155,1,75,0|0,1:0|0:0,0:0:0:0:
353,287,84900,6,0,P|283:297|212:209,1,150,4|0,1:2|0:0,0:0:0:0:
211,223,85275,1,0,0:0:0:0:
198,196,85400,1,0,1:0:0:0:
185,169,85525,1,0,0:0:0:0:
162,149,85650,2,0,P|89:138|32:183,1,120,0|0,0:0|1:0,0:0:0:0:
58,267,86025,2,0,P|115:280|169:257,1,120,2|2,0:0|0:0,0:0:0:0:
188,162,86400,2,0,P|245:149|299:173,1,120,0|0,1:0|0:0,0:0:0:0:
407,269,86900,6,0,B|417:200|417:200|406:162|406:162|421:78,2,180,4|0|0,0:1|0:0|0:0,0:0:0:0:
439,358,87900,5,0,1:0:0:0:
439,358,88025,1,0,0:0:0:0:
439,358,88150,1,0,3:0:0:0:
493,254,88400,2,0,L|512:136,1,120,0|0,1:0|0:0,0:0:0:0:
388,274,88900,6,0,L|328:283,3,60,4|0|0|0,0:0|0:0|0:0|0:0,0:0:0:0:
311,287,89400,1,0,1:0:0:0:
293,290,89525,1,0,0:0:0:0:
275,293,89650,2,0,B|217:282|217:282|195:215,1,120,0|0,0:0|3:0,0:0:0:0:
104,208,90025,2,0,B|122:264|122:264|74:315,1,120,0|0,1:0|0:0,0:0:0:0:
27,241,90400,2,0,B|9:185|9:185|57:134,1,120,0|0,1:0|1:0,0:0:0:0:
191,37,90900,5,4,1:2:0:0:
202,48,91900,1,0,3:0:0:0:
202,48,92025,1,0,3:0:0:0:
202,48,92150,2,0,B|262:-18|262:-18|351:3,1,180.000006866455,4|0,0:1|0:0,0:0:0:0:
488,116,92900,5,4,1:2:0:0:
488,160,93025,1,0,1:0:0:0:
488,204,93150,1,0,1:0:0:0:
488,248,93275,1,0,1:0:0:0:
488,292,93400,1,0,1:0:0:0:
488,336,93525,1,0,1:0:0:0:
396,268,93775,5,0,1:0:0:0:
328,384,94025,1,0,1:0:0:0:
328,340,94150,1,0,1:0:0:0:
264,272,94400,5,0,3:2:0:0:
60,195,94650,6,0,B|24:263|80:341|135:375|220:358|220:358|139:315|151:218|213:147|307:187|307:187|295:124|187:61|100:103|72:166,1,863.999973632813,4|0,1:0|0:0,0:0:0:0:
