osu file format v14

[General]
AudioFilename: audio.mp3
AudioLeadIn: 0
PreviewTime: 68900
Countdown: 0
SampleSet: Soft
StackLeniency: 0.4
Mode: 0
LetterboxInBreaks: 0
WidescreenStoryboard: 0

[Editor]
Bookmarks: 75900,76900
DistanceSpacing: 0.4
BeatDivisor: 8
GridSize: 4
TimelineZoom: 1.5

[Metadata]
Title:Ryuusa no Orpheus
TitleUnicode:流砂のオルフェウス
Artist:Sakakibara Yui
ArtistUnicode:榊原ゆい
Creator:Fushimi Rio
Version:Extra
Source:魔女こいにっき Dragon×Caravan
Tags:Majo Koi Nikki Eroge Video Game Japanese Opening OP pop jpop j-pop the witch's love diary dragon caravan
BeatmapID:1899537
BeatmapSetID:910260

[Difficulty]
HPDrainRate:7
CircleSize:5
OverallDifficulty:8.5
ApproachRate:9.2
SliderMultiplier:2.4
SliderTickRate:1

[Events]
//Background and Video events
0,0,"bg.jpg",0,0
//Break Periods
//Storyboard Layer 0 (Background)
//Storyboard Layer 1 (Fail)
//Storyboard Layer 2 (Pass)
//Storyboard Layer 3 (Foreground)
//Storyboard Layer 4 (Overlay)
//Storyboard Sound Samples

[TimingPoints]
-1100,500,4,2,1,50,1,0
8900,-133.333333333333,4,2,1,60,0,0
12400,-100,4,2,1,60,0,0
12900,-133.333333333333,4,2,1,60,0,0
16900,-100,4,2,1,60,0,0
17150,-133.333333333333,4,2,1,60,0,0
18900,-100,4,2,1,60,0,0
19275,-133.333333333333,4,2,1,60,0,0
20900,-100,4,2,1,70,0,0
21150,-133.333333333333,4,2,1,70,0,0
22900,-133.333333333333,4,2,1,80,0,0
24400,-80,4,2,1,90,0,0
24900,-66.6666666666667,4,2,1,100,0,1
25400,-100,4,2,1,90,0,0
30900,-133.333333333333,4,2,1,100,0,0
31900,-133.333333333333,4,2,1,60,0,0
48900,-100,4,2,1,80,0,0
50900,-75.000000001875,4,2,1,90,0,0
52900,-100,4,2,1,70,0,0
65900,-66.6666666666667,4,2,1,90,0,0
66525,-66.6666666666667,4,2,1,5,0,0
66650,-66.6666666666667,4,2,1,100,0,0
68275,-66.6666666666667,4,2,1,70,0,0
68900,-80,4,2,1,100,0,1
69525,-80,4,2,1,90,0,1
82900,-100,4,2,1,90,0,0
84400,-80,4,2,1,90,0,0
84900,-66.6666666666667,4,2,1,100,0,1
85400,-100,4,2,1,90,0,0
90900,-100,4,2,1,100,0,0
91900,-133.333333333333,4,2,1,60,0,0
92900,-133.333333333333,4,2,1,90,0,0
94650,-300,4,2,2,90,0,0
94775,-300,4,2,2,5,0,0

[Colours]
Combo1 : 175,128,255
Combo2 : 255,207,128
Combo3 : 128,185,255
Combo4 : 255,175,128
SliderBorder : 255,207,128

[HitObjects]
87,339,400,6,0,L|75:312,7,30,2|2|2|2|2|2|0|0,0:0|0:0|0:0|0:0|0:0|0:0|0:0|0:0,0:0:0:0:
7,292,900,6,0,P|55:292|83:216,1,120,4|2,1:0|0:0,0:0:0:0:
111,248,1275,1,0,0:0:0:0:
195,184,1400,2,0,L|135:176,1,60
272,180,1650,2,0,B|312:136|312:136|252:128,1,120
296,256,2025,2,0,B|304:284|304:284|392:192,1,120
388,88,2400,2,0,P|392:117|405:144,1,60,0|0,1:0|0:0,0:0:0:0:
427,152,2650,2,0,P|407:129|399:100,1,60
500,196,2900,6,0,B|456:236|456:236|336:220,2,180,4|0|0,0:1|0:0|0:0,0:0:0:0:
500,196,3775,1,0,0:0:0:0:
474,116,3900,2,0,P|448:129|428:152,3,60
372,88,4400,2,0,P|398:74|418:52,3,60,2|0|0|0,1:2|0:0|0:0|0:0,0:0:0:0:
312,120,4900,6,0,P|264:120|236:44,1,120,4|0,1:0|0:0,0:0:0:0:
236,36,5275,1,0,0:0:0:0:
103,126,5400,2,0,L|162:116,1,60
83,54,5650,2,0,B|31:82|31:82|31:142,1,120
130,217,6025,2,0,B|162:200|162:200|162:116,1,120
51,214,6400,2,0,P|55:243|68:270,1,60,0|0,1:0|0:0,0:0:0:0:
72,288,6650,2,0,P|52:265|42:238,1,60
154,287,6900,6,0,P|112:361|27:358,2,180,4|0|0,0:1|0:0|0:0,0:0:0:0:
176,300,7775,1,0,0:0:0:0:
275,224,7900,2,0,P|267:195|247:173,1,60,0|2,0:0|0:0,0:0:0:0:
235,173,8087,1,2,0:0:0:0:
223,176,8150,2,0,P|208:201|207:231,1,60,2|0,0:0|0:0,0:0:0:0:
352,172,8400,1,0,1:0:0:0:
352,172,8525,2,0,B|380:196|380:196|444:136,1,120,2|0,0:0|0:0,0:0:0:0:
427,7,8900,6,0,P|375:30|368:88,1,90.0000034332277,4|2,0:0|0:0,0:0:0:0:
348,44,9275,1,2,0:0:0:0:
324,40,9400,2,0,L|200:52,1,90.0000034332277,0|0,1:0|0:0,0:0:0:0:
71,111,9900,2,0,P|114:101|152:123,1,90.0000034332277,0|0,3:0|0:0,0:0:0:0:
76,228,10275,1,2,0:0:0:0:
62,209,10400,2,0,B|40:173|40:173|55:127,1,90.0000034332277,0|0,1:0|0:0,0:0:0:0:
208,180,10900,5,2,3:2:0:0:
292,92,11150,1,2,0:0:0:0:
300,108,11275,1,2,0:0:0:0:
308,124,11400,1,0,1:0:0:0:
368,60,11650,1,0,0:0:0:0:
456,204,11900,1,0,3:0:0:0:
392,195,12025,2,0,P|413:156|455:139,1,90.0000034332277,2|2,0:0|0:0,0:0:0:0:
412,264,12400,2,0,B|350:274|361:238|296:247,1,120,0|0,1:0|0:0,0:0:0:0:
208,284,12900,6,0,P|197:241|158:223,1,90.0000034332277,4|2,0:1|0:0,0:0:0:0:
135,228,13275,1,2,0:0:0:0:
115,240,13400,2,0,L|99:332,1,90.0000034332277,0|0,1:0|0:0,0:0:0:0:
40,96,13900,2,0,B|60:133|60:133|107:142,1,90.0000034332277,0|0,3:0|0:0,0:0:0:0:
125,129,14275,1,2,0:0:0:0:
145,118,14400,1,2,1:2:0:0:
167,114,14525,1,0,0:0:0:0:
189,115,14650,1,0,3:0:0:0:
249,146,14775,1,0,3:0:0:0:
315,134,14900,6,0,P|336:98|329:50,1,90.0000034332277,0|2,3:0|0:0,0:0:0:0:
349,63,15275,1,2,0:0:0:0:
372,64,15400,2,0,L|464:64,1,90.0000034332277,0|0,1:0|0:0,0:0:0:0:
351,268,15900,1,0,3:0:0:0:
412,240,16025,2,0,L|504:240,1,90.0000034332277,2|2,0:0|0:0,0:0:0:0:
428,148,16400,2,0,P|396:178|400:221,1,90.0000034332277,0|0,1:0|0:0,0:0:0:0:
236,204,16900,6,0,L|116:204,1,120,4|2,0:0|0:0,0:0:0:0:
52,220,17275,1,0,0:0:0:0:
68,156,17400,1,0,1:0:0:0:
73,134,17525,1,2,0:0:0:0:
52,128,17650,1,2,0:0:0:0:
46,150,17775,1,0,0:0:0:0:
132,95,17900,2,0,P|137:52|108:20,1,90.0000034332277,0|0,3:0|0:0,0:0:0:0:
156,96,18275,1,0,0:0:0:0:
180,96,18400,2,0,L|276:96,1,90.0000034332277,0|0,1:0|0:0,0:0:0:0:
272,256,18900,6,0,L|392:256,1,120,4|2,0:1|0:0,0:0:0:0:
456,272,19275,1,2,0:0:0:0:
440,208,19400,1,0,1:0:0:0:
435,186,19525,1,2,0:0:0:0:
456,180,19650,1,2,0:0:0:0:
462,202,19775,1,0,0:0:0:0:
376,152,19900,2,0,L|286:152,1,90.0000034332277,0|0,3:0|0:0,0:0:0:0:
268,160,20275,1,0,0:0:0:0:
203,175,20400,2,0,P|173:142|176:100,1,90.0000034332277,0|0,1:0|0:0,0:0:0:0:
56,304,20900,6,0,B|117:314|106:278|171:287,1,120,4|2,0:0|0:0,0:0:0:0:
196,292,21275,2,0,P|240:296|244:196,1,135.000005149841,2|2,0:0|0:0,0:0:0:0:
391,313,21900,1,0,3:0:0:0:
383,293,22025,2,0,P|387:257|439:237,1,90.0000034332277,2|0,0:0|0:0,0:0:0:0:
427,281,22400,2,0,L|311:281,1,90.0000034332277,0|2,1:0|0:0,0:0:0:0:
283,241,22775,1,2,0:0:0:0:
231,353,22900,5,4,0:0:0:0:
153,186,23150,5,0,1:0:0:0:
231,353,23275,1,0,1:0:0:0:
432,259,23525,5,0,3:0:0:0:
339,56,23775,6,0,B|294:56|294:56|287:45|287:45|280:66|280:66|273:56|273:56|230:56,1,135.000005149841,4|0,1:0|0:0,0:0:0:0:
207,57,24275,1,0,1:0:0:0:
80,168,24400,6,0,P|116:162|147:141,1,75,4|0,1:0|0:0,0:0:0:0:
90,18,24650,6,0,P|61:25|24:56,1,75,0|0,1:0|0:0,0:0:0:0:
52,304,24900,6,0,B|116:324|118:286|160:264|224:280|240:340,1,180.000006866455,4|0,1:2|0:0,0:0:0:0:
236,328,25275,1,0,0:0:0:0:
320,240,25400,5,0,1:0:0:0:
344,304,25525,1,0,0:0:0:0:
412,312,25650,2,0,B|468:288|468:288,1,60
364,188,25900,5,0,1:0:0:0:
432,196,26025,2,0,B|488:172|488:172|488:112,1,120,2|2,0:0|0:0,0:0:0:0:
356,112,26400,2,0,B|412:88|412:88,1,60,0|0,1:0|0:0,0:0:0:0:
416,64,26650,2,0,B|360:88,1,60
176,168,26900,6,0,B|112:168|112:168|70:135|70:135|6:135,2,180,4|0|0,0:1|0:0|0:0,0:0:0:0:
448,232,27900,1,0,1:0:0:0:
396,188,28025,1,0,0:0:0:0:
384,256,28150,2,0,L|372:316,1,60,0|0,3:0|0:0,0:0:0:0:
312,276,28400,2,0,L|192:276,1,120,0|0,1:0|0:0,0:0:0:0:
128,311,28733,1,0,0:0:0:0:
100,318,28816,1,0,0:0:0:0:
72,311,28900,5,4,0:0:0:0:
0,343,29025,1,0,0:0:0:0:
52,196,29150,5,0,0:0:0:0:
100,304,29275,1,0,0:0:0:0:
208,256,29400,1,0,1:0:0:0:
160,147,29525,1,0,0:0:0:0:
280,164,29650,2,0,P|336:144|340:60,1,120,0|0,0:0|3:0,0:0:0:0:
288,100,30025,5,0,1:0:0:0:
412,64,30150,1,0,3:0:0:0:
428,60,30233,1,0,3:0:0:0:
444,56,30316,1,0,3:0:0:0:
460,52,30400,1,0,1:0:0:0:
476,116,30525,5,0,1:0:0:0:
396,68,30650,1,0,1:0:0:0:
316,20,30775,1,0,3:0:0:0:
265,200,30900,5,4,1:2:0:0:
312,268,31900,1,0,3:0:0:0:
312,268,32025,1,0,3:0:0:0:
247,220,32150,2,0,B|183:220|183:220|141:252|141:252|77:252,1,180,4|0,0:1|0:0,0:0:0:0:
35,189,32900,5,4,0:0:0:0:
132,99,33150,1,0,0:0:0:0:
110,92,33275,1,0,0:0:0:0:
88,84,33400,1,0,1:0:0:0:
202,141,33650,2,0,L|219:100,1,45.0000017166138
312,118,33900,1,0,3:0:0:0:
335,120,34025,2,0,P|386:91|393:53,1,90.0000034332277,0|0,1:0|0:0,0:0:0:0:
334,8,34400,2,0,P|283:37|276:75,1,90.0000034332277,0|0,1:0|0:0,0:0:0:0:
279,86,34775,1,0,0:0:0:0:
177,49,34900,6,0,L|121:26,2,60.0000022888184,4|0|0,0:0|0:0|0:0,0:0:0:0:
55,120,35400,2,0,B|64:77|64:77|102:52,1,90.0000034332277,0|0,1:0|0:0,0:0:0:0:
121,40,35775,1,0,0:0:0:0:
100,174,35900,1,0,3:0:0:0:
80,185,36025,2,0,P|35:185|-1:160,1,90.0000034332277,0|0,1:0|0:0,0:0:0:0:
114,251,36400,2,0,B|150:280|150:280|212:284,1,90.0000034332277,0|0,1:0|0:0,0:0:0:0:
448,293,36900,6,0,P|431:232|369:233,1,135.000005149841,4|0,3:1|0:0,0:0:0:0:
268,225,37400,2,0,P|311:233|352:216,1,90.0000034332277,0|0,1:0|0:0,0:0:0:0:
369,233,37775,1,0,0:0:0:0:
427,153,37900,1,0,3:0:0:0:
449,151,38025,1,0,1:0:0:0:
470,157,38150,1,0,3:0:0:0:
371,90,38400,2,0,L|371:-2,1,90.0000034332277,0|0,1:0|0:0,0:0:0:0:
255,158,38900,5,2,0:0:0:0:
255,158,39025,1,2,0:0:0:0:
255,157,39150,2,0,B|248:127|248:127|259:102|259:102|255:71,1,90.0000034332277,0|0,0:0|1:0,0:0:0:0:
135,214,39650,1,0,0:0:0:0:
75,94,39900,1,0,3:0:0:0:
57,69,40025,1,0,1:0:0:0:
27,78,40150,1,0,3:0:0:0:
27,110,40275,1,0,3:0:0:0:
57,120,40400,1,0,1:0:0:0:
191,34,40650,1,0,1:0:0:0:
255,18,40775,1,0,1:0:0:0:
311,54,40900,6,0,L|283:150,1,90.0000034332277,4|0,0:0|0:0,0:0:0:0:
279,161,41275,1,0,0:0:0:0:
273,182,41400,1,0,1:0:0:0:
422,60,41650,2,0,L|409:16,1,45.0000017166138
392,130,41900,1,0,3:0:0:0:
413,136,42025,2,0,L|509:164,1,90.0000034332277,0|0,1:0|0:0,0:0:0:0:
422,251,42400,2,0,B|455:221|455:221|500:234,1,90.0000034332277,0|0,1:0|0:0,0:0:0:0:
286,295,42900,5,4,0:0:0:0:
248,238,43025,1,0,0:0:0:0:
232,254,43150,1,0,0:0:0:0:
183,150,43400,2,0,P|139:150|103:184,1,90.0000034332277,0|0,1:0|0:0,0:0:0:0:
104,87,43775,1,0,0:0:0:0:
4,125,43900,1,0,3:0:0:0:
12,145,44025,2,0,P|50:167|94:159,1,90.0000034332277,0|0,1:0|0:0,0:0:0:0:
176,68,44400,2,0,L|303:91,1,90.0000034332277,0|0,1:0|0:0,0:0:0:0:
168,265,44900,6,0,B|201:235|201:235|295:253,1,135.000005149841,4|0,0:1|0:0,0:0:0:0:
387,290,45400,2,0,L|300:271,1,90.0000034332277,0|0,1:0|0:0,0:0:0:0:
277,265,45775,1,0,0:0:0:0:
303,161,45900,1,0,3:0:0:0:
307,184,46025,1,0,1:0:0:0:
311,207,46150,1,0,0:0:0:0:
428,121,46400,2,0,P|390:97|347:104,1,90.0000034332277,0|0,1:0|0:0,0:0:0:0:
182,61,46900,6,0,B|167:47|171:26|171:26|200:34|215:80|203:109,1,135.000005149841,2|0,0:0|0:0,0:0:0:0:
151,151,47400,2,0,L|42:171,1,90.0000034332277,0|0,1:0|0:0,0:0:0:0:
167,167,47775,1,0,3:0:0:0:
151,182,47900,2,0,L|74:169,1,45.0000017166138,0|0,1:0|3:0,0:0:0:0:
262,249,48150,2,0,L|185:235,1,45.0000017166138,0|0,3:0|0:0,0:0:0:0:
32,310,48400,2,0,P|56:273|99:260,1,90.0000034332277,0|0,1:0|0:0,0:0:0:0:
162,282,48775,1,0,0:0:0:0:
213,325,48900,6,0,L|289:311,1,60,4|0,0:0|0:0,0:0:0:0:
446,233,49150,2,0,L|369:219,1,60
328,366,49400,1,0,1:0:0:0:
345,291,49525,1,0,0:0:0:0:
306,224,49650,2,0,L|319:147,1,60
171,276,49900,5,0,0:0:0:0:
178,247,50025,2,0,B|194:176|194:176|250:164,1,120,2|2,0:0|0:0,0:0:0:0:
99,196,50400,1,0,1:0:0:0:
79,198,50525,1,0,0:0:0:0:
59,203,50650,1,0,3:0:0:0:
39,206,50775,1,0,3:0:0:0:
15,184,50900,5,4,1:0:0:0:
105,170,51025,1,0,0:0:0:0:
91,80,51150,1,0,3:0:0:0:
0,94,51275,1,0,0:0:0:0:
55,10,51400,6,0,L|19:95,1,80,0|0,1:0|3:0,0:0:0:0:
123,141,51650,5,0,1:0:0:0:
0,94,51775,1,0,3:0:0:0:
157,48,51900,5,0,3:0:0:0:
105,170,52025,1,0,1:0:0:0:
216,120,52150,1,0,1:0:0:0:
174,217,52275,1,0,0:0:0:0:
275,192,52400,6,0,L|239:277,1,80,4|0,1:0|0:0,0:0:0:0:
322,80,52650,5,0,1:0:0:0:
364,192,52775,5,0,1:0:0:0:
407,304,52900,6,0,P|464:296|488:244,1,120,4|0,0:0|0:0,0:0:0:0:
484,220,53275,1,0,0:0:0:0:
390,321,53400,2,0,P|335:298|287:335,1,120,0|0,1:0|0:0,0:0:0:0:
137,215,53900,1,0,3:0:0:0:
120,284,54025,2,0,B|179:276|179:276|207:222,1,120,2|0,0:0|0:0,0:0:0:0:
98,274,54400,2,0,L|134:330,1,60,0|0,1:0|0:0,0:0:0:0:
94,152,54650,2,0,L|62:102,1,60
137,215,54900,6,0,B|198:225|187:189|252:198,1,120,0|0,3:0|0:0,0:0:0:0:
275,206,55275,1,0,0:0:0:0:
340,156,55400,2,0,B|368:185|368:185|436:132,1,120,0|0,1:0|0:0,0:0:0:0:
445,154,55775,1,0,0:0:0:0:
274,40,55900,1,0,3:0:0:0:
268,63,56026,2,0,P|266:93|274:122,1,60,2|0,0:0|0:0,0:0:0:0:
124,96,56275,1,2,0:0:0:0:
190,77,56400,2,0,P|191:106|127:164,1,120,0|0,1:0|0:0,0:0:0:0:
106,161,56775,1,0,0:0:0:0:
224,200,56900,6,0,L|341:238,1,120,0|0,3:0|0:0,0:0:0:0:
333,98,57275,1,0,0:0:0:0:
320,118,57400,2,0,B|336:161|336:161|417:189,1,120,0|0,1:0|0:0,0:0:0:0:
429,192,57775,1,0,0:0:0:0:
463,291,57900,1,0,3:0:0:0:
404,260,58025,2,0,P|348:270|321:323,1,120,2|0,0:0|0:0,0:0:0:0:
368,384,58400,2,0,P|423:373|450:320,1,120,0|0,1:0|0:0,0:0:0:0:
404,260,58775,1,0,0:0:0:0:
248,324,58900,5,2,3:2:0:0:
160,180,59066,2,0,B|136:188|136:188|116:240,1,80,2|0,3:2|3:2,0:0:0:0:
160,360,59400,2,0,L|195:245,1,120,0|0,1:0|0:0,0:0:0:0:
212,260,59775,1,0,0:0:0:0:
48,259,59900,1,0,3:0:0:0:
24,260,60025,2,0,P|-8:236|-8:160,1,120,2|2,0:0|0:0,0:0:0:0:
91,159,60400,2,0,P|105:186|106:216,1,60,0|0,1:0|0:0,0:0:0:0:
72,144,60650,1,0,1:0:0:0:
179,125,60775,1,0,1:0:0:0:
128,284,60900,6,0,P|155:335|211:350,1,120,4|0,0:0|0:0,0:0:0:0:
371,217,61400,2,0,B|390:187|390:187|306:195,1,120,0|0,1:0|0:0,0:0:0:0:
160,216,61900,1,0,3:0:0:0:
232,209,62025,2,0,P|204:157|148:142,1,120,2|2,0:0|0:0,0:0:0:0:
124,152,62400,1,0,1:0:0:0:
228,88,62525,1,0,0:0:0:0:
220,71,62650,1,0,0:0:0:0:
212,56,62775,1,0,0:0:0:0:
296,112,62900,6,0,P|347:84|362:28,1,120,0|0,3:0|0:0,0:0:0:0:
172,152,63400,2,0,B|153:182|153:182|237:174,1,120,0|0,1:0|0:0,0:0:0:0:
40,64,63900,1,0,3:0:0:0:
27,84,64025,2,0,P|24:142|66:183,1,120,2|2,0:0|0:0,0:0:0:0:
148,80,64400,2,0,B|100:48|100:48|40:64,1,120,0|0,1:0|0:0,0:0:0:0:
72,308,64900,6,0,L|224:267,1,120,4|0,3:1|0:0,0:0:0:0:
208,272,65275,1,0,0:0:0:0:
368,228,65400,2,0,B|340:283|340:283|285:299,1,120,0|0,1:0|0:0,0:0:0:0:
208,272,65775,1,0,3:0:0:0:
156,352,65900,5,0,1:0:0:0:
104,272,66025,5,0,1:0:0:0:
108,184,66150,5,0,1:0:0:0:
144,108,66275,5,0,1:0:0:0:
124,32,66400,6,0,P|60:24|28:80,1,135.000005149841,4|0,1:0|0:0,0:0:0:0:
128,118,66650,5,0,3:0:0:0:
45,184,66775,1,0,3:0:0:0:
256,192,66900,5,4,1:2:0:0:
0,68,67150,5,0,1:0:0:0:
436,104,68275,5,0,3:0:0:0:
436,104,68400,2,0,B|426:122|373:147|330:124|328:85|269:104,1,180.000006866455,4|0,1:0|3:0,0:0:0:0:
218,156,68775,1,0,3:0:0:0:
50,34,68900,6,0,P|53:104|119:129,1,150,4|0,0:0|0:0,0:0:0:0:
258,78,69275,1,0,0:0:0:0:
279,64,69400,2,0,L|201:51,1,75,0|0,1:0|0:0,0:0:0:0:
244,163,69650,2,0,L|322:150,1,75
337,342,69900,5,4,3:0:0:0:
338,274,70025,2,0,P|356:241|388:224,1,75,0|0,1:2|0:0,0:0:0:0:
465,266,70275,1,0,3:0:0:0:
465,266,70400,2,0,P|447:331|365:342,1,150,0|0,1:0|0:0,0:0:0:0:
276,231,70775,1,0,0:0:0:0:
234,296,70900,6,0,B|151:307|165:262|89:275,1,150,4|0,0:1|0:0,0:0:0:0:
62,290,71275,1,0,0:0:0:0:
145,204,71400,2,0,P|134:134|65:120,1,150,0|0,1:0|0:0,0:0:0:0:
42,139,71775,1,0,0:0:0:0:
177,65,71900,5,0,1:0:0:0:
195,41,72025,2,0,L|219:129,1,75,0|0,3:0|0:0,0:0:0:0:
293,123,72275,1,0,0:0:0:0:
336,0,72400,2,0,L|360:88,1,75,0|0,1:0|0:0,0:0:0:0:
398,226,72650,2,0,L|418:299,1,75
412,199,72900,6,0,P|343:186|302:243,1,150,4|0,0:0|0:0,0:0:0:0:
235,174,73275,1,0,0:0:0:0:
235,174,73400,2,0,B|201:202|201:202|124:130,1,150,0|0,1:0|0:0,0:0:0:0:
58,119,73775,1,0,0:0:0:0:
0,154,73900,5,4,3:0:0:0:
115,83,74025,2,0,P|116:43|103:10,1,75,0|0,1:0|0:0,0:0:0:0:
105,170,74275,1,0,3:0:0:0:
203,99,74400,2,0,P|178:165|226:218,1,150,0|0,1:0|0:0,0:0:0:0:
300,176,74775,1,0,0:0:0:0:
366,222,74900,6,0,L|512:187,1,150,4|0,0:1|0:0,0:0:0:0:
300,252,75275,1,0,0:0:0:0:
367,298,75400,2,0,L|536:257,1,150,0|0,1:0|0:0,0:0:0:0:
363,370,75775,1,0,0:0:0:0:
285,284,75900,5,0,1:0:0:0:
217,329,76025,1,0,1:0:0:0:
142,325,76150,1,0,1:0:0:0:
76,294,76275,1,0,3:0:0:0:
12,312,76400,2,0,B|0:348|0:348|14:381,1,75,0|0,1:0|0:0,0:0:0:0:
69,222,76650,1,0,3:0:0:0:
69,222,76775,1,0,3:0:0:0:
124,142,76900,6,0,B|147:104|147:104|42:114,1,150,4|0,0:0|0:0,0:0:0:0:
350,179,77400,2,0,L|427:171,1,75,0|0,1:0|0:0,0:0:0:0:
230,121,77650,1,0,0:0:0:0:
304,113,77775,1,0,0:0:0:0:
195,270,77900,5,8,3:0:0:0:
269,262,78025,2,0,B|373:252|373:252|350:289,1,150,0|0,1:0|0:0,0:0:0:0:
243,154,78400,2,0,L|397:138,1,150,0|0,1:0|0:0,0:0:0:0:
262,335,78900,6,0,B|224:358|224:358|234:253,1,150,4|0,0:1|0:0,0:0:0:0:
0,147,79400,1,0,1:0:0:0:
79,121,79525,1,0,0:0:0:0:
22,252,79650,2,0,L|30:178,1,75
107,291,79900,5,4,3:0:0:0:
144,218,80026,2,0,L|152:143,1,75,0|0,1:0|0:0,0:0:0:0:
232,331,80275,1,0,0:0:0:0:
308,234,80400,2,0,B|331:196|331:196|226:206,1,150,0|0,1:0|0:0,0:0:0:0:
467,335,80900,6,0,P|449:268|380:273,1,150,4|0,0:0|0:0,0:0:0:0:
364,298,81275,1,0,0:0:0:0:
279,268,81400,2,0,B|203:255|217:300|134:289,1,150,0|0,1:0|0:0,0:0:0:0:
235,189,81775,1,0,0:0:0:0:
129,132,81900,5,8,3:0:0:0:
129,132,82025,2,0,P|136:169|159:199,1,75,0|0,1:0|0:0,0:0:0:0:
383,55,82275,1,0,3:0:0:0:
383,55,82400,2,0,P|352:77|316:84,1,75,0|0,1:0|0:0,0:0:0:0:
222,106,82650,2,0,B|205:138|205:138|242:126,1,75,0|0,3:0|0:0,0:0:0:0:
183,0,82900,5,4,0:0:0:0:
93,192,83150,5,0,1:0:0:0:
183,0,83275,1,0,1:0:0:0:
414,108,83525,5,0,3:0:0:0:
307,341,83775,6,0,B|246:341|246:341|238:354|238:354|228:327|228:327|219:341|219:341|162:341,1,180,4|0,0:1|0:0,0:0:0:0:
136,341,84275,1,0,1:0:0:0:
93,120,84400,6,0,P|66:127|31:157,1,75,4|0,1:0|0:0,0:0:0:0:
82,259,84650,6,0,P|117:253|148:232,1,75,0|0,1:0|0:0,0:0:0:0:
152,57,84900,6,0,B|162:75|215:100|258:77|260:38|319:57,1,180.000006866455,4|0,1:2|0:0,0:0:0:0:
342,71,85275,1,0,0:0:0:0:
164,228,85400,5,0,1:0:0:0:
188,164,85525,1,0,0:0:0:0:
256,156,85650,2,0,B|312:180|312:180,1,60
28,244,85900,5,0,1:0:0:0:
96,236,86025,2,0,B|152:260|152:260|152:320,1,120,2|2,0:0|0:0,0:0:0:0:
84,128,86400,2,0,B|140:152|140:152,1,60,0|0,1:0|0:0,0:0:0:0:
144,176,86651,2,0,B|88:152,1,60
344,260,86900,6,0,B|408:260|408:260|450:227|450:227|514:227,2,180,4|0|0,0:1|0:0|0:0,0:0:0:0:
45,128,87900,1,0,1:0:0:0:
97,172,88025,1,0,0:0:0:0:
109,104,88150,2,0,L|121:44,1,60,0|0,3:0|0:0,0:0:0:0:
160,152,88400,2,0,L|280:152,1,120,0|0,1:0|0:0,0:0:0:0:
354,181,88733,1,0,0:0:0:0:
382,187,88816,1,0,0:0:0:0:
410,181,88900,5,4,0:0:0:0:
482,149,89025,1,0,0:0:0:0:
382,173,89150,5,0,0:0:0:0:
430,281,89275,1,0,0:0:0:0:
322,330,89400,1,0,1:0:0:0:
274,221,89525,1,0,0:0:0:0:
199,315,89650,2,0,P|143:295|139:211,1,120,0|0,0:0|3:0,0:0:0:0:
191,251,90025,5,0,1:0:0:0:
67,215,90150,1,0,3:0:0:0:
51,211,90233,1,0,3:0:0:0:
35,207,90316,1,0,3:0:0:0:
19,203,90400,1,0,1:0:0:0:
3,267,90525,5,0,1:0:0:0:
83,219,90650,1,0,1:0:0:0:
163,171,90775,1,0,3:0:0:0:
214,351,90900,5,4,1:2:0:0:
266,278,91900,5,0,3:0:0:0:
266,278,92025,1,0,3:0:0:0:
201,326,92150,2,0,B|137:326|137:326|95:294|95:294|31:294,1,180,4|0,0:1|0:0,0:0:0:0:
282,355,92900,5,4,1:2:0:0:
436,313,93025,1,0,1:0:0:0:
395,159,93150,1,0,1:0:0:0:
240,200,93275,5,0,1:0:0:0:
270,1,93400,1,0,1:0:0:0:
467,33,93525,1,0,1:0:0:0:
436,230,93775,5,0,1:0:0:0:
354,2,94025,5,0,1:0:0:0:
126,84,94150,1,0,1:0:0:0:
208,312,94400,5,0,3:2:0:0:
0,88,94650,6,0,B|16:5|89:-57|210:-24|237:31|237:31|138:17|98:105|109:199|198:219|198:219|120:258|58:240|-14:177|0:88,1,880,4|0,1:0|0:0,0:0:0:0:
